  0
SECTION
  2
HEADER
  9
$ACADVER
  1
AC1015
  9
$ACADMAINTVER
 70
     6
  9
$DWGCODEPAGE
  3
ANSI_1252
  9
$INSBASE
 10
0.0
 20
0.0
 30
0.0
  9
$EXTMIN
 10
205.9734369682715
 20
-406.5171940893952
 30
0.0
  9
$EXTMAX
 10
729.491787020333
 20
-17.07061661164209
 30
0.0
  9
$LIMMIN
 10
0.0
 20
0.0
  9
$LIMMAX
 10
12.0
 20
9.0
  9
$ORTHOMODE
 70
     1
  9
$REGENMODE
 70
     1
  9
$FILLMODE
 70
     1
  9
$QTEXTMODE
 70
     0
  9
$MIRRTEXT
 70
     0
  9
$LTSCALE
 40
1.0
  9
$ATTMODE
 70
     2
  9
$TEXTSIZE
 40
3.0
  9
$TRACEWID
 40
0.05
  9
$TEXTSTYLE
  7
STANDARD
  9
$CLAYER
  8
A1
  9
$CELTYPE
  6
BYLAYER
  9
$CECOLOR
 62
     7
  9
$CELTSCALE
 40
1.0
  9
$DISPSILH
 70
     0
  9
$DIMSCALE
 40
6.0
  9
$DIMASZ
 40
0.5
  9
$DIMEXO
 40
1.0
  9
$DIMDLI
 40
0.0625
  9
$DIMRND
 40
0.0
  9
$DIMDLE
 40
0.0
  9
$DIMEXE
 40
0.25
  9
$DIMTP
 40
0.0
  9
$DIMTM
 40
0.0
  9
$DIMTXT
 40
1.0
  9
$DIMCEN
 40
0.0
  9
$DIMTSZ
 40
0.0
  9
$DIMTOL
 70
     0
  9
$DIMLIM
 70
     0
  9
$DIMTIH
 70
     1
  9
$DIMTOH
 70
     1
  9
$DIMSE1
 70
     0
  9
$DIMSE2
 70
     0
  9
$DIMTAD
 70
     0
  9
$DIMZIN
 70
     0
  9
$DIMBLK
  1

  9
$DIMASO
 70
     1
  9
$DIMSHO
 70
     1
  9
$DIMPOST
  1

  9
$DIMAPOST
  1

  9
$DIMALT
 70
     0
  9
$DIMALTD
 70
     0
  9
$DIMALTF
 40
25.4
  9
$DIMLFAC
 40
1.0
  9
$DIMTOFL
 70
     0
  9
$DIMTVP
 40
0.0
  9
$DIMTIX
 70
     0
  9
$DIMSOXD
 70
     0
  9
$DIMSAH
 70
     0
  9
$DIMBLK1
  1

  9
$DIMBLK2
  1

  9
$DIMSTYLE
  2
STANDARD
  9
$DIMCLRD
 70
     0
  9
$DIMCLRE
 70
     0
  9
$DIMCLRT
 70
     0
  9
$DIMTFAC
 40
0.125
  9
$DIMGAP
 40
0.5
  9
$DIMJUST
 70
     0
  9
$DIMSD1
 70
     0
  9
$DIMSD2
 70
     0
  9
$DIMTOLJ
 70
     1
  9
$DIMTZIN
 70
     0
  9
$DIMALTZ
 70
     2
  9
$DIMALTTZ
 70
     2
  9
$DIMUPT
 70
     1
  9
$DIMDEC
 70
     4
  9
$DIMTDEC
 70
     4
  9
$DIMALTU
 70
     2
  9
$DIMALTTD
 70
     0
  9
$DIMTXSTY
  7
STANDARD
  9
$DIMAUNIT
 70
     0
  9
$DIMADEC
 70
     0
  9
$DIMALTRND
 40
0.0
  9
$DIMAZIN
 70
     0
  9
$DIMDSEP
 70
    46
  9
$DIMATFIT
 70
     0
  9
$DIMFRAC
 70
     2
  9
$DIMLDRBLK
  1

  9
$DIMLUNIT
 70
     4
  9
$DIMLWD
 70
    -2
  9
$DIMLWE
 70
    -2
  9
$DIMTMOVE
 70
     1
  9
$LUNITS
 70
     5
  9
$LUPREC
 70
     4
  9
$SKETCHINC
 40
0.1
  9
$FILLETRAD
 40
0.0
  9
$AUNITS
 70
     0
  9
$AUPREC
 70
     1
  9
$MENU
  1
acad
  9
$ELEVATION
 40
0.0
  9
$PELEVATION
 40
0.0
  9
$THICKNESS
 40
0.0
  9
$LIMCHECK
 70
     0
  9
$CHAMFERA
 40
0.75
  9
$CHAMFERB
 40
0.75
  9
$CHAMFERC
 40
0.0
  9
$CHAMFERD
 40
0.0
  9
$SKPOLY
 70
     0
  9
$TDCREATE
 40
2451085.664838310
  9
$TDUCREATE
 40
2451085.831504977
  9
$TDUPDATE
 40
2451660.605699768
  9
$TDUUPDATE
 40
2451660.772366435
  9
$TDINDWG
 40
2.6940633102
  9
$TDUSRTIMER
 40
2.6940633102
  9
$USRTIMER
 70
     1
  9
$ANGBASE
 50
0.0
  9
$ANGDIR
 70
     0
  9
$PDMODE
 70
     0
  9
$PDSIZE
 40
0.0
  9
$PLINEWID
 40
0.0
  9
$SPLFRAME
 70
     0
  9
$SPLINETYPE
 70
     6
  9
$SPLINESEGS
 70
     8
  9
$HANDSEED
  5
1E6A8
  9
$SURFTAB1
 70
     6
  9
$SURFTAB2
 70
     6
  9
$SURFTYPE
 70
     6
  9
$SURFU
 70
     6
  9
$SURFV
 70
     6
  9
$UCSBASE
  2

  9
$UCSNAME
  2

  9
$UCSORG
 10
0.0
 20
0.0
 30
0.0
  9
$UCSXDIR
 10
1.0
 20
0.0
 30
0.0
  9
$UCSYDIR
 10
0.0
 20
1.0
 30
0.0
  9
$UCSORTHOREF
  2

  9
$UCSORTHOVIEW
 70
     0
  9
$UCSORGTOP
 10
0.0
 20
0.0
 30
0.0
  9
$UCSORGBOTTOM
 10
0.0
 20
0.0
 30
0.0
  9
$UCSORGLEFT
 10
0.0
 20
0.0
 30
0.0
  9
$UCSORGRIGHT
 10
0.0
 20
0.0
 30
0.0
  9
$UCSORGFRONT
 10
0.0
 20
0.0
 30
0.0
  9
$UCSORGBACK
 10
0.0
 20
0.0
 30
0.0
  9
$PUCSBASE
  2

  9
$PUCSNAME
  2

  9
$PUCSORG
 10
0.0
 20
0.0
 30
0.0
  9
$PUCSXDIR
 10
1.0
 20
0.0
 30
0.0
  9
$PUCSYDIR
 10
0.0
 20
1.0
 30
0.0
  9
$PUCSORTHOREF
  2

  9
$PUCSORTHOVIEW
 70
     0
  9
$PUCSORGTOP
 10
0.0
 20
0.0
 30
0.0
  9
$PUCSORGBOTTOM
 10
0.0
 20
0.0
 30
0.0
  9
$PUCSORGLEFT
 10
0.0
 20
0.0
 30
0.0
  9
$PUCSORGRIGHT
 10
0.0
 20
0.0
 30
0.0
  9
$PUCSORGFRONT
 10
0.0
 20
0.0
 30
0.0
  9
$PUCSORGBACK
 10
0.0
 20
0.0
 30
0.0
  9
$USERI1
 70
     0
  9
$USERI2
 70
     0
  9
$USERI3
 70
     0
  9
$USERI4
 70
     0
  9
$USERI5
 70
     0
  9
$USERR1
 40
0.0
  9
$USERR2
 40
0.0
  9
$USERR3
 40
0.0
  9
$USERR4
 40
0.0
  9
$USERR5
 40
0.0
  9
$WORLDVIEW
 70
     1
  9
$SHADEDGE
 70
     1
  9
$SHADEDIF
 70
    70
  9
$TILEMODE
 70
     1
  9
$MAXACTVP
 70
    16
  9
$PINSBASE
 10
0.0
 20
0.0
 30
0.0
  9
$PLIMCHECK
 70
     0
  9
$PEXTMIN
 10
1.000000000000000E+20
 20
1.000000000000000E+20
 30
1.000000000000000E+20
  9
$PEXTMAX
 10
-1.000000000000000E+20
 20
-1.000000000000000E+20
 30
-1.000000000000000E+20
  9
$PLIMMIN
 10
0.0
 20
0.0
  9
$PLIMMAX
 10
12.0
 20
9.0
  9
$UNITMODE
 70
     0
  9
$VISRETAIN
 70
     0
  9
$PLINEGEN
 70
     0
  9
$PSLTSCALE
 70
     1
  9
$TREEDEPTH
 70
  3020
  9
$CMLSTYLE
  2
STANDARD
  9
$CMLJUST
 70
     0
  9
$CMLSCALE
 40
1.0
  9
$PROXYGRAPHICS
 70
     1
  9
$MEASUREMENT
 70
     0
  9
$CELWEIGHT
370
    -1
  9
$ENDCAPS
280
     0
  9
$JOINSTYLE
280
     0
  9
$LWDISPLAY
290
     0
  9
$INSUNITS
 70
     0
  9
$HYPERLINKBASE
  1

  9
$STYLESHEET
  1

  9
$XEDIT
290
     1
  9
$CEPSNTYPE
380
     0
  9
$PSTYLEMODE
290
     1
  9
$FINGERPRINTGUID
  2
{A6232B84-9B2E-11D3-8DA4-00A0C981A35F}
  9
$VERSIONGUID
  2
{BBC8F3C6-EB56-11D3-8DA4-00A0C981A35F}
  9
$EXTNAMES
290
     1
  9
$PSVPSCALE
 40
0.0
  9
$OLESTARTUP
290
     0
  0
ENDSEC
  0
SECTION
  2
CLASSES
  0
CLASS
  1
DICTIONARYVAR
  2
AcDbDictionaryVar
  3
AutoCAD 2000
 90
    32768
280
     0
281
     0
  0
CLASS
  1
LWPOLYLINE
  2
AcDbPolyline
  3
AutoCAD 2000
 90
    32768
280
     0
281
     1
  0
CLASS
  1
RASTERVARIABLES
  2
AcDbRasterVariables
  3
ISM
 90
    32768
280
     0
281
     0
  0
CLASS
  1
ACDBDICTIONARYWDFLT
  2
AcDbDictionaryWithDefault
  3
AutoCAD 2000
 90
        0
280
     0
281
     0
  0
CLASS
  1
ACDBPLACEHOLDER
  2
AcDbPlaceHolder
  3
AutoCAD 2000
 90
        0
280
     0
281
     0
  0
CLASS
  1
LAYOUT
  2
AcDbLayout
  3
AutoCAD 2000
 90
        0
280
     0
281
     0
  0
CLASS
  1
ACME_DOCUMENT
  2
AcMeDbDoc
  3
AcMeServices
 90
    32768
280
     1
281
     0
  0
CLASS
  1
ACMESCOPE
  2
AcMeScope
  3
AcMeServices
 90
    32768
280
     1
281
     0
  0
CLASS
  1
ACMECOMMANDHISTORY
  2
AcMeCommandHistory
  3
AcMeServices
 90
    32768
280
     1
281
     0
  0
CLASS
  1
ACIMSYSVARMAN
  2
AcImSysVarManager
  3
AcMeServices
 90
    32768
280
     1
281
     0
  0
CLASS
  1
ACIMREALSYSVAR
  2
AcImRealSysVar
  3
AcMeServices
 90
    32768
280
     1
281
     0
  0
CLASS
  1
ACIMINTSYSVAR
  2
AcImIntSysVar
  3
AcMeServices
 90
    32768
280
     1
281
     0
  0
CLASS
  1
ACMEDRAWINGMAN
  2
AcMeDrawingMan
  3
AcMeServices
 90
    32768
280
     1
281
     0
  0
CLASS
  1
ACMEVIEW
  2
AcMeView
  3
AcMeServices
 90
    32768
280
     1
281
     0
  0
CLASS
  1
ACDBENTITYCACHE
  2
AcMeEntityCache
  3
AcMeServices
 90
    32768
280
     1
281
     0
  0
CLASS
  1
GSMANAGER
  2
AcMeGSManager
  3
AcMeServices
 90
    32768
280
     1
281
     0
  0
CLASS
  1
AmdtInternalReactor
  2
AmdtInternalReactor
  3
AcMeServices
 90
    32768
280
     1
281
     0
  0
CLASS
  1
ACMESTATEMGR
  2
AcMeStateMgr
  3
AcMeServices
 90
    32768
280
     1
281
     0
  0
CLASS
  1
ACGREFMASTER
  2
AcGrefMaster
  3
AcAttribServices
 90
    32768
280
     1
281
     0
  0
CLASS
  1
AM_DRAWING_MGR
  2
AcDmDwgMgr
  3
AcMechDwgViewMgmt
 90
    32768
280
     1
281
     0
  0
CLASS
  1
AM_DWG_DOCUMENT
  2
AcDmDwgDocument
  3
AcMechDwgViewMgmt
 90
    32768
280
     1
281
     0
  0
CLASS
  1
AM_DWG_SHEET
  2
AcDmSheet
  3
AcMechDwgViewMgmt
 90
    32768
280
     1
281
     0
  0
CLASS
  1
AM_VIEWDIMPARMAP
  2
AcDmViewDimParMap
  3
AcMechDwgViewMgmt
 90
    32768
280
     1
281
     0
  0
CLASS
  1
AM_DWGMGR_NAME
  2
AcDmDwgMgrName
  3
AcMechDwgViewMgmt
 90
    32768
280
     1
281
     0
  0
CLASS
  1
ACME_DATABASE
  2
AcMeDbDatabase
  3
AcMeServices
 90
    32768
280
     1
281
     0
  0
CLASS
  1
ACRFINSADJUSTERMGR
  2
AcRfInsAdjusterMgr
  3
AcMeServices
 90
    32768
280
     1
281
     0
  0
CLASS
  1
ACGREFMASTER
  2
AcGrefacadMaster
  3
AcGrefServices
 90
    32768
280
     1
281
     0
  0
CLASS
  1
AMDTMENUSTATEMGR
  2
AmdtMenuStateMgr
  3
McadcomServices
 90
    32768
280
     1
281
     0
  0
CLASS
  1
AMDTMCOMMENUSTATE
  2
AmdtMcomMenuState
  3
McadcomServices
 90
    32768
280
     1
281
     0
  0
CLASS
  1
ASAPP
  2
AcAsAppObject
  3
AutoSurfServices
 90
    32768
280
     1
281
     0
  0
CLASS
  1
IM_STATIC_MAN
  2
AcImStaticVarManager
  3
AcMeServices
 90
    32768
280
     1
281
     0
  0
CLASS
  1
ACIMSTRSYSVAR
  2
AcImStrSysVar
  3
AcMeServices
 90
    32768
280
     1
281
     0
  0
CLASS
  1
ACIMDBLSTATICVAR
  2
AcImDblStaticVar
  3
AcMeServices
 90
    32768
280
     1
281
     0
  0
CLASS
  1
ACIMSTRSTATICVAR
  2
AcImStrStaticVar
  3
AcMeServices
 90
    32768
280
     1
281
     0
  0
CLASS
  1
ACIMINTSTATICVAR
  2
AcImIntStaticVar
  3
AcMeServices
 90
    32768
280
     1
281
     0
  0
CLASS
  1
ACADGREFMODULE
  2
AcAdGrefModule
  3
AdGrefServices
 90
    32768
280
     1
281
     0
  0
CLASS
  1
AMIMASTER
  2
AmiMaster
  3
AmiServices
 90
    32768
280
     1
281
     0
  0
CLASS
  1
ACASGREFMASTER
  2
AcAsGrefMaster
  3
AutoSurfResolverServices
 90
    32768
280
     1
281
     0
  0
CLASS
  1
MAPIAMMOUDLE
  2
MApiAmModule
  3
MApiAmServices
 90
    32768
280
     1
281
     0
  0
CLASS
  1
AMDTDMMENUSTATE
  2
AmdtDmMenuState
  3
AcMechDwgViewMgmt
 90
    32768
280
     1
281
     0
  0
CLASS
  1
AMDTADMENUSTATE
  2
AmdtAdMenuState
  3
DesignerServices
 90
    32768
280
     1
281
     0
  0
CLASS
  1
ADAPPL
  2
AcAdAppl
  3
DesignerServices
 90
    32768
280
     1
281
     0
  0
CLASS
  1
DEPMGR
  2
AcAdDepMgr
  3
DesignerServices
 90
    32768
280
     1
281
     0
  0
CLASS
  1
PARAMMGR
  2
AcAdParamMgr
  3
DesignerServices
 90
    32768
280
     1
281
     0
  0
CLASS
  1
PARAMSCOPE
  2
AcAdParamScope
  3
DesignerServices
 90
    32768
280
     1
281
     0
  0
CLASS
  1
NAMEDAPPL
  2
AcAdNamedAppl
  3
DesignerServices
 90
    32768
280
     1
281
     0
  0
CLASS
  1
ADHNTMPLT
  2
AdHoleNoteTemplateMgr
  3
DesignerServices
 90
    32768
280
     1
281
     0
  0
CLASS
  1
AM_HNTEMPLATE_MGR_NAME
  2
AdHoleNoteTemplateMgrName
  3
DesignerServices
 90
    32768
280
     1
281
     0
  0
CLASS
  1
AMDTAMMENUSTATE
  2
AmdtAmMenuState
  3
DesignerAssemblies
 90
    32768
280
     1
281
     0
  0
CLASS
  1
ACAMPROJECT
  2
AcAmProject
  3
DesignerAssemblies
 90
    32768
280
     1
281
     0
  0
CLASS
  1
ACAMGRCOMPDEF
  2
AcAmGrCompDef
  3
DesignerAssemblies
 90
    32768
280
     1
281
     0
  0
CLASS
  1
ACCMCONTEXT
  2
AcCmContext
  3
DesignerAssemblies
 90
    32768
280
     1
281
     0
  0
CLASS
  1
ACAMCOMPDEF
  2
AcAmCompDef
  3
DesignerAssemblies
 90
    32768
280
     1
281
     0
  0
CLASS
  1
ACAMCOMPDEFMGR
  2
AcAmCompDefMgr
  3
DesignerAssemblies
 90
    32768
280
     1
281
     0
  0
CLASS
  1
AMCONTEXTMGR
  2
AcAmContextMgr
  3
DesignerAssemblies
 90
    32768
280
     1
281
     0
  0
CLASS
  1
ACAMCONTEXTMODELER
  2
AcAmContextModeler
  3
DesignerAssemblies
 90
    32768
280
     1
281
     0
  0
CLASS
  1
MAPIADMODULE
  2
MApiAdModule
  3
MApiAdServices
 90
    32768
280
     1
281
     0
  0
CLASS
  1
ACMDATADICTIONARY
  2
AcmDataDictionary
  3
"AcmSymBB|Product Description: AutoCAD Mechanical 2000|Company: Autodesk"
 90
    32768
280
     1
281
     0
  0
CLASS
  1
ACMDATAENTRYBLOCK
  2
AcmDataEntryBlock
  3
"AcmSymBB|Product Description: AutoCAD Mechanical 2000|Company: Autodesk"
 90
    32768
280
     1
281
     0
  0
CLASS
  1
AMDTBROWSERDBTAB
  2
AmdtBrowserDbTab
  3
McadcomServices
 90
    32768
280
     1
281
     0
  0
CLASS
  1
CBROWSERAPPOBJECT
  2
CBrowserAppObject
  3
McadcomServices
 90
    32768
280
     1
281
     0
  0
CLASS
  1
DM_PLACEHOLDER
  2
AcDmSelsetPlaceholder
  3
AcMechDwgViewMgmt
 90
    32768
280
     1
281
     0
  0
CLASS
  1
CATALOGSTATE
  2
AcAmCatalogState
  3
DesignerAssemblies
 90
    32768
280
     1
281
     0
  0
CLASS
  1
ACAMGRCOMPDEFSET
  2
AcAmGrCompDefSet
  3
DesignerAssemblies
 90
    32768
280
     1
281
     0
  0
CLASS
  1
AMGOBJPROPCFG
  2
AmgObjPropCfg
  3
"AmgLay|Product Description: AutoCAD Mechanical 2000|Company: Autodesk"
 90
    32769
280
     1
281
     0
  0
CLASS
  1
LAYER_INDEX
  2
AcDbLayerIndex
  3
AutoCAD 2000
 90
    32768
280
     0
281
     0
  0
CLASS
  1
IDBUFFER
  2
AcDbIdBuffer
  3
AutoCAD 2000
 90
    32768
280
     0
281
     0
  0
CLASS
  1
ACRFATTGENMGR
  2
AcRfAttGeneralMgr
  3
AcAttribServices
 90
    32768
280
     1
281
     0
  0
CLASS
  1
PLOTSETTINGS
  2
AcDbPlotSettings
  3
AutoCAD 2000
 90
    32768
280
     0
281
     0
  0
ENDSEC
  0
SECTION
  2
TABLES
  0
TABLE
  2
VPORT
  5
1B
330
0
100
AcDbSymbolTable
 70
     2
  0
VPORT
  5
1E6A7
330
1B
100
AcDbSymbolTableRecord
100
AcDbViewportTableRecord
  2
*Active
 70
     0
 10
0.0
 20
0.0
 11
1.0
 21
1.0
 12
532.2098891553671
 22
-230.0528158070146
 13
0.0
 23
0.0
 14
1.0
 24
1.0
 15
0.0
 25
0.0
 16
0.0
 26
0.0
 36
1.0
 17
-64.46234487877643
 27
33.0238264231553
 37
6.148717398612387
 40
422.1798753382207
 41
1.413068844807467
 42
50.0
 43
-6.148717398612387
 44
-6.148717398612387
 50
0.0
 51
0.0
 71
     0
 72
 20000
 73
     1
 74
     1
 75
     0
 76
     0
 77
     0
 78
     2
281
     0
 65
     1
110
0.0
120
0.0
130
0.0
111
1.0
121
0.0
131
0.0
112
0.0
122
1.0
132
0.0
 79
     0
146
0.0
  0
ENDTAB
  0
TABLE
  2
LTYPE
  5
16
330
0
100
AcDbSymbolTable
 70
     2
  0
LTYPE
  5
17
330
16
100
AcDbSymbolTableRecord
100
AcDbLinetypeTableRecord
  2
BYBLOCK
 70
     0
  3

 72
    65
 73
     0
 40
0.0
  0
LTYPE
  5
18
330
16
100
AcDbSymbolTableRecord
100
AcDbLinetypeTableRecord
  2
BYLAYER
 70
     0
  3

 72
    65
 73
     0
 40
0.0
  0
LTYPE
  5
9
330
16
100
AcDbSymbolTableRecord
100
AcDbLinetypeTableRecord
  2
CONTINUOUS
 70
     0
  3
Solid line
 72
    65
 73
     0
 40
0.0
  0
LTYPE
  5
E5B4
330
16
100
AcDbSymbolTableRecord
100
AcDbLinetypeTableRecord
  2
HIDDEN
 70
     0
  3
__ __ __ __ __ __ __ __ __ __ __ __ __ __ __ __
 72
    65
 73
     2
 40
0.375
 49
0.25
 74
     0
 49
-0.125
 74
     0
  0
ENDTAB
  0
TABLE
  2
LAYER
  5
11
330
0
100
AcDbSymbolTable
 70
     5
  0
LAYER
  5
5
330
11
100
AcDbSymbolTableRecord
100
AcDbLayerTableRecord
  2
0
 70
     0
 62
     7
  6
CONTINUOUS
370
    -3
390
6
  0
LAYER
  5
24
330
11
100
AcDbSymbolTableRecord
100
AcDbLayerTableRecord
  2
A1
 70
     0
 62
     7
  6
CONTINUOUS
370
    -3
390
6
  0
LAYER
  5
2E
330
11
100
AcDbSymbolTableRecord
100
AcDbLayerTableRecord
  2
LINEWORK
 70
     0
 62
    41
  6
CONTINUOUS
370
    -3
390
6
  0
LAYER
  5
1225
330
11
100
AcDbSymbolTableRecord
100
AcDbLayerTableRecord
  2
DEFPOINTS
 70
     0
 62
     7
  6
CONTINUOUS
290
     0
370
    -3
390
6
  0
LAYER
  5
E5B6
330
11
100
AcDbSymbolTableRecord
100
AcDbLayerTableRecord
  2
10
 70
     0
 62
     7
  6
CONTINUOUS
370
    -3
390
6
  0
ENDTAB
  0
TABLE
  2
STYLE
  5
12
330
0
100
AcDbSymbolTable
 70
     3
  0
STYLE
  5
13
330
12
100
AcDbSymbolTableRecord
100
AcDbTextStyleTableRecord
  2
STANDARD
 70
     0
 40
0.0
 41
1.0
 50
0.0
 71
     0
 42
3.0
  3
unvr55w.ttf
  4

1001
ACAD
1000
Univers
1071
       34
  0
STYLE
  5
35
330
12
100
AcDbSymbolTableRecord
100
AcDbTextStyleTableRecord
  2
ROMANC
 70
     0
 40
0.0
 41
1.0
 50
0.0
 71
     0
 42
0.5
  3
TIMESBD.TTF
  4

1001
ACAD
1000
Times New Roman
1071
 33554450
  0
STYLE
  5
46
330
12
100
AcDbSymbolTableRecord
100
AcDbTextStyleTableRecord
  2
barcoder
 70
     0
 40
0.0
 41
1.0
 50
0.0
 71
     0
 42
4.5625
  3
cw_barcd.ttf
  4

1001
ACAD
1000
Barcoder
1071
 33554434
  0
ENDTAB
  0
TABLE
  2
VIEW
  5
19
330
0
100
AcDbSymbolTable
 70
     0
  0
ENDTAB
  0
TABLE
  2
UCS
  5
1A
330
0
100
AcDbSymbolTable
 70
     0
  0
ENDTAB
  0
TABLE
  2
APPID
  5
1D
330
0
100
AcDbSymbolTable
 70
     1
  0
APPID
  5
14
330
1D
100
AcDbSymbolTableRecord
100
AcDbRegAppTableRecord
  2
ACAD
 70
     0
  0
ENDTAB
  0
TABLE
  2
DIMSTYLE
  5
1E
330
0
100
AcDbSymbolTable
 70
     1
100
AcDbDimStyleTable
 71
     1
340
1F
  0
DIMSTYLE
105
1F
102
{ACAD_REACTORS
330
1E4B6
330
1E4C4
330
1E4D2
330
1E4E1
330
1E4EF
330
1E4FD
330
1E50D
330
1E51B
330
1E529
330
1E539
330
1E549
102
}
330
1E
100
AcDbSymbolTableRecord
100
AcDbDimStyleTableRecord
  2
STANDARD
 70
     0
  3
"
 41
0.5
 42
1.0
 43
0.0625
 44
0.25
 73
     0
 74
     0
 77
     3
140
1.0
141
0.0
146
0.125
147
0.125
171
     0
274
     0
276
     2
277
     5
285
     2
286
     2
289
     0
340
13
  0
ENDTAB
  0
TABLE
  2
BLOCK_RECORD
  5
1
330
0
100
AcDbSymbolTable
 70
    13
  0
BLOCK_RECORD
  5
2
102
{ACAD_XDICTIONARY
360
3
102
}
330
1
100
AcDbSymbolTableRecord
100
AcDbBlockTableRecord
  2
*MODEL_SPACE
340
B
  0
BLOCK_RECORD
  5
D
330
1
100
AcDbSymbolTableRecord
100
AcDbBlockTableRecord
  2
*PAPER_SPACE
340
10
  0
BLOCK_RECORD
  5
1E30
330
1
100
AcDbSymbolTableRecord
100
AcDbBlockTableRecord
  2
tsformb
340
0
102
{BLKREFS
331
1CC4F
102
}
  0
BLOCK_RECORD
  5
1E407
330
1
100
AcDbSymbolTableRecord
100
AcDbBlockTableRecord
  2
PROFILE LOGO
340
0
102
{BLKREFS
331
1E622
331
1E625
102
}
  0
BLOCK_RECORD
  5
1E4B7
330
1
100
AcDbSymbolTableRecord
100
AcDbBlockTableRecord
  2
*D2
340
0
  0
BLOCK_RECORD
  5
1E4C5
330
1
100
AcDbSymbolTableRecord
100
AcDbBlockTableRecord
  2
*D3
340
0
  0
BLOCK_RECORD
  5
1E4D3
330
1
100
AcDbSymbolTableRecord
100
AcDbBlockTableRecord
  2
*D4
340
0
  0
BLOCK_RECORD
  5
1E4E2
330
1
100
AcDbSymbolTableRecord
100
AcDbBlockTableRecord
  2
*D5
340
0
  0
BLOCK_RECORD
  5
1E4F0
330
1
100
AcDbSymbolTableRecord
100
AcDbBlockTableRecord
  2
*D6
340
0
  0
BLOCK_RECORD
  5
1E4FE
330
1
100
AcDbSymbolTableRecord
100
AcDbBlockTableRecord
  2
*D7
340
0
  0
BLOCK_RECORD
  5
1E50E
330
1
100
AcDbSymbolTableRecord
100
AcDbBlockTableRecord
  2
*D8
340
0
  0
BLOCK_RECORD
  5
1E51C
330
1
100
AcDbSymbolTableRecord
100
AcDbBlockTableRecord
  2
*D9
340
0
  0
BLOCK_RECORD
  5
1E52A
330
1
100
AcDbSymbolTableRecord
100
AcDbBlockTableRecord
  2
*D10
340
0
  0
BLOCK_RECORD
  5
1E53A
330
1
100
AcDbSymbolTableRecord
100
AcDbBlockTableRecord
  2
*D11
340
0
  0
BLOCK_RECORD
  5
1E54A
330
1
100
AcDbSymbolTableRecord
100
AcDbBlockTableRecord
  2
*D12
340
0
  0
ENDTAB
  0
ENDSEC
  0
SECTION
  2
BLOCKS
  0
BLOCK
  5
4
330
2
100
AcDbEntity
  8
0
100
AcDbBlockBegin
  2
*MODEL_SPACE
 70
     2
 10
0.0
 20
0.0
 30
0.0
  3
*MODEL_SPACE
  1

  0
ENDBLK
  5
A
330
2
100
AcDbEntity
  8
0
100
AcDbBlockEnd
  0
BLOCK
  5
E
330
D
100
AcDbEntity
 67
     1
  8
0
100
AcDbBlockBegin
  2
*PAPER_SPACE
 70
     0
 10
0.0
 20
0.0
 30
0.0
  3
*PAPER_SPACE
  1

  0
ENDBLK
  5
F
330
D
100
AcDbEntity
 67
     1
  8
0
100
AcDbBlockEnd
  0
BLOCK
  5
1E61
330
1E30
100
AcDbEntity
  8
0
 62
     7
100
AcDbBlockBegin
  2
tsformb
 70
     2
 10
0.0
 20
0.0
 30
0.0
  3
tsformb
  1

  0
LINE
  5
1E31
330
1E30
100
AcDbEntity
  8
0
100
AcDbLine
 10
25.97049976153047
 20
12.46470592426126
 30
0.0
 11
105.9925392881562
 21
12.46470592426126
 31
0.0
  0
ATTDEF
  5
1E32
330
1E30
100
AcDbEntity
  8
A1
 62
     1
100
AcDbText
 10
101.1418062311347
 20
7.219538615513812
 30
0.0
 40
0.9450000000000002
  1

 72
     1
 11
101.1418062311347
 21
7.219538615513812
 31
0.0
100
AcDbAttributeDefinition
  3
ADD #/LF
  2
XXXXX
 70
     0
  0
ATTDEF
  5
1E33
330
1E30
100
AcDbEntity
  8
A1
 62
     1
100
AcDbText
 10
101.1759733039033
 20
10.0790044152711
 30
0.0
 40
0.9450000000000002
  1

 72
     1
 11
101.1759733039033
 21
10.0790044152711
 31
0.0
100
AcDbAttributeDefinition
  3
ADD PROFILE AREA
  2
XXXXX
 70
     0
  0
TEXT
  5
1E34
330
1E30
100
AcDbEntity
  8
0
 62
     7
100
AcDbText
 10
96.70022651293081
 20
11.66518473255652
 30
0.0
 40
0.5414062500000001
  1
PROFILE AREA:
100
AcDbText
  0
TEXT
  5
1E35
330
1E30
100
AcDbEntity
  8
0
 62
     7
100
AcDbText
 10
96.74158717246573
 20
2.97910930546476
 30
0.0
 40
0.5414062500000001
  1
DATE:
100
AcDbText
  0
TEXT
  5
1E36
330
1E30
100
AcDbEntity
  8
0
 62
     7
100
AcDbText
 10
96.68542089784601
 20
5.927566558083469
 30
0.0
 40
0.5414062500000001
  1
SCALE:
100
AcDbText
  0
TEXT
  5
1E37
330
1E30
100
AcDbEntity
  8
0
 62
     7
100
AcDbText
 10
98.85330873086449
 20
1.524519923848657
 30
0.0
 40
0.8459472656250001
  1
1-1-2000
100
AcDbText
  0
LINE
  5
1E38
330
1E30
100
AcDbEntity
  8
LINEWORK
 62
     7
100
AcDbLine
 10
96.40991550469019
 20
3.757904136908933
 30
0.0
 11
105.9622680829099
 21
3.757904136909161
 31
0.0
  0
TEXT
  5
1E39
330
1E30
100
AcDbEntity
  8
0
 62
     7
100
AcDbText
 10
96.66995560986684
 20
8.813345575893578
 30
0.0
 40
0.5414062500000001
  1
LBS/LINEAR FEET:
100
AcDbText
  0
LINE
  5
1E3A
330
1E30
100
AcDbEntity
  8
0
 62
     7
100
AcDbLine
 10
96.44018670993686
 20
9.556745250002336
 30
0.0
 11
105.9925392881562
 21
9.556745250002336
 31
0.0
  0
LINE
  5
1E3B
330
1E30
100
AcDbEntity
  8
0
100
AcDbLine
 10
56.87404547169356
 20
6.648784575743377
 30
0.0
 11
105.9925392881562
 21
6.648784575743377
 31
0.0
  0
TEXT
  5
1E3C
330
1E30
100
AcDbEntity
  8
0
100
AcDbText
 10
59.98363509556093
 20
3.260563711198523
 30
0.0
 40
0.74899296216962
  1
101 JOHNSTON CIRCLE, PALMETTO, GEORGIA 30268
 41
1.1875
 72
     4
 11
76.85158629384145
 21
3.579323650094949
 31
0.0
100
AcDbText
  0
TEXT
  5
1E3D
330
1E30
100
AcDbEntity
  8
0
100
AcDbText
 10
61.57240842020549
 20
1.964543484004154
 30
0.0
 40
0.6552430415498756
  1
http://TannerStone.com ~ Email:Sales@TannerStone.com 
 41
1.1875
 72
     4
 11
77.08342119362365
 21
2.259193880788984
 31
0.0
100
AcDbText
  0
TEXT
  5
1E3E
330
1E30
100
AcDbEntity
  8
0
 62
     7
100
AcDbText
 10
61.23651428794111
 20
7.899354841769707
 30
0.0
 40
3.572100000000002
  1
TannerStone
  7
ROMANC
 72
     1
 11
75.92109734429951
 21
7.899354841769707
 31
0.0
100
AcDbText
  0
TEXT
  5
1E3F
330
1E30
100
AcDbEntity
  8
0
100
AcDbText
 10
64.01730751652127
 20
0.6790765005605895
 30
0.0
 40
0.6552430415498756
  1
PHONE: 1-800-789-4841  FAX : 770-463-2635
 41
1.1875
 72
     4
 11
76.73327742292068
 21
1.005769257279467
 31
0.0
100
AcDbText
  0
TEXT
  5
1E40
330
1E30
100
AcDbEntity
  8
0
100
AcDbText
 10
57.83820509574332
 20
4.931128255646459
 30
0.0
 40
1.111564440985976
  1
ARCHITECTURAL CONCRETE CO., INC.
 41
1.25
 72
     4
 11
76.69038922088154
 21
5.404193065577061
 31
0.0
100
AcDbText
  0
LINE
  5
1E41
330
1E30
100
AcDbEntity
  8
0
100
AcDbLine
 10
96.44018670993652
 20
0.0
 30
0.0
 11
96.44018670993691
 21
12.46470592426126
 31
0.0
  0
TEXT
  5
1E42
330
1E30
100
AcDbEntity
  8
0
 62
     7
100
AcDbText
 10
91.59975773655476
 20
7.487990433787814
 30
0.0
 40
0.7875000000000002
  1
R
  7
ROMANC
 72
     1
 11
92.02565639984957
 21
7.487990433787814
 31
0.0
100
AcDbText
  0
ARC
  5
1E43
330
1E30
100
AcDbEntity
  8
0
 62
     7
100
AcDbCircle
 10
92.02173719823603
 20
7.854684255185276
 30
0.0
 40
0.5838368232859408
100
AcDbArc
 50
304.8408806463489
 51
297.555354837207
  0
LINE
  5
1E44
330
1E30
100
AcDbEntity
  8
0
 62
     7
100
AcDbLine
 10
96.44018670993673
 20
6.648784575743377
 30
0.0
 11
95.62662822118031
 21
6.648784575743377
 31
0.0
  0
ARC
  5
1E45
330
1E30
100
AcDbEntity
  8
0
 62
     7
100
AcDbCircle
 10
92.02173719823603
 20
7.854684255185276
 30
0.0
 40
0.5838368232859321
100
AcDbArc
 50
297.555354837207
 51
304.8408806463489
  0
TEXT
  5
1E46
330
1E30
100
AcDbEntity
  8
0
 62
     7
100
AcDbText
 10
101.0916707105179
 20
4.784832420392348
 30
0.0
 40
0.8459472656250001
  1
1:1
100
AcDbText
  0
LINE
  5
1E47
330
1E30
100
AcDbEntity
  8
0
100
AcDbLine
 10
105.9925392881562
 20
78.84810849484799
 30
0.0
 11
0.0
 21
78.84810849484799
 31
0.0
  0
LINE
  5
1E48
330
1E30
100
AcDbEntity
  8
0
100
AcDbLine
 10
105.9925392881562
 20
70.31072004937001
 30
0.0
 11
92.45878286761294
 21
70.31072004937001
 31
0.0
  0
ATTDEF
  5
1E49
330
1E30
100
AcDbEntity
  8
A1
 62
     1
100
AcDbText
 10
99.20289126219254
 20
73.4000163324483
 30
0.0
 40
2.079
  1

 72
     1
 11
99.20289126219254
 21
73.4000163324483
 31
0.0
100
AcDbAttributeDefinition
  3
ADD PAGE NUMBER
  2
TS00XX
 70
     0
  0
LINE
  5
1E4A
330
1E30
100
AcDbEntity
  8
0
100
AcDbLine
 10
92.45878286761294
 20
70.31072004937001
 30
0.0
 11
92.45878286761294
 21
78.84810849484799
 31
0.0
  0
LINE
  5
1E4B
330
1E30
100
AcDbEntity
  8
0
 62
     7
100
AcDbLine
 10
56.87404547169354
 20
4.753491724833224
 30
0.0
 11
25.97049976153047
 21
4.753491724833224
 31
0.0
  0
LINE
  5
1E4C
330
1E30
100
AcDbEntity
  8
0
 62
     7
100
AcDbLine
 10
56.87404547169354
 20
2.864660228904284
 30
0.0
 11
25.97049976153047
 21
2.864660228904284
 31
0.0
  0
LINE
  5
1E4D
330
1E30
100
AcDbEntity
  8
0
 62
     7
100
AcDbLine
 10
56.87404547169354
 20
10.31505184057846
 30
0.0
 11
25.97049976153047
 21
10.31505184057846
 31
0.0
  0
ATTDEF
  5
1E4E
330
1E30
100
AcDbEntity
  8
A1
 62
     1
100
AcDbText
 10
12.85191920549937
 20
3.11796280247222
 30
0.0
 40
6.132000000000001
  1

  7
barcoder
 72
     1
 11
12.85191920549937
 21
3.11796280247222
 31
0.0
100
AcDbAttributeDefinition
  3
ADD BARCODE NUMBER
  2
BARCODE
 70
     0
  0
LINE
  5
1E4F
330
1E30
100
AcDbEntity
  8
0
 62
     7
100
AcDbLine
 10
25.97049976153047
 20
12.46470592426126
 30
0.0
 11
0.0
 21
12.46470592426126
 31
0.0
  0
ATTDEF
  5
1E50
330
1E30
100
AcDbEntity
  8
A1
 62
     1
100
AcDbText
 10
21.55372231158239
 20
1.875018704105684
 30
0.0
 40
0.8400000000000002
  1

 72
     2
 11
21.55372231158239
 21
1.875018704105684
 31
0.0
100
AcDbAttributeDefinition
  3
ADD BARCODE TEXT
  2
XXXXXX
 70
     0
  0
ATTDEF
  5
1E51
330
1E30
100
AcDbEntity
  8
A1
 62
     1
100
AcDbText
 10
41.26016333205515
 20
0.916484150045278
 30
0.0
 40
1.025589599999999
  1

 72
     1
 11
41.26016333205515
 21
0.916484150045278
 31
0.0
100
AcDbAttributeDefinition
  3
ADD CATEGORY NAMES
  2
XXXXXX
 70
     0
  0
LINE
  5
1E52
330
1E30
100
AcDbEntity
  8
0
100
AcDbLine
 10
25.97049976153047
 20
0.0
 30
0.0
 11
25.97049976153047
 21
12.46470592426126
 31
0.0
  0
TEXT
  5
1E53
330
1E30
100
AcDbEntity
  8
0
 62
     7
100
AcDbText
 10
30.57643893100979
 20
5.886467718828555
 30
0.0
 40
1.05
  1
- Unfinished Side
100
AcDbText
  0
TEXT
  5
1E54
330
1E30
100
AcDbEntity
  8
0
 62
     7
100
AcDbText
 10
30.56536100380199
 20
8.165961840384312
 30
0.0
 40
1.05
  1
- Finished Side
100
AcDbText
  0
TEXT
  5
1E55
330
1E30
100
AcDbEntity
  8
0
 62
     7
100
AcDbText
 10
28.62975879980742
 20
6.155120421568796
 30
0.0
 40
0.0065625
  1
TANNERSTONE 0001 TANNERSTONE 0001 TANNERSTONE 0001 TANNERSTONE 0001 TANNERSTONE 0001 TANNERSTONE 0001 TANNERSTONE 0001
 72
     1
 11
28.97869915682372
 21
6.155120421568796
 31
0.0
100
AcDbText
  0
TEXT
  5
1E56
330
1E30
100
AcDbEntity
  8
0
 62
     7
100
AcDbText
 10
26.78569629980744
 20
6.155120421568796
 30
0.0
 40
0.0065625
  1
TANNERSTONE 0001 TANNERSTONE 0001 TANNERSTONE 0001 TANNERSTONE 0001 TANNERSTONE 0001 TANNERSTONE 0001 TANNERSTONE 0001
 72
     1
 11
27.13463665682374
 21
6.155120421568796
 31
0.0
100
AcDbText
  0
LINE
  5
1E57
330
1E30
100
AcDbEntity
  8
0
 62
     7
100
AcDbLine
 10
26.78791925899645
 20
6.408946491460881
 30
0.0
 11
29.32320076794366
 21
6.408946491460881
 31
0.0
  0
TEXT
  5
1E58
330
1E30
100
AcDbEntity
  8
0
 62
     7
100
AcDbText
 10
27.6921018725396
 20
6.155120421568796
 30
0.0
 40
0.0065625
  1
TANNERSTONE 0001 TANNERSTONE 0001 TANNERSTONE 0001 TANNERSTONE 0001 TANNERSTONE 0001 TANNERSTONE 0001 TANNERSTONE 0001
 72
     1
 11
28.0410422295559
 21
6.155120421568796
 31
0.0
100
AcDbText
  0
LINE
  5
1E59
330
1E30
100
AcDbEntity
  8
0
 62
     7
100
AcDbLine
 10
26.78791925899645
 20
8.549200111339274
 30
0.0
 11
29.32320076794366
 21
8.549200111339274
 31
0.0
  0
TEXT
  5
1E5A
330
1E30
100
AcDbEntity
  8
0
 62
     7
100
AcDbText
 10
38.18320344075359
 20
3.401999220949534
 30
0.0
 40
0.8400000000000002
  1
CATEGORY
 72
     1
 11
41.47652732452397
 21
3.401999220949534
 31
0.0
100
AcDbText
  0
TEXT
  5
1E5B
330
1E30
100
AcDbEntity
  8
0
 62
     7
100
AcDbText
 10
39.28098221173835
 20
10.97304845086645
 30
0.0
 40
0.8085000000000002
  1
LEGEND
100
AcDbText
  0
LINE
  5
1E5C
330
1E30
100
AcDbEntity
  8
0
100
AcDbLine
 10
56.87404547169356
 20
0.0
 30
0.0
 11
56.87404547169356
 21
12.46470592426126
 31
0.0
  0
LINE
  5
1E5D
330
1E30
100
AcDbEntity
  8
0
100
AcDbLine
 10
0.0
 20
78.84810849484799
 30
0.0
 11
0.0
 21
0.0
 31
0.0
  0
LINE
  5
1E5E
330
1E30
100
AcDbEntity
  8
0
100
AcDbLine
 10
0.0
 20
0.0
 30
0.0
 11
105.9925392881562
 21
0.0
 31
0.0
  0
LINE
  5
1E5F
330
1E30
100
AcDbEntity
  8
0
100
AcDbLine
 10
105.9925392881562
 20
0.0
 30
0.0
 11
105.9925392881562
 21
78.84810849484799
 31
0.0
  0
LINE
  5
1E60
330
1E30
100
AcDbEntity
  8
0
100
AcDbLine
 10
105.9925392881562
 20
78.84810849484799
 30
0.0
 11
105.9925392881562
 21
70.31072004937001
 31
0.0
  0
ENDBLK
  5
1E62
330
1E30
100
AcDbEntity
  8
0
 62
     7
100
AcDbBlockEnd
  0
BLOCK
  5
1E420
330
1E407
100
AcDbEntity
  8
0
 62
     7
100
AcDbBlockBegin
  2
PROFILE LOGO
 70
     2
 10
0.0
 20
0.0
 30
0.0
  3
PROFILE LOGO
  1

  0
LINE
  5
1E408
330
1E407
100
AcDbEntity
  8
0
 62
    22
100
AcDbLine
 10
0.7459516636765642
 20
-0.415894330395318
 30
0.0
 11
0.74595166367655
 21
-1.12746688439163
 31
0.0
  0
LINE
  5
1E409
330
1E407
100
AcDbEntity
  8
0
 62
    22
100
AcDbLine
 10
0.5841942848079072
 20
-0.415894330395318
 30
0.0
 11
0.5841942848079072
 21
-1.12746688439163
 31
0.0
  0
HATCH
  5
1E40A
330
1E407
100
AcDbEntity
  8
0
 62
    22
100
AcDbHatch
 10
0.0
 20
0.0
 30
0.0
210
0.0
220
0.0
230
1.0
  2
LINE
 70
     0
 71
     0
 91
        1
 92
       33
 93
       38
 72
     1
 10
1.115683196411978
 20
-0.1706330859717084
 11
0.2177636962628071
 21
-0.1706330859717084
 72
     1
 10
0.2177636962628213
 20
-0.1706330859717084
 11
0.2078601968792952
 21
-0.4246889457533243
 72
     1
 10
0.2078601968792952
 20
-0.4246889457533243
 11
0.2375709173007294
 21
-0.4246889457533243
 72
     1
 10
0.2375709173007294
 20
-0.4246889457533243
 11
0.2441732502230991
 21
-0.3817964654080939
 72
     1
 10
0.2441732502230991
 20
-0.3817964654080939
 11
0.254076749606611
 21
-0.3422032805409501
 72
     1
 10
0.2540767496066252
 20
-0.3422032805409501
 11
0.2738837483736916
 21
-0.3092090964125091
 72
     1
 10
0.2738837483736916
 20
-0.3092090964125091
 11
0.2969919136019428
 21
-0.2861130719066693
 72
     1
 10
0.296991913601957
 20
-0.2861130719066764
 11
0.3267026340234338
 21
-0.2663164794731259
 72
     1
 10
0.3267026340234196
 20
-0.2663164794731259
 11
0.356413132174012
 21
-0.2498193191118219
 72
     1
 10
0.356413132174012
 20
-0.2498193191118148
 11
0.3828224638634481
 21
-0.243220591561446
 72
     1
 10
0.3828224638634623
 20
-0.243220591561446
 11
0.4092320178237401
 21
-0.243220591561446
 72
     1
 10
0.4092320178237401
 20
-0.243220591561446
 11
0.4719541805861525
 21
-0.2465198870395469
 72
     1
 10
0.4719541805861525
 20
-0.2465198870395469
 11
0.514869566852326
 21
-0.2729153436176332
 72
     1
 10
0.514869566852326
 20
-0.2729153436176332
 11
0.5742905631535394
 21
-0.3389038484686964
 72
     1
 10
0.5742905631535394
 20
-0.3389038484687106
 11
0.5907966177302626
 21
-0.3916947616248691
 72
     1
 10
0.5907966177302768
 20
-0.3916947616248691
 11
0.5907966177302768
 21
-1.157161773041991
 72
     1
 10
0.5907966177302768
 20
-1.157161773041984
 11
0.5643870637699991
 21
-1.203353685459461
 72
     1
 10
0.5643870637699849
 20
-1.203353685459468
 11
0.4983637345463876
 21
-1.226449709965308
 72
     1
 10
0.4983637345464019
 20
-1.226449709965301
 11
0.4389425159743326
 21
-1.226449709965301
 72
     1
 10
0.4389425159743326
 20
-1.226449709965301
 11
0.4323401830519913
 21
-1.249545734471119
 72
     1
 10
0.4323401830520055
 20
-1.249545734471134
 11
0.8945045989712809
 21
-1.249545734471134
 72
     1
 10
0.8945045989712667
 20
-1.249545734471134
 11
0.8945045989712667
 21
-1.226449709965315
 72
     1
 10
0.8945045989712667
 20
-1.226449709965301
 11
0.8152763816321311
 21
-1.226449709965301
 72
     1
 10
0.8152763816321311
 20
-1.226449709965301
 11
0.7525539965988913
 21
-1.186856661692324
 72
     1
 10
0.7525539965988913
 20
-1.186856661692324
 11
0.7426504972153794
 21
-1.140664612680659
 72
     1
 10
0.7426504972153652
 20
-1.140664612680673
 11
0.7393493307541803
 21
-0.394994193697137
 72
     1
 10
0.7393493307541803
 20
-0.394994193697137
 11
0.7558551630600619
 21
-0.3389038484687106
 72
     1
 10
0.7558551630600761
 20
-0.3389038484687106
 11
0.7987705493262496
 21
-0.2828136398344298
 72
     1
 10
0.7987705493262496
 20
-0.2828136398344227
 11
0.8614929343594894
 21
-0.2498193191118148
 72
     1
 10
0.8614929343594894
 20
-0.2498193191118148
 11
0.9374197629665985
 21
-0.2399211594891923
 72
     1
 10
0.9374197629665985
 20
-0.2399211594891923
 11
1.010045647383407
 21
-0.2663164794731117
 72
     1
 10
1.010045647383407
 20
-0.2663164794731259
 11
1.056262200110722
 21
-0.3092090964125234
 72
     1
 10
1.056262200110722
 20
-0.3092090964125091
 11
1.085972698261343
 21
-0.361999872974522
 72
     1
 10
1.085972698261358
 20
-0.3619998729745291
 11
1.092575031183727
 21
-0.4246889457533243
 72
     1
 10
1.092575031183727
 20
-0.4246889457533243
 11
1.115683196411993
 21
-0.4246889457533243
 72
     1
 10
1.115683196411978
 20
-0.4246889457533243
 11
1.109080863489609
 21
-0.17723195011623
 72
     1
 10
1.109080863489609
 20
-0.17723195011623
 11
1.109080863489609
 21
-0.1739325180439621
 72
     1
 10
1.109080863489609
 20
-0.1739325180439621
 11
1.105779697028424
 21
-0.1739325180439621
 97
        0
 75
     0
 76
     1
 52
0.0
 41
0.078125
 77
     0
 78
     1
 53
0.0
 43
-28.182772630023
 44
-32.9923404580304
 45
0.0
 46
0.009765625
 79
     0
 98
        1
 10
-28.182772630023
 20
-32.9923404580304
  0
LWPOLYLINE
  5
1E40B
330
1E407
100
AcDbEntity
  8
0
 62
    22
100
AcDbPolyline
 90
        4
 70
     1
 43
0.0
 10
0.0262955969727301
 20
-0.0287577800528069
 10
1.307151517972869
 20
-0.0287577800528069
 10
1.307151517972869
 20
-1.731261997456265
 10
0.0262955969727301
 20
-1.731261997456265
  0
LINE
  5
1E40C
330
1E407
100
AcDbEntity
  8
0
 62
    22
100
AcDbLine
 10
0.0262955969727443
 20
-1.4112176328236
 30
0.0
 11
1.307151517972869
 21
-1.4112176328236
 31
0.0
  0
ATTDEF
  5
1E40D
330
1E407
100
AcDbEntity
  8
A1
 62
    22
100
AcDbText
 10
0.6781304052809105
 20
-1.678298248906529
 30
0.0
 40
0.2126953125
  1

 72
     1
 11
0.6781304052809105
 21
-1.678298248906529
 31
0.0
100
AcDbAttributeDefinition
  3
ADD STONE MARKER
  2
XXXX
 70
     0
  0
LINE
  5
1E40E
330
1E407
100
AcDbEntity
  8
0
 62
    22
100
AcDbLine
 10
0.7464576960363587
 20
-1.129021462591367
 30
0.0
 11
0.74595166367655
 21
-1.12746688439163
 31
0.0
  0
ARC
  5
1E40F
330
1E407
100
AcDbEntity
  8
0
 62
    22
100
AcDbCircle
 10
0.8421255873066684
 20
-1.127299146756172
 30
0.0
 40
0.0956833935014068
100
AcDbArc
 50
181.0313885659746
 51
269.7936990713142
  0
LINE
  5
1E410
330
1E407
100
AcDbEntity
  8
0
 62
    22
100
AcDbLine
 10
0.9011069318936506
 20
-1.22315027789304
 30
0.0
 11
0.841781067510368
 21
-1.22315027789304
 31
0.0
  0
LINE
  5
1E411
330
1E407
100
AcDbEntity
  8
0
 62
    22
100
AcDbLine
 10
0.9011069318936506
 20
-1.256144598615648
 30
0.0
 11
0.9011069318936506
 21
-1.22315027789304
 31
0.0
  0
ARC
  5
1E412
330
1E407
100
AcDbEntity
  8
0
 62
    22
100
AcDbCircle
 10
0.4880203611777887
 20
-1.127299146756172
 30
0.0
 40
0.0956833935014068
100
AcDbArc
 50
270.2063009286848
 51
358.9686114340253
  0
LINE
  5
1E413
330
1E407
100
AcDbEntity
  8
0
 62
    22
100
AcDbLine
 10
0.4290390165908207
 20
-1.256144598615648
 30
0.0
 11
0.4290390165908207
 21
-1.22315027789304
 31
0.0
  0
LINE
  5
1E414
330
1E407
100
AcDbEntity
  8
0
 62
    22
100
AcDbLine
 10
0.4290390165908207
 20
-1.22315027789304
 30
0.0
 11
0.4883648809740891
 21
-1.22315027789304
 31
0.0
  0
LINE
  5
1E415
330
1E407
100
AcDbEntity
  8
0
 62
    22
100
AcDbLine
 10
0.5836882524480984
 20
-1.129021462591367
 30
0.0
 11
0.5841942848079072
 21
-1.12746688439163
 31
0.0
  0
LINE
  5
1E416
330
1E407
100
AcDbEntity
  8
0
 62
    22
100
AcDbLine
 10
0.4290390165908207
 20
-1.256144598615648
 30
0.0
 11
0.9011069318936506
 21
-1.256144598615648
 31
0.0
  0
LINE
  5
1E417
330
1E407
100
AcDbEntity
  8
0
 62
    22
100
AcDbLine
 10
1.085512597630156
 20
-0.415894330395318
 30
0.0
 11
1.085512597630156
 21
-0.4280723832374847
 31
0.0
  0
ARC
  5
1E418
330
1E407
100
AcDbEntity
  8
0
 62
    22
100
AcDbCircle
 10
0.9138550451562537
 20
-0.4147906495365632
 30
0.0
 40
0.1716611005230106
100
AcDbArc
 50
359.6316189828552
 51
90.00081606717127
  0
ARC
  5
1E419
330
1E407
100
AcDbEntity
  8
0
 62
    22
100
AcDbCircle
 10
0.9180888683309831
 20
-0.4147906495365632
 30
0.0
 40
0.1716611005230106
100
AcDbArc
 50
89.99918393282873
 51
180.3683810171443
  0
LINE
  5
1E41A
330
1E407
100
AcDbEntity
  8
0
 62
    22
100
AcDbLine
 10
0.2078601968792952
 20
-0.427988377825578
 30
0.0
 11
0.2441732502230991
 21
-0.427988377825578
 31
0.0
  0
LINE
  5
1E41B
330
1E407
100
AcDbEntity
  8
0
 62
    22
100
AcDbLine
 10
0.2446333508543006
 20
-0.415894330395318
 30
0.0
 11
0.2446333508543006
 21
-0.4280723832374847
 31
0.0
  0
ARC
  5
1E41C
330
1E407
100
AcDbEntity
  8
0
 62
    22
100
AcDbCircle
 10
0.4162909033282176
 20
-0.4147906495365632
 30
0.0
 40
0.1716611005230106
100
AcDbArc
 50
89.99918393282873
 51
180.3683810171443
  0
LINE
  5
1E41D
330
1E407
100
AcDbEntity
  8
0
 62
    22
100
AcDbLine
 10
0.2144627520724782
 20
-0.1706330859717156
 30
0.0
 11
0.2078601968792952
 21
-0.427988377825578
 31
0.0
  0
ARC
  5
1E41E
330
1E407
100
AcDbEntity
  8
0
 62
    22
100
AcDbCircle
 10
0.4120570801534882
 20
-0.4147906495365632
 30
0.0
 40
0.1716611005230106
100
AcDbArc
 50
359.6316189828552
 51
90.00081606717127
  0
LWPOLYLINE
  5
1E41F
330
1E407
100
AcDbEntity
  8
0
 62
    22
100
AcDbPolyline
 90
        4
 70
     0
 43
0.0
 10
0.224366029185191
 20
-0.1706330859717084
 10
1.115683196411978
 20
-0.1706330859717084
 10
1.122285751605161
 20
-0.427988377825578
 10
1.085972698261358
 20
-0.427988377825578
  0
ENDBLK
  5
1E421
330
1E407
100
AcDbEntity
  8
0
 62
     7
100
AcDbBlockEnd
  0
BLOCK
  5
1E4C2
330
1E4B7
100
AcDbEntity
  8
0
 62
     7
100
AcDbBlockBegin
  2
*D2
 70
     1
 10
0.0
 20
0.0
 30
0.0
  3
*D2
  1

  0
LINE
  5
1E632
330
1E4B7
100
AcDbEntity
  8
A1
 62
     0
370
    -2
100
AcDbLine
 10
459.1934037407884
 20
-299.3864222124273
 30
0.0
 11
509.1425393944515
 21
-299.3864222124273
 31
0.0
  0
LINE
  5
1E633
330
1E4B7
100
AcDbEntity
  8
A1
 62
     0
370
    -2
100
AcDbLine
 10
413.4096042349683
 20
-105.3796400588898
 30
0.0
 11
509.1425393944515
 21
-105.3796400588898
 31
0.0
  0
LINE
  5
1E634
330
1E4B7
100
AcDbEntity
  8
A1
 62
     0
370
    -2
100
AcDbLine
 10
507.6425393944514
 20
-296.3864222124273
 30
0.0
 11
507.6425393944514
 21
-209.7791178564245
 31
0.0
  0
LINE
  5
1E635
330
1E4B7
100
AcDbEntity
  8
A1
 62
     0
370
    -2
100
AcDbLine
 10
507.6425393944515
 20
-108.3796400588898
 30
0.0
 11
507.6425393944514
 21
-197.553745779883
 31
0.0
  0
MTEXT
  5
1E636
330
1E4B7
100
AcDbEntity
  8
A1
 62
     0
100
AcDbMText
 10
507.6425393944515
 20
-203.6664318181537
 30
0.0
 40
6.0
 41
0.0
 71
     5
 72
     1
  1
\A1;16'-2"
 73
     1
 44
1.0
  0
SOLID
  5
1E637
330
1E4B7
100
AcDbEntity
  8
A1
 62
     0
100
AcDbTrace
 10
507.1425393944514
 20
-296.3864222124273
 30
0.0
 11
508.1425393944514
 21
-296.3864222124273
 31
0.0
 12
507.6425393944514
 22
-299.3864222124273
 32
0.0
 13
507.6425393944514
 23
-299.3864222124273
 33
0.0
  0
SOLID
  5
1E638
330
1E4B7
100
AcDbEntity
  8
A1
 62
     0
100
AcDbTrace
 10
507.1425393944515
 20
-108.3796400588898
 30
0.0
 11
508.1425393944515
 21
-108.3796400588898
 31
0.0
 12
507.6425393944515
 22
-105.3796400588898
 32
0.0
 13
507.6425393944515
 23
-105.3796400588898
 33
0.0
  0
POINT
  5
1E639
330
1E4B7
100
AcDbEntity
  8
DEFPOINTS
 62
     0
100
AcDbPoint
 10
453.1934037407884
 20
-299.3864222124273
 30
0.0
  0
POINT
  5
1E63A
330
1E4B7
100
AcDbEntity
  8
DEFPOINTS
 62
     0
100
AcDbPoint
 10
407.4096042349683
 20
-105.3796400588898
 30
0.0
  0
POINT
  5
1E63B
330
1E4B7
100
AcDbEntity
  8
DEFPOINTS
 62
     0
100
AcDbPoint
 10
507.6425393944515
 20
-105.3796400588898
 30
0.0
  0
ENDBLK
  5
1E4C3
330
1E4B7
100
AcDbEntity
  8
0
 62
     7
100
AcDbBlockEnd
  0
BLOCK
  5
1E4D0
330
1E4C5
100
AcDbEntity
  8
0
 62
     7
100
AcDbBlockBegin
  2
*D3
 70
     1
 10
0.0
 20
0.0
 30
0.0
  3
*D3
  1

  0
LINE
  5
1E628
330
1E4C5
100
AcDbEntity
  8
A1
 62
     0
370
    -2
100
AcDbLine
 10
568.23447627209
 20
-299.3864222124273
 30
0.0
 11
611.8896099068665
 21
-299.3864222124273
 31
0.0
  0
LINE
  5
1E629
330
1E4C5
100
AcDbEntity
  8
A1
 62
     0
370
    -2
100
AcDbLine
 10
566.2344762720899
 20
-153.2614222124272
 30
0.0
 11
611.8896099068666
 21
-153.2614222124272
 31
0.0
  0
LINE
  5
1E62A
330
1E4C5
100
AcDbEntity
  8
A1
 62
     0
370
    -2
100
AcDbLine
 10
610.3896099068665
 20
-296.3864222124273
 30
0.0
 11
610.3896099068666
 21
-230.5976737665222
 31
0.0
  0
LINE
  5
1E62B
330
1E4C5
100
AcDbEntity
  8
A1
 62
     0
370
    -2
100
AcDbLine
 10
610.3896099068666
 20
-156.2614222124272
 30
0.0
 11
610.3896099068666
 21
-218.0576312434889
 31
0.0
  0
MTEXT
  5
1E62C
330
1E4C5
100
AcDbEntity
  8
A1
 62
     0
100
AcDbMText
 10
610.3896099068666
 20
-224.3276525050054
 30
0.0
 40
6.0
 41
0.0
 71
     5
 72
     1
  1
\A1;12'-2 1/8"
 73
     1
 44
1.0
  0
SOLID
  5
1E62D
330
1E4C5
100
AcDbEntity
  8
A1
 62
     0
100
AcDbTrace
 10
609.8896099068666
 20
-296.3864222124273
 30
0.0
 11
610.8896099068665
 21
-296.3864222124273
 31
0.0
 12
610.3896099068665
 22
-299.3864222124273
 32
0.0
 13
610.3896099068665
 23
-299.3864222124273
 33
0.0
  0
SOLID
  5
1E62E
330
1E4C5
100
AcDbEntity
  8
A1
 62
     0
100
AcDbTrace
 10
609.8896099068666
 20
-156.2614222124272
 30
0.0
 11
610.8896099068666
 21
-156.2614222124272
 31
0.0
 12
610.3896099068666
 22
-153.2614222124272
 32
0.0
 13
610.3896099068666
 23
-153.2614222124272
 33
0.0
  0
POINT
  5
1E62F
330
1E4C5
100
AcDbEntity
  8
DEFPOINTS
 62
     0
100
AcDbPoint
 10
562.2344762720899
 20
-299.3864222124273
 30
0.0
  0
POINT
  5
1E630
330
1E4C5
100
AcDbEntity
  8
DEFPOINTS
 62
     0
100
AcDbPoint
 10
560.23447627209
 20
-153.2614222124272
 30
0.0
  0
POINT
  5
1E631
330
1E4C5
100
AcDbEntity
  8
DEFPOINTS
 62
     0
100
AcDbPoint
 10
610.3896099068666
 20
-153.2614222124272
 30
0.0
  0
ENDBLK
  5
1E4D1
330
1E4C5
100
AcDbEntity
  8
0
 62
     7
100
AcDbBlockEnd
  0
BLOCK
  5
1E4DE
330
1E4D3
100
AcDbEntity
  8
0
 62
     7
100
AcDbBlockBegin
  2
*D4
 70
     1
 10
0.0
 20
0.0
 30
0.0
  3
*D4
  1

  0
LINE
  5
1E67E
330
1E4D3
100
AcDbEntity
  8
A1
 62
     0
370
    -2
100
AcDbLine
 10
566.6094762720901
 20
-152.8864222124271
 30
0.0
 11
611.8896099068666
 21
-152.8864222124272
 31
0.0
  0
LINE
  5
1E67F
330
1E4D3
100
AcDbEntity
  8
A1
 62
     0
370
    -2
100
AcDbLine
 10
564.2344762720902
 20
-105.2819698736666
 30
0.0
 11
611.8896099068666
 21
-105.2819698736666
 31
0.0
  0
LINE
  5
1E680
330
1E4D3
100
AcDbEntity
  8
A1
 62
     0
370
    -2
100
AcDbLine
 10
610.3896099068666
 20
-149.8864222124272
 30
0.0
 11
610.3896099068666
 21
-135.3544899321208
 31
0.0
  0
LINE
  5
1E681
330
1E4D3
100
AcDbEntity
  8
A1
 62
     0
370
    -2
100
AcDbLine
 10
610.3896099068666
 20
-108.2819698736666
 30
0.0
 11
610.3896099068666
 21
-122.8144474090875
 31
0.0
  0
MTEXT
  5
1E682
330
1E4D3
100
AcDbEntity
  8
A1
 62
     0
100
AcDbMText
 10
610.3896099068666
 20
-129.084468670604
 30
0.0
 40
6.0
 41
0.0
 71
     5
 72
     1
  1
\A1;3'-11 5/8"
 73
     1
 44
1.0
  0
SOLID
  5
1E683
330
1E4D3
100
AcDbEntity
  8
A1
 62
     0
100
AcDbTrace
 10
609.8896099068666
 20
-149.8864222124272
 30
0.0
 11
610.8896099068666
 21
-149.8864222124272
 31
0.0
 12
610.3896099068666
 22
-152.8864222124272
 32
0.0
 13
610.3896099068666
 23
-152.8864222124272
 33
0.0
  0
SOLID
  5
1E684
330
1E4D3
100
AcDbEntity
  8
A1
 62
     0
100
AcDbTrace
 10
609.8896099068666
 20
-108.2819698736666
 30
0.0
 11
610.8896099068666
 21
-108.2819698736666
 31
0.0
 12
610.3896099068666
 22
-105.2819698736666
 32
0.0
 13
610.3896099068666
 23
-105.2819698736666
 33
0.0
  0
POINT
  5
1E685
330
1E4D3
100
AcDbEntity
  8
DEFPOINTS
 62
     0
100
AcDbPoint
 10
560.6094762720902
 20
-152.8864222124271
 30
0.0
  0
POINT
  5
1E686
330
1E4D3
100
AcDbEntity
  8
DEFPOINTS
 62
     0
100
AcDbPoint
 10
558.2344762720902
 20
-105.2819698736666
 30
0.0
  0
POINT
  5
1E687
330
1E4D3
100
AcDbEntity
  8
DEFPOINTS
 62
     0
100
AcDbPoint
 10
610.3896099068666
 20
-105.2819698736666
 30
0.0
  0
ENDBLK
  5
1E4DF
330
1E4D3
100
AcDbEntity
  8
0
 62
     7
100
AcDbBlockEnd
  0
BLOCK
  5
1E4ED
330
1E4E2
100
AcDbEntity
  8
0
 62
     7
100
AcDbBlockBegin
  2
*D5
 70
     1
 10
0.0
 20
0.0
 30
0.0
  3
*D5
  1

  0
LINE
  5
1E648
330
1E4E2
100
AcDbEntity
  8
A1
 62
     0
370
    -2
100
AcDbLine
 10
430.8184037407884
 20
-305.3864222124273
 30
0.0
 11
430.8184037407884
 21
-320.5669015760981
 31
0.0
  0
LINE
  5
1E649
330
1E4E2
100
AcDbEntity
  8
A1
 62
     0
370
    -2
100
AcDbLine
 10
371.4434037407886
 20
-305.3864222124273
 30
0.0
 11
371.4434037407886
 21
-320.5669015760981
 31
0.0
  0
LINE
  5
1E64A
330
1E4E2
100
AcDbEntity
  8
A1
 62
     0
370
    -2
100
AcDbLine
 10
427.8184037407884
 20
-319.0669015760981
 30
0.0
 11
426.1706703312384
 21
-319.0669015760981
 31
0.0
  0
LINE
  5
1E64B
330
1E4E2
100
AcDbEntity
  8
A1
 62
     0
370
    -2
100
AcDbLine
 10
374.4434037407886
 20
-319.0669015760981
 30
0.0
 11
377.3712373050158
 21
-319.0669015760981
 31
0.0
  0
MTEXT
  5
1E64C
330
1E4E2
100
AcDbEntity
  8
A1
 62
     0
100
AcDbMText
 10
401.7709538181271
 20
-319.0669015760981
 30
0.0
 40
6.0
 41
0.0
 71
     5
 72
     1
  1
\A1;4'-11 3/8"
 73
     1
 44
1.0
  0
SOLID
  5
1E64D
330
1E4E2
100
AcDbEntity
  8
A1
 62
     0
100
AcDbTrace
 10
427.8184037407884
 20
-318.5669015760981
 30
0.0
 11
427.8184037407884
 21
-319.5669015760981
 31
0.0
 12
430.8184037407884
 22
-319.0669015760981
 32
0.0
 13
430.8184037407884
 23
-319.0669015760981
 33
0.0
  0
SOLID
  5
1E64E
330
1E4E2
100
AcDbEntity
  8
A1
 62
     0
100
AcDbTrace
 10
374.4434037407886
 20
-318.5669015760981
 30
0.0
 11
374.4434037407886
 21
-319.5669015760981
 31
0.0
 12
371.4434037407886
 22
-319.0669015760981
 32
0.0
 13
371.4434037407886
 23
-319.0669015760981
 33
0.0
  0
POINT
  5
1E64F
330
1E4E2
100
AcDbEntity
  8
DEFPOINTS
 62
     0
100
AcDbPoint
 10
430.8184037407884
 20
-299.3864222124273
 30
0.0
  0
POINT
  5
1E650
330
1E4E2
100
AcDbEntity
  8
DEFPOINTS
 62
     0
100
AcDbPoint
 10
371.4434037407886
 20
-299.3864222124273
 30
0.0
  0
POINT
  5
1E651
330
1E4E2
100
AcDbEntity
  8
DEFPOINTS
 62
     0
100
AcDbPoint
 10
371.4434037407886
 20
-319.0669015760981
 30
0.0
  0
ENDBLK
  5
1E4EE
330
1E4E2
100
AcDbEntity
  8
0
 62
     7
100
AcDbBlockEnd
  0
BLOCK
  5
1E4FB
330
1E4F0
100
AcDbEntity
  8
0
 62
     7
100
AcDbBlockBegin
  2
*D6
 70
     1
 10
0.0
 20
0.0
 30
0.0
  3
*D6
  1

  0
LINE
  5
1E652
330
1E4F0
100
AcDbEntity
  8
A1
 62
     0
370
    -2
100
AcDbLine
 10
453.1934037407884
 20
-305.3864222124273
 30
0.0
 11
453.1934037407884
 21
-333.6691374264009
 31
0.0
  0
LINE
  5
1E653
330
1E4F0
100
AcDbEntity
  8
A1
 62
     0
370
    -2
100
AcDbLine
 10
349.0684037407886
 20
-305.3864222124273
 30
0.0
 11
349.0684037407886
 21
-333.6691374264009
 31
0.0
  0
LINE
  5
1E654
330
1E4F0
100
AcDbEntity
  8
A1
 62
     0
370
    -2
100
AcDbLine
 10
450.1934037407884
 20
-332.1691374264009
 30
0.0
 11
424.6443436083056
 21
-332.1691374264009
 31
0.0
  0
LINE
  5
1E655
330
1E4F0
100
AcDbEntity
  8
A1
 62
     0
370
    -2
100
AcDbLine
 10
352.0684037407886
 20
-332.1691374264009
 30
0.0
 11
379.9058602631603
 21
-332.1691374264009
 31
0.0
  0
MTEXT
  5
1E656
330
1E4F0
100
AcDbEntity
  8
A1
 62
     0
100
AcDbMText
 10
402.275101935733
 20
-332.1691374264009
 30
0.0
 40
6.0
 41
0.0
 71
     5
 72
     1
  1
\A1;8'-8 1/8"
 73
     1
 44
1.0
  0
SOLID
  5
1E657
330
1E4F0
100
AcDbEntity
  8
A1
 62
     0
100
AcDbTrace
 10
450.1934037407884
 20
-331.6691374264009
 30
0.0
 11
450.1934037407884
 21
-332.6691374264009
 31
0.0
 12
453.1934037407884
 22
-332.1691374264009
 32
0.0
 13
453.1934037407884
 23
-332.1691374264009
 33
0.0
  0
SOLID
  5
1E658
330
1E4F0
100
AcDbEntity
  8
A1
 62
     0
100
AcDbTrace
 10
352.0684037407886
 20
-331.6691374264009
 30
0.0
 11
352.0684037407886
 21
-332.6691374264009
 31
0.0
 12
349.0684037407886
 22
-332.1691374264009
 32
0.0
 13
349.0684037407886
 23
-332.1691374264009
 33
0.0
  0
POINT
  5
1E659
330
1E4F0
100
AcDbEntity
  8
DEFPOINTS
 62
     0
100
AcDbPoint
 10
453.1934037407884
 20
-299.3864222124273
 30
0.0
  0
POINT
  5
1E65A
330
1E4F0
100
AcDbEntity
  8
DEFPOINTS
 62
     0
100
AcDbPoint
 10
349.0684037407886
 20
-299.3864222124273
 30
0.0
  0
POINT
  5
1E65B
330
1E4F0
100
AcDbEntity
  8
DEFPOINTS
 62
     0
100
AcDbPoint
 10
349.0684037407886
 20
-332.1691374264009
 30
0.0
  0
ENDBLK
  5
1E4FC
330
1E4F0
100
AcDbEntity
  8
0
 62
     7
100
AcDbBlockEnd
  0
BLOCK
  5
1E50B
330
1E4FE
100
AcDbEntity
  8
0
 62
     7
100
AcDbBlockBegin
  2
*D7
 70
     1
 10
0.0
 20
0.0
 30
0.0
  3
*D7
  1

  0
LINE
  5
1E63C
330
1E4FE
100
AcDbEntity
  8
A1
 62
     0
370
    -2
100
AcDbLine
 10
453.1934037407884
 20
-305.3864222124273
 30
0.0
 11
453.1934037407884
 21
-314.0157836509465
 31
0.0
  0
LINE
  5
1E63D
330
1E4FE
100
AcDbEntity
  8
A1
 62
     0
370
    -2
100
AcDbLine
 10
430.8184037407884
 20
-305.3864222124273
 30
0.0
 11
430.8184037407884
 21
-314.0157836509465
 31
0.0
  0
LINE
  5
1E63E
330
1E4FE
100
AcDbEntity
  8
A1
 62
     0
370
    -2
100
AcDbLine
 10
456.1934037407884
 20
-312.5157836509464
 30
0.0
 11
459.1934037407884
 21
-312.5157836509464
 31
0.0
  0
LINE
  5
1E63F
330
1E4FE
100
AcDbEntity
  8
A1
 62
     0
370
    -2
100
AcDbLine
 10
427.8184037407884
 20
-312.5157836509464
 30
0.0
 11
424.8184037407884
 21
-312.5157836509464
 31
0.0
  0
LINE
  5
1E640
330
1E4FE
100
AcDbEntity
  8
A1
 62
     0
370
    -2
100
AcDbLine
 10
465.0041088192236
 20
-312.5157836509464
 30
0.0
 11
453.1934037407884
 21
-312.5157836509464
 31
0.0
  0
MTEXT
  5
1E641
330
1E4FE
100
AcDbEntity
  8
A1
 62
     0
100
AcDbMText
 10
489.4931237022852
 20
-312.5157836509464
 30
0.0
 40
6.0
 41
0.0
 71
     5
 72
     1
  1
\A1;1'-10 3/8"
 73
     1
 44
1.0
  0
LINE
  5
1E642
330
1E4FE
100
AcDbEntity
  8
A1
 62
     0
370
    -2
100
AcDbLine
 10
453.1934037407884
 20
-312.5157836509464
 30
0.0
 11
430.8184037407884
 21
-312.5157836509464
 31
0.0
  0
SOLID
  5
1E643
330
1E4FE
100
AcDbEntity
  8
A1
 62
     0
100
AcDbTrace
 10
456.1934037407884
 20
-312.0157836509465
 30
0.0
 11
456.1934037407884
 21
-313.0157836509464
 31
0.0
 12
453.1934037407884
 22
-312.5157836509464
 32
0.0
 13
453.1934037407884
 23
-312.5157836509464
 33
0.0
  0
SOLID
  5
1E644
330
1E4FE
100
AcDbEntity
  8
A1
 62
     0
100
AcDbTrace
 10
427.8184037407884
 20
-312.0157836509465
 30
0.0
 11
427.8184037407884
 21
-313.0157836509464
 31
0.0
 12
430.8184037407884
 22
-312.5157836509464
 32
0.0
 13
430.8184037407884
 23
-312.5157836509464
 33
0.0
  0
POINT
  5
1E645
330
1E4FE
100
AcDbEntity
  8
DEFPOINTS
 62
     0
100
AcDbPoint
 10
453.1934037407884
 20
-299.3864222124273
 30
0.0
  0
POINT
  5
1E646
330
1E4FE
100
AcDbEntity
  8
DEFPOINTS
 62
     0
100
AcDbPoint
 10
430.8184037407884
 20
-299.3864222124273
 30
0.0
  0
POINT
  5
1E647
330
1E4FE
100
AcDbEntity
  8
DEFPOINTS
 62
     0
100
AcDbPoint
 10
430.8184037407884
 20
-312.5157836509464
 30
0.0
  0
ENDBLK
  5
1E50C
330
1E4FE
100
AcDbEntity
  8
0
 62
     7
100
AcDbBlockEnd
  0
BLOCK
  5
1E519
330
1E50E
100
AcDbEntity
  8
0
 62
     7
100
AcDbBlockBegin
  2
*D8
 70
     1
 10
0.0
 20
0.0
 30
0.0
  3
*D8
  1

  0
LINE
  5
1E668
330
1E50E
100
AcDbEntity
  8
A1
 62
     0
370
    -2
100
AcDbLine
 10
351.0684037407886
 20
-149.4755022124271
 30
0.0
 11
351.0684037407886
 21
-160.8204001711387
 31
0.0
  0
LINE
  5
1E669
330
1E50E
100
AcDbEntity
  8
A1
 62
     0
370
    -2
100
AcDbLine
 10
321.0684037407886
 20
-149.4755022124271
 30
0.0
 11
321.0684037407886
 21
-160.8204001711387
 31
0.0
  0
LINE
  5
1E66A
330
1E50E
100
AcDbEntity
  8
A1
 62
     0
370
    -2
100
AcDbLine
 10
354.0684037407886
 20
-159.3204001711387
 30
0.0
 11
357.0684037407886
 21
-159.3204001711387
 31
0.0
  0
LINE
  5
1E66B
330
1E50E
100
AcDbEntity
  8
A1
 62
     0
370
    -2
100
AcDbLine
 10
318.0684037407886
 20
-159.3204001711387
 30
0.0
 11
315.0684037407886
 21
-159.3204001711387
 31
0.0
  0
MTEXT
  5
1E66C
330
1E50E
100
AcDbEntity
  8
A1
 62
     0
100
AcDbMText
 10
336.2314004638116
 20
-159.3204001711387
 30
0.0
 40
6.0
 41
0.0
 71
     5
 72
     1
  1
\A1;2'-6"
 73
     1
 44
1.0
  0
SOLID
  5
1E66D
330
1E50E
100
AcDbEntity
  8
A1
 62
     0
100
AcDbTrace
 10
354.0684037407886
 20
-158.8204001711387
 30
0.0
 11
354.0684037407886
 21
-159.8204001711387
 31
0.0
 12
351.0684037407886
 22
-159.3204001711387
 32
0.0
 13
351.0684037407886
 23
-159.3204001711387
 33
0.0
  0
SOLID
  5
1E66E
330
1E50E
100
AcDbEntity
  8
A1
 62
     0
100
AcDbTrace
 10
318.0684037407886
 20
-158.8204001711387
 30
0.0
 11
318.0684037407886
 21
-159.8204001711387
 31
0.0
 12
321.0684037407886
 22
-159.3204001711387
 32
0.0
 13
321.0684037407886
 23
-159.3204001711387
 33
0.0
  0
POINT
  5
1E66F
330
1E50E
100
AcDbEntity
  8
DEFPOINTS
 62
     0
100
AcDbPoint
 10
351.0684037407886
 20
-143.4755022124271
 30
0.0
  0
POINT
  5
1E670
330
1E50E
100
AcDbEntity
  8
DEFPOINTS
 62
     0
100
AcDbPoint
 10
321.0684037407886
 20
-143.4755022124271
 30
0.0
  0
POINT
  5
1E671
330
1E50E
100
AcDbEntity
  8
DEFPOINTS
 62
     0
100
AcDbPoint
 10
321.0684037407886
 20
-159.3204001711387
 30
0.0
  0
ENDBLK
  5
1E51A
330
1E50E
100
AcDbEntity
  8
0
 62
     7
100
AcDbBlockEnd
  0
BLOCK
  5
1E527
330
1E51C
100
AcDbEntity
  8
0
 62
     7
100
AcDbBlockBegin
  2
*D9
 70
     1
 10
0.0
 20
0.0
 30
0.0
  3
*D9
  1

  0
LINE
  5
1E688
330
1E51C
100
AcDbEntity
  8
A1
 62
     0
370
    -2
100
AcDbLine
 10
443.0632271809217
 20
-127.6151763583368
 30
0.0
 11
443.0632271809217
 21
-87.773826356386
 31
0.0
  0
LINE
  5
1E689
330
1E51C
100
AcDbEntity
  8
A1
 62
     0
370
    -2
100
AcDbLine
 10
359.1986434233224
 20
-127.6220624075165
 30
0.0
 11
359.1986434233224
 21
-87.773826356386
 31
0.0
  0
LINE
  5
1E68A
330
1E51C
100
AcDbEntity
  8
A1
 62
     0
370
    -2
100
AcDbLine
 10
440.0632271809217
 20
-89.27382635638599
 30
0.0
 11
427.8104375853069
 21
-89.27382635638599
 31
0.0
  0
LINE
  5
1E68B
330
1E51C
100
AcDbEntity
  8
A1
 62
     0
370
    -2
100
AcDbLine
 10
362.1986434233224
 20
-89.27382635638599
 30
0.0
 11
377.748070469786
 21
-89.27382635638599
 31
0.0
  0
MTEXT
  5
1E68C
330
1E51C
100
AcDbEntity
  8
A1
 62
     0
100
AcDbMText
 10
402.7792540275465
 20
-89.27382635638599
 30
0.0
 40
6.0
 41
0.0
 71
     5
 72
     1
  1
\A1;6'-11 7/8"
 73
     1
 44
1.0
  0
SOLID
  5
1E68D
330
1E51C
100
AcDbEntity
  8
A1
 62
     0
100
AcDbTrace
 10
440.0632271809217
 20
-88.773826356386
 30
0.0
 11
440.0632271809217
 21
-89.77382635638599
 31
0.0
 12
443.0632271809217
 22
-89.27382635638599
 32
0.0
 13
443.0632271809217
 23
-89.27382635638599
 33
0.0
  0
SOLID
  5
1E68E
330
1E51C
100
AcDbEntity
  8
A1
 62
     0
100
AcDbTrace
 10
362.1986434233224
 20
-88.773826356386
 30
0.0
 11
362.1986434233224
 21
-89.77382635638599
 31
0.0
 12
359.1986434233224
 22
-89.27382635638599
 32
0.0
 13
359.1986434233224
 23
-89.27382635638599
 33
0.0
  0
POINT
  5
1E68F
330
1E51C
100
AcDbEntity
  8
DEFPOINTS
 62
     0
100
AcDbPoint
 10
443.0632271809217
 20
-133.6151763583368
 30
0.0
  0
POINT
  5
1E690
330
1E51C
100
AcDbEntity
  8
DEFPOINTS
 62
     0
100
AcDbPoint
 10
359.1986434233224
 20
-133.6220624075165
 30
0.0
  0
POINT
  5
1E691
330
1E51C
100
AcDbEntity
  8
DEFPOINTS
 62
     0
100
AcDbPoint
 10
359.1986434233224
 20
-89.27382635638599
 30
0.0
  0
ENDBLK
  5
1E528
330
1E51C
100
AcDbEntity
  8
0
 62
     7
100
AcDbBlockEnd
  0
BLOCK
  5
1E537
330
1E52A
100
AcDbEntity
  8
0
 62
     7
100
AcDbBlockBegin
  2
*D10
 70
     1
 10
0.0
 20
0.0
 30
0.0
  3
*D10
  1

  0
LINE
  5
1E692
330
1E52A
100
AcDbEntity
  8
A1
 62
     0
370
    -2
100
AcDbLine
 10
552.2344762720901
 20
-99.28196987366664
 30
0.0
 11
552.2344762720901
 21
-86.76596206020889
 31
0.0
  0
LINE
  5
1E693
330
1E52A
100
AcDbEntity
  8
A1
 62
     0
370
    -2
100
AcDbLine
 10
558.2344762720902
 20
-99.28196987366664
 30
0.0
 11
558.2344762720902
 21
-86.76596206020889
 31
0.0
  0
LINE
  5
1E694
330
1E52A
100
AcDbEntity
  8
A1
 62
     0
370
    -2
100
AcDbLine
 10
549.2344762720902
 20
-88.26596206020889
 30
0.0
 11
546.2344762720902
 21
-88.26596206020889
 31
0.0
  0
LINE
  5
1E695
330
1E52A
100
AcDbEntity
  8
A1
 62
     0
370
    -2
100
AcDbLine
 10
561.2344762720901
 20
-88.26596206020889
 30
0.0
 11
564.2344762720902
 21
-88.26596206020889
 31
0.0
  0
LINE
  5
1E696
330
1E52A
100
AcDbEntity
  8
A1
 62
     0
370
    -2
100
AcDbLine
 10
539.5661338377887
 20
-88.26596206020889
 30
0.0
 11
552.2344762720901
 21
-88.26596206020889
 31
0.0
  0
MTEXT
  5
1E697
330
1E52A
100
AcDbEntity
  8
A1
 62
     0
100
AcDbMText
 10
531.2379977640822
 20
-88.26596206020889
 30
0.0
 40
6.0
 41
0.0
 71
     5
 72
     1
  1
\A1;6"
 73
     1
 44
1.0
  0
LINE
  5
1E698
330
1E52A
100
AcDbEntity
  8
A1
 62
     0
370
    -2
100
AcDbLine
 10
552.2344762720901
 20
-88.26596206020889
 30
0.0
 11
558.2344762720902
 21
-88.26596206020889
 31
0.0
  0
SOLID
  5
1E699
330
1E52A
100
AcDbEntity
  8
A1
 62
     0
100
AcDbTrace
 10
549.2344762720902
 20
-87.76596206020888
 30
0.0
 11
549.2344762720902
 21
-88.7659620602089
 31
0.0
 12
552.2344762720901
 22
-88.26596206020889
 32
0.0
 13
552.2344762720901
 23
-88.26596206020889
 33
0.0
  0
SOLID
  5
1E69A
330
1E52A
100
AcDbEntity
  8
A1
 62
     0
100
AcDbTrace
 10
561.2344762720901
 20
-87.76596206020888
 30
0.0
 11
561.2344762720901
 21
-88.7659620602089
 31
0.0
 12
558.2344762720902
 22
-88.26596206020889
 32
0.0
 13
558.2344762720902
 23
-88.26596206020889
 33
0.0
  0
POINT
  5
1E69B
330
1E52A
100
AcDbEntity
  8
DEFPOINTS
 62
     0
100
AcDbPoint
 10
552.2344762720901
 20
-105.2819698736666
 30
0.0
  0
POINT
  5
1E69C
330
1E52A
100
AcDbEntity
  8
DEFPOINTS
 62
     0
100
AcDbPoint
 10
558.2344762720902
 20
-105.2819698736666
 30
0.0
  0
POINT
  5
1E69D
330
1E52A
100
AcDbEntity
  8
DEFPOINTS
 62
     0
100
AcDbPoint
 10
558.2344762720902
 20
-88.26596206020889
 30
0.0
  0
ENDBLK
  5
1E538
330
1E52A
100
AcDbEntity
  8
0
 62
     7
100
AcDbBlockEnd
  0
BLOCK
  5
1E547
330
1E53A
100
AcDbEntity
  8
0
 62
     7
100
AcDbBlockBegin
  2
*D11
 70
     1
 10
0.0
 20
0.0
 30
0.0
  3
*D11
  1

  0
LINE
  5
1E672
330
1E53A
100
AcDbEntity
  8
A1
 62
     0
370
    -2
100
AcDbLine
 10
563.1177802720901
 20
-132.8864222124271
 30
0.0
 11
563.1177802720901
 21
-94.32494428153763
 31
0.0
  0
LINE
  5
1E673
330
1E53A
100
AcDbEntity
  8
A1
 62
     0
370
    -2
100
AcDbLine
 10
552.2344762720901
 20
-99.28196987366664
 30
0.0
 11
552.2344762720901
 21
-94.32494428153763
 31
0.0
  0
LINE
  5
1E674
330
1E53A
100
AcDbEntity
  8
A1
 62
     0
370
    -2
100
AcDbLine
 10
566.1177802720901
 20
-95.82494428153763
 30
0.0
 11
569.1177802720901
 21
-95.82494428153763
 31
0.0
  0
LINE
  5
1E675
330
1E53A
100
AcDbEntity
  8
A1
 62
     0
370
    -2
100
AcDbLine
 10
549.2344762720902
 20
-95.82494428153763
 30
0.0
 11
546.2344762720902
 21
-95.82494428153763
 31
0.0
  0
LINE
  5
1E676
330
1E53A
100
AcDbEntity
  8
A1
 62
     0
370
    -2
100
AcDbLine
 10
578.9183814482985
 20
-95.82494428153763
 30
0.0
 11
563.1177802720901
 21
-95.82494428153763
 31
0.0
  0
MTEXT
  5
1E677
330
1E53A
100
AcDbEntity
  8
A1
 62
     0
100
AcDbMText
 10
597.7858513278166
 20
-95.82494428153763
 30
0.0
 40
6.0
 41
0.0
 71
     5
 72
     1
  1
\A1;10 7/8"
 73
     1
 44
1.0
  0
LINE
  5
1E678
330
1E53A
100
AcDbEntity
  8
A1
 62
     0
370
    -2
100
AcDbLine
 10
563.1177802720901
 20
-95.82494428153763
 30
0.0
 11
552.2344762720901
 21
-95.82494428153763
 31
0.0
  0
SOLID
  5
1E679
330
1E53A
100
AcDbEntity
  8
A1
 62
     0
100
AcDbTrace
 10
566.1177802720901
 20
-95.32494428153762
 30
0.0
 11
566.1177802720901
 21
-96.32494428153762
 31
0.0
 12
563.1177802720901
 22
-95.82494428153763
 32
0.0
 13
563.1177802720901
 23
-95.82494428153763
 33
0.0
  0
SOLID
  5
1E67A
330
1E53A
100
AcDbEntity
  8
A1
 62
     0
100
AcDbTrace
 10
549.2344762720902
 20
-95.32494428153762
 30
0.0
 11
549.2344762720902
 21
-96.32494428153762
 31
0.0
 12
552.2344762720901
 22
-95.82494428153763
 32
0.0
 13
552.2344762720901
 23
-95.82494428153763
 33
0.0
  0
POINT
  5
1E67B
330
1E53A
100
AcDbEntity
  8
DEFPOINTS
 62
     0
100
AcDbPoint
 10
563.1177802720901
 20
-138.8864222124271
 30
0.0
  0
POINT
  5
1E67C
330
1E53A
100
AcDbEntity
  8
DEFPOINTS
 62
     0
100
AcDbPoint
 10
552.2344762720901
 20
-105.2819698736666
 30
0.0
  0
POINT
  5
1E67D
330
1E53A
100
AcDbEntity
  8
DEFPOINTS
 62
     0
100
AcDbPoint
 10
552.2344762720901
 20
-95.82494428153763
 30
0.0
  0
ENDBLK
  5
1E548
330
1E53A
100
AcDbEntity
  8
0
 62
     7
100
AcDbBlockEnd
  0
BLOCK
  5
1E557
330
1E54A
100
AcDbEntity
  8
0
 62
     7
100
AcDbBlockBegin
  2
*D12
 70
     1
 10
0.0
 20
0.0
 30
0.0
  3
*D12
  1

  0
LINE
  5
1E65C
330
1E54A
100
AcDbEntity
  8
A1
 62
     0
370
    -2
100
AcDbLine
 10
562.2344762720899
 20
-305.3864222124273
 30
0.0
 11
562.2344762720899
 21
-314.0157836509465
 31
0.0
  0
LINE
  5
1E65D
330
1E54A
100
AcDbEntity
  8
A1
 62
     0
370
    -2
100
AcDbLine
 10
552.2344762720901
 20
-305.3864222124273
 30
0.0
 11
552.2344762720901
 21
-314.0157836509465
 31
0.0
  0
LINE
  5
1E65E
330
1E54A
100
AcDbEntity
  8
A1
 62
     0
370
    -2
100
AcDbLine
 10
565.23447627209
 20
-312.5157836509464
 30
0.0
 11
568.23447627209
 21
-312.5157836509464
 31
0.0
  0
LINE
  5
1E65F
330
1E54A
100
AcDbEntity
  8
A1
 62
     0
370
    -2
100
AcDbLine
 10
549.2344762720902
 20
-312.5157836509464
 30
0.0
 11
546.2344762720902
 21
-312.5157836509464
 31
0.0
  0
LINE
  5
1E660
330
1E54A
100
AcDbEntity
  8
A1
 62
     0
370
    -2
100
AcDbLine
 10
580.2117997501845
 20
-312.5157836509464
 30
0.0
 11
562.2344762720899
 21
-312.5157836509464
 31
0.0
  0
MTEXT
  5
1E661
330
1E54A
100
AcDbEntity
  8
A1
 62
     0
100
AcDbMText
 10
590.7277458876757
 20
-312.5157836509464
 30
0.0
 40
6.0
 41
0.0
 71
     5
 72
     1
  1
\A1;10"
 73
     1
 44
1.0
  0
LINE
  5
1E662
330
1E54A
100
AcDbEntity
  8
A1
 62
     0
370
    -2
100
AcDbLine
 10
562.2344762720899
 20
-312.5157836509464
 30
0.0
 11
552.2344762720901
 21
-312.5157836509464
 31
0.0
  0
SOLID
  5
1E663
330
1E54A
100
AcDbEntity
  8
A1
 62
     0
100
AcDbTrace
 10
565.23447627209
 20
-312.0157836509465
 30
0.0
 11
565.23447627209
 21
-313.0157836509464
 31
0.0
 12
562.2344762720899
 22
-312.5157836509464
 32
0.0
 13
562.2344762720899
 23
-312.5157836509464
 33
0.0
  0
SOLID
  5
1E664
330
1E54A
100
AcDbEntity
  8
A1
 62
     0
100
AcDbTrace
 10
549.2344762720902
 20
-312.0157836509465
 30
0.0
 11
549.2344762720902
 21
-313.0157836509464
 31
0.0
 12
552.2344762720901
 22
-312.5157836509464
 32
0.0
 13
552.2344762720901
 23
-312.5157836509464
 33
0.0
  0
POINT
  5
1E665
330
1E54A
100
AcDbEntity
  8
DEFPOINTS
 62
     0
100
AcDbPoint
 10
562.2344762720899
 20
-299.3864222124273
 30
0.0
  0
POINT
  5
1E666
330
1E54A
100
AcDbEntity
  8
DEFPOINTS
 62
     0
100
AcDbPoint
 10
552.2344762720901
 20
-299.3864222124273
 30
0.0
  0
POINT
  5
1E667
330
1E54A
100
AcDbEntity
  8
DEFPOINTS
 62
     0
100
AcDbPoint
 10
552.2344762720901
 20
-312.5157836509464
 30
0.0
  0
ENDBLK
  5
1E558
330
1E54A
100
AcDbEntity
  8
0
 62
     7
100
AcDbBlockEnd
  0
ENDSEC
  0
SECTION
  2
ENTITIES
  0
INSERT
  5
1CC4F
330
2
100
AcDbEntity
  8
A1
 62
     7
100
AcDbBlockReference
 66
     1
  2
tsformb
 10
205.9734369682715
 20
-406.5171940893952
 30
0.0
 41
4.939199999999999
 42
4.939199999999999
 43
4.939199999999999
  0
ATTRIB
  5
1CC50
330
1CC4F
100
AcDbEntity
  8
A1
 62
     1
100
AcDbText
 10
703.1380768819882
 20
-370.8584489596495
 30
0.0
 40
4.667544000000002
  1
  
 72
     1
 11
705.5330463050924
 21
-370.8584489596495
 31
0.0
100
AcDbAttribute
  2
XXXXX
 70
     0
  0
ATTRIB
  5
1CC51
330
1CC4F
100
AcDbEntity
  8
A1
 62
     1
100
AcDbText
 10
705.7018043109105
 20
-356.7349754814882
 30
0.0
 40
4.667544000000002
  1

 72
     1
 11
705.7018043109105
 21
-356.7349754814882
 31
0.0
100
AcDbAttribute
  2
XXXXX
 70
     0
  0
ATTRIB
  5
1CC52
330
1CC4F
100
AcDbEntity
  8
A1
 62
     1
100
AcDbText
 10
667.7668396274169
 20
-43.9798334201667
 30
0.0
 40
10.2685968
  1
TSE008
 72
     1
 11
695.9563574904928
 21
-43.9798334201667
 31
0.0
100
AcDbAttribute
  2
TS00XX
 70
     0
  0
ATTRIB
  5
1CC53
330
1CC4F
100
AcDbEntity
  8
A1
 62
     1
100
AcDbText
 10
239.5430515880739
 20
-391.1169522154244
 30
0.0
 40
30.28717440000001
  1
TSE008
  7
barcoder
 72
     1
 11
269.4516363080739
 21
-391.1169522154244
 31
0.0
100
AcDbAttribute
  2
BARCODE
 70
     0
  0
ATTRIB
  5
1CC54
330
1CC4F
100
AcDbEntity
  8
A1
 62
     1
100
AcDbText
 10
289.6521738354364
 20
-397.2561017060765
 30
0.0
 40
4.148928
  1
TSE008
 72
     2
 11
312.4315822096391
 21
-397.2561017060765
 31
0.0
100
AcDbAttribute
  2
XXXXXX
 70
     0
  0
ATTRIB
  5
1CC55
330
1CC4F
100
AcDbEntity
  8
A1
 62
     1
100
AcDbText
 10
388.0636480574377
 20
-401.9904955754916
 30
0.0
 40
5.065592152319999
  1
ENTRANCES
 72
     1
 11
409.7656356979582
 21
-401.9904955754916
 31
0.0
100
AcDbAttribute
  2
XXXXXX
 70
     0
  0
SEQEND
  5
1CC56
330
1CC4F
100
AcDbEntity
  8
A1
 62
     7
  0
LINE
  5
1DE52
330
2
100
AcDbEntity
  8
0
 48
8.0
100
AcDbLine
 10
552.2344762720901
 20
-135.8864222124267
 30
0.0
 11
552.2344762720901
 21
-119.3864222124266
 31
0.0
  0
ARC
  5
1DE53
330
2
100
AcDbEntity
  8
0
100
AcDbCircle
 10
412.8702658823867
 20
-126.2525346097933
 30
0.0
 40
20.75
100
AcDbArc
 50
155.1222236587601
 51
209.6304717209982
  0
ARC
  5
1DE54
330
2
100
AcDbEntity
  8
0
100
AcDbCircle
 10
363.6867320852711
 20
-120.4293005015036
 30
0.0
 40
20.5
100
AcDbArc
 50
308.3261201970285
 51
354.1954050702065
  0
ARC
  5
1DE55
330
2
100
AcDbEntity
  8
0
100
AcDbCircle
 10
389.39154159919
 20
-126.2525346097933
 30
0.0
 40
20.75
100
AcDbArc
 50
330.3695282790017
 51
24.87777634124135
  0
ARC
  5
1DE56
330
2
100
AcDbEntity
  8
0
 48
8.0
100
AcDbCircle
 10
542.7129679544566
 20
-125.7225915382313
 30
0.0
 40
16.77532260763701
100
AcDbArc
 50
342.4427210531445
 51
15.01143206057468
  0
ARC
  5
1DE57
330
2
100
AcDbEntity
  8
0
 48
8.0
100
AcDbCircle
 10
557.4903014311187
 20
-123.5631183667938
 30
0.0
 40
1.255684070275279
100
AcDbArc
 50
306.3449284066681
 51
7.763415600999163
  0
ARC
  5
1DE58
330
2
100
AcDbEntity
  8
0
 48
8.0
100
AcDbCircle
 10
617.5916191292328
 20
-127.3864222124266
 30
0.0
 40
59.10767267613778
100
AcDbArc
 50
176.9144326405228
 51
178.5837850165903
  0
ARC
  5
1DE59
330
2
100
AcDbEntity
  8
0
 48
8.0
100
AcDbCircle
 10
617.5916191292328
 20
-127.3864222124266
 30
0.0
 40
58.98267267613778
100
AcDbArc
 50
176.5494815976028
 51
178.7739866230459
  0
LINE
  5
1DE5A
330
2
100
AcDbEntity
  8
0
  6
HIDDEN
 48
8.0
100
AcDbLine
 10
557.4844762720902
 20
-135.8864222124267
 30
0.0
 11
557.4844762720902
 21
-119.3864222124266
 31
0.0
  0
ARC
  5
1DE5B
330
2
100
AcDbEntity
  8
0
100
AcDbCircle
 10
438.5750753963057
 20
-120.4293005015036
 30
0.0
 40
20.5
100
AcDbArc
 50
185.8045949297934
 51
231.6738798029716
  0
LINE
  5
1DE5C
330
2
100
AcDbEntity
  8
0
 48
8.0
100
AcDbLine
 10
552.2344762720901
 20
-138.5114222124267
 30
0.0
 11
552.2344762720901
 21
-105.2819698736666
 31
0.0
  0
LINE
  5
1DE5D
330
2
100
AcDbEntity
  8
0
 48
8.0
100
AcDbLine
 10
558.2344762720902
 20
-138.5114222124267
 30
0.0
 11
558.2344762720902
 21
-105.2819698736666
 31
0.0
  0
LINE
  5
1DE5F
330
2
100
AcDbEntity
  8
0
  6
HIDDEN
 48
8.0
100
AcDbLine
 10
555.8594762720901
 20
-138.5114222124267
 30
0.0
 11
555.8594762720901
 21
-113.1585683655155
 31
0.0
  0
ARC
  5
1DE60
330
2
100
AcDbEntity
  8
0
100
AcDbCircle
 10
390.9039922919464
 20
-124.8864222124271
 30
0.0
 40
16.81286117986646
100
AcDbArc
 50
350.4371201418586
 51
10.01401482165024
  0
ARC
  5
1DE61
330
2
100
AcDbEntity
  8
0
100
AcDbCircle
 10
411.3578151896303
 20
-124.8864222124271
 30
0.0
 40
16.81286117986646
100
AcDbArc
 50
169.9859851783497
 51
189.5628798581413
  0
ARC
  5
1DE62
330
2
100
AcDbEntity
  8
0
100
AcDbCircle
 10
363.6867320852711
 20
-120.4293005015036
 30
0.0
 40
18.5
100
AcDbArc
 50
285.4424328526146
 51
354.1954050702065
  0
ARC
  5
1DE63
330
2
100
AcDbEntity
  8
0
100
AcDbCircle
 10
438.5750753963061
 20
-120.4293005015036
 30
0.0
 40
18.5
100
AcDbArc
 50
185.8045949297934
 51
254.5575671473853
  0
ARC
  5
1DE64
330
2
100
AcDbEntity
  8
0
100
AcDbCircle
 10
438.5750753963061
 20
-120.4293005015036
 30
0.0
 40
12.5
100
AcDbArc
 50
186.6640638546291
 51
245.4801539940346
  0
ARC
  5
1DE65
330
2
100
AcDbEntity
  8
0
100
AcDbCircle
 10
438.5750753963061
 20
-120.4293005015036
 30
0.0
 40
11.5
100
AcDbArc
 50
186.7388066415824
 51
245.6510628357565
  0
ARC
  5
1DE66
330
2
100
AcDbEntity
  8
0
100
AcDbCircle
 10
438.5750753963061
 20
-120.4293005015036
 30
0.0
 40
18.125
100
AcDbArc
 50
186.3973204623926
 51
265.7943324052674
  0
ARC
  5
1DE67
330
2
100
AcDbEntity
  8
0
100
AcDbCircle
 10
438.5750753963061
 20
-120.4293005015036
 30
0.0
 40
17.125
100
AcDbArc
 50
186.4319335173521
 51
256.1546593360577
  0
ARC
  5
1DE68
330
2
100
AcDbEntity
  8
0
100
AcDbCircle
 10
363.6867320852711
 20
-120.4293005015036
 30
0.0
 40
17.125
100
AcDbArc
 50
283.8453406639422
 51
353.5680664826478
  0
ARC
  5
1DE69
330
2
100
AcDbEntity
  8
0
100
AcDbCircle
 10
363.6867320852711
 20
-120.4293005015036
 30
0.0
 40
18.125
100
AcDbArc
 50
274.2056675947325
 51
353.6026795376074
  0
ARC
  5
1DE6A
330
2
100
AcDbEntity
  8
0
100
AcDbCircle
 10
363.6867320852711
 20
-120.4293005015036
 30
0.0
 40
11.5
100
AcDbArc
 50
294.3489371642434
 51
353.2611933584175
  0
ARC
  5
1DE6B
330
2
100
AcDbEntity
  8
0
100
AcDbCircle
 10
363.6867320852711
 20
-120.4293005015036
 30
0.0
 40
12.5
100
AcDbArc
 50
294.5198460059653
 51
353.3359361453709
  0
ARC
  5
1DE6C
330
2
100
AcDbEntity
  8
0
100
AcDbCircle
 10
411.3578151896303
 20
-124.8864222124271
 30
0.0
 40
15.68786117986646
100
AcDbArc
 50
172.4213192910622
 51
188.4184549213546
  0
ARC
  5
1DE6D
330
2
100
AcDbEntity
  8
0
100
AcDbCircle
 10
390.9039922919464
 20
-124.8864222124271
 30
0.0
 40
15.68786117986646
100
AcDbArc
 50
351.5815450786452
 51
7.578680708937741
  0
LINE
  5
1DE6E
330
2
100
AcDbEntity
  8
0
100
AcDbLine
 10
400.405074177488
 20
-128.42838660989
 30
0.0
 11
398.7104326224327
 21
-123.7717510383307
 31
0.0
  0
LINE
  5
1DE6F
330
2
100
AcDbEntity
  8
0
100
AcDbLine
 10
402.2714678111706
 20
-127.7086472144183
 30
0.0
 11
400.5773747614195
 21
-123.0535188579414
 31
0.0
  0
ARC
  5
1DE70
330
2
100
AcDbEntity
  8
0
100
AcDbCircle
 10
390.9039922919464
 20
-124.8864222124271
 30
0.0
 40
16.43786117986646
100
AcDbArc
 50
350.8424428151644
 51
9.121036886704413
  0
ARC
  5
1DE71
330
2
100
AcDbEntity
  8
0
100
AcDbCircle
 10
411.3578151896303
 20
-124.8864222124271
 30
0.0
 40
16.43786117986646
100
AcDbArc
 50
170.8391983921328
 51
189.1890371689603
  0
ARC
  5
1DE72
330
2
100
AcDbEntity
  8
0
100
AcDbCircle
 10
411.3578151896303
 20
-124.8864222124271
 30
0.0
 40
16.31286117986646
100
AcDbArc
 50
171.0823799174484
 51
189.0628045788484
  0
ARC
  5
1DE73
330
2
100
AcDbEntity
  8
0
100
AcDbCircle
 10
390.9039922919464
 20
-124.8864222124271
 30
0.0
 40
16.31286117986646
100
AcDbArc
 50
350.9371954211514
 51
8.917620082551598
  0
LINE
  5
1DE74
330
2
100
AcDbEntity
  8
0
100
AcDbLine
 10
321.0684037407886
 20
-138.8864222124271
 30
0.0
 11
350.6934037407886
 21
-138.8864222124271
 31
0.0
  0
LINE
  5
1DE75
330
2
100
AcDbEntity
  8
0
100
AcDbLine
 10
321.0684037407886
 20
-140.8768322674376
 30
0.0
 11
350.6934037407886
 21
-140.8768322674376
 31
0.0
  0
LINE
  5
1DE76
330
2
100
AcDbEntity
  8
0
100
AcDbLine
 10
321.0684037407886
 20
-143.4755022124271
 30
0.0
 11
350.6934037407886
 21
-143.4755022124271
 31
0.0
  0
LINE
  5
1DE78
330
2
100
AcDbEntity
  8
10
  6
Continuous
100
AcDbLine
 10
321.0684037407886
 20
-143.4755022124271
 30
0.0
 11
321.0684037407886
 21
-138.8864222124271
 31
0.0
  0
LINE
  5
1DE7A
330
2
100
AcDbEntity
  8
0
100
AcDbLine
 10
560.23447627209
 20
-256.2926722124272
 30
0.0
 11
560.23447627209
 21
-222.1989222124271
 31
0.0
  0
LINE
  5
1DE7C
330
2
100
AcDbEntity
  8
0
100
AcDbLine
 10
552.2344762720901
 20
-256.2926722124271
 30
0.0
 11
552.23447627209
 21
-222.1989222124271
 31
0.0
  0
LINE
  5
1DE7D
330
2
100
AcDbEntity
  8
0
100
AcDbLine
 10
556.2344762720901
 20
-256.2926722124271
 30
0.0
 11
556.2344762720901
 21
-222.1989222124271
 31
0.0
  0
LINE
  5
1DE7E
330
2
100
AcDbEntity
  8
0
100
AcDbLine
 10
361.0684037407882
 20
-256.2926722124271
 30
0.0
 11
361.0684037407857
 21
-222.1989222124271
 31
0.0
  0
LINE
  5
1DE7F
330
2
100
AcDbEntity
  8
0
100
AcDbLine
 10
371.4434037407881
 20
-256.292672212427
 30
0.0
 11
371.4434037407859
 21
-222.1989222124271
 31
0.0
  0
LINE
  5
1DE80
330
2
100
AcDbEntity
  8
0
100
AcDbLine
 10
361.4434037407882
 20
-256.292672212427
 30
0.0
 11
361.4434037407856
 21
-222.1989222124271
 31
0.0
  0
LINE
  5
1DE81
330
2
100
AcDbEntity
  8
0
100
AcDbLine
 10
351.0684037407882
 20
-256.2926722124271
 30
0.0
 11
351.0684037407882
 21
-222.1989222124271
 31
0.0
  0
LINE
  5
1DE82
330
2
100
AcDbEntity
  8
0
100
AcDbLine
 10
451.1934037407886
 20
-256.2926722124271
 30
0.0
 11
451.1934037407886
 21
-222.1989222124271
 31
0.0
  0
LINE
  5
1DE83
330
2
100
AcDbEntity
  8
0
100
AcDbLine
 10
440.8184037407888
 20
-256.292672212427
 30
0.0
 11
440.8184037407911
 21
-222.1989222124271
 31
0.0
  0
LINE
  5
1DE84
330
2
100
AcDbEntity
  8
0
100
AcDbLine
 10
430.8184037407889
 20
-256.292672212427
 30
0.0
 11
430.8184037407911
 21
-222.1989222124271
 31
0.0
  0
LINE
  5
1DE85
330
2
100
AcDbEntity
  8
0
100
AcDbLine
 10
441.1934037407888
 20
-256.2926722124271
 30
0.0
 11
441.1934037407911
 21
-222.1989222124271
 31
0.0
  0
LINE
  5
1DE88
330
2
100
AcDbEntity
  8
0
100
AcDbLine
 10
349.0684037407886
 20
-292.1364222124273
 30
0.0
 11
351.0684037407886
 21
-291.1364222124273
 31
0.0
  0
LINE
  5
1DE89
330
2
100
AcDbEntity
  8
0
100
AcDbLine
 10
371.4434037407886
 20
-299.3864222124273
 30
0.0
 11
371.4434037407886
 21
-291.1364222124273
 31
0.0
  0
LINE
  5
1DE8A
330
2
100
AcDbEntity
  8
0
100
AcDbLine
 10
359.1934037407884
 20
-292.1364222124273
 30
0.0
 11
361.1934037407884
 21
-291.1364222124273
 31
0.0
  0
LINE
  5
1DE8B
330
2
100
AcDbEntity
  8
0
100
AcDbLine
 10
359.4434037407884
 20
-292.1364222124273
 30
0.0
 11
361.4434037407884
 21
-291.1364222124273
 31
0.0
  0
LINE
  5
1DE8C
330
2
100
AcDbEntity
  8
0
100
AcDbLine
 10
371.4434037407886
 20
-299.3864222124273
 30
0.0
 11
349.0684037407886
 21
-299.3864222124273
 31
0.0
  0
LINE
  5
1DE8D
330
2
100
AcDbEntity
  8
0
100
AcDbLine
 10
349.0684037407886
 20
-292.1364222124273
 30
0.0
 11
371.4434037407886
 21
-292.1364222124273
 31
0.0
  0
LINE
  5
1DE8E
330
2
100
AcDbEntity
  8
0
100
AcDbLine
 10
349.0684037407886
 20
-299.3864222124273
 30
0.0
 11
349.0684037407886
 21
-292.1364222124273
 31
0.0
  0
LINE
  5
1DE8F
330
2
100
AcDbEntity
  8
0
100
AcDbLine
 10
359.1934037407884
 20
-292.1364222124273
 30
0.0
 11
359.1934037407884
 21
-299.3864222124273
 31
0.0
  0
LINE
  5
1DE90
330
2
100
AcDbEntity
  8
0
100
AcDbLine
 10
359.4434037407884
 20
-292.1364222124273
 30
0.0
 11
359.4434037407884
 21
-299.3864222124273
 31
0.0
  0
LINE
  5
1DE92
330
2
100
AcDbEntity
  8
0
100
AcDbLine
 10
371.4434037407886
 20
-290.7614222124272
 30
0.0
 11
371.4434037407884
 21
-256.667672212427
 31
0.0
  0
LINE
  5
1DE93
330
2
100
AcDbEntity
  8
0
100
AcDbLine
 10
361.4434037407884
 20
-290.7614222124272
 30
0.0
 11
361.4434037407884
 21
-256.667672212427
 31
0.0
  0
LINE
  5
1DE94
330
2
100
AcDbEntity
  8
0
100
AcDbLine
 10
351.0684037407884
 20
-290.7614222124272
 30
0.0
 11
351.0684037407886
 21
-256.667672212427
 31
0.0
  0
LINE
  5
1DE95
330
2
100
AcDbEntity
  8
0
100
AcDbLine
 10
361.0684037407884
 20
-290.7614222124272
 30
0.0
 11
361.0684037407884
 21
-256.667672212427
 31
0.0
  0
LINE
  5
1DE96
330
2
100
AcDbEntity
  8
0
100
AcDbLine
 10
351.0684037407886
 20
-291.1364222124273
 30
0.0
 11
371.4434037407884
 21
-291.1364222124273
 31
0.0
  0
LINE
  5
1DE97
330
2
100
AcDbEntity
  8
0
100
AcDbLine
 10
351.0684037407886
 20
-290.7614222124272
 30
0.0
 11
371.4434037407884
 21
-290.7614222124272
 31
0.0
  0
LINE
  5
1DE98
330
2
100
AcDbEntity
  8
0
100
AcDbLine
 10
371.4434037407886
 20
-256.292672212427
 30
0.0
 11
361.4434037407864
 21
-256.292672212427
 31
0.0
  0
LINE
  5
1DE99
330
2
100
AcDbEntity
  8
0
100
AcDbLine
 10
371.4434037407886
 20
-256.667672212427
 30
0.0
 11
361.4434037407864
 21
-256.667672212427
 31
0.0
  0
LINE
  5
1DE9A
330
2
100
AcDbEntity
  8
0
100
AcDbLine
 10
361.0684037407863
 20
-256.292672212427
 30
0.0
 11
351.0684037407882
 21
-256.292672212427
 31
0.0
  0
LINE
  5
1DE9B
330
2
100
AcDbEntity
  8
0
100
AcDbLine
 10
361.0684037407863
 20
-256.667672212427
 30
0.0
 11
351.0684037407882
 21
-256.667672212427
 31
0.0
  0
LINE
  5
1DE9D
330
2
100
AcDbEntity
  8
0
100
AcDbLine
 10
430.8184037407884
 20
-291.1364222124273
 30
0.0
 11
430.8184037407884
 21
-299.3864222124273
 31
0.0
  0
LINE
  5
1DE9E
330
2
100
AcDbEntity
  8
0
100
AcDbLine
 10
440.8184037407886
 20
-291.1364222124273
 30
0.0
 11
442.8184037407886
 21
-292.1364222124273
 31
0.0
  0
LINE
  5
1DE9F
330
2
100
AcDbEntity
  8
0
100
AcDbLine
 10
562.2344762720899
 20
-292.1364222124273
 30
0.0
 11
560.23447627209
 21
-291.1364222124273
 31
0.0
  0
LINE
  5
1DEA0
330
2
100
AcDbEntity
  8
0
100
AcDbLine
 10
552.2344762720901
 20
-299.3864222124273
 30
0.0
 11
552.2344762720901
 21
-291.1364222124273
 31
0.0
  0
LINE
  5
1DEA2
330
2
100
AcDbEntity
  8
0
100
AcDbLine
 10
558.2344762720902
 20
-292.1364222124273
 30
0.0
 11
556.2344762720901
 21
-291.1364222124273
 31
0.0
  0
LINE
  5
1DEA3
330
2
100
AcDbEntity
  8
0
100
AcDbLine
 10
443.0684037407886
 20
-292.1364222124273
 30
0.0
 11
441.0684037407886
 21
-291.1364222124273
 31
0.0
  0
LINE
  5
1DEA4
330
2
100
AcDbEntity
  8
0
100
AcDbLine
 10
453.1934037407884
 20
-292.1364222124273
 30
0.0
 11
451.1934037407884
 21
-291.1364222124273
 31
0.0
  0
LINE
  5
1DEA5
330
2
100
AcDbEntity
  8
0
100
AcDbLine
 10
442.8184037407886
 20
-299.3864222124273
 30
0.0
 11
440.8184037407886
 21
-299.3864222124273
 31
0.0
  0
LINE
  5
1DEA8
330
2
100
AcDbEntity
  8
0
100
AcDbLine
 10
453.1934037407884
 20
-292.1364222124273
 30
0.0
 11
430.8184037407884
 21
-292.1364222124273
 31
0.0
  0
LINE
  5
1DEA9
330
2
100
AcDbEntity
  8
0
100
AcDbLine
 10
430.8184037407884
 20
-299.3864222124273
 30
0.0
 11
440.8184037407886
 21
-299.3864222124273
 31
0.0
  0
LINE
  5
1DEAA
330
2
100
AcDbEntity
  8
0
100
AcDbLine
 10
453.1934037407884
 20
-299.3864222124273
 30
0.0
 11
442.8184037407886
 21
-299.3864222124273
 31
0.0
  0
LINE
  5
1DEAB
330
2
100
AcDbEntity
  8
0
100
AcDbLine
 10
442.8184037407886
 20
-292.1364222124273
 30
0.0
 11
442.8184037407886
 21
-299.3864222124273
 31
0.0
  0
LINE
  5
1DEAC
330
2
100
AcDbEntity
  8
0
100
AcDbLine
 10
443.0684037407886
 20
-292.1364222124273
 30
0.0
 11
443.0684037407886
 21
-299.3864222124273
 31
0.0
  0
LINE
  5
1DEAD
330
2
100
AcDbEntity
  8
0
100
AcDbLine
 10
453.1934037407884
 20
-299.3864222124273
 30
0.0
 11
453.1934037407884
 21
-292.1364222124273
 31
0.0
  0
LINE
  5
1DEAE
330
2
100
AcDbEntity
  8
0
100
AcDbLine
 10
453.1934037407884
 20
-299.3864222124273
 30
0.0
 11
449.1934037407884
 21
-299.3864222124273
 31
0.0
  0
LINE
  5
1DEAF
330
2
100
AcDbEntity
  8
0
100
AcDbLine
 10
562.2344762720899
 20
-292.1364222124273
 30
0.0
 11
552.2344762720901
 21
-292.1364222124271
 31
0.0
  0
LINE
  5
1DEB0
330
2
100
AcDbEntity
  8
0
100
AcDbLine
 10
562.2344762720899
 20
-299.3864222124273
 30
0.0
 11
562.2344762720899
 21
-292.1364222124273
 31
0.0
  0
LINE
  5
1DEB1
330
2
100
AcDbEntity
  8
0
100
AcDbLine
 10
562.2344762720899
 20
-299.3864222124273
 30
0.0
 11
556.23447627209
 21
-299.3864222124273
 31
0.0
  0
LINE
  5
1DEB2
330
2
100
AcDbEntity
  8
0
100
AcDbLine
 10
556.2344762720901
 20
-299.3864222124273
 30
0.0
 11
552.2344762720901
 21
-299.3864222124273
 31
0.0
  0
LINE
  5
1DEB7
330
2
100
AcDbEntity
  8
0
100
AcDbLine
 10
558.2344762720897
 20
-292.1364222124273
 30
0.0
 11
558.2344762720897
 21
-299.3864222124273
 31
0.0
  0
LINE
  5
1DEB8
330
2
100
AcDbEntity
  8
0
100
AcDbLine
 10
440.8184037407886
 20
-290.7614222124272
 30
0.0
 11
440.8184037407886
 21
-256.667672212427
 31
0.0
  0
LINE
  5
1DEB9
330
2
100
AcDbEntity
  8
0
100
AcDbLine
 10
430.8184037407884
 20
-290.7614222124272
 30
0.0
 11
430.8184037407886
 21
-256.667672212427
 31
0.0
  0
LINE
  5
1DEBA
330
2
100
AcDbEntity
  8
0
100
AcDbLine
 10
441.1934037407884
 20
-290.7614222124272
 30
0.0
 11
441.1934037407884
 21
-256.667672212427
 31
0.0
  0
LINE
  5
1DEBB
330
2
100
AcDbEntity
  8
0
100
AcDbLine
 10
451.1934037407884
 20
-290.7614222124272
 30
0.0
 11
451.1934037407884
 21
-256.667672212427
 31
0.0
  0
LINE
  5
1DEBD
330
2
100
AcDbEntity
  8
0
100
AcDbLine
 10
451.1934037407884
 20
-290.7614222124272
 30
0.0
 11
430.8184037407886
 21
-290.7614222124272
 31
0.0
  0
LINE
  5
1DEBE
330
2
100
AcDbEntity
  8
0
100
AcDbLine
 10
451.1934037407886
 20
-291.1364222124273
 30
0.0
 11
430.8184037407884
 21
-291.1364222124273
 31
0.0
  0
LINE
  5
1DEC0
330
2
100
AcDbEntity
  8
0
100
AcDbLine
 10
430.8184037407886
 20
-291.1364222124273
 30
0.0
 11
440.8184037407886
 21
-291.1364222124273
 31
0.0
  0
LINE
  5
1DEC1
330
2
100
AcDbEntity
  8
0
100
AcDbLine
 10
430.8184037407886
 20
-290.7614222124272
 30
0.0
 11
440.8184037407886
 21
-290.7614222124272
 31
0.0
  0
LINE
  5
1DEC2
330
2
100
AcDbEntity
  8
0
100
AcDbLine
 10
441.1934037407907
 20
-256.667672212427
 30
0.0
 11
451.1934037407889
 21
-256.667672212427
 31
0.0
  0
LINE
  5
1DEC3
330
2
100
AcDbEntity
  8
0
100
AcDbLine
 10
441.1934037407907
 20
-256.292672212427
 30
0.0
 11
451.1934037407889
 21
-256.292672212427
 31
0.0
  0
LINE
  5
1DEC4
330
2
100
AcDbEntity
  8
0
100
AcDbLine
 10
430.8184037407881
 20
-256.667672212427
 30
0.0
 11
440.8184037407907
 21
-256.667672212427
 31
0.0
  0
LINE
  5
1DEC5
330
2
100
AcDbEntity
  8
0
100
AcDbLine
 10
430.8184037407881
 20
-256.292672212427
 30
0.0
 11
440.8184037407907
 21
-256.292672212427
 31
0.0
  0
LINE
  5
1DEC6
330
2
100
AcDbEntity
  8
0
100
AcDbLine
 10
556.2344762720901
 20
-290.7614222124272
 30
0.0
 11
556.2344762720901
 21
-256.6676722124271
 31
0.0
  0
LINE
  5
1DEC7
330
2
100
AcDbEntity
  8
0
100
AcDbLine
 10
560.23447627209
 20
-290.7614222124272
 30
0.0
 11
560.23447627209
 21
-256.6676722124272
 31
0.0
  0
LINE
  5
1DEC8
330
2
100
AcDbEntity
  8
0
100
AcDbLine
 10
552.2344762720901
 20
-290.7614222124272
 30
0.0
 11
552.2344762720901
 21
-256.6676722124271
 31
0.0
  0
LINE
  5
1DEC9
330
2
100
AcDbEntity
  8
0
100
AcDbLine
 10
560.2344762720901
 20
-290.7614222124272
 30
0.0
 11
552.2344762720901
 21
-290.7614222124272
 31
0.0
  0
LINE
  5
1DECA
330
2
100
AcDbEntity
  8
0
100
AcDbLine
 10
560.2344762720901
 20
-291.1364222124273
 30
0.0
 11
556.23447627209
 21
-291.1364222124273
 31
0.0
  0
LINE
  5
1DECE
330
2
100
AcDbEntity
  8
0
100
AcDbLine
 10
556.23447627209
 20
-291.1364222124273
 30
0.0
 11
552.23447627209
 21
-291.1364222124273
 31
0.0
  0
LINE
  5
1DECF
330
2
100
AcDbEntity
  8
0
100
AcDbLine
 10
560.23447627209
 20
-256.6676722124272
 30
0.0
 11
556.23447627209
 21
-256.6676722124272
 31
0.0
  0
LINE
  5
1DED0
330
2
100
AcDbEntity
  8
0
100
AcDbLine
 10
560.23447627209
 20
-256.2926722124272
 30
0.0
 11
556.23447627209
 21
-256.2926722124272
 31
0.0
  0
LINE
  5
1DED1
330
2
100
AcDbEntity
  8
0
100
AcDbLine
 10
556.2344762720901
 20
-256.2926722124271
 30
0.0
 11
552.2344762720901
 21
-256.2926722124272
 31
0.0
  0
LINE
  5
1DED2
330
2
100
AcDbEntity
  8
0
100
AcDbLine
 10
556.2344762720901
 20
-256.6676722124271
 30
0.0
 11
552.2344762720901
 21
-256.6676722124271
 31
0.0
  0
LINE
  5
1DED3
330
2
100
AcDbEntity
  8
0
100
AcDbLine
 10
401.3184037407886
 20
-152.8864222124271
 30
0.0
 11
430.8249937407886
 21
-152.8864222124271
 31
0.0
  0
LINE
  5
1DED4
330
2
100
AcDbEntity
  8
0
100
AcDbLine
 10
401.3184037407886
 20
-148.9664382124271
 30
0.0
 11
430.8184037407884
 21
-148.9664382124272
 31
0.0
  0
LINE
  5
1DED5
330
2
100
AcDbEntity
  8
0
100
AcDbLine
 10
401.3184037407886
 20
-149.1063622124273
 30
0.0
 11
430.0769477407884
 21
-149.1063622124271
 31
0.0
  0
LINE
  5
1DED6
330
2
100
AcDbEntity
  8
0
100
AcDbLine
 10
401.3184037407886
 20
-149.7737822124272
 30
0.0
 11
430.0769477407884
 21
-149.7737822124272
 31
0.0
  0
LINE
  5
1DED7
330
2
100
AcDbEntity
  8
0
100
AcDbLine
 10
401.3184037407886
 20
-143.4755022124271
 30
0.0
 11
430.7845380496424
 21
-143.4755022124271
 31
0.0
  0
LINE
  5
1DED8
330
2
100
AcDbEntity
  8
0
100
AcDbLine
 10
401.3184037407886
 20
-140.8768322674376
 30
0.0
 11
428.3100997407636
 21
-140.8768322674376
 31
0.0
  0
LINE
  5
1DED9
330
2
100
AcDbEntity
  8
0
100
AcDbLine
 10
428.3100997407887
 20
-138.8864222124271
 30
0.0
 11
401.3184037407886
 21
-138.8864222124271
 31
0.0
  0
LINE
  5
1DEDA
330
2
100
AcDbEntity
  8
0
100
AcDbLine
 10
425.8622723507519
 20
-136.5114222124272
 30
0.0
 11
407.4281079341808
 21
-136.5114222124272
 31
0.0
  0
LINE
  5
1DEDB
330
2
100
AcDbEntity
  8
0
100
AcDbLine
 10
401.3184037407884
 20
-138.5114222124272
 30
0.0
 11
433.6490795287873
 21
-138.5114222124271
 31
0.0
  0
LINE
  5
1DEDC
330
2
100
AcDbEntity
  8
0
100
AcDbLine
 10
361.4434037407864
 20
-187.3551722124271
 30
0.0
 11
361.4434037407886
 21
-153.2614222124272
 31
0.0
  0
LINE
  5
1DEDD
330
2
100
AcDbEntity
  8
0
100
AcDbLine
 10
361.0684037407863
 20
-187.3551722124271
 30
0.0
 11
361.0684037407886
 21
-153.2614222124271
 31
0.0
  0
LINE
  5
1DEDE
330
2
100
AcDbEntity
  8
0
100
AcDbLine
 10
351.0684037407882
 20
-187.3551722124271
 30
0.0
 11
351.0684037407882
 21
-153.2614222124272
 31
0.0
  0
LINE
  5
1DEDF
330
2
100
AcDbEntity
  8
0
100
AcDbLine
 10
371.4434037407863
 20
-187.3551722124271
 30
0.0
 11
371.4434037407886
 21
-153.2614222124272
 31
0.0
  0
LINE
  5
1DEE0
330
2
100
AcDbEntity
  8
0
100
AcDbLine
 10
371.4434037407838
 20
-221.8239222124271
 30
0.0
 11
371.4434037407863
 21
-187.7301722124272
 31
0.0
  0
LINE
  5
1DEE1
330
2
100
AcDbEntity
  8
0
100
AcDbLine
 10
361.4434037407836
 20
-221.8239222124271
 30
0.0
 11
361.4434037407864
 21
-187.7301722124272
 31
0.0
  0
LINE
  5
1DEE2
330
2
100
AcDbEntity
  8
0
100
AcDbLine
 10
351.0684037407882
 20
-221.8239222124271
 30
0.0
 11
351.0684037407882
 21
-187.7301722124272
 31
0.0
  0
LINE
  5
1DEE3
330
2
100
AcDbEntity
  8
0
100
AcDbLine
 10
361.0684037407836
 20
-221.8239222124271
 30
0.0
 11
361.0684037407863
 21
-187.7301722124272
 31
0.0
  0
LINE
  5
1DEE4
330
2
100
AcDbEntity
  8
0
100
AcDbLine
 10
371.4434037407886
 20
-221.8239222124271
 30
0.0
 11
361.4434037407864
 21
-221.8239222124271
 31
0.0
  0
LINE
  5
1DEE5
330
2
100
AcDbEntity
  8
0
100
AcDbLine
 10
371.4434037407886
 20
-222.1989222124271
 30
0.0
 11
361.4434037407864
 21
-222.1989222124271
 31
0.0
  0
LINE
  5
1DEE6
330
2
100
AcDbEntity
  8
0
100
AcDbLine
 10
361.0684037407863
 20
-221.8239222124271
 30
0.0
 11
351.0684037407882
 21
-221.8239222124271
 31
0.0
  0
LINE
  5
1DEE7
330
2
100
AcDbEntity
  8
0
100
AcDbLine
 10
361.0684037407863
 20
-222.1989222124271
 30
0.0
 11
351.0684037407882
 21
-222.1989222124271
 31
0.0
  0
LINE
  5
1DEEC
330
2
100
AcDbEntity
  8
0
100
AcDbLine
 10
368.6127279527893
 20
-138.5114222124272
 30
0.0
 11
400.9434037407884
 21
-138.5114222124272
 31
0.0
  0
LINE
  5
1DEED
330
2
100
AcDbEntity
  8
0
100
AcDbLine
 10
371.4368137407884
 20
-152.8864222124271
 30
0.0
 11
400.9434037407886
 21
-152.8864222124271
 31
0.0
  0
LINE
  5
1DEEE
330
2
100
AcDbEntity
  8
0
100
AcDbLine
 10
373.9517077407883
 20
-138.8864222124271
 30
0.0
 11
400.9434037407886
 21
-138.8864222124273
 31
0.0
  0
LINE
  5
1DEEF
330
2
100
AcDbEntity
  8
0
100
AcDbLine
 10
372.1848597407884
 20
-149.7737822124272
 30
0.0
 11
400.9434037407886
 21
-149.7737822124271
 31
0.0
  0
LINE
  5
1DEF0
330
2
100
AcDbEntity
  8
0
100
AcDbLine
 10
372.1848597407884
 20
-149.1063622124272
 30
0.0
 11
400.9434037407886
 21
-149.1063622124272
 31
0.0
  0
LINE
  5
1DEF1
330
2
100
AcDbEntity
  8
0
100
AcDbLine
 10
371.4434037407884
 20
-148.9664382124272
 30
0.0
 11
400.9434037407886
 21
-148.9664382124272
 31
0.0
  0
LINE
  5
1DEF2
330
2
100
AcDbEntity
  8
0
100
AcDbLine
 10
371.4434037407884
 20
-143.4755022124271
 30
0.0
 11
400.9434037407886
 21
-143.4755022124271
 31
0.0
  0
LINE
  5
1DEF3
330
2
100
AcDbEntity
  8
0
100
AcDbLine
 10
373.9517077407883
 20
-140.8768322674376
 30
0.0
 11
400.9434037407886
 21
-140.8768322674376
 31
0.0
  0
LINE
  5
1DEF4
330
2
100
AcDbEntity
  8
0
100
AcDbLine
 10
376.3995351308249
 20
-136.5114222124272
 30
0.0
 11
394.833699547396
 21
-136.5114222124272
 31
0.0
  0
LINE
  5
1DEF5
330
2
100
AcDbEntity
  8
10
  6
Continuous
100
AcDbLine
 10
351.0684037407886
 20
-152.8864222124271
 30
0.0
 11
351.0684037407886
 21
-150.4898142124271
 31
0.0
  0
LINE
  5
1DEF6
330
2
100
AcDbEntity
  8
10
  6
Continuous
100
AcDbLine
 10
361.4434037407886
 20
-152.8864222124271
 30
0.0
 11
361.4434037407886
 21
-150.4898142124271
 31
0.0
  0
LINE
  5
1DEF7
330
2
100
AcDbEntity
  8
10
  6
Continuous
100
AcDbLine
 10
371.4434037407884
 20
-152.8864222124271
 30
0.0
 11
371.4434037407884
 21
-150.4898142124271
 31
0.0
  0
LINE
  5
1DEF8
330
2
100
AcDbEntity
  8
0
100
AcDbLine
 10
371.4434037407891
 20
-153.2614222124272
 30
0.0
 11
351.0684037407886
 21
-153.2614222124272
 31
0.0
  0
LINE
  5
1DEF9
330
2
100
AcDbEntity
  8
0
  6
Continuous
 62
     7
100
AcDbLine
 10
351.0684037407886
 20
-152.8864222124271
 30
0.0
 11
371.4368137407884
 21
-152.8864222124271
 31
0.0
  0
LINE
  5
1DEFA
330
2
100
AcDbEntity
  8
10
  6
Continuous
 62
     7
100
AcDbLine
 10
353.0684037407886
 20
-152.8864222124271
 30
0.0
 11
371.4434037407884
 21
-152.8864222124271
 31
0.0
  0
LINE
  5
1DEFB
330
2
100
AcDbEntity
  8
0
100
AcDbLine
 10
351.0684037407886
 20
-148.9664382124272
 30
0.0
 11
371.4434037407884
 21
-148.9664382124272
 31
0.0
  0
LINE
  5
1DEFC
330
2
100
AcDbEntity
  8
0
100
AcDbLine
 10
350.3269477407886
 20
-149.1063622124272
 30
0.0
 11
372.1848597407884
 21
-149.1063622124272
 31
0.0
  0
LINE
  5
1DEFD
330
2
100
AcDbEntity
  8
0
100
AcDbLine
 10
350.3269477407884
 20
-149.7737822124272
 30
0.0
 11
372.1848597407884
 21
-149.7737822124272
 31
0.0
  0
LINE
  5
1DEFE
330
2
100
AcDbEntity
  8
0
100
AcDbLine
 10
351.0684037407886
 20
-138.8864222124271
 30
0.0
 11
373.9517077407883
 21
-138.8864222124271
 31
0.0
  0
LINE
  5
1DEFF
330
2
100
AcDbEntity
  8
0
100
AcDbLine
 10
351.0684037407886
 20
-140.8768322674376
 30
0.0
 11
373.9517077407883
 21
-140.8768322674376
 31
0.0
  0
LINE
  5
1DF00
330
2
100
AcDbEntity
  8
0
100
AcDbLine
 10
351.0684037407886
 20
-143.4755022124271
 30
0.0
 11
371.4772694319506
 21
-143.4755022124271
 31
0.0
  0
ARC
  5
1DF01
330
2
100
AcDbEntity
  8
0
100
AcDbCircle
 10
364.1984006166339
 20
-133.5727875870795
 30
0.0
 40
5.0
100
AcDbArc
 50
32.22727595697735
 51
279.4108260575544
  0
CIRCLE
  5
1DF02
330
2
100
AcDbEntity
  8
0
100
AcDbCircle
 10
364.1984006166339
 20
-133.5727875870796
 30
0.0
 40
4.0
  0
LINE
  5
1DF03
330
2
100
AcDbEntity
  8
10
  6
Continuous
100
AcDbLine
 10
351.0684037407886
 20
-148.9664382124272
 30
0.0
 11
351.0684037407886
 21
-138.8864222124271
 31
0.0
  0
ARC
  5
1DF04
330
2
100
AcDbEntity
  8
10
  6
Continuous
100
AcDbCircle
 10
350.3580757407885
 20
-150.4820782124271
 30
0.0
 40
0.704936
100
AcDbArc
 50
356.7523350005712
 51
92.25279200027655
  0
LINE
  5
1DF05
330
2
100
AcDbEntity
  8
10
  6
Continuous
100
AcDbLine
 10
351.0649837407886
 20
-148.9682982124271
 30
0.0
 11
350.3269477407884
 21
-149.1063622124272
 31
0.0
  0
LINE
  5
1DF06
330
2
100
AcDbEntity
  8
10
  6
Continuous
100
AcDbLine
 10
350.3269477407884
 20
-149.1063622124272
 30
0.0
 11
350.3269477407884
 21
-149.7737822124272
 31
0.0
  0
LINE
  5
1DF07
330
2
100
AcDbEntity
  8
10
  6
Continuous
100
AcDbLine
 10
360.7019477407884
 20
-149.1063622124272
 30
0.0
 11
360.7019477407884
 21
-149.7737822124272
 31
0.0
  0
LINE
  5
1DF08
330
2
100
AcDbEntity
  8
10
  6
Continuous
100
AcDbLine
 10
361.4399837407886
 20
-148.9682982124271
 30
0.0
 11
360.7019477407884
 21
-149.1063622124272
 31
0.0
  0
ARC
  5
1DF09
330
2
100
AcDbEntity
  8
10
  6
Continuous
100
AcDbCircle
 10
360.7330757407885
 20
-150.4820782124271
 30
0.0
 40
0.704936
100
AcDbArc
 50
356.7523350005712
 51
92.25279200027655
  0
LINE
  5
1DF0A
330
2
100
AcDbEntity
  8
10
  6
Continuous
100
AcDbLine
 10
361.4434037407886
 20
-148.9664382124272
 30
0.0
 11
361.4434037407886
 21
-143.4755022124271
 31
0.0
  0
ARC
  5
1DF0B
330
2
100
AcDbEntity
  8
10
  6
Continuous
 62
     7
100
AcDbCircle
 10
361.5665717407887
 20
-142.1112462124272
 30
0.0
 40
1.373264
100
AcDbArc
 50
191.4341463923637
 51
264.8439640008531
  0
ARC
  5
1DF0C
330
2
100
AcDbEntity
  8
10
  6
Continuous
 62
     7
100
AcDbCircle
 10
358.8724797407885
 20
-142.2319582124272
 30
0.0
 40
1.356571999999999
100
AcDbArc
 50
11.54416766397498
 51
87.35425978197238
  0
LINE
  5
1DF0D
330
2
100
AcDbEntity
  8
10
  6
Continuous
 62
     7
100
AcDbLine
 10
358.9350997407886
 20
-138.8864222124271
 30
0.0
 11
358.9350997407886
 21
-140.8768322674376
 31
0.0
  0
LINE
  5
1DF0E
330
2
100
AcDbEntity
  8
0
100
AcDbLine
 10
360.2205626322163
 20
-142.3834841475803
 30
0.0
 11
360.2016092747633
 21
-141.960476586713
 31
0.0
  0
LINE
  5
1DF0F
330
2
100
AcDbEntity
  8
10
  6
Continuous
100
AcDbLine
 10
350.6934037407886
 20
-143.4755022124271
 30
0.0
 11
350.6934037407886
 21
-138.8864222124271
 31
0.0
  0
ARC
  5
1DF10
330
2
100
AcDbEntity
  8
0
100
AcDbCircle
 10
363.6867320852711
 20
-120.4293005015036
 30
0.0
 40
17.125
100
AcDbArc
 50
270.2530656039398
 51
270.4114934106966
  0
LINE
  5
1DF11
330
2
100
AcDbEntity
  8
10
  6
Continuous
100
AcDbLine
 10
371.4434037407884
 20
-148.9664382124272
 30
0.0
 11
371.4434037407884
 21
-143.4755022124271
 31
0.0
  0
LINE
  5
1DF12
330
2
100
AcDbEntity
  8
10
  6
Continuous
100
AcDbLine
 10
371.4468237407884
 20
-148.9682982124271
 30
0.0
 11
372.1848597407884
 21
-149.1063622124272
 31
0.0
  0
LINE
  5
1DF13
330
2
100
AcDbEntity
  8
10
  6
Continuous
100
AcDbLine
 10
372.1848597407884
 20
-149.1063622124272
 30
0.0
 11
372.1848597407884
 21
-149.7737822124272
 31
0.0
  0
ARC
  5
1DF14
330
2
100
AcDbEntity
  8
10
  6
Continuous
100
AcDbCircle
 10
372.1537317407883
 20
-150.4820782124271
 30
0.0
 40
0.704936
100
AcDbArc
 50
87.74720799972346
 51
183.2476649994287
  0
LINE
  5
1DF15
330
2
100
AcDbEntity
  8
0
100
AcDbLine
 10
372.6662448493607
 20
-142.3834841475803
 30
0.0
 11
372.6851982068137
 21
-141.960476586713
 31
0.0
  0
LINE
  5
1DF16
330
2
100
AcDbEntity
  8
10
  6
Continuous
 62
     7
100
AcDbLine
 10
373.9517077407883
 20
-138.8864222124271
 30
0.0
 11
373.9517077407883
 21
-140.8768322674376
 31
0.0
  0
ARC
  5
1DF17
330
2
100
AcDbEntity
  8
10
  6
Continuous
 62
     7
100
AcDbCircle
 10
374.0143277407883
 20
-142.2319582124272
 30
0.0
 40
1.356571999999999
100
AcDbArc
 50
92.64574021802761
 51
168.4558323360249
  0
ARC
  5
1DF18
330
2
100
AcDbEntity
  8
10
  6
Continuous
 62
     7
100
AcDbCircle
 10
371.3202357407883
 20
-142.1112462124272
 30
0.0
 40
1.373264
100
AcDbArc
 50
275.1560359991468
 51
348.5658536076362
  0
LINE
  5
1DF19
330
2
100
AcDbEntity
  8
0
100
AcDbLine
 10
368.6127279527893
 20
-138.2614222124271
 30
0.0
 11
368.6127279527893
 21
-138.5114222124271
 31
0.0
  0
ARC
  5
1DF1A
330
2
100
AcDbEntity
  8
0
100
AcDbCircle
 10
364.1984006166339
 20
-133.5727875870795
 30
0.0
 40
5.0
100
AcDbArc
 50
315.8299755101347
 51
20.74157193191731
  0
LINE
  5
1DF1B
330
2
100
AcDbEntity
  8
0
100
AcDbLine
 10
367.8884343115701
 20
-137.0308463151173
 30
0.0
 11
367.7849910749437
 21
-137.0565167505427
 31
0.0
  0
LINE
  5
1DF1C
330
2
100
AcDbEntity
  8
0
100
AcDbLine
 10
401.3184037407886
 20
-152.8864222124271
 30
0.0
 11
401.3184037407886
 21
-138.8864222124271
 31
0.0
  0
LINE
  5
1DF1D
330
2
100
AcDbEntity
  8
0
100
AcDbLine
 10
400.9434037407886
 20
-152.8864222124271
 30
0.0
 11
400.9434037407886
 21
-138.8864222124274
 31
0.0
  0
ARC
  5
1DF1E
330
2
100
AcDbEntity
  8
0
100
AcDbCircle
 10
416.9488556308804
 20
-136.1680901366844
 30
0.0
 40
12.71431162693538
100
AcDbArc
 50
138.1150284922282
 51
182.7123517336282
  0
ARC
  5
1DF1F
330
2
100
AcDbEntity
  8
0
100
AcDbCircle
 10
403.74934804197
 20
-136.7934149995019
 30
0.0
 40
0.5
100
AcDbArc
 50
257.6674135546027
 51
2.712351733628229
  0
ARC
  5
1DF20
330
2
100
AcDbEntity
  8
0
100
AcDbCircle
 10
416.9488556308804
 20
-136.1680901366844
 30
0.0
 40
13.83931162693538
100
AcDbArc
 50
139.516195578874
 51
179.755439904956
  0
ARC
  5
1DF21
330
2
100
AcDbEntity
  8
0
100
AcDbCircle
 10
408.519182690919
 20
-125.1508874971771
 30
0.0
 40
6.751005553972675
100
AcDbArc
 50
202.2637626626893
 51
231.7917029504464
  0
ARC
  5
1DF22
330
2
100
AcDbEntity
  8
0
100
AcDbCircle
 10
416.9488556308804
 20
-136.1680901366844
 30
0.0
 40
13.08931162693538
100
AcDbArc
 50
138.6362341340434
 51
182.7123517336282
  0
ARC
  5
1DF23
330
2
100
AcDbEntity
  8
0
100
AcDbCircle
 10
416.9488556308804
 20
-136.1680901366844
 30
0.0
 40
13.21431162693538
100
AcDbArc
 50
138.753958732662
 51
182.7123517336282
  0
ARC
  5
1DF24
330
2
100
AcDbEntity
  8
0
100
AcDbCircle
 10
401.1309037407884
 20
-136.3864222124272
 30
0.0
 40
1.5
100
AcDbArc
 50
277.1807557814583
 51
309.3756144172297
  0
LINE
  5
1DF25
330
2
100
AcDbEntity
  8
0
100
AcDbLine
 10
401.3184037407884
 20
-137.8746573249004
 30
0.0
 11
401.3184037407884
 21
-138.5114222124272
 31
0.0
  0
LINE
  5
1DF26
330
2
100
AcDbEntity
  8
0
100
AcDbLine
 10
400.9434037407884
 20
-137.8746573249004
 30
0.0
 11
400.9434037407884
 21
-138.5114222124272
 31
0.0
  0
ARC
  5
1DF27
330
2
100
AcDbEntity
  8
0
100
AcDbCircle
 10
403.1903039323252
 20
-139.3504349161503
 30
0.0
 40
2.117418799249592
100
AcDbArc
 50
77.66741355461544
 51
121.5460139486109
  0
ARC
  5
1DF28
330
2
100
AcDbEntity
  8
0
100
AcDbCircle
 10
401.1309037407884
 20
-136.3864222124272
 30
0.0
 40
1.5
100
AcDbArc
 50
230.6243855827691
 51
262.8192442185416
  0
ARC
  5
1DF29
330
2
100
AcDbEntity
  8
0
100
AcDbCircle
 10
399.0715035492517
 20
-139.3504349161503
 30
0.0
 40
2.117418799249592
100
AcDbArc
 50
58.45398605138901
 51
102.3325864453845
  0
ARC
  5
1DF2A
330
2
100
AcDbEntity
  8
0
100
AcDbCircle
 10
398.512459439607
 20
-136.7934149995019
 30
0.0
 40
0.5
100
AcDbArc
 50
177.2876482663717
 51
282.3325864453972
  0
ARC
  5
1DF2B
330
2
100
AcDbEntity
  8
0
100
AcDbCircle
 10
385.3129518506966
 20
-136.1680901366844
 30
0.0
 40
12.71431162693538
100
AcDbArc
 50
357.2876482663717
 51
41.88497150777178
  0
ARC
  5
1DF2C
330
2
100
AcDbEntity
  8
0
100
AcDbCircle
 10
401.1309037407884
 20
-136.3864222124272
 30
0.0
 40
0.375
100
AcDbArc
 50
223.8439629001657
 51
293.427217309251
  0
ARC
  5
1DF2D
330
2
100
AcDbEntity
  8
0
100
AcDbCircle
 10
403.1903039323252
 20
-139.3504349161503
 30
0.0
 40
3.242418799249592
100
AcDbArc
 50
91.42500288167308
 51
126.0974832013604
  0
ARC
  5
1DF2E
330
2
100
AcDbEntity
  8
0
100
AcDbCircle
 10
399.0715035492517
 20
-139.3504349161503
 30
0.0
 40
3.242418799249592
100
AcDbArc
 50
56.51422879228636
 51
88.57499711832693
  0
ARC
  5
1DF2F
330
2
100
AcDbEntity
  8
0
100
AcDbCircle
 10
385.3129518506966
 20
-136.1680901366844
 30
0.0
 40
13.83931162693538
100
AcDbArc
 50
0.2445600950439346
 51
40.48380442112597
  0
ARC
  5
1DF30
330
2
100
AcDbEntity
  8
0
100
AcDbCircle
 10
408.519182690919
 20
-125.1508874971771
 30
0.0
 40
8.751005553972674
100
AcDbArc
 50
201.9950495866525
 51
236.0336690323725
  0
ARC
  5
1DF31
330
2
100
AcDbEntity
  8
0
100
AcDbCircle
 10
403.74934804197
 20
-136.7934149995019
 30
0.0
 40
0.125
100
AcDbArc
 50
257.6674135546023
 51
2.712351733641241
  0
ARC
  5
1DF32
330
2
100
AcDbEntity
  8
0
100
AcDbCircle
 10
398.512459439607
 20
-136.7934149995019
 30
0.0
 40
0.125
100
AcDbArc
 50
177.2876482663587
 51
282.3325864453976
  0
ARC
  5
1DF33
330
2
100
AcDbEntity
  8
0
100
AcDbCircle
 10
403.1903039323252
 20
-139.3504349161503
 30
0.0
 40
2.492418799249592
100
AcDbArc
 50
77.66741355461544
 51
122.2022171918148
  0
ARC
  5
1DF34
330
2
100
AcDbEntity
  8
0
100
AcDbCircle
 10
399.0715035492517
 20
-139.3504349161503
 30
0.0
 40
2.492418799249592
100
AcDbArc
 50
52.61896278272637
 51
102.3325864453845
  0
ARC
  5
1DF35
330
2
100
AcDbEntity
  8
0
100
AcDbCircle
 10
385.3129518506966
 20
-136.1680901366844
 30
0.0
 40
13.08931162693538
100
AcDbArc
 50
357.2876482663717
 51
41.40321450169769
  0
ARC
  5
1DF36
330
2
100
AcDbEntity
  8
0
100
AcDbCircle
 10
401.1309037407884
 20
-136.3864222124272
 30
0.0
 40
1.125
100
AcDbArc
 50
240.9528340302329
 51
310.5360884393209
  0
ARC
  5
1DF37
330
2
100
AcDbEntity
  8
0
100
AcDbCircle
 10
403.1903039323252
 20
-139.3504349161503
 30
0.0
 40
2.617418799249592
100
AcDbArc
 50
77.66741355461544
 51
122.4098916945483
  0
ARC
  5
1DF38
330
2
100
AcDbEntity
  8
0
100
AcDbCircle
 10
401.1309037407884
 20
-136.3864222124272
 30
0.0
 40
1.0
100
AcDbArc
 50
228.9638134927654
 51
311.0361865072345
  0
ARC
  5
1DF39
330
2
100
AcDbEntity
  8
0
100
AcDbCircle
 10
399.0715035492517
 20
-139.3504349161503
 30
0.0
 40
2.617418799249592
100
AcDbArc
 50
57.59010830545163
 51
102.3325864453845
  0
ARC
  5
1DF3A
330
2
100
AcDbEntity
  8
0
100
AcDbCircle
 10
385.3129518506966
 20
-136.1680901366844
 30
0.0
 40
13.21431162693538
100
AcDbArc
 50
357.2876482663717
 51
41.24604126733792
  0
ARC
  5
1DF3B
330
2
100
AcDbEntity
  8
0
100
AcDbCircle
 10
407.1014918426822
 20
-127.4975328403456
 30
0.0
 40
0.03125
100
AcDbArc
 50
318.6362341340434
 51
350.8424428151724
  0
ARC
  5
1DF3C
330
2
100
AcDbEntity
  8
0
100
AcDbCircle
 10
407.1014918426824
 20
-127.4975328403456
 30
0.0
 40
0.03125
100
AcDbArc
 50
318.6362341340446
 51
350.842442815166
  0
ARC
  5
1DF3D
330
2
100
AcDbEntity
  8
0
100
AcDbCircle
 10
407.1014918426824
 20
-127.4975328403456
 30
0.0
 40
0.03125
100
AcDbArc
 50
318.6362341340446
 51
350.8424428151676
  0
LINE
  5
1DF3E
330
2
100
AcDbEntity
  8
0
100
AcDbLine
 10
560.23447627209
 20
-187.3551722124274
 30
0.0
 11
560.23447627209
 21
-153.2614222124272
 31
0.0
  0
LINE
  5
1DF3F
330
2
100
AcDbEntity
  8
0
100
AcDbLine
 10
556.23447627209
 20
-187.3551722124194
 30
0.0
 11
556.2344762720901
 21
-153.2614222124272
 31
0.0
  0
LINE
  5
1DF40
330
2
100
AcDbEntity
  8
0
100
AcDbLine
 10
552.23447627209
 20
-187.3551722124121
 30
0.0
 11
552.2344762720901
 21
-153.2614222124272
 31
0.0
  0
LINE
  5
1DF41
330
2
100
AcDbEntity
  8
0
100
AcDbLine
 10
430.8184037407905
 20
-187.3551722124271
 30
0.0
 11
430.8184037407881
 21
-153.2614222124272
 31
0.0
  0
LINE
  5
1DF42
330
2
100
AcDbEntity
  8
0
100
AcDbLine
 10
451.1934037407886
 20
-187.3551722124271
 30
0.0
 11
451.1934037407886
 21
-153.2614222124272
 31
0.0
  0
LINE
  5
1DF43
330
2
100
AcDbEntity
  8
0
100
AcDbLine
 10
441.1934037407907
 20
-187.3551722124271
 30
0.0
 11
441.1934037407881
 21
-153.2614222124271
 31
0.0
  0
LINE
  5
1DF44
330
2
100
AcDbEntity
  8
0
100
AcDbLine
 10
440.8184037407907
 20
-187.3551722124271
 30
0.0
 11
440.8184037407882
 21
-153.2614222124272
 31
0.0
  0
LINE
  5
1DF45
330
2
100
AcDbEntity
  8
0
100
AcDbLine
 10
441.1934037407932
 20
-221.8239222124271
 30
0.0
 11
441.1934037407907
 21
-187.7301722124272
 31
0.0
  0
LINE
  5
1DF46
330
2
100
AcDbEntity
  8
0
100
AcDbLine
 10
451.1934037407889
 20
-221.8239222124271
 30
0.0
 11
451.1934037407886
 21
-187.7301722124272
 31
0.0
  0
LINE
  5
1DF47
330
2
100
AcDbEntity
  8
0
100
AcDbLine
 10
440.8184037407932
 20
-221.8239222124271
 30
0.0
 11
440.8184037407907
 21
-187.7301722124272
 31
0.0
  0
LINE
  5
1DF48
330
2
100
AcDbEntity
  8
0
100
AcDbLine
 10
430.8184037407929
 20
-221.8239222124271
 30
0.0
 11
430.8184037407905
 21
-187.7301722124272
 31
0.0
  0
LINE
  5
1DF49
330
2
100
AcDbEntity
  8
0
100
AcDbLine
 10
441.1934037407907
 20
-222.1989222124271
 30
0.0
 11
451.1934037407889
 21
-222.1989222124271
 31
0.0
  0
LINE
  5
1DF4A
330
2
100
AcDbEntity
  8
0
100
AcDbLine
 10
441.1934037407907
 20
-221.8239222124271
 30
0.0
 11
451.1934037407889
 21
-221.8239222124271
 31
0.0
  0
LINE
  5
1DF4B
330
2
100
AcDbEntity
  8
0
100
AcDbLine
 10
430.8184037407881
 20
-222.1989222124271
 30
0.0
 11
440.8184037407907
 21
-222.1989222124271
 31
0.0
  0
LINE
  5
1DF4C
330
2
100
AcDbEntity
  8
0
100
AcDbLine
 10
430.8184037407881
 20
-221.8239222124271
 30
0.0
 11
440.8184037407907
 21
-221.8239222124271
 31
0.0
  0
LINE
  5
1DF51
330
2
100
AcDbEntity
  8
0
100
AcDbLine
 10
560.23447627209
 20
-221.8239222124271
 30
0.0
 11
560.23447627209
 21
-187.7301722124274
 31
0.0
  0
LINE
  5
1DF52
330
2
100
AcDbEntity
  8
0
100
AcDbLine
 10
556.2344762720901
 20
-221.8239222124271
 30
0.0
 11
556.23447627209
 21
-187.7301722124194
 31
0.0
  0
LINE
  5
1DF53
330
2
100
AcDbEntity
  8
0
100
AcDbLine
 10
552.23447627209
 20
-221.8239222124271
 30
0.0
 11
552.23447627209
 21
-187.7301722124121
 31
0.0
  0
LINE
  5
1DF54
330
2
100
AcDbEntity
  8
0
100
AcDbLine
 10
560.23447627209
 20
-221.8239222124271
 30
0.0
 11
552.23447627209
 21
-221.8239222124271
 31
0.0
  0
LINE
  5
1DF55
330
2
100
AcDbEntity
  8
0
100
AcDbLine
 10
560.23447627209
 20
-222.1989222124271
 30
0.0
 11
552.23447627209
 21
-222.1989222124271
 31
0.0
  0
LINE
  5
1DF56
330
2
100
AcDbEntity
  8
0
100
AcDbLine
 10
560.23447627209
 20
-187.3551722124274
 30
0.0
 11
556.23447627209
 21
-187.3551722124201
 31
0.0
  0
LINE
  5
1DF57
330
2
100
AcDbEntity
  8
0
100
AcDbLine
 10
560.23447627209
 20
-187.7301722124274
 30
0.0
 11
556.23447627209
 21
-187.7301722124201
 31
0.0
  0
LINE
  5
1DF58
330
2
100
AcDbEntity
  8
0
100
AcDbLine
 10
556.23447627209
 20
-187.3551722124194
 30
0.0
 11
552.23447627209
 21
-187.3551722124121
 31
0.0
  0
LINE
  5
1DF59
330
2
100
AcDbEntity
  8
0
100
AcDbLine
 10
556.23447627209
 20
-187.7301722124194
 30
0.0
 11
552.23447627209
 21
-187.7301722124121
 31
0.0
  0
LINE
  5
1DF5A
330
2
100
AcDbEntity
  8
0
100
AcDbLine
 10
481.1934037407886
 20
-143.4755022124271
 30
0.0
 11
451.5684037407886
 21
-143.4755022124271
 31
0.0
  0
LINE
  5
1DF5B
330
2
100
AcDbEntity
  8
0
100
AcDbLine
 10
481.1934037407886
 20
-140.8768322674376
 30
0.0
 11
451.5684037407886
 21
-140.8768322674376
 31
0.0
  0
LINE
  5
1DF5C
330
2
100
AcDbEntity
  8
0
100
AcDbLine
 10
481.1934037407886
 20
-138.8864222124271
 30
0.0
 11
451.5684037407886
 21
-138.8864222124271
 31
0.0
  0
LINE
  5
1DF5D
330
2
100
AcDbEntity
  8
10
  6
Continuous
100
AcDbLine
 10
430.5684037407888
 20
-152.8864222124271
 30
0.0
 11
430.5684037407888
 21
-150.4898142124271
 31
0.0
  0
LINE
  5
1DF5E
330
2
100
AcDbEntity
  8
10
  6
Continuous
100
AcDbLine
 10
441.0684037407886
 20
-152.8864222124271
 30
0.0
 11
441.0684037407886
 21
-150.4898142124271
 31
0.0
  0
LINE
  5
1DF5F
330
2
100
AcDbEntity
  8
10
  6
Continuous
100
AcDbLine
 10
451.1934037407886
 20
-152.8864222124271
 30
0.0
 11
451.1934037407886
 21
-150.4898142124271
 31
0.0
  0
LINE
  5
1DF60
330
2
100
AcDbEntity
  8
10
  6
Continuous
100
AcDbLine
 10
430.8184037407889
 20
-152.8864222124271
 30
0.0
 11
430.8184037407889
 21
-150.4898142124271
 31
0.0
  0
LINE
  5
1DF61
330
2
100
AcDbEntity
  8
10
  6
Continuous
100
AcDbLine
 10
440.8184037407886
 20
-152.8864222124271
 30
0.0
 11
440.8184037407886
 21
-150.4898142124271
 31
0.0
  0
LINE
  5
1DF62
330
2
100
AcDbEntity
  8
0
100
AcDbLine
 10
441.1934037407881
 20
-153.2614222124271
 30
0.0
 11
451.1934037407886
 21
-153.2614222124272
 31
0.0
  0
LINE
  5
1DF63
330
2
100
AcDbEntity
  8
10
  6
Continuous
 62
     7
100
AcDbLine
 10
451.1934037407886
 20
-152.8864222124271
 30
0.0
 11
430.8184037407889
 21
-152.8864222124271
 31
0.0
  0
LINE
  5
1DF64
330
2
100
AcDbEntity
  8
0
  6
Continuous
 62
     7
100
AcDbLine
 10
449.1868137407887
 20
-152.8864222124271
 30
0.0
 11
430.8249937407888
 21
-152.8864222124271
 31
0.0
  0
LINE
  5
1DF65
330
2
100
AcDbEntity
  8
0
100
AcDbLine
 10
430.8184037407881
 20
-153.2614222124272
 30
0.0
 11
440.8184037407882
 21
-153.2614222124271
 31
0.0
  0
LINE
  5
1DF66
330
2
100
AcDbEntity
  8
0
100
AcDbLine
 10
428.3100997407889
 20
-138.8864222124271
 30
0.0
 11
443.3267077407886
 21
-138.8864222124271
 31
0.0
  0
CIRCLE
  5
1DF67
330
2
100
AcDbEntity
  8
0
100
AcDbCircle
 10
438.0634068649433
 20
-133.5727875870796
 30
0.0
 40
4.0
  0
ARC
  5
1DF68
330
2
100
AcDbEntity
  8
0
100
AcDbCircle
 10
438.0634068649433
 20
-133.5727875870795
 30
0.0
 40
5.0
100
AcDbArc
 50
260.5891739424454
 51
147.7727240430226
  0
ARC
  5
1DF69
330
2
100
AcDbEntity
  8
10
  6
Continuous
 62
     7
100
AcDbCircle
 10
440.9452357407885
 20
-142.1112462124272
 30
0.0
 40
1.373264
100
AcDbArc
 50
275.1560359991468
 51
348.5658536076362
  0
LINE
  5
1DF6A
330
2
100
AcDbEntity
  8
0
100
AcDbLine
 10
449.1934037407886
 20
-143.4755022124271
 30
0.0
 11
430.7845380496266
 21
-143.4755022124271
 31
0.0
  0
LINE
  5
1DF6B
330
2
100
AcDbEntity
  8
0
100
AcDbLine
 10
451.1934037407886
 20
-140.8768322674376
 30
0.0
 11
428.3100997407889
 21
-140.8768322674376
 31
0.0
  0
LINE
  5
1DF6C
330
2
100
AcDbEntity
  8
0
100
AcDbLine
 10
451.9348597407888
 20
-149.7737822124272
 30
0.0
 11
430.0769477407889
 21
-149.7737822124272
 31
0.0
  0
LINE
  5
1DF6D
330
2
100
AcDbEntity
  8
0
100
AcDbLine
 10
451.9348597407888
 20
-149.1063622124272
 30
0.0
 11
430.0769477407889
 21
-149.1063622124272
 31
0.0
  0
LINE
  5
1DF6E
330
2
100
AcDbEntity
  8
0
100
AcDbLine
 10
451.1934037407886
 20
-148.9664382124272
 30
0.0
 11
430.8184037407889
 21
-148.9664382124272
 31
0.0
  0
ARC
  5
1DF6F
330
2
100
AcDbEntity
  8
10
  6
Continuous
 62
     7
100
AcDbCircle
 10
443.3893277407888
 20
-142.2319582124272
 30
0.0
 40
1.356571999999999
100
AcDbArc
 50
92.64574021802761
 51
168.4558323360249
  0
ARC
  5
1DF70
330
2
100
AcDbEntity
  8
10
  6
Continuous
 62
     7
100
AcDbCircle
 10
440.6952357407885
 20
-142.1112462124272
 30
0.0
 40
1.373264
100
AcDbArc
 50
275.1560359991468
 51
348.5658536076362
  0
LINE
  5
1DF71
330
2
100
AcDbEntity
  8
0
100
AcDbLine
 10
433.6490795287873
 20
-138.2614222124271
 30
0.0
 11
433.6490795287873
 21
-138.5114222124271
 31
0.0
  0
LINE
  5
1DF72
330
2
100
AcDbEntity
  8
0
100
AcDbLine
 10
434.3733731700072
 20
-137.0308463151173
 30
0.0
 11
434.4768164066335
 21
-137.0565167505427
 31
0.0
  0
ARC
  5
1DF73
330
2
100
AcDbEntity
  8
0
100
AcDbCircle
 10
438.0634068649433
 20
-133.5727875870795
 30
0.0
 40
5.0
100
AcDbArc
 50
159.2584280680826
 51
224.1700244898651
  0
LINE
  5
1DF74
330
2
100
AcDbEntity
  8
10
  6
Continuous
100
AcDbLine
 10
430.5684037407888
 20
-148.9664382124272
 30
0.0
 11
430.5684037407888
 21
-143.4755022124271
 31
0.0
  0
LINE
  5
1DF75
330
2
100
AcDbEntity
  8
10
  6
Continuous
100
AcDbLine
 10
430.5649837407888
 20
-148.9682982124271
 30
0.0
 11
429.8269477407889
 21
-149.1063622124272
 31
0.0
  0
LINE
  5
1DF76
330
2
100
AcDbEntity
  8
10
  6
Continuous
100
AcDbLine
 10
429.8269477407889
 20
-149.1063622124272
 30
0.0
 11
429.8269477407889
 21
-149.7737822124272
 31
0.0
  0
ARC
  5
1DF77
330
2
100
AcDbEntity
  8
10
  6
Continuous
100
AcDbCircle
 10
429.8580757407889
 20
-150.4820782124271
 30
0.0
 40
0.704936
100
AcDbArc
 50
356.7523350005712
 51
92.25279200027655
  0
LINE
  5
1DF78
330
2
100
AcDbEntity
  8
0
100
AcDbLine
 10
429.3455626322165
 20
-142.3834841475803
 30
0.0
 11
429.3266092747635
 21
-141.960476586713
 31
0.0
  0
LINE
  5
1DF79
330
2
100
AcDbEntity
  8
10
  6
Continuous
 62
     7
100
AcDbLine
 10
428.0600997407889
 20
-138.8864222124271
 30
0.0
 11
428.0600997407889
 21
-140.8768322674376
 31
0.0
  0
ARC
  5
1DF7A
330
2
100
AcDbEntity
  8
10
  6
Continuous
 62
     7
100
AcDbCircle
 10
427.997479740789
 20
-142.2319582124272
 30
0.0
 40
1.356571999999999
100
AcDbArc
 50
11.54416766397498
 51
87.35425978197238
  0
ARC
  5
1DF7B
330
2
100
AcDbEntity
  8
10
  6
Continuous
 62
     7
100
AcDbCircle
 10
430.6915717407889
 20
-142.1112462124272
 30
0.0
 40
1.373264
100
AcDbArc
 50
191.4341463923637
 51
264.8439640008531
  0
LINE
  5
1DF7C
330
2
100
AcDbEntity
  8
10
  6
Continuous
100
AcDbLine
 10
441.8098597407889
 20
-149.1063622124272
 30
0.0
 11
441.8098597407889
 21
-149.7737822124272
 31
0.0
  0
LINE
  5
1DF7D
330
2
100
AcDbEntity
  8
10
  6
Continuous
100
AcDbLine
 10
441.0718237407886
 20
-148.9682982124271
 30
0.0
 11
441.8098597407889
 21
-149.1063622124272
 31
0.0
  0
ARC
  5
1DF7E
330
2
100
AcDbEntity
  8
10
  6
Continuous
100
AcDbCircle
 10
441.7787317407888
 20
-150.4820782124271
 30
0.0
 40
0.704936
100
AcDbArc
 50
87.74720799972346
 51
183.2476649994287
  0
LINE
  5
1DF7F
330
2
100
AcDbEntity
  8
10
  6
Continuous
100
AcDbLine
 10
441.0684037407886
 20
-148.9664382124272
 30
0.0
 11
441.0684037407886
 21
-143.4755022124271
 31
0.0
  0
ARC
  5
1DF80
330
2
100
AcDbEntity
  8
10
  6
Continuous
 62
     7
100
AcDbCircle
 10
430.9415717407889
 20
-142.1112462124272
 30
0.0
 40
1.373264
100
AcDbArc
 50
191.4341463923637
 51
264.8439640008531
  0
ARC
  5
1DF81
330
2
100
AcDbEntity
  8
10
  6
Continuous
 62
     7
100
AcDbCircle
 10
428.247479740789
 20
-142.2319582124272
 30
0.0
 40
1.356571999999999
100
AcDbArc
 50
11.54416766397498
 51
87.35425978197238
  0
LINE
  5
1DF82
330
2
100
AcDbEntity
  8
10
  6
Continuous
 62
     7
100
AcDbLine
 10
428.3100997407889
 20
-138.8864222124271
 30
0.0
 11
428.3100997407889
 21
-140.8768322674376
 31
0.0
  0
LINE
  5
1DF83
330
2
100
AcDbEntity
  8
0
100
AcDbLine
 10
429.5955626322165
 20
-142.3834841475803
 30
0.0
 11
429.5766092747635
 21
-141.960476586713
 31
0.0
  0
LINE
  5
1DF84
330
2
100
AcDbEntity
  8
10
  6
Continuous
100
AcDbLine
 10
440.8184037407886
 20
-148.9664382124272
 30
0.0
 11
440.8184037407886
 21
-143.4755022124271
 31
0.0
  0
ARC
  5
1DF85
330
2
100
AcDbEntity
  8
10
  6
Continuous
100
AcDbCircle
 10
441.5287317407887
 20
-150.4820782124271
 30
0.0
 40
0.704936
100
AcDbArc
 50
87.74720799972346
 51
183.2476649994287
  0
LINE
  5
1DF86
330
2
100
AcDbEntity
  8
10
  6
Continuous
100
AcDbLine
 10
440.8218237407886
 20
-148.9682982124271
 30
0.0
 11
441.5598597407888
 21
-149.1063622124272
 31
0.0
  0
LINE
  5
1DF87
330
2
100
AcDbEntity
  8
10
  6
Continuous
100
AcDbLine
 10
441.5598597407888
 20
-149.1063622124272
 30
0.0
 11
441.5598597407888
 21
-149.7737822124272
 31
0.0
  0
ARC
  5
1DF88
330
2
100
AcDbEntity
  8
10
  6
Continuous
100
AcDbCircle
 10
430.1080757407889
 20
-150.4820782124271
 30
0.0
 40
0.704936
100
AcDbArc
 50
356.7523350005712
 51
92.25279200027655
  0
LINE
  5
1DF89
330
2
100
AcDbEntity
  8
10
  6
Continuous
100
AcDbLine
 10
430.0769477407889
 20
-149.1063622124272
 30
0.0
 11
430.0769477407889
 21
-149.7737822124272
 31
0.0
  0
LINE
  5
1DF8A
330
2
100
AcDbEntity
  8
10
  6
Continuous
100
AcDbLine
 10
430.8149837407889
 20
-148.9682982124271
 30
0.0
 11
430.0769477407889
 21
-149.1063622124272
 31
0.0
  0
LINE
  5
1DF8B
330
2
100
AcDbEntity
  8
10
  6
Continuous
100
AcDbLine
 10
430.8184037407889
 20
-148.9664382124272
 30
0.0
 11
430.8184037407889
 21
-143.4755022124271
 31
0.0
  0
LINE
  5
1DF8C
330
2
100
AcDbEntity
  8
10
  6
Continuous
100
AcDbLine
 10
451.5684037407886
 20
-143.4755022124271
 30
0.0
 11
451.5684037407886
 21
-138.8864222124271
 31
0.0
  0
ARC
  5
1DF8D
330
2
100
AcDbEntity
  8
10
  6
Continuous
 62
     7
100
AcDbCircle
 10
443.6393277407887
 20
-142.2319582124272
 30
0.0
 40
1.356571999999999
100
AcDbArc
 50
92.64574021802761
 51
168.4558323360249
  0
LINE
  5
1DF8E
330
2
100
AcDbEntity
  8
10
  6
Continuous
 62
     7
100
AcDbLine
 10
443.5767077407886
 20
-138.8864222124271
 30
0.0
 11
443.5767077407886
 21
-140.8768322674376
 31
0.0
  0
LINE
  5
1DF8F
330
2
100
AcDbEntity
  8
0
100
AcDbLine
 10
442.2912448493609
 20
-142.3834841475803
 30
0.0
 11
442.3101982068139
 21
-141.960476586713
 31
0.0
  0
LINE
  5
1DF90
330
2
100
AcDbEntity
  8
0
100
AcDbLine
 10
443.3267077407886
 20
-138.8864222124271
 30
0.0
 11
451.1934037407886
 21
-138.8864222124271
 31
0.0
  0
LINE
  5
1DF91
330
2
100
AcDbEntity
  8
0
100
AcDbLine
 10
451.7017077407886
 20
-140.8768322674376
 30
0.0
 11
453.7017077407885
 21
-140.8768322674376
 31
0.0
  0
LINE
  5
1DF92
330
2
100
AcDbEntity
  8
0
100
AcDbLine
 10
449.1934037407886
 20
-143.4755022124271
 30
0.0
 11
451.1934037407886
 21
-143.4755022124271
 31
0.0
  0
LINE
  5
1DF93
330
2
100
AcDbEntity
  8
10
  6
Continuous
100
AcDbLine
 10
451.1934037407886
 20
-148.9664382124272
 30
0.0
 11
451.1934037407886
 21
-138.8864222124271
 31
0.0
  0
LINE
  5
1DF94
330
2
100
AcDbEntity
  8
10
  6
Continuous
100
AcDbLine
 10
451.9348597407888
 20
-149.1063622124272
 30
0.0
 11
451.9348597407888
 21
-149.7737822124272
 31
0.0
  0
LINE
  5
1DF95
330
2
100
AcDbEntity
  8
10
  6
Continuous
100
AcDbLine
 10
451.1968237407886
 20
-148.9682982124271
 30
0.0
 11
451.9348597407888
 21
-149.1063622124272
 31
0.0
  0
ARC
  5
1DF96
330
2
100
AcDbEntity
  8
10
  6
Continuous
100
AcDbCircle
 10
451.9037317407887
 20
-150.4820782124271
 30
0.0
 40
0.704936
100
AcDbArc
 50
87.74720799972346
 51
183.2476649994287
  0
LINE
  5
1DF97
330
2
100
AcDbEntity
  8
0
100
AcDbLine
 10
442.041244849361
 20
-142.3834841475803
 30
0.0
 11
442.060198206814
 21
-141.960476586713
 31
0.0
  0
LINE
  5
1DF98
330
2
100
AcDbEntity
  8
10
  6
Continuous
 62
     7
100
AcDbLine
 10
443.3267077407886
 20
-138.8864222124271
 30
0.0
 11
443.3267077407886
 21
-140.8768322674376
 31
0.0
  0
LINE
  5
1DF99
330
2
100
AcDbEntity
  8
10
  6
HIDDEN
 62
     7
 48
8.0
100
AcDbLine
 10
555.6177802720902
 20
-138.8864222124271
 30
0.0
 11
555.6177802720902
 21
-152.8864222124271
 31
0.0
  0
LINE
  5
1DF9A
330
2
100
AcDbEntity
  8
10
  6
Continuous
 48
8.0
100
AcDbLine
 10
560.6094762720902
 20
-152.8864222124271
 30
0.0
 11
560.6094762720902
 21
-150.4898142124271
 31
0.0
  0
LINE
  5
1DF9B
330
2
100
AcDbEntity
  8
10
  6
Continuous
 48
8.0
100
AcDbLine
 10
557.5456322720899
 20
-152.8864222124271
 30
0.0
 11
557.5456322720899
 21
-150.4898142124271
 31
0.0
  0
LINE
  5
1DF9C
330
2
100
AcDbEntity
  8
10
  6
Continuous
 48
8.0
100
AcDbLine
 10
557.2331322720899
 20
-152.8864222124267
 30
0.0
 11
557.2331322720899
 21
-150.4898142124267
 31
0.0
  0
LINE
  5
1DF9D
330
2
100
AcDbEntity
  8
10
  6
Continuous
 48
8.0
100
AcDbLine
 10
552.2344762720901
 20
-138.8864222124267
 30
0.0
 11
552.2344762720901
 21
-152.8864222124267
 31
0.0
  0
LINE
  5
1DF9E
330
2
100
AcDbEntity
  8
0
 48
8.0
100
AcDbLine
 10
557.5456322720899
 20
-152.8864222124271
 30
0.0
 11
560.6094762720902
 21
-152.8864222124271
 31
0.0
  0
LINE
  5
1DF9F
330
2
100
AcDbEntity
  8
10
  6
Continuous
 62
     7
 48
8.0
100
AcDbLine
 10
555.6177802720902
 20
-152.8864222124271
 30
0.0
 11
557.5456322720899
 21
-152.8864222124271
 31
0.0
  0
LINE
  5
1DFA0
330
2
100
AcDbEntity
  8
0
 48
8.0
100
AcDbLine
 10
556.2344762720901
 20
-153.2614222124272
 30
0.0
 11
552.2344762720901
 21
-153.2614222124272
 31
0.0
  0
LINE
  5
1DFA1
330
2
100
AcDbEntity
  8
10
  6
Continuous
 62
     7
 48
8.0
100
AcDbLine
 10
552.2344762720901
 20
-152.8864222124267
 30
0.0
 11
557.2331322720899
 21
-152.8864222124267
 31
0.0
  0
LINE
  5
1DFA3
330
2
100
AcDbEntity
  8
0
 48
8.0
100
AcDbLine
 10
560.23447627209
 20
-153.2614222124272
 30
0.0
 11
556.23447627209
 21
-153.2614222124272
 31
0.0
  0
LINE
  5
1DFA4
330
2
100
AcDbEntity
  8
0
 48
8.0
100
AcDbLine
 10
557.4844762720902
 20
-138.5114222124267
 30
0.0
 11
552.2344762720901
 21
-138.5114222124267
 31
0.0
  0
LINE
  5
1DFA5
330
2
100
AcDbEntity
  8
0
 48
8.0
100
AcDbLine
 10
563.1177802720901
 20
-140.8768322674376
 30
0.0
 11
560.0539362720899
 21
-140.8768322674376
 31
0.0
  0
LINE
  5
1DFA6
330
2
100
AcDbEntity
  8
0
 48
8.0
100
AcDbLine
 10
561.3509322720899
 20
-149.1063622124272
 30
0.0
 11
558.2870882720901
 21
-149.1063622124272
 31
0.0
  0
LINE
  5
1DFA7
330
2
100
AcDbEntity
  8
0
 48
8.0
100
AcDbLine
 10
561.3198042720898
 20
-149.7771422124273
 30
0.0
 11
558.25596027209
 21
-149.7771422124273
 31
0.0
  0
LINE
  5
1DFA8
330
2
100
AcDbEntity
  8
0
 48
8.0
100
AcDbLine
 10
560.6128962720902
 20
-148.9682982124271
 30
0.0
 11
557.5456322720899
 21
-148.9664382124272
 31
0.0
  0
LINE
  5
1DFA9
330
2
100
AcDbEntity
  8
0
 48
8.0
100
AcDbLine
 10
560.6097213036723
 20
-143.4789535046983
 30
0.0
 11
557.5458773036723
 21
-143.4789535046983
 31
0.0
  0
LINE
  5
1DFAA
330
2
100
AcDbEntity
  8
0
 48
8.0
100
AcDbLine
 10
560.0539362720899
 20
-138.8864222124271
 30
0.0
 11
563.1177802720901
 21
-138.8864222124271
 31
0.0
  0
LINE
  5
1DFAB
330
2
100
AcDbEntity
  8
10
  6
Continuous
 62
     7
 48
8.0
100
AcDbLine
 10
563.1177802720901
 20
-138.8864222124271
 30
0.0
 11
563.1177802720901
 21
-140.8768322674376
 31
0.0
  0
LINE
  5
1DFAC
330
2
100
AcDbEntity
  8
0
 48
8.0
100
AcDbLine
 10
561.8323173806622
 20
-142.3834841475803
 30
0.0
 11
561.8512707381153
 21
-141.960476586713
 31
0.0
  0
ARC
  5
1DFAD
330
2
100
AcDbEntity
  8
10
  6
Continuous
 62
     7
 48
8.0
100
AcDbCircle
 10
563.1804002720898
 20
-142.2319582124272
 30
0.0
 40
1.356571999999999
100
AcDbArc
 50
92.64574021802761
 51
168.4558323360249
  0
ARC
  5
1DFAE
330
2
100
AcDbEntity
  8
10
  6
Continuous
 62
     7
 48
8.0
100
AcDbCircle
 10
560.4863082720901
 20
-142.1112462124272
 30
0.0
 40
1.373264
100
AcDbArc
 50
275.1560359991468
 51
348.5658536076362
  0
LINE
  5
1DFAF
330
2
100
AcDbEntity
  8
10
  6
Continuous
 48
8.0
100
AcDbLine
 10
560.6094762720902
 20
-148.9664382124272
 30
0.0
 11
560.6094762720902
 21
-143.4789535046983
 31
0.0
  0
LINE
  5
1DFB0
330
2
100
AcDbEntity
  8
10
  6
Continuous
 48
8.0
100
AcDbLine
 10
560.6128962720902
 20
-148.9682982124271
 30
0.0
 11
561.3509322720899
 21
-149.1063622124272
 31
0.0
  0
LINE
  5
1DFB1
330
2
100
AcDbEntity
  8
10
  6
Continuous
 48
8.0
100
AcDbLine
 10
561.3509322720899
 20
-149.1063622124272
 30
0.0
 11
561.3509322720899
 21
-149.7737822124272
 31
0.0
  0
ARC
  5
1DFB2
330
2
100
AcDbEntity
  8
10
  6
Continuous
 48
8.0
100
AcDbCircle
 10
561.3198042720898
 20
-150.4820782124271
 30
0.0
 40
0.704936
100
AcDbArc
 50
87.74720799972346
 51
183.2476649994287
  0
ARC
  5
1DFB3
330
2
100
AcDbEntity
  8
10
  6
Continuous
 48
8.0
100
AcDbCircle
 10
558.25596027209
 20
-150.4820782124271
 30
0.0
 40
0.704936
100
AcDbArc
 50
87.74720799972346
 51
183.2476649994287
  0
LINE
  5
1DFB4
330
2
100
AcDbEntity
  8
10
  6
Continuous
 48
8.0
100
AcDbLine
 10
558.2870882720901
 20
-149.1063622124272
 30
0.0
 11
558.2870882720901
 21
-149.7737822124272
 31
0.0
  0
LINE
  5
1DFB5
330
2
100
AcDbEntity
  8
10
  6
Continuous
 48
8.0
100
AcDbLine
 10
557.5490522720899
 20
-148.9682982124271
 30
0.0
 11
558.2870882720901
 21
-149.1063622124272
 31
0.0
  0
LINE
  5
1DFB6
330
2
100
AcDbEntity
  8
10
  6
Continuous
 48
8.0
100
AcDbLine
 10
557.5456322720899
 20
-148.9664382124272
 30
0.0
 11
557.5456322720899
 21
-143.4789535046983
 31
0.0
  0
ARC
  5
1DFB7
330
2
100
AcDbEntity
  8
10
  6
Continuous
 62
     7
 48
8.0
100
AcDbCircle
 10
557.4224642720898
 20
-142.1112462124272
 30
0.0
 40
1.373264
100
AcDbArc
 50
275.1560359991468
 51
348.5658536076362
  0
ARC
  5
1DFB8
330
2
100
AcDbEntity
  8
10
  6
Continuous
 62
     7
 48
8.0
100
AcDbCircle
 10
560.11655627209
 20
-142.2319582124272
 30
0.0
 40
1.356571999999999
100
AcDbArc
 50
92.64574021802761
 51
168.4558323360249
  0
LINE
  5
1DFB9
330
2
100
AcDbEntity
  8
10
  6
Continuous
 62
     7
 48
8.0
100
AcDbLine
 10
560.0539362720899
 20
-138.8864222124271
 30
0.0
 11
560.0539362720899
 21
-140.8768322674376
 31
0.0
  0
LINE
  5
1DFBA
330
2
100
AcDbEntity
  8
0
 48
8.0
100
AcDbLine
 10
555.6177802720902
 20
-138.8864222124271
 30
0.0
 11
560.0539362720899
 21
-138.8864222124271
 31
0.0
  0
LINE
  5
1DFBB
330
2
100
AcDbEntity
  8
0
 48
8.0
100
AcDbLine
 10
558.7684733806622
 20
-142.3834841475803
 30
0.0
 11
558.7874267381153
 21
-141.960476586713
 31
0.0
  0
LINE
  5
1DFBC
330
2
100
AcDbEntity
  8
0
 48
8.0
100
AcDbLine
 10
557.9745882720901
 20
-149.1063622124268
 30
0.0
 11
552.2344762720901
 21
-149.1063622124268
 31
0.0
  0
LINE
  5
1DFBD
330
2
100
AcDbEntity
  8
0
 48
8.0
100
AcDbLine
 10
557.2365522720899
 20
-148.9682982124266
 30
0.0
 11
552.2344762720901
 21
-148.9682982124266
 31
0.0
  0
LINE
  5
1DFBE
330
2
100
AcDbEntity
  8
0
 48
8.0
100
AcDbLine
 10
557.2331322720899
 20
-150.4898142124267
 30
0.0
 11
552.2344762720901
 21
-150.4898142124267
 31
0.0
  0
LINE
  5
1DFBF
330
2
100
AcDbEntity
  8
0
 48
8.0
100
AcDbLine
 10
557.94346027209
 20
-149.7771422124268
 30
0.0
 11
552.2344762720901
 21
-149.7771422124268
 31
0.0
  0
LINE
  5
1DFC0
330
2
100
AcDbEntity
  8
0
 48
8.0
100
AcDbLine
 10
557.2331322720899
 20
-143.4789535046978
 30
0.0
 11
552.2344762720901
 21
-143.4789535046978
 31
0.0
  0
ARC
  5
1DFC1
330
2
100
AcDbEntity
  8
10
  6
Continuous
 48
8.0
100
AcDbCircle
 10
557.94346027209
 20
-150.4820782124266
 30
0.0
 40
0.704936
100
AcDbArc
 50
87.74720799972346
 51
183.2476649994287
  0
LINE
  5
1DFC2
330
2
100
AcDbEntity
  8
10
  6
Continuous
 48
8.0
100
AcDbLine
 10
557.9745882720901
 20
-149.1063622124268
 30
0.0
 11
557.9745882720901
 21
-149.7737822124268
 31
0.0
  0
LINE
  5
1DFC3
330
2
100
AcDbEntity
  8
10
  6
Continuous
 48
8.0
100
AcDbLine
 10
557.2365522720899
 20
-148.9682982124266
 30
0.0
 11
557.9745882720901
 21
-149.1063622124268
 31
0.0
  0
LINE
  5
1DFC4
330
2
100
AcDbEntity
  8
10
  6
Continuous
 48
8.0
100
AcDbLine
 10
557.2331322720899
 20
-148.9664382124268
 30
0.0
 11
557.2331322720899
 21
-143.4789535046978
 31
0.0
  0
ARC
  5
1DFC5
330
2
100
AcDbEntity
  8
10
  6
Continuous
 62
     7
 48
8.0
100
AcDbCircle
 10
557.1099642720898
 20
-142.1112462124267
 30
0.0
 40
1.373264
100
AcDbArc
 50
275.1560359991468
 51
348.5658536076362
  0
ARC
  5
1DFC6
330
2
100
AcDbEntity
  8
10
  6
Continuous
 62
     7
 48
8.0
100
AcDbCircle
 10
559.8040562720901
 20
-142.2319582124267
 30
0.0
 40
1.356571999999999
100
AcDbArc
 50
92.64574021802761
 51
168.4558323360249
  0
LINE
  5
1DFC7
330
2
100
AcDbEntity
  8
10
  6
Continuous
 62
     7
 48
8.0
100
AcDbLine
 10
559.7414362720899
 20
-138.8864222124267
 30
0.0
 11
559.7414362720899
 21
-140.8768322674371
 31
0.0
  0
LINE
  5
1DFC8
330
2
100
AcDbEntity
  8
0
 48
8.0
100
AcDbLine
 10
552.2344762720901
 20
-138.8864222124267
 30
0.0
 11
559.7414362720899
 21
-138.8864222124267
 31
0.0
  0
LINE
  5
1DFC9
330
2
100
AcDbEntity
  8
0
 48
8.0
100
AcDbLine
 10
558.4559733806623
 20
-142.3834841475799
 30
0.0
 11
558.4749267381153
 21
-141.9604765867126
 31
0.0
  0
LINE
  5
1DFCA
330
2
100
AcDbEntity
  8
10
  6
Continuous
100
AcDbLine
 10
481.1934037407886
 20
-143.4755022124271
 30
0.0
 11
481.1934037407886
 21
-138.8864222124271
 31
0.0
  0
ARC
  5
1DFCB
330
2
100
AcDbEntity
  8
0
  6
HIDDEN
 48
8.0
100
AcDbCircle
 10
552.8699586006732
 20
-132.1294490677098
 30
0.0
 40
5.66128790777823
100
AcDbArc
 50
339.9575454443133
 51
341.3660099206986
  0
ARC
  5
1DFCC
330
2
100
AcDbEntity
  8
0
  6
HIDDEN
 48
8.0
100
AcDbCircle
 10
556.2439339305996
 20
-128.6999333864426
 30
0.0
 40
2.149079014511563
100
AcDbArc
 50
328.0280362038733
 51
337.8546280528433
  0
ARC
  5
1DFCD
330
2
100
AcDbEntity
  8
0
  6
HIDDEN
 48
8.0
100
AcDbCircle
 10
557.8294109132184
 20
-126.4688954418332
 30
0.0
 40
0.6771274559348536
100
AcDbArc
 50
295.1986885850598
 51
306.7419052423514
  0
ARC
  5
1DFCE
330
2
100
AcDbEntity
  8
0
  6
HIDDEN
 48
8.0
100
AcDbCircle
 10
557.8294109132184
 20
-126.4688954418332
 30
0.0
 40
0.8646274559348535
100
AcDbArc
 50
295.1986885850598
 51
297.9360268603323
  0
LINE
  5
1DFCF
330
2
100
AcDbEntity
  8
0
 48
8.0
100
AcDbLine
 10
559.3575969069149
 20
-137.5114222124267
 30
0.0
 11
558.2344762720902
 21
-137.5114222124266
 31
0.0
  0
LINE
  5
1DFD0
330
2
100
AcDbEntity
  8
0
 48
8.0
100
AcDbLine
 10
559.3842588598688
 20
-136.9184149995015
 30
0.0
 11
558.2344762720902
 21
-136.9184149995015
 31
0.0
  0
ARC
  5
1DFD1
330
2
100
AcDbEntity
  8
0
 48
8.0
100
AcDbCircle
 10
617.5916191292328
 20
-127.3864222124266
 30
0.0
 40
58.98267267613778
100
AcDbArc
 50
179.4668320085861
 51
189.3001648804207
  0
ARC
  5
1DFD2
330
2
100
AcDbEntity
  8
0
 48
8.0
100
AcDbCircle
 10
556.2439339305996
 20
-128.6999333864426
 30
0.0
 40
2.149079014511563
100
AcDbArc
 50
337.8546280528433
 51
22.14537194715665
  0
ARC
  5
1DFD3
330
2
100
AcDbEntity
  8
0
 48
8.0
100
AcDbCircle
 10
552.8699586006732
 20
-132.1294490677098
 30
0.0
 40
5.66128790777823
100
AcDbArc
 50
341.3660099206986
 51
18.63399007930135
  0
ARC
  5
1DFD4
330
2
100
AcDbEntity
  8
0
 48
8.0
100
AcDbCircle
 10
617.5916191292328
 20
-127.3864222124266
 30
0.0
 40
59.10767267613778
100
AcDbArc
 50
179.6570336150409
 51
189.8632703970376
  0
LINE
  5
1DFD5
330
2
100
AcDbEntity
  8
0
 48
8.0
100
AcDbLine
 10
559.3575969069149
 20
-137.5114222124267
 30
0.0
 11
559.3842588598688
 21
-136.9184149995015
 31
0.0
  0
ARC
  5
1DFD6
330
2
100
AcDbEntity
  8
0
 48
8.0
100
AcDbCircle
 10
553.6726540297665
 20
-131.9230694371312
 30
0.0
 40
4.57865989215973
100
AcDbArc
 50
355.0847868649099
 51
4.915213135090124
  0
ARC
  5
1DFD7
330
2
100
AcDbEntity
  8
0
 48
8.0
100
AcDbCircle
 10
557.8294109132184
 20
-126.4688954418332
 30
0.0
 40
0.6771274559348536
100
AcDbArc
 50
306.7419052423514
 51
53.25809475764858
  0
ARC
  5
1DFD8
330
2
100
AcDbEntity
  8
0
 48
8.0
100
AcDbCircle
 10
557.8294109132184
 20
-126.4688954418332
 30
0.0
 40
0.8646274559348535
100
AcDbArc
 50
297.9360268603323
 51
62.06397313966765
  0
ARC
  5
1DFD9
330
2
100
AcDbEntity
  8
0
  6
HIDDEN
 48
8.0
100
AcDbCircle
 10
557.8294109132184
 20
-126.4688954418332
 30
0.0
 40
0.8646274559348535
100
AcDbArc
 50
62.06397313966765
 51
83.83453206059639
  0
ARC
  5
1DFDA
330
2
100
AcDbEntity
  8
0
  6
HIDDEN
 48
8.0
100
AcDbCircle
 10
557.8294109132184
 20
-126.4688954418332
 30
0.0
 40
0.6771274559348536
100
AcDbArc
 50
53.25809475764858
 51
81.16125751622865
  0
ARC
  5
1DFDB
330
2
100
AcDbEntity
  8
0
  6
HIDDEN
 48
8.0
100
AcDbCircle
 10
557.4844762720902
 20
-135.5084333126415
 30
0.0
 40
0.0625
100
AcDbArc
 50
270.0
 51
0.000000000000007
  0
LINE
  5
1DFDC
330
2
100
AcDbEntity
  8
0
  6
HIDDEN
 48
8.0
100
AcDbLine
 10
557.5469762720902
 20
-135.5084333126415
 30
0.0
 11
557.5469762720902
 21
-135.0711320989222
 31
0.0
  0
LINE
  5
1DFDD
330
2
100
AcDbEntity
  8
0
  6
HIDDEN
 48
8.0
100
AcDbLine
 10
557.4844762720902
 20
-135.5709333126415
 30
0.0
 11
557.4844762720902
 21
-135.5709333126415
 31
0.0
  0
LINE
  5
1DFDE
330
2
100
AcDbEntity
  8
0
  6
HIDDEN
 48
8.0
100
AcDbLine
 10
557.9020849163291
 20
-127.2849171088338
 30
0.0
 11
558.1732261450459
 21
-127.251713777841
 31
0.0
  0
ARC
  5
1DFDF
330
2
100
AcDbEntity
  8
0
  6
HIDDEN
 48
8.0
100
AcDbCircle
 10
565.5567807753079
 20
-125.2403919735434
 30
0.0
 40
7.923032987581485
100
AcDbArc
 50
176.8800973398551
 51
194.9542861942416
  0
ARC
  5
1DFE0
330
2
100
AcDbEntity
  8
0
  6
HIDDEN
 48
8.0
100
AcDbCircle
 10
561.6391269202502
 20
-128.6999333864426
 30
0.0
 40
3.99596721770447
100
AcDbArc
 50
159.2610254723401
 51
201.2489090820386
  0
ARC
  5
1DFE1
330
2
100
AcDbEntity
  8
0
  6
HIDDEN
 48
8.0
100
AcDbCircle
 10
558.1296779532437
 20
-134.0482451403754
 30
0.0
 40
0.0625
100
AcDbArc
 50
270.0
 51
339.9575454443149
  0
ARC
  5
1DFE2
330
2
100
AcDbEntity
  8
0
  6
HIDDEN
 48
8.0
100
AcDbCircle
 10
553.6726540297665
 20
-131.9230694371312
 30
0.0
 40
4.57865989215973
100
AcDbArc
 50
331.4582990021101
 51
22.80833988843164
  0
ARC
  5
1DFE3
330
2
100
AcDbEntity
  8
0
  6
HIDDEN
 48
8.0
100
AcDbCircle
 10
565.836713361833
 20
-125.2403919735434
 30
0.0
 40
7.923032987581485
100
AcDbArc
 50
176.3751939452863
 51
194.7059006327359
  0
ARC
  5
1DFE4
330
2
100
AcDbEntity
  8
0
  6
HIDDEN
 48
8.0
100
AcDbCircle
 10
561.8975266122786
 20
-128.6999333864426
 30
0.0
 40
3.99596721770447
100
AcDbArc
 50
158.7510909179614
 51
201.2489090820386
  0
LWPOLYLINE
  5
1DFE5
330
2
100
AcDbEntity
  8
0
  6
HIDDEN
 48
8.0
100
AcDbPolyline
 90
       11
 70
     0
 43
0.0
 10
557.4844762720902
 20
-135.050506176006
 42
0.0248178107260093
 10
557.4995084969589
 20
-135.0582323113667
 42
0.1066862261707715
 10
557.5632639957809
 20
-135.0719925974
 42
0.1066862261707715
 10
557.627019494603
 20
-135.0582323113667
 42
0.1015165396661486
 10
557.6824484196042
 20
-135.0180320885095
 42
0.0949696748627408
 10
557.7187696399412
 20
-134.9590039363151
 42
0.0908076098371197
 10
557.7318162243752
 20
-134.8877598961135
 42
0.090807609837143
 10
557.7187696399412
 20
-134.8165158559118
 42
0.0949696748627508
 10
557.6824484196042
 20
-134.7574877037175
 42
0.1015165396661374
 10
557.627019494603
 20
-134.7172874808603
 42
0.1066862261707894
 10
557.5632639957809
 20
-134.703527194827
 42
0.1066862261707647
  0
LWPOLYLINE
  5
1DFE6
330
2
100
AcDbEntity
  8
0
  6
HIDDEN
 48
8.0
100
AcDbPolyline
 90
        3
 70
     0
 43
0.0
 10
557.5632639957809
 20
-134.703527194827
 42
0.1066862261707647
 10
557.4995084969589
 20
-134.7172874808603
 42
0.0248178107259944
 10
557.4844762720902
 20
-134.725013616221
 42
0.0949696748627504
  0
LINE
  5
1DFE7
330
2
100
AcDbEntity
  8
0
  6
HIDDEN
 48
8.0
100
AcDbLine
 10
558.1296779532437
 20
-134.1107451403754
 30
0.0
 11
557.4844762720902
 21
-134.1107451403754
 31
0.0
  0
ARC
  5
1DFE8
330
2
100
AcDbEntity
  8
0
  6
HIDDEN
 48
8.0
100
AcDbCircle
 10
558.1732261450459
 20
-134.1107451403754
 30
0.0
 40
0.0000000000000071
100
AcDbArc
 50
180.0
 51
180.0
  0
ARC
  5
1DFE9
330
2
100
AcDbEntity
  8
0
  6
HIDDEN
 48
8.0
100
AcDbCircle
 10
557.4844762720902
 20
-134.5232451403754
 30
0.0
 40
0.4125
100
AcDbArc
 50
306.3863003467975
 51
90.0
  0
ARC
  5
1DFEA
330
2
100
AcDbEntity
  8
0
  6
HIDDEN
 48
8.0
100
AcDbCircle
 10
552.8699586006732
 20
-132.1294490677098
 30
0.0
 40
5.66128790777823
100
AcDbArc
 50
18.63399007930135
 51
20.48564380131195
  0
ARC
  5
1DFEB
330
2
100
AcDbEntity
  8
0
  6
HIDDEN
 48
8.0
100
AcDbCircle
 10
556.2439339305996
 20
-128.6999333864426
 30
0.0
 40
2.149079014511563
100
AcDbArc
 50
22.14537194715665
 51
31.97196379612665
  0
ARC
  5
1DFEC
330
2
100
AcDbEntity
  8
0
  6
HIDDEN
 48
8.0
100
AcDbCircle
 10
557.4903014311187
 20
-123.5631183667938
 30
0.0
 40
1.255684070275279
100
AcDbArc
 50
269.7342020717215
 51
306.3449284066681
  0
ARC
  5
1DFED
330
2
100
AcDbEntity
  8
0
  6
HIDDEN
 48
8.0
100
AcDbCircle
 10
615.9538373625812
 20
-127.3864222124266
 30
0.0
 40
58.98267267613778
100
AcDbArc
 50
187.9471198478704
 51
189.8843829311227
  0
LINE
  5
1DFEE
330
2
100
AcDbEntity
  8
0
  6
HIDDEN
 48
8.0
100
AcDbLine
 10
558.2344762720902
 20
-136.9184149995015
 30
0.0
 11
557.7464770932172
 21
-136.9184149995015
 31
0.0
  0
LINE
  5
1DFEF
330
2
100
AcDbEntity
  8
0
  6
HIDDEN
 48
8.0
100
AcDbLine
 10
558.2344762720902
 20
-137.5114222124266
 30
0.0
 11
557.8466945054385
 21
-137.5114222124267
 31
0.0
  0
LINE
  5
1DFF0
330
2
100
AcDbEntity
  8
0
  6
HIDDEN
 48
8.0
100
AcDbLine
 10
557.4844762720902
 20
-138.5114222124267
 30
0.0
 11
557.4844762720902
 21
-136.2614222124267
 31
0.0
  0
LINE
  5
1DFF1
330
2
100
AcDbEntity
  8
0
 48
8.0
100
AcDbLine
 10
558.2344762720902
 20
-128.5727875870795
 30
0.0
 11
552.2344762720901
 21
-128.5727875870795
 31
0.0
  0
LINE
  5
1DFF2
330
2
100
AcDbEntity
  8
0
 48
8.0
100
AcDbLine
 10
552.2344762720901
 20
-138.5114222124267
 30
0.0
 11
558.2344762720902
 21
-138.5114222124267
 31
0.0
  0
LINE
  5
1DFF3
330
2
100
AcDbEntity
  8
0
 48
8.0
100
AcDbLine
 10
552.2344762720901
 20
-128.5727875870795
 30
0.0
 11
558.2344762720902
 21
-128.5727875870795
 31
0.0
  0
LINE
  5
1E048
330
2
100
AcDbEntity
  8
0
100
AcDbLine
 10
420.522525686757
 20
-122.0760079925246
 30
0.0
 11
427.1141125856352
 21
-121.4059249300154
 31
0.0
  0
LINE
  5
1E049
330
2
100
AcDbEntity
  8
0
100
AcDbLine
 10
420.5629373948658
 20
-122.4488325307308
 30
0.0
 11
427.1545242937445
 21
-121.7787494682216
 31
0.0
  0
ARC
  5
1E04A
330
2
100
AcDbEntity
  8
0
100
AcDbCircle
 10
409.101974584195
 20
-123.4254569592425
 30
0.0
 40
17.125
100
AcDbArc
 50
6.431933517350524
 51
76.15465933605775
  0
ARC
  5
1E04B
330
2
100
AcDbEntity
  8
0
100
AcDbCircle
 10
409.101974584195
 20
-123.4254569592425
 30
0.0
 40
18.125
100
AcDbArc
 50
6.397320462390993
 51
85.79433240526741
  0
ARC
  5
1E04C
330
2
100
AcDbEntity
  8
0
100
AcDbCircle
 10
393.1598328973823
 20
-123.4254569592425
 30
0.0
 40
9.125
100
AcDbArc
 50
139.6987007999714
 51
174.1954050702081
  0
ARC
  5
1E04D
330
2
100
AcDbEntity
  8
0
100
AcDbCircle
 10
393.1598328973823
 20
-123.4254569592425
 30
0.0
 40
11.125
100
AcDbArc
 50
115.9748721902778
 51
174.1954050702081
  0
ARC
  5
1E04E
330
2
100
AcDbEntity
  8
0
100
AcDbCircle
 10
393.1598328973823
 20
-123.4254569592425
 30
0.0
 40
12.5
100
AcDbArc
 50
114.5198460059653
 51
173.3359361453725
  0
ARC
  5
1E04F
330
2
100
AcDbEntity
  8
0
100
AcDbCircle
 10
393.1598328973823
 20
-123.4254569592425
 30
0.0
 40
11.5
100
AcDbArc
 50
114.3489371642434
 51
173.2611933584175
  0
ARC
  5
1E050
330
2
100
AcDbEntity
  8
0
100
AcDbCircle
 10
393.1598328973823
 20
-123.4254569592425
 30
0.0
 40
18.125
100
AcDbArc
 50
94.20566759473258
 51
173.6026795376089
  0
ARC
  5
1E051
330
2
100
AcDbEntity
  8
0
100
AcDbCircle
 10
393.1598328973823
 20
-123.4254569592425
 30
0.0
 40
17.125
100
AcDbArc
 50
103.8453406639422
 51
173.5680664826494
  0
LINE
  5
1E052
330
2
100
AcDbEntity
  8
0
100
AcDbLine
 10
381.6988700867113
 20
-122.4488325307308
 30
0.0
 11
375.1072831878327
 21
-121.7787494682216
 31
0.0
  0
LINE
  5
1E053
330
2
100
AcDbEntity
  8
0
100
AcDbLine
 10
381.7392817948202
 20
-122.0760079925246
 30
0.0
 11
375.1476948959421
 21
-121.4059249300154
 31
0.0
  0
ARC
  5
1E054
330
2
100
AcDbEntity
  8
0
100
AcDbCircle
 10
403.7489102167653
 20
-117.6147223399136
 30
0.0
 40
0.5
100
AcDbArc
 50
356.9558341946907
 51
80.03239517235035
  0
ARC
  5
1E055
330
2
100
AcDbEntity
  8
0
100
AcDbCircle
 10
408.4599142249926
 20
-117.8652571442875
 30
0.0
 40
4.217661121120858
100
AcDbArc
 50
176.9558341946972
 51
256.2958404826051
  0
LINE
  5
1E056
330
2
100
AcDbEntity
  8
0
100
AcDbLine
 10
401.3184037407884
 20
-113.1585683655154
 30
0.0
 11
405.0731799104762
 21
-113.1585683655154
 31
0.0
  0
ARC
  5
1E057
330
2
100
AcDbEntity
  8
0
100
AcDbCircle
 10
408.4599142249926
 20
-117.8652571442875
 30
0.0
 40
5.342661121120858
100
AcDbArc
 50
183.0461433951384
 51
247.957161795045
  0
ARC
  5
1E058
330
2
100
AcDbEntity
  8
0
100
AcDbCircle
 10
408.4599142249926
 20
-117.8652571442875
 30
0.0
 40
4.592661121120858
100
AcDbArc
 50
176.9558341946955
 51
252.9370091311868
  0
ARC
  5
1E059
330
2
100
AcDbEntity
  8
0
100
AcDbCircle
 10
408.4599142249926
 20
-117.8652571442875
 30
0.0
 40
4.717661121120858
100
AcDbArc
 50
176.9558341946955
 51
252.224491195684
  0
LINE
  5
1E05A
330
2
100
AcDbEntity
  8
0
100
AcDbLine
 10
402.1309037407884
 20
-119.5299451809153
 30
0.0
 11
402.0684037407884
 21
-119.5924451809153
 31
0.0
  0
ARC
  5
1E05B
330
2
100
AcDbEntity
  8
0
100
AcDbCircle
 10
400.4546470702266
 20
-119.9817543577405
 30
0.0
 40
0.2632983610695081
100
AcDbArc
 50
114.8835018097148
 51
172.836822983326
  0
ARC
  5
1E05C
330
2
100
AcDbEntity
  8
0
100
AcDbCircle
 10
400.4546470702266
 20
-120.0410900671137
 30
0.0
 40
0.2632983610695081
100
AcDbArc
 50
187.1631770166739
 51
245.1164981902851
  0
ARC
  5
1E05D
330
2
100
AcDbEntity
  8
0
100
AcDbCircle
 10
401.8071604113502
 20
-120.0410900671137
 30
0.0
 40
0.2632983610695081
100
AcDbArc
 50
294.8835018097148
 51
352.8368229833261
  0
ARC
  5
1E05E
330
2
100
AcDbEntity
  8
0
100
AcDbCircle
 10
401.8071604113502
 20
-119.9817543577405
 30
0.0
 40
0.2632983610695081
100
AcDbArc
 50
7.163177016673929
 51
65.11649819028514
  0
ARC
  5
1E05F
330
2
100
AcDbEntity
  8
0
100
AcDbCircle
 10
400.4110655145357
 20
-120.4976069546626
 30
0.0
 40
0.2278015016006832
100
AcDbArc
 50
107.1591872439006
 51
162.8408127560987
  0
ARC
  5
1E060
330
2
100
AcDbEntity
  8
0
100
AcDbCircle
 10
400.4110655145357
 20
-120.4881915332152
 30
0.0
 40
0.2278015016006832
100
AcDbArc
 50
197.1591872439012
 51
252.8408127560993
  0
ARC
  5
1E061
330
2
100
AcDbEntity
  8
0
100
AcDbCircle
 10
401.8507419670413
 20
-120.4881915332152
 30
0.0
 40
0.2278015016006832
100
AcDbArc
 50
287.1591872439006
 51
342.8408127560988
  0
ARC
  5
1E062
330
2
100
AcDbEntity
  8
0
100
AcDbCircle
 10
401.8507419670413
 20
-120.4976069546626
 30
0.0
 40
0.2278015016006832
100
AcDbArc
 50
17.15918724390122
 51
72.84081275609937
  0
ARC
  5
1E063
330
2
100
AcDbEntity
  8
0
100
AcDbCircle
 10
400.4110655145357
 20
-119.534652891639
 30
0.0
 40
0.2278015016006832
100
AcDbArc
 50
107.1591872439006
 51
162.8408127560987
  0
ARC
  5
1E064
330
2
100
AcDbEntity
  8
0
100
AcDbCircle
 10
400.4110655145357
 20
-119.5252374701917
 30
0.0
 40
0.2278015016006832
100
AcDbArc
 50
197.1591872439012
 51
252.8408127560993
  0
ARC
  5
1E065
330
2
100
AcDbEntity
  8
0
100
AcDbCircle
 10
401.8507419670413
 20
-119.5252374701917
 30
0.0
 40
0.2278015016006832
100
AcDbArc
 50
287.1591872439006
 51
342.8408127560988
  0
ARC
  5
1E066
330
2
100
AcDbEntity
  8
0
100
AcDbCircle
 10
401.8507419670413
 20
-119.534652891639
 30
0.0
 40
0.2278015016006832
100
AcDbArc
 50
17.15918724390122
 51
72.84081275609937
  0
LINE
  5
1E067
330
2
100
AcDbEntity
  8
0
100
AcDbLine
 10
394.0457153255674
 20
-117.5233424172851
 30
0.0
 11
386.2006182194454
 21
-117.5233424172851
 31
0.0
  0
ARC
  5
1E068
330
2
100
AcDbEntity
  8
0
100
AcDbCircle
 10
401.1309037407884
 20
-132.5114222124271
 30
0.0
 40
15.62499999999999
100
AcDbArc
 50
90.68756585640764
 51
99.96760482764964
  0
ARC
  5
1E069
330
2
100
AcDbEntity
  8
0
100
AcDbCircle
 10
393.8018932565844
 20
-117.8652571442875
 30
0.0
 40
4.217661121120855
100
AcDbArc
 50
283.7041595173948
 51
3.044165805304431
  0
ARC
  5
1E06A
330
2
100
AcDbEntity
  8
0
100
AcDbCircle
 10
398.5128972648117
 20
-117.6147223399136
 30
0.0
 40
0.5
100
AcDbArc
 50
99.96760482764964
 51
183.0441658053027
  0
ARC
  5
1E06B
330
2
100
AcDbEntity
  8
0
100
AcDbCircle
 10
401.1309037407884
 20
-132.5114222124271
 30
0.0
 40
15.62499999999999
100
AcDbArc
 50
80.03239517235035
 51
89.31243414359236
  0
LINE
  5
1E06C
330
2
100
AcDbEntity
  8
0
100
AcDbLine
 10
400.9434037407884
 20
-116.88754725293
 30
0.0
 11
400.9434037407884
 21
-113.1585683655155
 31
0.0
  0
LINE
  5
1E06D
330
2
100
AcDbEntity
  8
0
100
AcDbLine
 10
397.1886275710999
 20
-113.1585683655155
 30
0.0
 11
400.9434037407884
 21
-113.1585683655155
 31
0.0
  0
LINE
  5
1E06E
330
2
100
AcDbEntity
  8
0
100
AcDbLine
 10
401.3184037407884
 20
-116.88754725293
 30
0.0
 11
401.3184037407884
 21
-113.1585683655154
 31
0.0
  0
ARC
  5
1E06F
330
2
100
AcDbEntity
  8
0
100
AcDbCircle
 10
392.6481643660195
 20
-110.2819698736666
 30
0.0
 40
5.375
100
AcDbArc
 50
215.7752685077778
 51
327.6438049970679
  0
ARC
  5
1E070
330
2
100
AcDbEntity
  8
0
100
AcDbCircle
 10
392.6481643660195
 20
-110.2819698736666
 30
0.0
 40
5.0
100
AcDbArc
 50
135.8299755101348
 51
200.7415719319188
  0
CIRCLE
  5
1E071
330
2
100
AcDbEntity
  8
0
100
AcDbCircle
 10
392.6481643660195
 20
-110.2819698736665
 30
0.0
 40
4.0
  0
ARC
  5
1E072
330
2
100
AcDbEntity
  8
0
100
AcDbCircle
 10
392.6481643660195
 20
-110.2819698736666
 30
0.0
 40
5.0
100
AcDbArc
 50
212.2272759569773
 51
99.41082605755475
  0
ARC
  5
1E073
330
2
100
AcDbEntity
  8
0
100
AcDbCircle
 10
393.8018932565844
 20
-117.8652571442875
 30
0.0
 40
5.342661121120855
100
AcDbArc
 50
292.042838204955
 51
356.9538566048631
  0
ARC
  5
1E074
330
2
100
AcDbEntity
  8
0
100
AcDbCircle
 10
401.1309037407884
 20
-132.5114222124271
 30
0.0
 40
14.49999999999999
100
AcDbArc
 50
82.09620099870944
 51
97.90379900129057
  0
ARC
  5
1E075
330
2
100
AcDbEntity
  8
0
100
AcDbCircle
 10
392.4627177426846
 20
-126.3295107555719
 30
0.0
 40
8.751005553972674
100
AcDbArc
 50
21.98458344605104
 51
45.09618831214194
  0
ARC
  5
1E076
330
2
100
AcDbEntity
  8
0
100
AcDbCircle
 10
392.4627177426846
 20
-126.3295107555719
 30
0.0
 40
6.751005553972675
100
AcDbArc
 50
22.2637626626893
 51
42.44313162928208
  0
ARC
  5
1E077
330
2
100
AcDbEntity
  8
0
100
AcDbCircle
 10
403.7489102167653
 20
-117.6147223399136
 30
0.0
 40
0.125
100
AcDbArc
 50
356.9558341946955
 51
80.03239517235035
  0
ARC
  5
1E078
330
2
100
AcDbEntity
  8
0
100
AcDbCircle
 10
398.5128972648117
 20
-117.6147223399136
 30
0.0
 40
0.125
100
AcDbArc
 50
99.96760482764964
 51
183.0441658053044
  0
ARC
  5
1E079
330
2
100
AcDbEntity
  8
0
100
AcDbCircle
 10
401.1309037407884
 20
-132.5114222124271
 30
0.0
 40
15.24999999999999
100
AcDbArc
 50
80.03239517235035
 51
99.96760482764964
  0
ARC
  5
1E07A
330
2
100
AcDbEntity
  8
0
100
AcDbCircle
 10
393.8018932565844
 20
-117.8652571442875
 30
0.0
 40
4.592661121120855
100
AcDbArc
 50
286.8474371456401
 51
3.044165805304431
  0
LINE
  5
1E07B
330
2
100
AcDbEntity
  8
0
100
AcDbLine
 10
400.1309037407883
 20
-119.2614222124271
 30
0.0
 11
402.1309037407884
 21
-119.2614222124271
 31
0.0
  0
LINE
  5
1E07C
330
2
100
AcDbEntity
  8
0
100
AcDbLine
 10
400.1309037407883
 20
-120.7614222124271
 30
0.0
 11
402.1309037407884
 21
-120.7614222124271
 31
0.0
  0
LINE
  5
1E07D
330
2
100
AcDbEntity
  8
0
100
AcDbLine
 10
402.1309037407884
 20
-120.7614222124271
 30
0.0
 11
402.1309037407884
 21
-119.2614222124271
 31
0.0
  0
LINE
  5
1E07E
330
2
100
AcDbEntity
  8
0
100
AcDbLine
 10
400.1309037407883
 20
-120.7614222124271
 30
0.0
 11
400.1309037407883
 21
-119.2614222124271
 31
0.0
  0
LINE
  5
1E07F
330
2
100
AcDbEntity
  8
0
100
AcDbLine
 10
400.3438578038121
 20
-120.2799451809153
 30
0.0
 11
401.9179496777649
 21
-120.2799451809153
 31
0.0
  0
LINE
  5
1E080
330
2
100
AcDbEntity
  8
0
100
AcDbLine
 10
400.3438578038121
 20
-119.7428992439389
 30
0.0
 11
401.9179496777649
 21
-119.7428992439389
 31
0.0
  0
LINE
  5
1E081
330
2
100
AcDbEntity
  8
0
100
AcDbLine
 10
401.9179496777649
 20
-119.3169911178917
 30
0.0
 11
400.3438578038121
 21
-119.3169911178917
 31
0.0
  0
LINE
  5
1E082
330
2
100
AcDbEntity
  8
0
100
AcDbLine
 10
400.3438578038121
 20
-120.7058533069625
 30
0.0
 11
401.9179496777649
 21
-120.7058533069625
 31
0.0
  0
ARC
  5
1E083
330
2
100
AcDbEntity
  8
0
100
AcDbCircle
 10
393.8018932565844
 20
-117.8652571442875
 30
0.0
 40
4.717661121120855
100
AcDbArc
 50
287.7755088043159
 51
3.044165805304431
  0
ARC
  5
1E084
330
2
100
AcDbEntity
  8
0
100
AcDbCircle
 10
401.1309037407884
 20
-132.5114222124271
 30
0.0
 40
15.12499999999999
100
AcDbArc
 50
80.03239517235035
 51
99.96760482764964
  0
ARC
  5
1E085
330
2
100
AcDbEntity
  8
0
100
AcDbCircle
 10
395.1603808441291
 20
-122.2764056045451
 30
0.0
 40
0.0315519445192506
100
AcDbArc
 50
150.3579612359905
 51
167.2072458577842
  0
LINE
  5
1E086
330
2
100
AcDbEntity
  8
0
100
AcDbLine
 10
400.1934037407884
 20
-120.5553992439389
 30
0.0
 11
402.0684037407884
 21
-120.5553992439389
 31
0.0
  0
LINE
  5
1E087
330
2
100
AcDbEntity
  8
0
100
AcDbLine
 10
400.1934037407884
 20
-120.4303992439389
 30
0.0
 11
402.0684037407884
 21
-120.4303992439389
 31
0.0
  0
LINE
  5
1E088
330
2
100
AcDbEntity
  8
0
100
AcDbLine
 10
400.1934037407884
 20
-119.9489222124271
 30
0.0
 11
402.0684037407884
 21
-119.9489222124271
 31
0.0
  0
LINE
  5
1E089
330
2
100
AcDbEntity
  8
0
100
AcDbLine
 10
400.1934037407884
 20
-120.0739222124271
 30
0.0
 11
402.0684037407884
 21
-120.0739222124271
 31
0.0
  0
LINE
  5
1E08A
330
2
100
AcDbEntity
  8
0
100
AcDbLine
 10
400.1934037407884
 20
-119.5924451809153
 30
0.0
 11
402.0684037407884
 21
-119.5924451809153
 31
0.0
  0
LINE
  5
1E08B
330
2
100
AcDbEntity
  8
0
100
AcDbLine
 10
400.1934037407884
 20
-119.4674451809153
 30
0.0
 11
402.0684037407884
 21
-119.4674451809153
 31
0.0
  0
LINE
  5
1E08C
330
2
100
AcDbEntity
  8
0
100
AcDbLine
 10
400.1309037407883
 20
-120.4928992439389
 30
0.0
 11
400.1934037407884
 21
-120.4303992439389
 31
0.0
  0
LINE
  5
1E08D
330
2
100
AcDbEntity
  8
0
100
AcDbLine
 10
400.1309037407883
 20
-120.4928992439389
 30
0.0
 11
400.1934037407884
 21
-120.5553992439389
 31
0.0
  0
LINE
  5
1E08E
330
2
100
AcDbEntity
  8
0
100
AcDbLine
 10
402.1309037407884
 20
-120.4928992439389
 30
0.0
 11
402.0684037407884
 21
-120.5553992439389
 31
0.0
  0
LINE
  5
1E08F
330
2
100
AcDbEntity
  8
0
100
AcDbLine
 10
402.1309037407884
 20
-120.4928992439389
 30
0.0
 11
402.0684037407884
 21
-120.4303992439389
 31
0.0
  0
LINE
  5
1E090
330
2
100
AcDbEntity
  8
0
100
AcDbLine
 10
400.1309037407883
 20
-120.0114222124271
 30
0.0
 11
400.1934037407884
 21
-120.0739222124271
 31
0.0
  0
LINE
  5
1E091
330
2
100
AcDbEntity
  8
0
100
AcDbLine
 10
400.1309037407883
 20
-120.0114222124271
 30
0.0
 11
400.1934037407884
 21
-119.9489222124271
 31
0.0
  0
LINE
  5
1E092
330
2
100
AcDbEntity
  8
0
100
AcDbLine
 10
402.1309037407884
 20
-120.0114222124271
 30
0.0
 11
402.0684037407884
 21
-119.9489222124271
 31
0.0
  0
LINE
  5
1E093
330
2
100
AcDbEntity
  8
0
100
AcDbLine
 10
402.1309037407884
 20
-120.0114222124271
 30
0.0
 11
402.0684037407884
 21
-120.0739222124271
 31
0.0
  0
LINE
  5
1E094
330
2
100
AcDbEntity
  8
0
100
AcDbLine
 10
400.1309037407883
 20
-119.5299451809153
 30
0.0
 11
400.1934037407884
 21
-119.5924451809153
 31
0.0
  0
LINE
  5
1E095
330
2
100
AcDbEntity
  8
0
100
AcDbLine
 10
400.1309037407883
 20
-119.5299451809153
 30
0.0
 11
400.1934037407884
 21
-119.4674451809153
 31
0.0
  0
LINE
  5
1E096
330
2
100
AcDbEntity
  8
0
100
AcDbLine
 10
402.1309037407884
 20
-119.5299451809153
 30
0.0
 11
402.0684037407884
 21
-119.4674451809153
 31
0.0
  0
LINE
  5
1E097
330
2
100
AcDbEntity
  8
0
100
AcDbLine
 10
408.2160921560094
 20
-117.5233424172851
 30
0.0
 11
416.0611892621314
 21
-117.5233424172851
 31
0.0
  0
ARC
  5
1E098
330
2
100
AcDbEntity
  8
0
100
AcDbCircle
 10
409.1019745841945
 20
-123.4254569592425
 30
0.0
 40
9.125
100
AcDbArc
 50
5.80459492979185
 51
40.30129920002853
  0
ARC
  5
1E099
330
2
100
AcDbEntity
  8
0
100
AcDbCircle
 10
409.6136431155578
 20
-110.2819698736666
 30
0.0
 40
5.375
100
AcDbArc
 50
212.3561950029279
 51
324.2247314922221
  0
ARC
  5
1E09A
330
2
100
AcDbEntity
  8
0
100
AcDbCircle
 10
409.101974584195
 20
-123.4254569592425
 30
0.0
 40
11.125
100
AcDbArc
 50
5.80459492979185
 51
64.02512780972209
  0
ARC
  5
1E09B
330
2
100
AcDbEntity
  8
0
100
AcDbCircle
 10
409.6136431155578
 20
-110.2819698736666
 30
0.0
 40
5.0
100
AcDbArc
 50
80.58917394244524
 51
327.7727240430226
  0
CIRCLE
  5
1E09C
330
2
100
AcDbEntity
  8
0
100
AcDbCircle
 10
409.6136431155578
 20
-110.2819698736665
 30
0.0
 40
4.0
  0
ARC
  5
1E09D
330
2
100
AcDbEntity
  8
0
100
AcDbCircle
 10
409.6136431155578
 20
-110.2819698736666
 30
0.0
 40
5.0
100
AcDbArc
 50
339.2584280680811
 51
44.1700244898652
  0
ARC
  5
1E09E
330
2
100
AcDbEntity
  8
0
100
AcDbCircle
 10
409.101974584195
 20
-123.4254569592425
 30
0.0
 40
11.5
100
AcDbArc
 50
6.738806641582478
 51
65.65106283575653
  0
ARC
  5
1E09F
330
2
100
AcDbEntity
  8
0
100
AcDbCircle
 10
409.101974584195
 20
-123.4254569592425
 30
0.0
 40
12.5
100
AcDbArc
 50
6.664063854627494
 51
65.48015399403464
  0
ARC
  5
1E0A0
330
2
100
AcDbEntity
  8
0
100
AcDbCircle
 10
409.101974584195
 20
-123.4254569592425
 30
0.0
 40
17.125
100
AcDbArc
 50
89.58850658930336
 51
89.74693439606015
  0
ARC
  5
1E0A1
330
2
100
AcDbEntity
  8
0
100
AcDbCircle
 10
407.1031528726937
 20
-122.2856363914713
 30
0.0
 40
0.03125
100
AcDbArc
 50
9.121036886702805
 51
72.93700913118733
  0
ARC
  5
1E0A2
330
2
100
AcDbEntity
  8
0
  6
HIDDEN
 48
8.0
100
AcDbCircle
 10
557.0190839493936
 20
-120.7346176087517
 30
0.0
 40
1.46539232269653
100
AcDbArc
 50
288.5171737375998
 51
326.036867910534
  0
ARC
  5
1E0A3
330
2
100
AcDbEntity
  8
0
  6
HIDDEN
 48
8.0
100
AcDbCircle
 10
557.0190839493936
 20
-120.7346176087517
 30
0.0
 40
1.71539232269653
100
AcDbArc
 50
285.7418606666223
 51
315.1147465859453
  0
LINE
  5
1E0A4
330
2
100
AcDbEntity
  8
0
 48
8.0
100
AcDbLine
 10
559.3575969069149
 20
-117.2614222124266
 30
0.0
 11
558.2344762720902
 21
-117.2614222124266
 31
0.0
  0
LINE
  5
1E0A5
330
2
100
AcDbEntity
  8
0
 48
8.0
100
AcDbLine
 10
559.4448363304973
 20
-117.4916091178263
 30
0.0
 11
558.2344762720902
 21
-117.4916091178263
 31
0.0
  0
ARC
  5
1E0A6
330
2
100
AcDbEntity
  8
0
 48
8.0
100
AcDbCircle
 10
558.952418976062
 20
-119.5252374701912
 30
0.0
 40
0.2278015016006832
100
AcDbArc
 50
315.0928281861455
 51
342.8408127560988
  0
ARC
  5
1E0A7
330
2
100
AcDbEntity
  8
0
 48
8.0
100
AcDbCircle
 10
558.952418976062
 20
-119.5346528916385
 30
0.0
 40
0.2278015016006832
100
AcDbArc
 50
17.15918724390121
 51
30.15975163687546
  0
ARC
  5
1E0A8
330
2
100
AcDbEntity
  8
0
 48
8.0
100
AcDbCircle
 10
558.952418976062
 20
-120.4881915332148
 30
0.0
 40
0.2278015016006832
100
AcDbArc
 50
278.8984772480733
 51
342.8408127560988
  0
ARC
  5
1E0A9
330
2
100
AcDbEntity
  8
0
 48
8.0
100
AcDbCircle
 10
558.952418976062
 20
-120.4976069546622
 30
0.0
 40
0.2278015016006832
100
AcDbArc
 50
17.15918724390121
 51
67.97846556960573
  0
ARC
  5
1E0AA
330
2
100
AcDbEntity
  8
0
 48
8.0
100
AcDbCircle
 10
558.9088374203709
 20
-120.0410900671133
 30
0.0
 40
0.2632983610695081
100
AcDbArc
 50
299.8513745948931
 51
352.8368229833261
  0
ARC
  5
1E0AB
330
2
100
AcDbEntity
  8
0
 48
8.0
100
AcDbCircle
 10
558.9088374203709
 20
-119.9817543577401
 30
0.0
 40
0.2632983610695081
100
AcDbArc
 50
7.163177016673929
 51
43.78453872414446
  0
LINE
  5
1E0AC
330
2
100
AcDbEntity
  8
0
 48
8.0
100
AcDbLine
 10
559.2325807498093
 20
-119.5299451809149
 30
0.0
 11
559.1700807498093
 21
-119.4674451809149
 31
0.0
  0
LINE
  5
1E0AD
330
2
100
AcDbEntity
  8
0
 48
8.0
100
AcDbLine
 10
559.2325807498093
 20
-119.5299451809149
 30
0.0
 11
559.1700807498093
 21
-119.5924451809149
 31
0.0
  0
LINE
  5
1E0AE
330
2
100
AcDbEntity
  8
0
 48
8.0
100
AcDbLine
 10
559.2325807498093
 20
-120.0114222124266
 30
0.0
 11
559.1700807498093
 21
-119.9489222124266
 31
0.0
  0
LINE
  5
1E0AF
330
2
100
AcDbEntity
  8
0
 48
8.0
100
AcDbLine
 10
559.2325807498093
 20
-120.0114222124266
 30
0.0
 11
559.1700807498093
 21
-120.0739222124266
 31
0.0
  0
LINE
  5
1E0B0
330
2
100
AcDbEntity
  8
0
 48
8.0
100
AcDbLine
 10
559.2325807498093
 20
-120.4928992439384
 30
0.0
 11
559.1700807498093
 21
-120.5553992439384
 31
0.0
  0
LINE
  5
1E0B1
330
2
100
AcDbEntity
  8
0
 48
8.0
100
AcDbLine
 10
559.2325807498093
 20
-120.4928992439384
 30
0.0
 11
559.1700807498093
 21
-120.4303992439385
 31
0.0
  0
LINE
  5
1E0B2
330
2
100
AcDbEntity
  8
0
 48
8.0
100
AcDbLine
 10
559.1700807498093
 20
-120.5553992439384
 30
0.0
 11
559.0058461017786
 21
-120.5553992439384
 31
0.0
  0
LINE
  5
1E0B3
330
2
100
AcDbEntity
  8
0
 48
8.0
100
AcDbLine
 10
559.1700807498093
 20
-120.4303992439385
 30
0.0
 11
559.0205561332257
 21
-120.4303992439385
 31
0.0
  0
LINE
  5
1E0B4
330
2
100
AcDbEntity
  8
0
 48
8.0
100
AcDbLine
 10
559.2325807498093
 20
-120.4928992439384
 30
0.0
 11
559.0131673137118
 21
-120.4928992439384
 31
0.0
  0
LINE
  5
1E0B5
330
2
100
AcDbEntity
  8
0
 48
8.0
100
AcDbLine
 10
559.1700807498093
 20
-120.0739222124266
 30
0.0
 11
559.0639930047229
 21
-120.0739222124266
 31
0.0
  0
LINE
  5
1E0B6
330
2
100
AcDbEntity
  8
0
 48
8.0
100
AcDbLine
 10
559.2325807498093
 20
-120.0114222124266
 30
0.0
 11
559.071835713533
 21
-120.0114222124266
 31
0.0
  0
LINE
  5
1E0B7
330
2
100
AcDbEntity
  8
0
 48
8.0
100
AcDbLine
 10
559.1700807498093
 20
-119.9489222124266
 30
0.0
 11
559.0797462334657
 21
-119.9489222124266
 31
0.0
  0
LINE
  5
1E0B8
330
2
100
AcDbEntity
  8
0
 48
8.0
100
AcDbLine
 10
559.1700807498093
 20
-119.5924451809149
 30
0.0
 11
559.1261626779858
 21
-119.5924451809149
 31
0.0
  0
LINE
  5
1E0B9
330
2
100
AcDbEntity
  8
0
 48
8.0
100
AcDbLine
 10
559.2325807498093
 20
-119.5299451809149
 30
0.0
 11
559.1345285013737
 21
-119.5299451809149
 31
0.0
  0
LINE
  5
1E0BA
330
2
100
AcDbEntity
  8
0
 48
8.0
100
AcDbLine
 10
559.1700807498093
 20
-119.4674451809149
 30
0.0
 11
559.1429623542924
 21
-119.4674451809149
 31
0.0
  0
ARC
  5
1E0BB
330
2
100
AcDbEntity
  8
0
 48
8.0
100
AcDbCircle
 10
557.0190839493936
 20
-120.7346176087517
 30
0.0
 40
1.71539232269653
100
AcDbArc
 50
315.1147465859453
 51
44.88525341405468
  0
ARC
  5
1E0BC
330
2
100
AcDbEntity
  8
0
 48
8.0
100
AcDbCircle
 10
557.257912688789
 20
-124.4465645056364
 30
0.0
 40
1.813612815283319
100
AcDbArc
 50
35.49601498798618
 51
57.42092325886793
  0
ARC
  5
1E0BD
330
2
100
AcDbEntity
  8
0
 48
8.0
100
AcDbCircle
 10
617.5916191292328
 20
-127.3864222124266
 30
0.0
 40
58.98267267613778
100
AcDbArc
 50
170.3425121327388
 51
176.1706648766597
  0
ARC
  5
1E0BE
330
2
100
AcDbEntity
  8
0
 48
8.0
100
AcDbCircle
 10
617.5916191292328
 20
-127.3864222124266
 30
0.0
 40
59.10767267613778
100
AcDbArc
 50
170.1367296029623
 51
175.9954197457088
  0
LINE
  5
1E0BF
330
2
100
AcDbEntity
  8
0
 48
8.0
100
AcDbLine
 10
559.4448363304973
 20
-117.4916091178263
 30
0.0
 11
559.3575969069149
 21
-117.2614222124266
 31
0.0
  0
ARC
  5
1E0C0
330
2
100
AcDbEntity
  8
0
 48
8.0
100
AcDbCircle
 10
557.0190839493936
 20
-120.7346176087517
 30
0.0
 40
1.46539232269653
100
AcDbArc
 50
326.036867910534
 51
33.96313208946595
  0
ARC
  5
1E0C1
330
2
100
AcDbEntity
  8
0
 48
8.0
100
AcDbCircle
 10
557.257912688789
 20
-124.8494353767718
 30
0.0
 40
1.813612815283319
100
AcDbArc
 50
35.94162163249857
 51
57.42092325886793
  0
ARC
  5
1E0C2
330
2
100
AcDbEntity
  8
0
 48
8.0
100
AcDbCircle
 10
557.257912688789
 20
-125.0652590037088
 30
0.0
 40
1.813612815283319
100
AcDbArc
 50
38.06303005332297
 51
57.42092325886793
  0
ARC
  5
1E0C3
330
2
100
AcDbEntity
  8
0
 48
8.0
100
AcDbCircle
 10
557.257912688789
 20
-125.5256826403214
 30
0.0
 40
1.813612815283319
100
AcDbArc
 50
44.85070499589711
 51
57.42092325886793
  0
ARC
  5
1E0C4
330
2
100
AcDbEntity
  8
0
 48
8.0
100
AcDbCircle
 10
557.0190839493936
 20
-119.9899038998187
 30
0.0
 40
1.46539232269653
100
AcDbArc
 50
326.036867910534
 51
345.2797106280547
  0
ARC
  5
1E0C5
330
2
100
AcDbEntity
  8
0
  6
HIDDEN
 48
8.0
100
AcDbCircle
 10
557.0190839493936
 20
-119.9899038998187
 30
0.0
 40
1.46539232269653
100
AcDbArc
 50
288.5171737375998
 51
326.036867910534
  0
ARC
  5
1E0C6
330
2
100
AcDbEntity
  8
0
  6
HIDDEN
 48
8.0
100
AcDbCircle
 10
557.257912688789
 20
-125.5256826403214
 30
0.0
 40
1.813612815283319
100
AcDbArc
 50
57.42092325886793
 51
82.8236389598678
  0
ARC
  5
1E0C7
330
2
100
AcDbEntity
  8
0
  6
HIDDEN
 48
8.0
100
AcDbCircle
 10
557.257912688789
 20
-125.0652590037088
 30
0.0
 40
1.813612815283319
100
AcDbArc
 50
57.42092325886793
 51
82.8236389598678
  0
ARC
  5
1E0C8
330
2
100
AcDbEntity
  8
0
  6
HIDDEN
 48
8.0
100
AcDbCircle
 10
557.257912688789
 20
-124.8494353767718
 30
0.0
 40
1.813612815283319
100
AcDbArc
 50
57.42092325886793
 51
82.8236389598678
  0
ARC
  5
1E0C9
330
2
100
AcDbEntity
  8
0
  6
HIDDEN
 48
8.0
100
AcDbCircle
 10
557.0190839493936
 20
-120.7346176087517
 30
0.0
 40
1.46539232269653
100
AcDbArc
 50
33.96313208946595
 51
71.48282626240022
  0
ARC
  5
1E0CA
330
2
100
AcDbEntity
  8
0
  6
HIDDEN
 48
8.0
100
AcDbCircle
 10
557.257912688789
 20
-124.4465645056364
 30
0.0
 40
1.813612815283319
100
AcDbArc
 50
57.42092325886793
 51
82.8236389598678
  0
ARC
  5
1E0CB
330
2
100
AcDbEntity
  8
0
  6
HIDDEN
 48
8.0
100
AcDbCircle
 10
557.0190839493936
 20
-120.7346176087517
 30
0.0
 40
1.71539232269653
100
AcDbArc
 50
44.88525341405468
 51
74.25813933337767
  0
LINE
  5
1E0CC
330
2
100
AcDbEntity
  8
0
  6
HIDDEN
 48
8.0
100
AcDbLine
 10
557.4844762720902
 20
-119.3864222124266
 30
0.0
 11
557.4844762720902
 21
-119.0835631557607
 31
0.0
  0
ARC
  5
1E0CD
330
2
100
AcDbEntity
  8
0
  6
HIDDEN
 48
8.0
100
AcDbCircle
 10
615.9538373625812
 20
-127.3864222124266
 30
0.0
 40
58.98267267613778
100
AcDbArc
 50
170.1156170688773
 51
171.9289730207605
  0
LINE
  5
1E0CE
330
2
100
AcDbEntity
  8
0
  6
HIDDEN
 48
8.0
100
AcDbLine
 10
558.2344762720902
 20
-117.4916091178263
 30
0.0
 11
557.8070545638456
 21
-117.4916091178263
 31
0.0
  0
LINE
  5
1E0CF
330
2
100
AcDbEntity
  8
0
  6
HIDDEN
 48
8.0
100
AcDbLine
 10
558.2344762720902
 20
-117.2614222124266
 30
0.0
 11
557.8466945054385
 21
-117.2614222124266
 31
0.0
  0
LINE
  5
1E0D0
330
2
100
AcDbEntity
  8
0
  6
HIDDEN
 48
8.0
100
AcDbLine
 10
552.2344762720901
 20
-119.3864222124266
 30
0.0
 11
557.4844762720902
 21
-119.3864222124266
 31
0.0
  0
LINE
  5
1E0D1
330
2
100
AcDbEntity
  8
0
 48
8.0
100
AcDbLine
 10
552.2344762720901
 20
-105.2819698736666
 30
0.0
 11
558.2344762720902
 21
-105.2819698736666
 31
0.0
  0
LINE
  5
1E0D2
330
2
100
AcDbEntity
  8
0
 48
8.0
100
AcDbLine
 10
552.2344762720901
 20
-115.2819698736666
 30
0.0
 11
558.2344762720902
 21
-115.2819698736666
 31
0.0
  0
LINE
  5
1E0D3
330
2
100
AcDbEntity
  8
0
  6
HIDDEN
 48
8.0
100
AcDbLine
 10
552.2344762720901
 20
-113.1585683655155
 30
0.0
 11
555.8594762720901
 21
-113.1585683655155
 31
0.0
  0
DIMENSION
  5
1E4B6
330
2
100
AcDbEntity
  8
A1
 62
     7
100
AcDbDimension
  2
*D2
 10
507.6425393944515
 20
-105.3796400588898
 30
0.0
 11
507.6425393944515
 21
-203.6664318181537
 31
0.0
 70
   160
 71
     5
 42
194.0067821535374
  3
STANDARD
100
AcDbAlignedDimension
 13
453.1934037407884
 23
-299.3864222124273
 33
0.0
 14
407.4096042349683
 24
-105.3796400588898
 34
0.0
 50
90.0
100
AcDbRotatedDimension
1001
ACAD
1000
DSTYLE
1002
{
1070
     3
1000

1070
    40
1040
6.0
1070
    73
1070
     1
1070
    74
1070
     1
1070
    77
1070
     0
1070
   147
1040
0.5
1070
   277
1070
     4
1070
   279
1070
     1
1070
   288
1070
     1
1002
}
  0
DIMENSION
  5
1E4C4
330
2
100
AcDbEntity
  8
A1
 62
     7
100
AcDbDimension
  2
*D3
 10
610.3896099068666
 20
-153.2614222124272
 30
0.0
 11
610.3896099068666
 21
-224.3276525050054
 31
0.0
 70
   160
 71
     5
 42
146.1250000000001
  3
STANDARD
100
AcDbAlignedDimension
 13
562.2344762720899
 23
-299.3864222124273
 33
0.0
 14
560.23447627209
 24
-153.2614222124272
 34
0.0
 50
90.0
100
AcDbRotatedDimension
1001
ACAD
1000
DSTYLE
1002
{
1070
     3
1000

1070
    40
1040
6.0
1070
    73
1070
     1
1070
    74
1070
     1
1070
    77
1070
     0
1070
   147
1040
0.5
1070
   277
1070
     4
1070
   279
1070
     1
1070
   288
1070
     1
1002
}
  0
DIMENSION
  5
1E4D2
330
2
100
AcDbEntity
  8
A1
 62
     7
100
AcDbDimension
  2
*D4
 10
610.3896099068666
 20
-105.2819698736666
 30
0.0
 11
610.3896099068666
 21
-129.084468670604
 31
0.0
 70
   160
 71
     5
 42
47.60445233876057
  3
STANDARD
100
AcDbAlignedDimension
 13
560.6094762720902
 23
-152.8864222124271
 33
0.0
 14
558.2344762720902
 24
-105.2819698736666
 34
0.0
 50
90.0
100
AcDbRotatedDimension
1001
ACAD
1000
DSTYLE
1002
{
1070
     3
1000

1070
    40
1040
6.0
1070
    73
1070
     1
1070
    74
1070
     1
1070
    77
1070
     0
1070
   147
1040
0.5
1070
   277
1070
     4
1070
   279
1070
     1
1070
   288
1070
     1
1002
}
  0
DIMENSION
  5
1E4E1
330
2
100
AcDbEntity
  8
A1
 62
     7
100
AcDbDimension
  2
*D5
 10
371.4434037407886
 20
-319.0669015760981
 30
0.0
 11
401.7709538181271
 21
-319.0669015760981
 31
0.0
 70
   160
 71
     5
 42
59.37499999999977
  3
STANDARD
100
AcDbAlignedDimension
 13
430.8184037407884
 23
-299.3864222124273
 33
0.0
 14
371.4434037407886
 24
-299.3864222124273
 34
0.0
100
AcDbRotatedDimension
1001
ACAD
1000
DSTYLE
1002
{
1070
     3
1000

1070
    40
1040
6.0
1070
    73
1070
     1
1070
    74
1070
     1
1070
    77
1070
     0
1070
   147
1040
0.5
1070
   277
1070
     4
1070
   279
1070
     1
1070
   288
1070
     1
1002
}
  0
DIMENSION
  5
1E4EF
330
2
100
AcDbEntity
  8
A1
 62
     7
100
AcDbDimension
  2
*D6
 10
349.0684037407886
 20
-332.1691374264009
 30
0.0
 11
402.275101935733
 21
-332.1691374264009
 31
0.0
 70
   160
 71
     5
 42
104.1249999999997
  3
STANDARD
100
AcDbAlignedDimension
 13
453.1934037407884
 23
-299.3864222124273
 33
0.0
 14
349.0684037407886
 24
-299.3864222124273
 34
0.0
100
AcDbRotatedDimension
1001
ACAD
1000
DSTYLE
1002
{
1070
     3
1000

1070
    40
1040
6.0
1070
    73
1070
     1
1070
    74
1070
     1
1070
    77
1070
     0
1070
   147
1040
0.5
1070
   277
1070
     4
1070
   279
1070
     1
1070
   288
1070
     1
1002
}
  0
DIMENSION
  5
1E4FD
330
2
100
AcDbEntity
  8
A1
 62
     7
100
AcDbDimension
  2
*D7
 10
430.8184037407884
 20
-312.5157836509464
 30
0.0
 11
489.4931237022852
 21
-312.5157836509464
 31
0.0
 70
   160
 71
     5
 42
22.375
  3
STANDARD
100
AcDbAlignedDimension
 13
453.1934037407884
 23
-299.3864222124273
 33
0.0
 14
430.8184037407884
 24
-299.3864222124273
 34
0.0
100
AcDbRotatedDimension
1001
ACAD
1000
DSTYLE
1002
{
1070
     3
1000

1070
    40
1040
6.0
1070
    73
1070
     1
1070
    74
1070
     1
1070
    77
1070
     0
1070
   147
1040
0.5
1070
   277
1070
     4
1070
   279
1070
     1
1070
   288
1070
     1
1002
}
  0
DIMENSION
  5
1E50D
330
2
100
AcDbEntity
  8
A1
 62
     7
100
AcDbDimension
  2
*D8
 10
321.0684037407886
 20
-159.3204001711387
 30
0.0
 11
336.2314004638116
 21
-159.3204001711387
 31
0.0
 70
   160
 71
     5
 42
30.0
  3
STANDARD
100
AcDbAlignedDimension
 13
351.0684037407886
 23
-143.4755022124271
 33
0.0
 14
321.0684037407886
 24
-143.4755022124271
 34
0.0
100
AcDbRotatedDimension
1001
ACAD
1000
DSTYLE
1002
{
1070
     3
1000

1070
    40
1040
6.0
1070
    73
1070
     1
1070
    74
1070
     1
1070
    77
1070
     0
1070
   147
1040
0.5
1070
   277
1070
     4
1070
   279
1070
     1
1070
   288
1070
     1
1002
}
  0
DIMENSION
  5
1E51B
330
2
100
AcDbEntity
  8
A1
 62
     7
100
AcDbDimension
  2
*D9
 10
359.1986434233224
 20
-89.27382635638599
 30
0.0
 11
402.7792540275465
 21
-89.27382635638599
 31
0.0
 70
   160
 71
     5
 42
83.86458375759934
  3
STANDARD
100
AcDbAlignedDimension
 13
443.0632271809217
 23
-133.6151763583368
 33
0.0
 14
359.1986434233224
 24
-133.6220624075165
 34
0.0
100
AcDbRotatedDimension
1001
ACAD
1000
DSTYLE
1002
{
1070
     3
1000

1070
    40
1040
6.0
1070
    73
1070
     1
1070
    74
1070
     1
1070
    77
1070
     0
1070
   147
1040
0.5
1070
   277
1070
     4
1070
   279
1070
     1
1070
   288
1070
     1
1002
}
  0
DIMENSION
  5
1E529
330
2
100
AcDbEntity
  8
A1
 62
     7
100
AcDbDimension
  2
*D10
 10
558.2344762720902
 20
-88.26596206020889
 30
0.0
 11
531.2379977640822
 21
-88.26596206020889
 31
0.0
 70
   160
 71
     5
 42
6.0
  3
STANDARD
100
AcDbAlignedDimension
 13
552.2344762720901
 23
-105.2819698736666
 33
0.0
 14
558.2344762720902
 24
-105.2819698736666
 34
0.0
100
AcDbRotatedDimension
1001
ACAD
1000
DSTYLE
1002
{
1070
     3
1000

1070
    40
1040
6.0
1070
    73
1070
     1
1070
    74
1070
     1
1070
    77
1070
     0
1070
   147
1040
0.5
1070
   277
1070
     4
1070
   279
1070
     1
1070
   288
1070
     1
1002
}
  0
DIMENSION
  5
1E539
330
2
100
AcDbEntity
  8
A1
 62
     7
100
AcDbDimension
  2
*D11
 10
552.2344762720901
 20
-95.82494428153763
 30
0.0
 11
597.7858513278166
 21
-95.82494428153763
 31
0.0
 70
   160
 71
     5
 42
10.88330399999995
  3
STANDARD
100
AcDbAlignedDimension
 13
563.1177802720901
 23
-138.8864222124271
 33
0.0
 14
552.2344762720901
 24
-105.2819698736666
 34
0.0
100
AcDbRotatedDimension
1001
ACAD
1000
DSTYLE
1002
{
1070
     3
1000

1070
    40
1040
6.0
1070
    73
1070
     1
1070
    74
1070
     1
1070
    77
1070
     0
1070
   147
1040
0.5
1070
   277
1070
     4
1070
   279
1070
     1
1070
   288
1070
     1
1002
}
  0
DIMENSION
  5
1E549
330
2
100
AcDbEntity
  8
A1
 62
     7
100
AcDbDimension
  2
*D12
 10
552.2344762720901
 20
-312.5157836509464
 30
0.0
 11
590.7277458876757
 21
-312.5157836509464
 31
0.0
 70
   160
 71
     5
 42
9.999999999999772
  3
STANDARD
100
AcDbAlignedDimension
 13
562.2344762720899
 23
-299.3864222124273
 33
0.0
 14
552.2344762720901
 24
-299.3864222124273
 34
0.0
100
AcDbRotatedDimension
1001
ACAD
1000
DSTYLE
1002
{
1070
     3
1000

1070
    40
1040
6.0
1070
    73
1070
     1
1070
    74
1070
     1
1070
    77
1070
     0
1070
   147
1040
0.5
1070
   277
1070
     4
1070
   279
1070
     1
1070
   288
1070
     1
1002
}
  0
ATTDEF
  5
1E569
330
2
100
AcDbEntity
  8
A1
 62
     1
100
AcDbText
 10
567.3930956169765
 20
-47.97195499925781
 30
0.0
 40
8.96
  1

100
AcDbAttributeDefinition
  3
ADD LINK NUMBER (WMF)
  2
TSE008
 70
     0
  0
MTEXT
  5
1E56A
330
2
100
AcDbEntity
  8
0
 62
     1
100
AcDbMText
 10
567.7410350945129
 20
-54.66754099299038
 30
0.0
 40
8.96
 41
0.0
 71
     1
 72
     1
  1
TannerStone
 73
     1
 44
1.0
  0
MTEXT
  5
1E56B
330
2
100
AcDbEntity
  8
0
 62
     1
100
AcDbMText
 10
568.4376070643544
 20
-68.26129518728762
 30
0.0
 40
6.618527999999999
 41
0.0
 71
     1
 72
     1
  1
1-800-789-4841
 73
     1
 44
1.0
  0
LINE
  5
1E56C
330
2
100
AcDbEntity
  8
0
 62
     1
100
AcDbLine
 10
510.8654554983128
 20
-51.4015659071839
 30
0.0
 11
644.6333885906754
 21
-51.4015659071839
 31
0.0
  0
LINE
  5
1E56D
330
2
100
AcDbEntity
  8
0
 62
     1
100
AcDbLine
 10
563.0310956892399
 20
-78.17205277109367
 30
0.0
 11
563.0310956892399
 21
-37.36414705617175
 31
0.0
  0
SOLID
  5
1E61C
330
2
100
AcDbEntity
  8
A1
 62
     1
100
AcDbTrace
 10
450.3069989251032
 20
-136.7394773459163
 30
0.0
 11
449.4942486101022
 21
-136.1568651889321
 31
0.0
 12
448.1527872966499
 22
-138.8864222124271
 32
0.0
 13
448.1527872966499
 23
-138.8864222124271
 33
0.0
  0
LINE
  5
1E61D
330
2
100
AcDbEntity
  8
A1
 62
     1
100
AcDbLine
 10
449.9006237676026
 20
-136.4481712674242
 30
0.0
 11
468.9760298112861
 21
-109.8377717333224
 31
0.0
  0
LINE
  5
1E621
330
2
100
AcDbEntity
  8
A1
 62
     1
100
AcDbLine
 10
475.0751095641471
 20
-101.3294889401638
 30
0.0
 11
510.8654554983128
 21
-51.4015659071839
 31
0.0
  0
INSERT
  5
1E622
330
2
100
AcDbEntity
  8
A1
 62
     7
100
AcDbBlockReference
 66
     1
  2
PROFILE LOGO
 10
349.8434592522804
 20
-293.8702941716696
 30
0.0
 41
2.5
 42
2.5
 43
2.5
  0
ATTRIB
  5
1E623
330
1E622
100
AcDbEntity
  8
A1
 62
    22
100
AcDbText
 10
350.583653675243
 20
-298.0660397939359
 30
0.0
 40
0.5317382812500001
  1
E008
 72
     1
 11
351.5387852654827
 21
-298.0660397939359
 31
0.0
100
AcDbAttribute
  2
XXXX
 70
     0
  0
SEQEND
  5
1E624
330
1E622
100
AcDbEntity
  8
A1
 62
     7
  0
INSERT
  5
1E625
330
2
100
AcDbEntity
  8
A1
 62
     7
100
AcDbBlockReference
 66
     1
  2
PROFILE LOGO
 10
553.5202247553685
 20
-293.8702941716696
 30
0.0
 41
2.5
 42
2.5
 43
2.5
  0
ATTRIB
  5
1E626
330
1E625
100
AcDbEntity
  8
A1
 62
    22
100
AcDbText
 10
554.2604191783311
 20
-298.0660397939359
 30
0.0
 40
0.5317382812500001
  1
E008
 72
     1
 11
555.2155507685707
 21
-298.0660397939359
 31
0.0
100
AcDbAttribute
  2
XXXX
 70
     0
  0
SEQEND
  5
1E627
330
1E625
100
AcDbEntity
  8
A1
 62
     7
  0
ENDSEC
  0
SECTION
  2
OBJECTS
  0
DICTIONARY
  5
8
330
0
100
AcDbDictionary
281
     1
  3
ACAD_GROUP
350
21
  3
ACAD_LAYOUT
350
C
  3
ACAD_MLINESTYLE
350
22
  3
ACAD_PLOTSETTINGS
350
23
  3
ACAD_PLOTSTYLENAME
350
7
  0
DICTIONARY
  5
3
330
2
100
AcDbDictionary
280
     1
281
     1
  0
DICTIONARY
  5
21
102
{ACAD_REACTORS
330
8
102
}
330
8
100
AcDbDictionary
281
     1
  0
DICTIONARY
  5
C
102
{ACAD_REACTORS
330
8
102
}
330
8
100
AcDbDictionary
281
     1
  3
Layout1
350
10
  3
Model
350
B
  0
DICTIONARY
  5
22
102
{ACAD_REACTORS
330
8
102
}
330
8
100
AcDbDictionary
281
     1
  3
STANDARD
350
25
  0
DICTIONARY
  5
23
102
{ACAD_REACTORS
330
8
102
}
330
8
100
AcDbDictionary
281
     1
  0
ACDBDICTIONARYWDFLT
  5
7
102
{ACAD_REACTORS
330
8
102
}
330
8
100
AcDbDictionary
281
     1
  3
Normal
350
6
100
AcDbDictionaryWithDefault
340
6
  0
LAYOUT
  5
10
102
{ACAD_REACTORS
330
C
102
}
330
C
100
AcDbPlotSettings
  1

  2
None
  4

  6

 40
0.0
 41
0.0
 42
0.0
 43
0.0
 44
0.0
 45
0.0
 46
0.0
 47
0.0
 48
0.0
 49
0.0
140
0.0
141
0.0
142
1.0
143
1.0
 70
   688
 72
     0
 73
     0
 74
     5
  7

 75
    16
147
1.0
148
0.0
149
0.0
100
AcDbLayout
  1
Layout1
 70
     1
 71
     1
 10
0.0
 20
0.0
 11
12.0
 21
9.0
 12
0.0
 22
0.0
 32
0.0
 14
1.000000000000000E+20
 24
1.000000000000000E+20
 34
1.000000000000000E+20
 15
-1.000000000000000E+20
 25
-1.000000000000000E+20
 35
-1.000000000000000E+20
146
0.0
 13
0.0
 23
0.0
 33
0.0
 16
1.0
 26
0.0
 36
0.0
 17
0.0
 27
1.0
 37
0.0
 76
     0
330
D
  0
LAYOUT
  5
B
102
{ACAD_REACTORS
330
C
102
}
330
C
100
AcDbPlotSettings
  1

  2
HP LaserJet 5.pc3
  4
Letter
  6

 40
7.143749713897705
 41
6.381738662719726
 42
7.14373779296875
 43
6.381744384765625
 44
215.8999938964843
 45
279.3999938964843
 46
0.0
 47
0.0
 48
603.4899851506333
 49
199.8350450038278
140
671.3252102950534
141
250.2978344405305
142
1.0
143
44.53191426697756
 70
 11952
 72
     0
 73
     1
 74
     1
  7

 75
     0
147
0.0224558053804919
148
-5976.39537829983
149
311.5283636087993
100
AcDbLayout
  1
Model
 70
     1
 71
     0
 10
0.0
 20
0.0
 11
12.0
 21
9.0
 12
0.0
 22
0.0
 32
0.0
 14
0.0
 24
0.0
 34
0.0
 15
0.0
 25
0.0
 35
0.0
146
0.0
 13
0.0
 23
0.0
 33
0.0
 16
1.0
 26
0.0
 36
0.0
 17
0.0
 27
1.0
 37
0.0
 76
     0
330
2
  0
MLINESTYLE
  5
25
102
{ACAD_REACTORS
330
22
102
}
330
22
100
AcDbMlineStyle
  2
STANDARD
 70
     0
  3

 62
   256
 51
90.0
 52
90.0
 71
     2
 49
0.5
 62
   256
  6
BYLAYER
 49
-0.5
 62
   256
  6
BYLAYER
  0
ACDBPLACEHOLDER
  5
6
102
{ACAD_REACTORS
330
7
102
}
330
7
  0
ENDSEC
  0
EOF
