  0
SECTION
  2
HEADER
  9
$ACADVER
  1
AC1015
  9
$ACADMAINTVER
 70
     6
  9
$DWGCODEPAGE
  3
ANSI_1252
  9
$INSBASE
 10
0.0
 20
0.0
 30
0.0
  9
$EXTMIN
 10
511.4341339277376
 20
300.6953625895417
 30
0.0
  9
$EXTMAX
 10
575.8775978149367
 20
348.6350125544093
 30
0.0
  9
$LIMMIN
 10
0.0
 20
0.0
  9
$LIMMAX
 10
12.0
 20
9.0
  9
$ORTHOMODE
 70
     1
  9
$REGENMODE
 70
     1
  9
$FILLMODE
 70
     1
  9
$QTEXTMODE
 70
     0
  9
$MIRRTEXT
 70
     0
  9
$LTSCALE
 40
1.0
  9
$ATTMODE
 70
     2
  9
$TEXTSIZE
 40
0.5
  9
$TRACEWID
 40
0.05
  9
$TEXTSTYLE
  7
STANDARD
  9
$CLAYER
  8
PLINE
  9
$CELTYPE
  6
BYLAYER
  9
$CECOLOR
 62
     7
  9
$CELTSCALE
 40
1.0
  9
$DISPSILH
 70
     0
  9
$DIMSCALE
 40
1.0
  9
$DIMASZ
 40
0.5
  9
$DIMEXO
 40
1.0
  9
$DIMDLI
 40
0.0625
  9
$DIMRND
 40
0.0
  9
$DIMDLE
 40
0.0
  9
$DIMEXE
 40
0.25
  9
$DIMTP
 40
0.0
  9
$DIMTM
 40
0.0
  9
$DIMTXT
 40
1.0
  9
$DIMCEN
 40
0.0
  9
$DIMTSZ
 40
0.0
  9
$DIMTOL
 70
     0
  9
$DIMLIM
 70
     0
  9
$DIMTIH
 70
     1
  9
$DIMTOH
 70
     1
  9
$DIMSE1
 70
     0
  9
$DIMSE2
 70
     0
  9
$DIMTAD
 70
     0
  9
$DIMZIN
 70
     0
  9
$DIMBLK
  1

  9
$DIMASO
 70
     1
  9
$DIMSHO
 70
     1
  9
$DIMPOST
  1
"
  9
$DIMAPOST
  1

  9
$DIMALT
 70
     0
  9
$DIMALTD
 70
     0
  9
$DIMALTF
 40
25.4
  9
$DIMLFAC
 40
1.0
  9
$DIMTOFL
 70
     0
  9
$DIMTVP
 40
0.0
  9
$DIMTIX
 70
     0
  9
$DIMSOXD
 70
     0
  9
$DIMSAH
 70
     0
  9
$DIMBLK1
  1

  9
$DIMBLK2
  1

  9
$DIMSTYLE
  2
STANDARD
  9
$DIMCLRD
 70
     0
  9
$DIMCLRE
 70
     0
  9
$DIMCLRT
 70
     0
  9
$DIMTFAC
 40
0.125
  9
$DIMGAP
 40
0.5
  9
$DIMJUST
 70
     0
  9
$DIMSD1
 70
     0
  9
$DIMSD2
 70
     0
  9
$DIMTOLJ
 70
     1
  9
$DIMTZIN
 70
     0
  9
$DIMALTZ
 70
     2
  9
$DIMALTTZ
 70
     2
  9
$DIMUPT
 70
     1
  9
$DIMDEC
 70
     4
  9
$DIMTDEC
 70
     4
  9
$DIMALTU
 70
     2
  9
$DIMALTTD
 70
     0
  9
$DIMTXSTY
  7
STANDARD
  9
$DIMAUNIT
 70
     0
  9
$DIMADEC
 70
     0
  9
$DIMALTRND
 40
0.0
  9
$DIMAZIN
 70
     0
  9
$DIMDSEP
 70
    46
  9
$DIMATFIT
 70
     1
  9
$DIMFRAC
 70
     2
  9
$DIMLDRBLK
  1

  9
$DIMLUNIT
 70
     5
  9
$DIMLWD
 70
    -2
  9
$DIMLWE
 70
    -2
  9
$DIMTMOVE
 70
     1
  9
$LUNITS
 70
     5
  9
$LUPREC
 70
     4
  9
$SKETCHINC
 40
0.1
  9
$FILLETRAD
 40
0.0
  9
$AUNITS
 70
     0
  9
$AUPREC
 70
     1
  9
$MENU
  1
acad
  9
$ELEVATION
 40
0.0
  9
$PELEVATION
 40
0.0
  9
$THICKNESS
 40
0.0
  9
$LIMCHECK
 70
     0
  9
$CHAMFERA
 40
0.75
  9
$CHAMFERB
 40
0.75
  9
$CHAMFERC
 40
0.0
  9
$CHAMFERD
 40
0.0
  9
$SKPOLY
 70
     0
  9
$TDCREATE
 40
2451085.664838310
  9
$TDUCREATE
 40
2451085.831504977
  9
$TDUPDATE
 40
2451660.599900115
  9
$TDUUPDATE
 40
2451660.766566782
  9
$TDINDWG
 40
2.5775083333
  9
$TDUSRTIMER
 40
2.5775083333
  9
$USRTIMER
 70
     1
  9
$ANGBASE
 50
0.0
  9
$ANGDIR
 70
     0
  9
$PDMODE
 70
     0
  9
$PDSIZE
 40
0.0
  9
$PLINEWID
 40
0.0
  9
$SPLFRAME
 70
     0
  9
$SPLINETYPE
 70
     6
  9
$SPLINESEGS
 70
     8
  9
$HANDSEED
  5
B4195
  9
$SURFTAB1
 70
     6
  9
$SURFTAB2
 70
     6
  9
$SURFTYPE
 70
     6
  9
$SURFU
 70
     6
  9
$SURFV
 70
     6
  9
$UCSBASE
  2

  9
$UCSNAME
  2

  9
$UCSORG
 10
0.0
 20
0.0
 30
0.0
  9
$UCSXDIR
 10
1.0
 20
0.0
 30
0.0
  9
$UCSYDIR
 10
0.0
 20
1.0
 30
0.0
  9
$UCSORTHOREF
  2

  9
$UCSORTHOVIEW
 70
     0
  9
$UCSORGTOP
 10
0.0
 20
0.0
 30
0.0
  9
$UCSORGBOTTOM
 10
0.0
 20
0.0
 30
0.0
  9
$UCSORGLEFT
 10
0.0
 20
0.0
 30
0.0
  9
$UCSORGRIGHT
 10
0.0
 20
0.0
 30
0.0
  9
$UCSORGFRONT
 10
0.0
 20
0.0
 30
0.0
  9
$UCSORGBACK
 10
0.0
 20
0.0
 30
0.0
  9
$PUCSBASE
  2

  9
$PUCSNAME
  2

  9
$PUCSORG
 10
0.0
 20
0.0
 30
0.0
  9
$PUCSXDIR
 10
1.0
 20
0.0
 30
0.0
  9
$PUCSYDIR
 10
0.0
 20
1.0
 30
0.0
  9
$PUCSORTHOREF
  2

  9
$PUCSORTHOVIEW
 70
     0
  9
$PUCSORGTOP
 10
0.0
 20
0.0
 30
0.0
  9
$PUCSORGBOTTOM
 10
0.0
 20
0.0
 30
0.0
  9
$PUCSORGLEFT
 10
0.0
 20
0.0
 30
0.0
  9
$PUCSORGRIGHT
 10
0.0
 20
0.0
 30
0.0
  9
$PUCSORGFRONT
 10
0.0
 20
0.0
 30
0.0
  9
$PUCSORGBACK
 10
0.0
 20
0.0
 30
0.0
  9
$USERI1
 70
     0
  9
$USERI2
 70
     0
  9
$USERI3
 70
     0
  9
$USERI4
 70
     0
  9
$USERI5
 70
     0
  9
$USERR1
 40
0.0
  9
$USERR2
 40
0.0
  9
$USERR3
 40
0.0
  9
$USERR4
 40
0.0
  9
$USERR5
 40
0.0
  9
$WORLDVIEW
 70
     1
  9
$SHADEDGE
 70
     1
  9
$SHADEDIF
 70
    70
  9
$TILEMODE
 70
     1
  9
$MAXACTVP
 70
    16
  9
$PINSBASE
 10
0.0
 20
0.0
 30
0.0
  9
$PLIMCHECK
 70
     0
  9
$PEXTMIN
 10
1.000000000000000E+20
 20
1.000000000000000E+20
 30
1.000000000000000E+20
  9
$PEXTMAX
 10
-1.000000000000000E+20
 20
-1.000000000000000E+20
 30
-1.000000000000000E+20
  9
$PLIMMIN
 10
0.0
 20
0.0
  9
$PLIMMAX
 10
12.0
 20
9.0
  9
$UNITMODE
 70
     0
  9
$VISRETAIN
 70
     0
  9
$PLINEGEN
 70
     0
  9
$PSLTSCALE
 70
     1
  9
$TREEDEPTH
 70
  3020
  9
$CMLSTYLE
  2
STANDARD
  9
$CMLJUST
 70
     0
  9
$CMLSCALE
 40
1.0
  9
$PROXYGRAPHICS
 70
     1
  9
$MEASUREMENT
 70
     0
  9
$CELWEIGHT
370
    -1
  9
$ENDCAPS
280
     0
  9
$JOINSTYLE
280
     0
  9
$LWDISPLAY
290
     0
  9
$INSUNITS
 70
     0
  9
$HYPERLINKBASE
  1

  9
$STYLESHEET
  1

  9
$XEDIT
290
     1
  9
$CEPSNTYPE
380
     0
  9
$PSTYLEMODE
290
     1
  9
$FINGERPRINTGUID
  2
{A6232B84-9B2E-11D3-8DA4-00A0C981A35F}
  9
$VERSIONGUID
  2
{8868A56B-19C8-11D4-8DA4-00A0C981A35F}
  9
$EXTNAMES
290
     1
  9
$PSVPSCALE
 40
0.0
  9
$OLESTARTUP
290
     0
  0
ENDSEC
  0
SECTION
  2
CLASSES
  0
CLASS
  1
DICTIONARYVAR
  2
AcDbDictionaryVar
  3
AutoCAD 2000
 90
    32768
280
     0
281
     0
  0
CLASS
  1
LWPOLYLINE
  2
AcDbPolyline
  3
AutoCAD 2000
 90
    32768
280
     0
281
     1
  0
CLASS
  1
RASTERVARIABLES
  2
AcDbRasterVariables
  3
ISM
 90
    32768
280
     0
281
     0
  0
CLASS
  1
ACDBDICTIONARYWDFLT
  2
AcDbDictionaryWithDefault
  3
AutoCAD 2000
 90
        0
280
     0
281
     0
  0
CLASS
  1
ACDBPLACEHOLDER
  2
AcDbPlaceHolder
  3
AutoCAD 2000
 90
        0
280
     0
281
     0
  0
CLASS
  1
LAYOUT
  2
AcDbLayout
  3
AutoCAD 2000
 90
        0
280
     0
281
     0
  0
CLASS
  1
ACME_DOCUMENT
  2
AcMeDbDoc
  3
AcMeServices
 90
    32768
280
     1
281
     0
  0
CLASS
  1
ACMESCOPE
  2
AcMeScope
  3
AcMeServices
 90
    32768
280
     1
281
     0
  0
CLASS
  1
ACMECOMMANDHISTORY
  2
AcMeCommandHistory
  3
AcMeServices
 90
    32768
280
     1
281
     0
  0
CLASS
  1
ACIMSYSVARMAN
  2
AcImSysVarManager
  3
AcMeServices
 90
    32768
280
     1
281
     0
  0
CLASS
  1
ACIMREALSYSVAR
  2
AcImRealSysVar
  3
AcMeServices
 90
    32768
280
     1
281
     0
  0
CLASS
  1
ACIMINTSYSVAR
  2
AcImIntSysVar
  3
AcMeServices
 90
    32768
280
     1
281
     0
  0
CLASS
  1
ACMEDRAWINGMAN
  2
AcMeDrawingMan
  3
AcMeServices
 90
    32768
280
     1
281
     0
  0
CLASS
  1
ACMEVIEW
  2
AcMeView
  3
AcMeServices
 90
    32768
280
     1
281
     0
  0
CLASS
  1
ACDBENTITYCACHE
  2
AcMeEntityCache
  3
AcMeServices
 90
    32768
280
     1
281
     0
  0
CLASS
  1
GSMANAGER
  2
AcMeGSManager
  3
AcMeServices
 90
    32768
280
     1
281
     0
  0
CLASS
  1
AmdtInternalReactor
  2
AmdtInternalReactor
  3
AcMeServices
 90
    32768
280
     1
281
     0
  0
CLASS
  1
ACMESTATEMGR
  2
AcMeStateMgr
  3
AcMeServices
 90
    32768
280
     1
281
     0
  0
CLASS
  1
ACGREFMASTER
  2
AcGrefMaster
  3
AcAttribServices
 90
    32768
280
     1
281
     0
  0
CLASS
  1
AM_DRAWING_MGR
  2
AcDmDwgMgr
  3
AcMechDwgViewMgmt
 90
    32768
280
     1
281
     0
  0
CLASS
  1
AM_DWG_DOCUMENT
  2
AcDmDwgDocument
  3
AcMechDwgViewMgmt
 90
    32768
280
     1
281
     0
  0
CLASS
  1
AM_DWG_SHEET
  2
AcDmSheet
  3
AcMechDwgViewMgmt
 90
    32768
280
     1
281
     0
  0
CLASS
  1
AM_VIEWDIMPARMAP
  2
AcDmViewDimParMap
  3
AcMechDwgViewMgmt
 90
    32768
280
     1
281
     0
  0
CLASS
  1
AM_DWGMGR_NAME
  2
AcDmDwgMgrName
  3
AcMechDwgViewMgmt
 90
    32768
280
     1
281
     0
  0
CLASS
  1
ACME_DATABASE
  2
AcMeDbDatabase
  3
AcMeServices
 90
    32768
280
     1
281
     0
  0
CLASS
  1
ACRFINSADJUSTERMGR
  2
AcRfInsAdjusterMgr
  3
AcMeServices
 90
    32768
280
     1
281
     0
  0
CLASS
  1
ACGREFMASTER
  2
AcGrefacadMaster
  3
AcGrefServices
 90
    32768
280
     1
281
     0
  0
CLASS
  1
AMDTMENUSTATEMGR
  2
AmdtMenuStateMgr
  3
McadcomServices
 90
    32768
280
     1
281
     0
  0
CLASS
  1
AMDTMCOMMENUSTATE
  2
AmdtMcomMenuState
  3
McadcomServices
 90
    32768
280
     1
281
     0
  0
CLASS
  1
ASAPP
  2
AcAsAppObject
  3
AutoSurfServices
 90
    32768
280
     1
281
     0
  0
CLASS
  1
IM_STATIC_MAN
  2
AcImStaticVarManager
  3
AcMeServices
 90
    32768
280
     1
281
     0
  0
CLASS
  1
ACIMSTRSYSVAR
  2
AcImStrSysVar
  3
AcMeServices
 90
    32768
280
     1
281
     0
  0
CLASS
  1
ACIMDBLSTATICVAR
  2
AcImDblStaticVar
  3
AcMeServices
 90
    32768
280
     1
281
     0
  0
CLASS
  1
ACIMSTRSTATICVAR
  2
AcImStrStaticVar
  3
AcMeServices
 90
    32768
280
     1
281
     0
  0
CLASS
  1
ACIMINTSTATICVAR
  2
AcImIntStaticVar
  3
AcMeServices
 90
    32768
280
     1
281
     0
  0
CLASS
  1
ACADGREFMODULE
  2
AcAdGrefModule
  3
AdGrefServices
 90
    32768
280
     1
281
     0
  0
CLASS
  1
AMIMASTER
  2
AmiMaster
  3
AmiServices
 90
    32768
280
     1
281
     0
  0
CLASS
  1
ACASGREFMASTER
  2
AcAsGrefMaster
  3
AutoSurfResolverServices
 90
    32768
280
     1
281
     0
  0
CLASS
  1
MAPIAMMOUDLE
  2
MApiAmModule
  3
MApiAmServices
 90
    32768
280
     1
281
     0
  0
CLASS
  1
AMDTDMMENUSTATE
  2
AmdtDmMenuState
  3
AcMechDwgViewMgmt
 90
    32768
280
     1
281
     0
  0
CLASS
  1
AMDTADMENUSTATE
  2
AmdtAdMenuState
  3
DesignerServices
 90
    32768
280
     1
281
     0
  0
CLASS
  1
ADAPPL
  2
AcAdAppl
  3
DesignerServices
 90
    32768
280
     1
281
     0
  0
CLASS
  1
DEPMGR
  2
AcAdDepMgr
  3
DesignerServices
 90
    32768
280
     1
281
     0
  0
CLASS
  1
PARAMMGR
  2
AcAdParamMgr
  3
DesignerServices
 90
    32768
280
     1
281
     0
  0
CLASS
  1
PARAMSCOPE
  2
AcAdParamScope
  3
DesignerServices
 90
    32768
280
     1
281
     0
  0
CLASS
  1
NAMEDAPPL
  2
AcAdNamedAppl
  3
DesignerServices
 90
    32768
280
     1
281
     0
  0
CLASS
  1
ADHNTMPLT
  2
AdHoleNoteTemplateMgr
  3
DesignerServices
 90
    32768
280
     1
281
     0
  0
CLASS
  1
AM_HNTEMPLATE_MGR_NAME
  2
AdHoleNoteTemplateMgrName
  3
DesignerServices
 90
    32768
280
     1
281
     0
  0
CLASS
  1
AMDTAMMENUSTATE
  2
AmdtAmMenuState
  3
DesignerAssemblies
 90
    32768
280
     1
281
     0
  0
CLASS
  1
ACAMPROJECT
  2
AcAmProject
  3
DesignerAssemblies
 90
    32768
280
     1
281
     0
  0
CLASS
  1
ACAMGRCOMPDEF
  2
AcAmGrCompDef
  3
DesignerAssemblies
 90
    32768
280
     1
281
     0
  0
CLASS
  1
ACCMCONTEXT
  2
AcCmContext
  3
DesignerAssemblies
 90
    32768
280
     1
281
     0
  0
CLASS
  1
ACAMCOMPDEF
  2
AcAmCompDef
  3
DesignerAssemblies
 90
    32768
280
     1
281
     0
  0
CLASS
  1
ACAMCOMPDEFMGR
  2
AcAmCompDefMgr
  3
DesignerAssemblies
 90
    32768
280
     1
281
     0
  0
CLASS
  1
AMCONTEXTMGR
  2
AcAmContextMgr
  3
DesignerAssemblies
 90
    32768
280
     1
281
     0
  0
CLASS
  1
ACAMCONTEXTMODELER
  2
AcAmContextModeler
  3
DesignerAssemblies
 90
    32768
280
     1
281
     0
  0
CLASS
  1
MAPIADMODULE
  2
MApiAdModule
  3
MApiAdServices
 90
    32768
280
     1
281
     0
  0
CLASS
  1
ACMDATADICTIONARY
  2
AcmDataDictionary
  3
"AcmSymBB|Product Description: AutoCAD Mechanical 2000|Company: Autodesk"
 90
    32768
280
     1
281
     0
  0
CLASS
  1
ACMDATAENTRYBLOCK
  2
AcmDataEntryBlock
  3
"AcmSymBB|Product Description: AutoCAD Mechanical 2000|Company: Autodesk"
 90
    32768
280
     1
281
     0
  0
CLASS
  1
AMDTBROWSERDBTAB
  2
AmdtBrowserDbTab
  3
McadcomServices
 90
    32768
280
     1
281
     0
  0
CLASS
  1
CBROWSERAPPOBJECT
  2
CBrowserAppObject
  3
McadcomServices
 90
    32768
280
     1
281
     0
  0
CLASS
  1
DM_PLACEHOLDER
  2
AcDmSelsetPlaceholder
  3
AcMechDwgViewMgmt
 90
    32768
280
     1
281
     0
  0
CLASS
  1
CATALOGSTATE
  2
AcAmCatalogState
  3
DesignerAssemblies
 90
    32768
280
     1
281
     0
  0
CLASS
  1
ACAMGRCOMPDEFSET
  2
AcAmGrCompDefSet
  3
DesignerAssemblies
 90
    32768
280
     1
281
     0
  0
CLASS
  1
AMGOBJPROPCFG
  2
AmgObjPropCfg
  3
"AmgLay|Product Description: AutoCAD Mechanical 2000|Company: Autodesk"
 90
    32769
280
     1
281
     0
  0
CLASS
  1
LAYER_INDEX
  2
AcDbLayerIndex
  3
AutoCAD 2000
 90
    32768
280
     0
281
     0
  0
CLASS
  1
IDBUFFER
  2
AcDbIdBuffer
  3
AutoCAD 2000
 90
    32768
280
     0
281
     0
  0
CLASS
  1
ACRFATTGENMGR
  2
AcRfAttGeneralMgr
  3
AcAttribServices
 90
    32768
280
     1
281
     0
  0
CLASS
  1
PLOTSETTINGS
  2
AcDbPlotSettings
  3
AutoCAD 2000
 90
    32768
280
     0
281
     0
  0
CLASS
  1
VBA_PROJECT
  2
AcDbVbaProject
  3
acadvba
 90
        0
280
     0
281
     0
  0
CLASS
  1
LONG_TRANSACTION
  2
AcDbLongTransaction
  3
AutoCAD 2000
 90
    32768
280
     0
281
     0
  0
CLASS
  1
LWPOLYLINE
  2
AcDbPolyline
  3
AutoCAD 2000
 90
    32768
280
     0
281
     1
  0
CLASS
  1
HATCH
  2
AcDbHatch
  3
AutoCAD 2000
 90
    32768
280
     0
281
     1
  0
CLASS
  1
XRECORD
  2
AcDbXrecord
  3
AutoCAD 2000
 90
    32768
280
     0
281
     0
  0
CLASS
  1
LONG_TRANSACTION
  2
AcDbLongTransaction
  3
AutoCAD 2000
 90
    32768
280
     0
281
     0
  0
CLASS
  1
LWPOLYLINE
  2
AcDbPolyline
  3
AutoCAD 2000
 90
    32768
280
     0
281
     1
  0
CLASS
  1
HATCH
  2
AcDbHatch
  3
AutoCAD 2000
 90
    32768
280
     0
281
     1
  0
CLASS
  1
XRECORD
  2
AcDbXrecord
  3
AutoCAD 2000
 90
    32768
280
     0
281
     0
  0
CLASS
  1
LONG_TRANSACTION
  2
AcDbLongTransaction
  3
AutoCAD 2000
 90
    32768
280
     0
281
     0
  0
CLASS
  1
LWPOLYLINE
  2
AcDbPolyline
  3
AutoCAD 2000
 90
    32768
280
     0
281
     1
  0
CLASS
  1
HATCH
  2
AcDbHatch
  3
AutoCAD 2000
 90
    32768
280
     0
281
     1
  0
CLASS
  1
XRECORD
  2
AcDbXrecord
  3
AutoCAD 2000
 90
    32768
280
     0
281
     0
  0
ENDSEC
  0
SECTION
  2
TABLES
  0
TABLE
  2
VPORT
  5
1B
330
0
100
AcDbSymbolTable
 70
     2
  0
VPORT
  5
B4194
330
1B
100
AcDbSymbolTableRecord
100
AcDbViewportTableRecord
  2
*Active
 70
     0
 10
0.0
 20
0.0
 11
1.0
 21
1.0
 12
608.1204138763446
 22
292.2472204063875
 13
0.0
 23
0.0
 14
1.0
 24
1.0
 15
0.0
 25
0.0
 16
0.0
 26
0.0
 36
1.0
 17
-64.46234487877643
 27
33.0238264231553
 37
6.148717398612387
 40
49.5446330661344
 41
1.413068844807468
 42
50.0
 43
-6.148717398612387
 44
-6.148717398612387
 50
0.0
 51
0.0
 71
     0
 72
 20000
 73
     1
 74
     1
 75
     0
 76
     0
 77
     0
 78
     0
281
     0
 65
     1
110
0.0
120
0.0
130
0.0
111
1.0
121
0.0
131
0.0
112
0.0
122
1.0
132
0.0
 79
     0
146
0.0
  0
ENDTAB
  0
TABLE
  2
LTYPE
  5
16
330
0
100
AcDbSymbolTable
 70
     1
  0
LTYPE
  5
17
330
16
100
AcDbSymbolTableRecord
100
AcDbLinetypeTableRecord
  2
BYBLOCK
 70
     0
  3

 72
    65
 73
     0
 40
0.0
  0
LTYPE
  5
18
330
16
100
AcDbSymbolTableRecord
100
AcDbLinetypeTableRecord
  2
BYLAYER
 70
     0
  3

 72
    65
 73
     0
 40
0.0
  0
LTYPE
  5
9
330
16
100
AcDbSymbolTableRecord
100
AcDbLinetypeTableRecord
  2
CONTINUOUS
 70
     0
  3
Solid line
 72
    65
 73
     0
 40
0.0
  0
ENDTAB
  0
TABLE
  2
LAYER
  5
11
330
0
100
AcDbSymbolTable
 70
     6
  0
LAYER
  5
5
330
11
100
AcDbSymbolTableRecord
100
AcDbLayerTableRecord
  2
0
 70
     0
 62
     7
  6
CONTINUOUS
370
    -3
390
6
  0
LAYER
  5
24
330
11
100
AcDbSymbolTableRecord
100
AcDbLayerTableRecord
  2
A1
 70
     0
 62
     7
  6
CONTINUOUS
370
    -3
390
6
  0
LAYER
  5
D2
330
11
100
AcDbSymbolTableRecord
100
AcDbLayerTableRecord
  2
DEFPOINTS
 70
     0
 62
     7
  6
CONTINUOUS
290
     0
370
    -3
390
6
  0
LAYER
  5
90342
330
11
100
AcDbSymbolTableRecord
100
AcDbLayerTableRecord
  2
ASHADE
 70
     4
 62
     7
  6
CONTINUOUS
370
    -3
390
6
  0
LAYER
  5
98A37
330
11
100
AcDbSymbolTableRecord
100
AcDbLayerTableRecord
  2
PLINE
 70
     0
 62
     7
  6
CONTINUOUS
370
    -3
390
6
  0
LAYER
  5
B3FFD
330
11
100
AcDbSymbolTableRecord
100
AcDbLayerTableRecord
  2
LINEWORK
 70
     0
 62
     7
  6
CONTINUOUS
370
    -3
390
6
  0
ENDTAB
  0
TABLE
  2
STYLE
  5
12
330
0
100
AcDbSymbolTable
 70
     3
  0
STYLE
  5
13
330
12
100
AcDbSymbolTableRecord
100
AcDbTextStyleTableRecord
  2
STANDARD
 70
     0
 40
0.0
 41
1.0
 50
0.0
 71
     0
 42
0.5
  3
unvr55w.ttf
  4

1001
ACAD
1000
Univers
1071
       34
  0
STYLE
  5
B3FFE
330
12
100
AcDbSymbolTableRecord
100
AcDbTextStyleTableRecord
  2
ROMANC
 70
     0
 40
0.0
 41
1.0
 50
0.0
 71
     0
 42
0.5
  3
TIMESBD.TTF
  4

1001
ACAD
1000
Times New Roman
1071
 33554450
  0
STYLE
  5
B3FFF
330
12
100
AcDbSymbolTableRecord
100
AcDbTextStyleTableRecord
  2
barcoder
 70
     0
 40
0.0
 41
1.0
 50
0.0
 71
     0
 42
4.5625
  3
cw_barcd.ttf
  4

1001
ACAD
1000
Barcoder
1071
 33554434
  0
ENDTAB
  0
TABLE
  2
VIEW
  5
19
330
0
100
AcDbSymbolTable
 70
     0
  0
ENDTAB
  0
TABLE
  2
UCS
  5
1A
330
0
100
AcDbSymbolTable
 70
     0
  0
ENDTAB
  0
TABLE
  2
APPID
  5
1D
330
0
100
AcDbSymbolTable
 70
    20
  0
APPID
  5
14
330
1D
100
AcDbSymbolTableRecord
100
AcDbRegAppTableRecord
  2
ACAD
 70
     0
  0
APPID
  5
1BD0
330
1D
100
AcDbSymbolTableRecord
100
AcDbRegAppTableRecord
  2
GENIUS_GENDIM_13
 70
     0
  0
APPID
  5
1BD1
330
1D
100
AcDbSymbolTableRecord
100
AcDbRegAppTableRecord
  2
GENIUS_GENDTOL_13
 70
     0
  0
APPID
  5
1BD2
330
1D
100
AcDbSymbolTableRecord
100
AcDbRegAppTableRecord
  2
GENIUS_GE3DTOL_13
 70
     0
  0
APPID
  5
1BD3
330
1D
100
AcDbSymbolTableRecord
100
AcDbRegAppTableRecord
  2
MCAD_NO_VIS
 70
     0
  0
APPID
  5
1BD4
330
1D
100
AcDbSymbolTableRecord
100
AcDbRegAppTableRecord
  2
ACAD_TEMP_GRAPHIC
 70
     0
  0
APPID
  5
1BD5
330
1D
100
AcDbSymbolTableRecord
100
AcDbRegAppTableRecord
  2
AD_DRAW
 70
     0
  0
APPID
  5
1BD6
330
1D
100
AcDbSymbolTableRecord
100
AcDbRegAppTableRecord
  2
ACATTRIBSERVICES
 70
     0
  0
APPID
  5
1BD7
330
1D
100
AcDbSymbolTableRecord
100
AcDbRegAppTableRecord
  2
ASURF_PCURVE_APPNAME
 70
     0
  0
APPID
  5
1BD8
330
1D
100
AcDbSymbolTableRecord
100
AcDbRegAppTableRecord
  2
DESIGNERASSEMBLIES
 70
     0
  0
APPID
  5
1BD9
330
1D
100
AcDbSymbolTableRecord
100
AcDbRegAppTableRecord
  2
ACADM_DIM_EDIT
 70
     0
  0
APPID
  5
93F1
330
1D
100
AcDbSymbolTableRecord
100
AcDbRegAppTableRecord
  2
AVE_MATERIAL
 70
     0
  0
APPID
  5
9034A
330
1D
100
AcDbSymbolTableRecord
100
AcDbRegAppTableRecord
  2
ADCADD_ZZ
 70
     0
  0
APPID
  5
9034B
330
1D
100
AcDbSymbolTableRecord
100
AcDbRegAppTableRecord
  2
SDSK_PMN
 70
     0
  0
APPID
  5
9034C
330
1D
100
AcDbSymbolTableRecord
100
AcDbRegAppTableRecord
  2
AVE_RENDER
 70
     0
  0
APPID
  5
9034D
330
1D
100
AcDbSymbolTableRecord
100
AcDbRegAppTableRecord
  2
AVE_FINISH
 70
     0
  0
APPID
  5
9034E
330
1D
100
AcDbSymbolTableRecord
100
AcDbRegAppTableRecord
  2
AVE_ENTITY_MATERIAL
 70
     0
  0
APPID
  5
9034F
330
1D
100
AcDbSymbolTableRecord
100
AcDbRegAppTableRecord
  2
AVE_GLOBAL
 70
     0
  0
APPID
  5
90350
330
1D
100
AcDbSymbolTableRecord
100
AcDbRegAppTableRecord
  2
RAK
 70
     0
  0
APPID
  5
B11B8
330
1D
100
AcDbSymbolTableRecord
100
AcDbRegAppTableRecord
  2
DCO15
 70
     0
  0
ENDTAB
  0
TABLE
  2
DIMSTYLE
  5
1E
330
0
100
AcDbSymbolTable
 70
     1
100
AcDbDimStyleTable
 71
     0
  0
DIMSTYLE
105
1F
102
{ACAD_REACTORS
330
B3D82
330
B3D90
330
B3FA8
330
B3D74
330
B3DBD
102
}
330
1E
100
AcDbSymbolTableRecord
100
AcDbDimStyleTableRecord
  2
STANDARD
 70
     0
  3
"
 41
0.5
 42
1.0
 43
0.0625
 44
0.25
 73
     0
 74
     0
 77
     3
140
1.0
141
0.0
146
0.125
147
0.125
171
     0
274
     0
276
     2
277
     5
285
     2
286
     2
289
     0
340
13
  0
ENDTAB
  0
TABLE
  2
BLOCK_RECORD
  5
1
330
0
100
AcDbSymbolTable
 70
    10
  0
BLOCK_RECORD
  5
2
102
{ACAD_XDICTIONARY
360
3
102
}
330
1
100
AcDbSymbolTableRecord
100
AcDbBlockTableRecord
  2
*MODEL_SPACE
340
B
  0
BLOCK_RECORD
  5
D
102
{ACAD_XDICTIONARY
360
B406F
102
}
330
1
100
AcDbSymbolTableRecord
100
AcDbBlockTableRecord
  2
*PAPER_SPACE
340
10
  0
BLOCK_RECORD
  5
71312
330
1
100
AcDbSymbolTableRecord
100
AcDbBlockTableRecord
  2
PROFILE LOGO
340
0
102
{BLKREFS
331
B3D3D
331
B3D45
102
}
  0
BLOCK_RECORD
  5
8558B
330
1
100
AcDbSymbolTableRecord
100
AcDbBlockTableRecord
  2
AVE_RENDER
340
0
102
{BLKREFS
331
92A34
331
92A35
331
92A36
331
92A37
331
92A38
331
92A39
331
92A3A
331
92A3B
331
92A8C
331
92A8D
331
92A8E
331
92A8F
331
92A90
331
92A91
331
92A92
331
92A93
331
92A95
331
92A96
331
92A97
331
92A98
331
92A99
331
92A9A
331
92A9B
331
92A9C
331
92A9E
331
92A9F
331
92AA0
331
92AA1
331
92AA2
331
92AA3
331
92AA4
331
92AA5
331
92AA7
331
92AA8
331
92AA9
331
92AAA
331
92AAB
331
92AAC
331
92AAD
331
92AAE
331
92AB0
331
92AB1
331
92AB2
331
92AB3
331
92AB4
331
92AB5
331
92AB6
331
92AB7
331
92AB9
331
92ABA
331
92ABB
331
92ABC
331
92ABD
331
92ABE
331
92ABF
331
92AC0
331
92AC2
331
92AC3
331
92AC4
331
92AC5
331
92AC6
331
92AC7
331
92AC8
331
92AC9
331
92ACB
331
92ACC
331
92ACD
331
92ACE
331
92ACF
331
92AD0
331
92AD1
331
92AD2
331
92AD4
331
92AD5
331
92AD6
331
92AD7
331
92AD8
331
92AD9
331
92ADA
331
92ADB
331
92ADD
331
92ADE
331
92ADF
331
92AE0
331
92AE1
331
92AE2
331
92AE3
331
92AE4
331
92AE6
331
92AE7
331
92AE8
331
92AE9
331
92AEA
331
92AEB
331
92AEC
331
92AED
102
}
  0
BLOCK_RECORD
  5
8558E
330
1
100
AcDbSymbolTableRecord
100
AcDbBlockTableRecord
  2
AVE_GLOBAL
340
0
102
{BLKREFS
331
92A3C
331
92A3D
331
92A57
331
92A58
331
92A72
331
92A94
331
92A9D
331
92AA6
331
92AAF
331
92AB8
331
92AC1
331
92ACA
331
92AD3
331
92ADC
331
92AE5
331
92AEE
102
}
  0
BLOCK_RECORD
  5
9543E
330
1
100
AcDbSymbolTableRecord
100
AcDbBlockTableRecord
  2
*X3
340
0
102
{BLKREFS
331
B392A
331
B3935
102
}
  0
BLOCK_RECORD
  5
B3D75
330
1
100
AcDbSymbolTableRecord
100
AcDbBlockTableRecord
  2
*D4
340
0
  0
BLOCK_RECORD
  5
B3D83
330
1
100
AcDbSymbolTableRecord
100
AcDbBlockTableRecord
  2
*D5
340
0
  0
BLOCK_RECORD
  5
B3D91
330
1
100
AcDbSymbolTableRecord
100
AcDbBlockTableRecord
  2
*D6
340
0
  0
BLOCK_RECORD
  5
B3DBE
330
1
100
AcDbSymbolTableRecord
100
AcDbBlockTableRecord
  2
*D7
340
0
  0
BLOCK_RECORD
  5
B3FA9
330
1
100
AcDbSymbolTableRecord
100
AcDbBlockTableRecord
  2
*D8
340
0
  0
BLOCK_RECORD
  5
B4000
330
1
100
AcDbSymbolTableRecord
100
AcDbBlockTableRecord
  2
TSFORMB
340
0
102
{BLKREFS
331
B402E
102
}
  0
ENDTAB
  0
ENDSEC
  0
SECTION
  2
BLOCKS
  0
BLOCK
  5
4
330
2
100
AcDbEntity
  8
0
100
AcDbBlockBegin
  2
*MODEL_SPACE
 70
     2
 10
0.0
 20
0.0
 30
0.0
  3
*MODEL_SPACE
  1

  0
ENDBLK
  5
A
330
2
100
AcDbEntity
  8
0
100
AcDbBlockEnd
  0
BLOCK
  5
E
330
D
100
AcDbEntity
 67
     1
  8
0
100
AcDbBlockBegin
  2
*PAPER_SPACE
 70
     0
 10
0.0
 20
0.0
 30
0.0
  3
*PAPER_SPACE
  1

  0
ENDBLK
  5
F
330
D
100
AcDbEntity
 67
     1
  8
0
100
AcDbBlockEnd
  0
BLOCK
  5
7132B
330
71312
100
AcDbEntity
  8
0
 62
     7
100
AcDbBlockBegin
  2
PROFILE LOGO
 70
     2
 10
0.0
 20
0.0
 30
0.0
  3
PROFILE LOGO
  1

  0
LINE
  5
71313
330
71312
100
AcDbEntity
  8
0
 62
    22
100
AcDbLine
 10
0.7459516636765642
 20
-0.415894330395318
 30
0.0
 11
0.74595166367655
 21
-1.12746688439163
 31
0.0
  0
LINE
  5
71314
330
71312
100
AcDbEntity
  8
0
 62
    22
100
AcDbLine
 10
0.5841942848079072
 20
-0.415894330395318
 30
0.0
 11
0.5841942848079072
 21
-1.12746688439163
 31
0.0
  0
HATCH
  5
71315
330
71312
100
AcDbEntity
  8
0
 62
    22
100
AcDbHatch
 10
0.0
 20
0.0
 30
0.0
210
0.0
220
0.0
230
1.0
  2
LINE
 70
     0
 71
     0
 91
        1
 92
       33
 93
       38
 72
     1
 10
1.115683196411978
 20
-0.1706330859717084
 11
0.2177636962628071
 21
-0.1706330859717084
 72
     1
 10
0.2177636962628213
 20
-0.1706330859717084
 11
0.2078601968792952
 21
-0.4246889457533243
 72
     1
 10
0.2078601968792952
 20
-0.4246889457533243
 11
0.2375709173007294
 21
-0.4246889457533243
 72
     1
 10
0.2375709173007294
 20
-0.4246889457533243
 11
0.2441732502230991
 21
-0.3817964654080939
 72
     1
 10
0.2441732502230991
 20
-0.3817964654080939
 11
0.254076749606611
 21
-0.3422032805409501
 72
     1
 10
0.2540767496066252
 20
-0.3422032805409501
 11
0.2738837483736916
 21
-0.3092090964125091
 72
     1
 10
0.2738837483736916
 20
-0.3092090964125091
 11
0.2969919136019428
 21
-0.2861130719066693
 72
     1
 10
0.296991913601957
 20
-0.2861130719066764
 11
0.3267026340234338
 21
-0.2663164794731259
 72
     1
 10
0.3267026340234196
 20
-0.2663164794731259
 11
0.356413132174012
 21
-0.2498193191118219
 72
     1
 10
0.356413132174012
 20
-0.2498193191118148
 11
0.3828224638634481
 21
-0.243220591561446
 72
     1
 10
0.3828224638634623
 20
-0.243220591561446
 11
0.4092320178237401
 21
-0.243220591561446
 72
     1
 10
0.4092320178237401
 20
-0.243220591561446
 11
0.4719541805861525
 21
-0.2465198870395469
 72
     1
 10
0.4719541805861525
 20
-0.2465198870395469
 11
0.514869566852326
 21
-0.2729153436176332
 72
     1
 10
0.514869566852326
 20
-0.2729153436176332
 11
0.5742905631535394
 21
-0.3389038484686964
 72
     1
 10
0.5742905631535394
 20
-0.3389038484687106
 11
0.5907966177302626
 21
-0.3916947616248691
 72
     1
 10
0.5907966177302768
 20
-0.3916947616248691
 11
0.5907966177302768
 21
-1.157161773041991
 72
     1
 10
0.5907966177302768
 20
-1.157161773041984
 11
0.5643870637699991
 21
-1.203353685459461
 72
     1
 10
0.5643870637699849
 20
-1.203353685459468
 11
0.4983637345463876
 21
-1.226449709965308
 72
     1
 10
0.4983637345464019
 20
-1.226449709965301
 11
0.4389425159743326
 21
-1.226449709965301
 72
     1
 10
0.4389425159743326
 20
-1.226449709965301
 11
0.4323401830519913
 21
-1.249545734471119
 72
     1
 10
0.4323401830520055
 20
-1.249545734471134
 11
0.8945045989712809
 21
-1.249545734471134
 72
     1
 10
0.8945045989712667
 20
-1.249545734471134
 11
0.8945045989712667
 21
-1.226449709965315
 72
     1
 10
0.8945045989712667
 20
-1.226449709965301
 11
0.8152763816321311
 21
-1.226449709965301
 72
     1
 10
0.8152763816321311
 20
-1.226449709965301
 11
0.7525539965988913
 21
-1.186856661692324
 72
     1
 10
0.7525539965988913
 20
-1.186856661692324
 11
0.7426504972153794
 21
-1.140664612680659
 72
     1
 10
0.7426504972153652
 20
-1.140664612680673
 11
0.7393493307541803
 21
-0.394994193697137
 72
     1
 10
0.7393493307541803
 20
-0.394994193697137
 11
0.7558551630600619
 21
-0.3389038484687106
 72
     1
 10
0.7558551630600761
 20
-0.3389038484687106
 11
0.7987705493262496
 21
-0.2828136398344298
 72
     1
 10
0.7987705493262496
 20
-0.2828136398344227
 11
0.8614929343594894
 21
-0.2498193191118148
 72
     1
 10
0.8614929343594894
 20
-0.2498193191118148
 11
0.9374197629665985
 21
-0.2399211594891923
 72
     1
 10
0.9374197629665985
 20
-0.2399211594891923
 11
1.010045647383407
 21
-0.2663164794731117
 72
     1
 10
1.010045647383407
 20
-0.2663164794731259
 11
1.056262200110722
 21
-0.3092090964125234
 72
     1
 10
1.056262200110722
 20
-0.3092090964125091
 11
1.085972698261343
 21
-0.361999872974522
 72
     1
 10
1.085972698261358
 20
-0.3619998729745291
 11
1.092575031183727
 21
-0.4246889457533243
 72
     1
 10
1.092575031183727
 20
-0.4246889457533243
 11
1.115683196411993
 21
-0.4246889457533243
 72
     1
 10
1.115683196411978
 20
-0.4246889457533243
 11
1.109080863489609
 21
-0.17723195011623
 72
     1
 10
1.109080863489609
 20
-0.17723195011623
 11
1.109080863489609
 21
-0.1739325180439621
 72
     1
 10
1.109080863489609
 20
-0.1739325180439621
 11
1.105779697028424
 21
-0.1739325180439621
 97
        0
 75
     0
 76
     1
 52
0.0
 41
0.078125
 77
     0
 78
     1
 53
0.0
 43
-28.182772630023
 44
-32.9923404580304
 45
0.0
 46
0.009765625
 79
     0
 98
        1
 10
-28.182772630023
 20
-32.9923404580304
  0
LWPOLYLINE
  5
71316
330
71312
100
AcDbEntity
  8
0
 62
    22
100
AcDbPolyline
 90
        4
 70
     1
 43
0.0
 10
0.0262955969727301
 20
-0.0287577800528069
 10
1.307151517972869
 20
-0.0287577800528069
 10
1.307151517972869
 20
-1.731261997456265
 10
0.0262955969727301
 20
-1.731261997456265
  0
LINE
  5
71317
330
71312
100
AcDbEntity
  8
0
 62
    22
100
AcDbLine
 10
0.0262955969727443
 20
-1.4112176328236
 30
0.0
 11
1.307151517972869
 21
-1.4112176328236
 31
0.0
  0
ATTDEF
  5
71318
330
71312
100
AcDbEntity
  8
A1
 62
    22
100
AcDbText
 10
0.6781304052809105
 20
-1.678298248906529
 30
0.0
 40
0.2126953125
  1

 72
     1
 11
0.6781304052809105
 21
-1.678298248906529
 31
0.0
100
AcDbAttributeDefinition
  3
ADD STONE MARKER
  2
XXXX
 70
     0
  0
LINE
  5
71319
330
71312
100
AcDbEntity
  8
0
 62
    22
100
AcDbLine
 10
0.7464576960363587
 20
-1.129021462591367
 30
0.0
 11
0.74595166367655
 21
-1.12746688439163
 31
0.0
  0
ARC
  5
7131A
330
71312
100
AcDbEntity
  8
0
 62
    22
100
AcDbCircle
 10
0.8421255873066684
 20
-1.127299146756172
 30
0.0
 40
0.0956833935014068
100
AcDbArc
 50
181.0313885659746
 51
269.7936990713142
  0
LINE
  5
7131B
330
71312
100
AcDbEntity
  8
0
 62
    22
100
AcDbLine
 10
0.9011069318936506
 20
-1.22315027789304
 30
0.0
 11
0.841781067510368
 21
-1.22315027789304
 31
0.0
  0
LINE
  5
7131C
330
71312
100
AcDbEntity
  8
0
 62
    22
100
AcDbLine
 10
0.9011069318936506
 20
-1.256144598615648
 30
0.0
 11
0.9011069318936506
 21
-1.22315027789304
 31
0.0
  0
ARC
  5
7131D
330
71312
100
AcDbEntity
  8
0
 62
    22
100
AcDbCircle
 10
0.4880203611777887
 20
-1.127299146756172
 30
0.0
 40
0.0956833935014068
100
AcDbArc
 50
270.2063009286848
 51
358.9686114340253
  0
LINE
  5
7131E
330
71312
100
AcDbEntity
  8
0
 62
    22
100
AcDbLine
 10
0.4290390165908207
 20
-1.256144598615648
 30
0.0
 11
0.4290390165908207
 21
-1.22315027789304
 31
0.0
  0
LINE
  5
7131F
330
71312
100
AcDbEntity
  8
0
 62
    22
100
AcDbLine
 10
0.4290390165908207
 20
-1.22315027789304
 30
0.0
 11
0.4883648809740891
 21
-1.22315027789304
 31
0.0
  0
LINE
  5
71320
330
71312
100
AcDbEntity
  8
0
 62
    22
100
AcDbLine
 10
0.5836882524480984
 20
-1.129021462591367
 30
0.0
 11
0.5841942848079072
 21
-1.12746688439163
 31
0.0
  0
LINE
  5
71321
330
71312
100
AcDbEntity
  8
0
 62
    22
100
AcDbLine
 10
0.4290390165908207
 20
-1.256144598615648
 30
0.0
 11
0.9011069318936506
 21
-1.256144598615648
 31
0.0
  0
LINE
  5
71322
330
71312
100
AcDbEntity
  8
0
 62
    22
100
AcDbLine
 10
1.085512597630156
 20
-0.415894330395318
 30
0.0
 11
1.085512597630156
 21
-0.4280723832374847
 31
0.0
  0
ARC
  5
71323
330
71312
100
AcDbEntity
  8
0
 62
    22
100
AcDbCircle
 10
0.9138550451562537
 20
-0.4147906495365632
 30
0.0
 40
0.1716611005230106
100
AcDbArc
 50
359.6316189828552
 51
90.00081606717127
  0
ARC
  5
71324
330
71312
100
AcDbEntity
  8
0
 62
    22
100
AcDbCircle
 10
0.9180888683309831
 20
-0.4147906495365632
 30
0.0
 40
0.1716611005230106
100
AcDbArc
 50
89.99918393282873
 51
180.3683810171443
  0
LINE
  5
71325
330
71312
100
AcDbEntity
  8
0
 62
    22
100
AcDbLine
 10
0.2078601968792952
 20
-0.427988377825578
 30
0.0
 11
0.2441732502230991
 21
-0.427988377825578
 31
0.0
  0
LINE
  5
71326
330
71312
100
AcDbEntity
  8
0
 62
    22
100
AcDbLine
 10
0.2446333508543006
 20
-0.415894330395318
 30
0.0
 11
0.2446333508543006
 21
-0.4280723832374847
 31
0.0
  0
ARC
  5
71327
330
71312
100
AcDbEntity
  8
0
 62
    22
100
AcDbCircle
 10
0.4162909033282176
 20
-0.4147906495365632
 30
0.0
 40
0.1716611005230106
100
AcDbArc
 50
89.99918393282873
 51
180.3683810171443
  0
LINE
  5
71328
330
71312
100
AcDbEntity
  8
0
 62
    22
100
AcDbLine
 10
0.2144627520724782
 20
-0.1706330859717156
 30
0.0
 11
0.2078601968792952
 21
-0.427988377825578
 31
0.0
  0
ARC
  5
71329
330
71312
100
AcDbEntity
  8
0
 62
    22
100
AcDbCircle
 10
0.4120570801534882
 20
-0.4147906495365632
 30
0.0
 40
0.1716611005230106
100
AcDbArc
 50
359.6316189828552
 51
90.00081606717127
  0
LWPOLYLINE
  5
7132A
330
71312
100
AcDbEntity
  8
0
 62
    22
100
AcDbPolyline
 90
        4
 70
     0
 43
0.0
 10
0.224366029185191
 20
-0.1706330859717084
 10
1.115683196411978
 20
-0.1706330859717084
 10
1.122285751605161
 20
-0.427988377825578
 10
1.085972698261358
 20
-0.427988377825578
  0
ENDBLK
  5
7132C
330
71312
100
AcDbEntity
  8
0
 62
     7
100
AcDbBlockEnd
  0
BLOCK
  5
8558C
330
8558B
100
AcDbEntity
  8
0
100
AcDbBlockBegin
  2
AVE_RENDER
 70
     0
 10
0.0
 20
0.0
 30
0.0
  3
AVE_RENDER
  1
AVE_RENDER
  0
ENDBLK
  5
8558D
330
8558B
100
AcDbEntity
  8
0
100
AcDbBlockEnd
  0
BLOCK
  5
8558F
330
8558E
100
AcDbEntity
  8
0
100
AcDbBlockBegin
  2
AVE_GLOBAL
 70
     0
 10
0.0
 20
0.0
 30
0.0
  3
AVE_GLOBAL
  1
AVE_GLOBAL
  0
ENDBLK
  5
85590
330
8558E
100
AcDbEntity
  8
0
100
AcDbBlockEnd
  0
BLOCK
  5
95445
330
9543E
100
AcDbEntity
  8
0
100
AcDbBlockBegin
  2
*X3
 70
     1
 10
0.0
 20
0.0
 30
0.0
  3
*X3
  1

  0
LINE
  5
9543F
330
9543E
100
AcDbEntity
  8
0
 62
     0
100
AcDbLine
 10
2.383820032373427
 20
0.3685657059917674
 30
0.0
 11
2.431355215620452
 21
0.4161008892387914
 31
0.0
  0
LINE
  5
95440
330
9543E
100
AcDbEntity
  8
0
 62
     0
100
AcDbLine
 10
2.372221969226401
 20
0.3746453123744043
 30
0.0
 11
2.402471872838721
 21
0.4048952159867244
 31
0.0
  0
LINE
  5
95441
330
9543E
100
AcDbEntity
  8
0
 62
     0
100
AcDbLine
 10
2.360623906079374
 20
0.3807249187570412
 30
0.0
 11
2.37358853005699
 21
0.3936895427346574
 31
0.0
  0
LINE
  5
95442
330
9543E
100
AcDbEntity
  8
0
 62
     0
100
AcDbLine
 10
2.395418095520454
 20
0.3624860996091304
 30
0.0
 11
2.460238558402183
 21
0.4273065624908586
 31
0.0
  0
LINE
  5
95443
330
9543E
100
AcDbEntity
  8
0
 62
     0
100
AcDbLine
 10
2.407016158667481
 20
0.3564064932264936
 30
0.0
 11
2.453902264580601
 21
0.4032925991396129
 31
0.0
  0
LINE
  5
95444
330
9543E
100
AcDbEntity
  8
0
 62
     0
100
AcDbLine
 10
2.418614221814508
 20
0.3503268868438567
 30
0.0
 11
2.440501357939034
 21
0.3722140229683824
 31
0.0
  0
ENDBLK
  5
95446
330
9543E
100
AcDbEntity
  8
0
100
AcDbBlockEnd
  0
BLOCK
  5
B3D80
330
B3D75
100
AcDbEntity
  8
0
 62
     7
100
AcDbBlockBegin
  2
*D4
 70
     1
 10
0.0
 20
0.0
 30
0.0
  3
*D4
  1

  0
LINE
  5
B415B
330
B3D75
100
AcDbEntity
  8
PLINE
 62
     0
100
AcDbLine
 10
533.5073961841442
 20
321.9859656097556
 30
0.0
 11
527.2711875106548
 21
321.9859656097556
 31
0.0
  0
LINE
  5
B415C
330
B3D75
100
AcDbEntity
  8
PLINE
 62
     0
100
AcDbLine
 10
535.5180905500167
 20
336.6233953249994
 30
0.0
 11
527.2711875106548
 21
336.6233953249994
 31
0.0
  0
LINE
  5
B415D
330
B3D75
100
AcDbEntity
  8
PLINE
 62
     0
100
AcDbLine
 10
527.5211875106548
 20
322.4859656097557
 30
0.0
 11
527.5211875106548
 21
327.9735753371674
 31
0.0
  0
LINE
  5
B415E
330
B3D75
100
AcDbEntity
  8
PLINE
 62
     0
100
AcDbLine
 10
527.5211875106548
 20
336.1233953249994
 30
0.0
 11
527.5211875106548
 21
330.0635824243396
 31
0.0
  0
MTEXT
  5
B415F
330
B3D75
100
AcDbEntity
  8
PLINE
 62
     0
100
AcDbMText
 10
527.5211875106548
 20
329.0185788807536
 30
0.0
 40
1.0
 41
0.0
 71
     5
 72
     1
  1
\A1;14 5/8"
 73
     1
 44
1.0
  0
SOLID
  5
B4160
330
B3D75
100
AcDbEntity
  8
PLINE
 62
     0
100
AcDbTrace
 10
527.4378541773215
 20
322.4859656097557
 30
0.0
 11
527.6045208439882
 21
322.4859656097557
 31
0.0
 12
527.5211875106548
 22
321.9859656097556
 32
0.0
 13
527.5211875106548
 23
321.9859656097556
 33
0.0
  0
SOLID
  5
B4161
330
B3D75
100
AcDbEntity
  8
PLINE
 62
     0
100
AcDbTrace
 10
527.4378541773215
 20
336.1233953249994
 30
0.0
 11
527.6045208439882
 21
336.1233953249994
 31
0.0
 12
527.5211875106548
 22
336.6233953249994
 32
0.0
 13
527.5211875106548
 23
336.6233953249994
 33
0.0
  0
POINT
  5
B4162
330
B3D75
100
AcDbEntity
  8
DEFPOINTS
 62
     0
100
AcDbPoint
 10
534.5073961841442
 20
321.9859656097556
 30
0.0
  0
POINT
  5
B4163
330
B3D75
100
AcDbEntity
  8
DEFPOINTS
 62
     0
100
AcDbPoint
 10
536.5180905500166
 20
336.6233953249994
 30
0.0
  0
POINT
  5
B4164
330
B3D75
100
AcDbEntity
  8
DEFPOINTS
 62
     0
100
AcDbPoint
 10
527.5211875106548
 20
336.6233953249994
 30
0.0
  0
ENDBLK
  5
B3D81
330
B3D75
100
AcDbEntity
  8
0
 62
     7
100
AcDbBlockEnd
  0
BLOCK
  5
B3D8E
330
B3D83
100
AcDbEntity
  8
0
 62
     7
100
AcDbBlockBegin
  2
*D5
 70
     1
 10
0.0
 20
0.0
 30
0.0
  3
*D5
  1

  0
LINE
  5
B4165
330
B3D83
100
AcDbEntity
  8
PLINE
 62
     0
100
AcDbLine
 10
529.5686395832698
 20
318.1133157741866
 30
0.0
 11
529.5686395832698
 21
312.5293994979958
 31
0.0
  0
LINE
  5
B4166
330
B3D83
100
AcDbEntity
  8
PLINE
 62
     0
100
AcDbLine
 10
543.4436395832697
 20
318.1133157741866
 30
0.0
 11
543.4436395832697
 21
312.5293994979958
 31
0.0
  0
LINE
  5
B4167
330
B3D83
100
AcDbEntity
  8
PLINE
 62
     0
100
AcDbLine
 10
530.0686395832697
 20
312.7793994979958
 30
0.0
 11
533.254402165188
 21
312.7793994979958
 31
0.0
  0
LINE
  5
B4168
330
B3D83
100
AcDbEntity
  8
PLINE
 62
     0
100
AcDbLine
 10
542.9436395832698
 20
312.7793994979958
 30
0.0
 11
540.675380194954
 21
312.7793994979958
 31
0.0
  0
MTEXT
  5
B4169
330
B3D83
100
AcDbEntity
  8
PLINE
 62
     0
100
AcDbMText
 10
536.964891180071
 20
312.7793994979958
 30
0.0
 40
1.0
 41
0.0
 71
     5
 72
     1
  1
\A1;%%C13 7/8"
 73
     1
 44
1.0
  0
SOLID
  5
B416A
330
B3D83
100
AcDbEntity
  8
PLINE
 62
     0
100
AcDbTrace
 10
530.0686395832697
 20
312.8627328313291
 30
0.0
 11
530.0686395832697
 21
312.6960661646625
 31
0.0
 12
529.5686395832698
 22
312.7793994979958
 32
0.0
 13
529.5686395832698
 23
312.7793994979958
 33
0.0
  0
SOLID
  5
B416B
330
B3D83
100
AcDbEntity
  8
PLINE
 62
     0
100
AcDbTrace
 10
542.9436395832698
 20
312.8627328313291
 30
0.0
 11
542.9436395832698
 21
312.6960661646625
 31
0.0
 12
543.4436395832697
 22
312.7793994979958
 32
0.0
 13
543.4436395832697
 23
312.7793994979958
 33
0.0
  0
POINT
  5
B416C
330
B3D83
100
AcDbEntity
  8
DEFPOINTS
 62
     0
100
AcDbPoint
 10
529.5686395832698
 20
319.1133157741866
 30
0.0
  0
POINT
  5
B416D
330
B3D83
100
AcDbEntity
  8
DEFPOINTS
 62
     0
100
AcDbPoint
 10
543.4436395832697
 20
319.1133157741866
 30
0.0
  0
POINT
  5
B416E
330
B3D83
100
AcDbEntity
  8
DEFPOINTS
 62
     0
100
AcDbPoint
 10
543.4436395832697
 20
312.7793994979958
 30
0.0
  0
ENDBLK
  5
B3D8F
330
B3D83
100
AcDbEntity
  8
0
 62
     7
100
AcDbBlockEnd
  0
BLOCK
  5
B3D9C
330
B3D91
100
AcDbEntity
  8
0
 62
     7
100
AcDbBlockBegin
  2
*D6
 70
     1
 10
0.0
 20
0.0
 30
0.0
  3
*D6
  1

  0
LINE
  5
B416F
330
B3D91
100
AcDbEntity
  8
PLINE
 62
     0
100
AcDbLine
 10
533.5061395832696
 20
320.6133157741866
 30
0.0
 11
533.5061395832696
 21
314.6096255974486
 31
0.0
  0
LINE
  5
B4170
330
B3D91
100
AcDbEntity
  8
PLINE
 62
     0
100
AcDbLine
 10
539.5061395832698
 20
320.6133157741866
 30
0.0
 11
539.5061395832698
 21
314.6096255974486
 31
0.0
  0
LINE
  5
B4171
330
B3D91
100
AcDbEntity
  8
PLINE
 62
     0
100
AcDbLine
 10
534.0061395832697
 20
314.8596255974486
 30
0.0
 11
534.931259322682
 21
314.8596255974486
 31
0.0
  0
LINE
  5
B4172
330
B3D91
100
AcDbEntity
  8
PLINE
 62
     0
100
AcDbLine
 10
539.0061395832698
 20
314.8596255974486
 30
0.0
 11
538.7299836316828
 21
314.8596255974486
 31
0.0
  0
MTEXT
  5
B4173
330
B3D91
100
AcDbEntity
  8
PLINE
 62
     0
100
AcDbMText
 10
536.8306214771824
 20
314.8596255974486
 30
0.0
 40
1.0
 41
0.0
 71
     5
 72
     1
  1
\A1;%%C6"
 73
     1
 44
1.0
  0
SOLID
  5
B4174
330
B3D91
100
AcDbEntity
  8
PLINE
 62
     0
100
AcDbTrace
 10
534.0061395832697
 20
314.9429589307819
 30
0.0
 11
534.0061395832697
 21
314.7762922641153
 31
0.0
 12
533.5061395832696
 22
314.8596255974486
 32
0.0
 13
533.5061395832696
 23
314.8596255974486
 33
0.0
  0
SOLID
  5
B4175
330
B3D91
100
AcDbEntity
  8
PLINE
 62
     0
100
AcDbTrace
 10
539.0061395832698
 20
314.9429589307819
 30
0.0
 11
539.0061395832698
 21
314.7762922641153
 31
0.0
 12
539.5061395832698
 22
314.8596255974486
 32
0.0
 13
539.5061395832698
 23
314.8596255974486
 33
0.0
  0
POINT
  5
B4176
330
B3D91
100
AcDbEntity
  8
DEFPOINTS
 62
     0
100
AcDbPoint
 10
533.5061395832696
 20
321.6133157741866
 30
0.0
  0
POINT
  5
B4177
330
B3D91
100
AcDbEntity
  8
DEFPOINTS
 62
     0
100
AcDbPoint
 10
539.5061395832698
 20
321.6133157741866
 30
0.0
  0
POINT
  5
B4178
330
B3D91
100
AcDbEntity
  8
DEFPOINTS
 62
     0
100
AcDbPoint
 10
539.5061395832698
 20
314.8596255974486
 30
0.0
  0
ENDBLK
  5
B3D9D
330
B3D91
100
AcDbEntity
  8
0
 62
     7
100
AcDbBlockEnd
  0
BLOCK
  5
B3DC9
330
B3DBE
100
AcDbEntity
  8
0
 62
     7
100
AcDbBlockBegin
  2
*D7
 70
     1
 10
0.0
 20
0.0
 30
0.0
  3
*D7
  1

  0
LINE
  5
B4179
330
B3DBE
100
AcDbEntity
  8
PLINE
 62
     0
100
AcDbLine
 10
532.4877999912753
 20
329.1374113437837
 30
0.0
 11
532.4877999912753
 21
340.6091638987542
 31
0.0
  0
LINE
  5
B417A
330
B3DBE
100
AcDbEntity
  8
PLINE
 62
     0
100
AcDbLine
 10
540.5752175881576
 20
329.0510498231718
 30
0.0
 11
540.5752175881576
 21
340.6091638987542
 31
0.0
  0
LINE
  5
B417B
330
B3DBE
100
AcDbEntity
  8
PLINE
 62
     0
100
AcDbLine
 10
532.9877999912753
 20
340.3591638987542
 30
0.0
 11
534.8584538156559
 21
340.3591638987542
 31
0.0
  0
LINE
  5
B417C
330
B3DBE
100
AcDbEntity
  8
PLINE
 62
     0
100
AcDbLine
 10
540.0752175881576
 20
340.3591638987542
 30
0.0
 11
538.6685176002059
 21
340.3591638987542
 31
0.0
  0
MTEXT
  5
B417D
330
B3DBE
100
AcDbEntity
  8
PLINE
 62
     0
100
AcDbMText
 10
536.7634857079309
 20
340.3591638987542
 30
0.0
 40
1.0
 41
0.0
 71
     5
 72
     1
  1
\A1;%%C8"
 73
     1
 44
1.0
  0
SOLID
  5
B417E
330
B3DBE
100
AcDbEntity
  8
PLINE
 62
     0
100
AcDbTrace
 10
532.9877999912753
 20
340.4424972320875
 30
0.0
 11
532.9877999912753
 21
340.2758305654209
 31
0.0
 12
532.4877999912753
 22
340.3591638987542
 32
0.0
 13
532.4877999912753
 23
340.3591638987542
 33
0.0
  0
SOLID
  5
B417F
330
B3DBE
100
AcDbEntity
  8
PLINE
 62
     0
100
AcDbTrace
 10
540.0752175881576
 20
340.4424972320875
 30
0.0
 11
540.0752175881576
 21
340.2758305654209
 31
0.0
 12
540.5752175881576
 22
340.3591638987542
 32
0.0
 13
540.5752175881576
 23
340.3591638987542
 33
0.0
  0
POINT
  5
B4180
330
B3DBE
100
AcDbEntity
  8
DEFPOINTS
 62
     0
100
AcDbPoint
 10
532.4877999912753
 20
328.1374113437836
 30
0.0
  0
POINT
  5
B4181
330
B3DBE
100
AcDbEntity
  8
DEFPOINTS
 62
     0
100
AcDbPoint
 10
540.5752175881576
 20
328.0510498231718
 30
0.0
  0
POINT
  5
B4182
330
B3DBE
100
AcDbEntity
  8
DEFPOINTS
 62
     0
100
AcDbPoint
 10
540.5752175881576
 20
340.3591638987542
 30
0.0
  0
ENDBLK
  5
B3DCA
330
B3DBE
100
AcDbEntity
  8
0
 62
     7
100
AcDbBlockEnd
  0
BLOCK
  5
B3FB4
330
B3FA9
100
AcDbEntity
  8
0
 62
     7
100
AcDbBlockBegin
  2
*D8
 70
     1
 10
0.0
 20
0.0
 30
0.0
  3
*D8
  1

  0
LINE
  5
B4183
330
B3FA9
100
AcDbEntity
  8
PLINE
 62
     0
100
AcDbLine
 10
544.4436395832698
 20
319.1264746863002
 30
0.0
 11
548.6548336923704
 21
319.1264746863002
 31
0.0
  0
LINE
  5
B4184
330
B3FA9
100
AcDbEntity
  8
PLINE
 62
     0
100
AcDbLine
 10
537.5832489181741
 20
336.6191159977008
 30
0.0
 11
548.6548336923704
 21
336.6191159977008
 31
0.0
  0
LINE
  5
B4185
330
B3FA9
100
AcDbEntity
  8
PLINE
 62
     0
100
AcDbLine
 10
548.4048336923705
 20
319.6264746863002
 30
0.0
 11
548.4048336923705
 21
326.9123848183976
 31
0.0
  0
LINE
  5
B4186
330
B3FA9
100
AcDbEntity
  8
PLINE
 62
     0
100
AcDbLine
 10
548.4048336923705
 20
336.1191159977008
 30
0.0
 11
548.4048336923705
 21
329.0023919055698
 31
0.0
  0
MTEXT
  5
B4187
330
B3FA9
100
AcDbEntity
  8
PLINE
 62
     0
100
AcDbMText
 10
548.4048336923705
 20
327.9573883619838
 30
0.0
 40
1.0
 41
0.0
 71
     5
 72
     1
  1
\A1;17 1/2"
 73
     1
 44
1.0
  0
SOLID
  5
B4188
330
B3FA9
100
AcDbEntity
  8
PLINE
 62
     0
100
AcDbTrace
 10
548.3215003590371
 20
319.6264746863002
 30
0.0
 11
548.4881670257038
 21
319.6264746863002
 31
0.0
 12
548.4048336923705
 22
319.1264746863002
 32
0.0
 13
548.4048336923705
 23
319.1264746863002
 33
0.0
  0
SOLID
  5
B4189
330
B3FA9
100
AcDbEntity
  8
PLINE
 62
     0
100
AcDbTrace
 10
548.3215003590371
 20
336.1191159977008
 30
0.0
 11
548.4881670257038
 21
336.1191159977008
 31
0.0
 12
548.4048336923705
 22
336.6191159977008
 32
0.0
 13
548.4048336923705
 23
336.6191159977008
 33
0.0
  0
POINT
  5
B418A
330
B3FA9
100
AcDbEntity
  8
DEFPOINTS
 62
     0
100
AcDbPoint
 10
543.4436395832697
 20
319.1264746863002
 30
0.0
  0
POINT
  5
B418B
330
B3FA9
100
AcDbEntity
  8
DEFPOINTS
 62
     0
100
AcDbPoint
 10
536.5832489181741
 20
336.6191159977008
 30
0.0
  0
POINT
  5
B418C
330
B3FA9
100
AcDbEntity
  8
DEFPOINTS
 62
     0
100
AcDbPoint
 10
548.4048336923705
 20
336.6191159977008
 30
0.0
  0
ENDBLK
  5
B3FB5
330
B3FA9
100
AcDbEntity
  8
0
 62
     7
100
AcDbBlockEnd
  0
BLOCK
  5
B402C
330
B4000
100
AcDbEntity
  8
0
 62
     7
100
AcDbBlockBegin
  2
TSFORMB
 70
     2
 10
0.0
 20
0.0
 30
0.0
  3
TSFORMB
  1

  0
LINE
  5
B4001
330
B4000
100
AcDbEntity
  8
0
100
AcDbLine
 10
105.9925392881563
 20
78.84810849484797
 30
0.0
 11
105.9925392881563
 21
70.31072004936999
 31
0.0
  0
LINE
  5
B4002
330
B4000
100
AcDbEntity
  8
0
100
AcDbLine
 10
105.9925392881563
 20
0.0
 30
0.0
 11
105.9925392881563
 21
78.84810849484797
 31
0.0
  0
LINE
  5
B4003
330
B4000
100
AcDbEntity
  8
0
100
AcDbLine
 10
0.0
 20
0.0
 30
0.0
 11
105.9925392881563
 21
0.0
 31
0.0
  0
LINE
  5
B4004
330
B4000
100
AcDbEntity
  8
0
100
AcDbLine
 10
0.0
 20
78.84810849484797
 30
0.0
 11
0.0
 21
0.0
 31
0.0
  0
LINE
  5
B4005
330
B4000
100
AcDbEntity
  8
0
100
AcDbLine
 10
56.87404547169354
 20
0.0
 30
0.0
 11
56.87404547169354
 21
12.46470592426129
 31
0.0
  0
TEXT
  5
B4006
330
B4000
100
AcDbEntity
  8
0
 62
     7
100
AcDbText
 10
39.28098221173831
 20
10.97304845086642
 30
0.0
 40
0.8085000000000002
  1
LEGEND
100
AcDbText
  0
TEXT
  5
B4007
330
B4000
100
AcDbEntity
  8
0
 62
     7
100
AcDbText
 10
38.18320344075362
 20
3.401999220949562
 30
0.0
 40
0.8400000000000002
  1
CATEGORY
 72
     1
 11
41.47652732452399
 21
3.401999220949562
 31
0.0
100
AcDbText
  0
LINE
  5
B4008
330
B4000
100
AcDbEntity
  8
0
 62
     7
100
AcDbLine
 10
26.78791925899645
 20
8.549200111339303
 30
0.0
 11
29.32320076794366
 21
8.549200111339303
 31
0.0
  0
TEXT
  5
B4009
330
B4000
100
AcDbEntity
  8
0
 62
     7
100
AcDbText
 10
30.56536100380196
 20
8.165961840384341
 30
0.0
 40
1.05
  1
- Unfinished Side
100
AcDbText
  0
LINE
  5
B400A
330
B4000
100
AcDbEntity
  8
0
100
AcDbLine
 10
25.9704997615305
 20
0.0
 30
0.0
 11
25.9704997615305
 21
12.46470592426129
 31
0.0
  0
ATTDEF
  5
B400B
330
B4000
100
AcDbEntity
  8
A1
 62
     1
100
AcDbText
 10
41.26016333205519
 20
0.916484150045278
 30
0.0
 40
1.025589599999999
  1

 72
     1
 11
41.26016333205519
 21
0.916484150045278
 31
0.0
100
AcDbAttributeDefinition
  3
ADD CATEGORY NAMES
  2
XXXXXX
 70
     0
  0
ATTDEF
  5
B400C
330
B4000
100
AcDbEntity
  8
A1
 62
     1
100
AcDbText
 10
21.55372231158242
 20
1.875018704105684
 30
0.0
 40
0.8400000000000002
  1

 72
     2
 11
21.55372231158242
 21
1.875018704105684
 31
0.0
100
AcDbAttributeDefinition
  3
ADD BARCODE TEXT
  2
XXXXXX
 70
     0
  0
LINE
  5
B400D
330
B4000
100
AcDbEntity
  8
0
 62
     7
100
AcDbLine
 10
25.9704997615305
 20
12.46470592426129
 30
0.0
 11
0.0
 21
12.46470592426129
 31
0.0
  0
ATTDEF
  5
B400E
330
B4000
100
AcDbEntity
  8
A1
 62
     1
100
AcDbText
 10
12.85191920549937
 20
3.11796280247222
 30
0.0
 40
6.132000000000001
  1

  7
barcoder
 72
     1
 11
12.85191920549937
 21
3.11796280247222
 31
0.0
100
AcDbAttributeDefinition
  3
ADD BARCODE NUMBER
  2
BARCODE
 70
     0
  0
LINE
  5
B400F
330
B4000
100
AcDbEntity
  8
0
 62
     7
100
AcDbLine
 10
56.87404547169354
 20
10.31505184057846
 30
0.0
 11
25.9704997615305
 21
10.31505184057846
 31
0.0
  0
LINE
  5
B4010
330
B4000
100
AcDbEntity
  8
0
 62
     7
100
AcDbLine
 10
56.87404547169354
 20
2.864660228904256
 30
0.0
 11
25.9704997615305
 21
2.864660228904256
 31
0.0
  0
LINE
  5
B4011
330
B4000
100
AcDbEntity
  8
0
 62
     7
100
AcDbLine
 10
56.87404547169354
 20
4.753491724833224
 30
0.0
 11
25.9704997615305
 21
4.753491724833224
 31
0.0
  0
LINE
  5
B4012
330
B4000
100
AcDbEntity
  8
0
100
AcDbLine
 10
92.45878286761296
 20
70.31072004936999
 30
0.0
 11
92.45878286761296
 21
78.84810849484797
 31
0.0
  0
ATTDEF
  5
B4013
330
B4000
100
AcDbEntity
  8
A1
 62
     1
100
AcDbText
 10
99.20289126219257
 20
73.40001633244828
 30
0.0
 40
2.079
  1

 72
     1
 11
99.20289126219257
 21
73.40001633244828
 31
0.0
100
AcDbAttributeDefinition
  3
ADD PAGE NUMBER
  2
TS00XX
 70
     0
  0
LINE
  5
B4014
330
B4000
100
AcDbEntity
  8
0
100
AcDbLine
 10
105.9925392881563
 20
70.31072004936999
 30
0.0
 11
92.45878286761296
 21
70.31072004936999
 31
0.0
  0
LINE
  5
B4015
330
B4000
100
AcDbEntity
  8
0
100
AcDbLine
 10
105.9925392881563
 20
78.84810849484797
 30
0.0
 11
0.0
 21
78.84810849484797
 31
0.0
  0
TEXT
  5
B4016
330
B4000
100
AcDbEntity
  8
0
 62
     7
100
AcDbText
 10
101.0916707105178
 20
4.784832420392319
 30
0.0
 40
0.8459472656250001
  1
1:1
100
AcDbText
  0
ARC
  5
B4017
330
B4000
100
AcDbEntity
  8
0
 62
     7
100
AcDbCircle
 10
92.02173719823599
 20
7.854684255185304
 30
0.0
 40
0.5838368232859321
100
AcDbArc
 50
297.5553548372056
 51
304.8408806463489
  0
LINE
  5
B4018
330
B4000
100
AcDbEntity
  8
0
 62
     7
100
AcDbLine
 10
96.44018670993672
 20
6.648784575743377
 30
0.0
 11
95.62662822118033
 21
6.648784575743377
 31
0.0
  0
ARC
  5
B4019
330
B4000
100
AcDbEntity
  8
0
 62
     7
100
AcDbCircle
 10
92.02173719823599
 20
7.854684255185304
 30
0.0
 40
0.5838368232859408
100
AcDbArc
 50
304.8408806463489
 51
297.5553548372056
  0
TEXT
  5
B401A
330
B4000
100
AcDbEntity
  8
0
 62
     7
100
AcDbText
 10
91.5997577365548
 20
7.487990433787842
 30
0.0
 40
0.7875000000000002
  1
R
  7
ROMANC
 72
     1
 11
92.02565639984959
 21
7.487990433787842
 31
0.0
100
AcDbText
  0
LINE
  5
B401B
330
B4000
100
AcDbEntity
  8
0
100
AcDbLine
 10
96.44018670993649
 20
0.0
 30
0.0
 11
96.44018670993695
 21
12.46470592426129
 31
0.0
  0
TEXT
  5
B401C
330
B4000
100
AcDbEntity
  8
0
100
AcDbText
 10
57.83820509574335
 20
4.931128255646488
 30
0.0
 40
1.111564440985976
  1
ARCHITECTURAL CONCRETE CO., INC.
 41
1.25
 72
     4
 11
76.69038922088157
 21
5.404193065577089
 31
0.0
100
AcDbText
  0
TEXT
  5
B401D
330
B4000
100
AcDbEntity
  8
0
100
AcDbText
 10
64.01730751652124
 20
0.6790765005606179
 30
0.0
 40
0.6552430415498756
  1
PHONE: 1-800-789-4841  FAX : 770-463-2635
 41
1.1875
 72
     4
 11
76.73327742292065
 21
1.005769257279496
 31
0.0
100
AcDbText
  0
TEXT
  5
B401E
330
B4000
100
AcDbEntity
  8
0
 62
     7
100
AcDbText
 10
61.23651428794109
 20
7.899354841769707
 30
0.0
 40
3.572100000000002
  1
TannerStone
  7
ROMANC
 72
     1
 11
75.92109734429948
 21
7.899354841769707
 31
0.0
100
AcDbText
  0
TEXT
  5
B401F
330
B4000
100
AcDbEntity
  8
0
100
AcDbText
 10
61.57240842020546
 20
1.964543484004154
 30
0.0
 40
0.6552430415498756
  1
http://TannerStone.com ~ Email:Sales@TannerStone.com 
 41
1.1875
 72
     4
 11
77.08342119362362
 21
2.259193880788984
 31
0.0
100
AcDbText
  0
TEXT
  5
B4020
330
B4000
100
AcDbEntity
  8
0
100
AcDbText
 10
59.98363509556096
 20
3.260563711198551
 30
0.0
 40
0.74899296216962
  1
101 JOHNSTON CIRCLE, PALMETTO, GEORGIA 30268
 41
1.1875
 72
     4
 11
76.85158629384147
 21
3.579323650094977
 31
0.0
100
AcDbText
  0
LINE
  5
B4021
330
B4000
100
AcDbEntity
  8
0
100
AcDbLine
 10
56.87404547169354
 20
6.648784575743377
 30
0.0
 11
105.9925392881563
 21
6.648784575743377
 31
0.0
  0
LINE
  5
B4022
330
B4000
100
AcDbEntity
  8
0
 62
     7
100
AcDbLine
 10
96.44018670993682
 20
9.556745250002336
 30
0.0
 11
105.9925392881563
 21
9.556745250002336
 31
0.0
  0
TEXT
  5
B4023
330
B4000
100
AcDbEntity
  8
0
 62
     7
100
AcDbText
 10
96.66995560986686
 20
8.813345575893606
 30
0.0
 40
0.5414062500000001
  1
LBS/LINEAR FEET:
100
AcDbText
  0
LINE
  5
B4024
330
B4000
100
AcDbEntity
  8
LINEWORK
 62
     7
100
AcDbLine
 10
96.40991550469017
 20
3.757904136908962
 30
0.0
 11
105.9622680829099
 21
3.757904136909189
 31
0.0
  0
TEXT
  5
B4025
330
B4000
100
AcDbEntity
  8
0
 62
     7
100
AcDbText
 10
98.85330873086445
 20
1.524519923848686
 30
0.0
 40
0.8459472656250001
  1
1-1-2000
100
AcDbText
  0
TEXT
  5
B4026
330
B4000
100
AcDbEntity
  8
0
 62
     7
100
AcDbText
 10
96.68542089784603
 20
5.927566558083469
 30
0.0
 40
0.5414062500000001
  1
SCALE:
100
AcDbText
  0
TEXT
  5
B4027
330
B4000
100
AcDbEntity
  8
0
 62
     7
100
AcDbText
 10
96.74158717246577
 20
2.97910930546476
 30
0.0
 40
0.5414062500000001
  1
DATE:
100
AcDbText
  0
TEXT
  5
B4028
330
B4000
100
AcDbEntity
  8
0
 62
     7
100
AcDbText
 10
96.70022651293084
 20
11.66518473255649
 30
0.0
 40
0.5414062500000001
  1
PROFILE AREA:
100
AcDbText
  0
ATTDEF
  5
B4029
330
B4000
100
AcDbEntity
  8
A1
 62
     1
100
AcDbText
 10
101.1759733039033
 20
10.07900441527107
 30
0.0
 40
0.9450000000000002
  1

 72
     1
 11
101.1759733039033
 21
10.07900441527107
 31
0.0
100
AcDbAttributeDefinition
  3
ADD PROFILE AREA
  2
XXXXX
 70
     0
  0
ATTDEF
  5
B402A
330
B4000
100
AcDbEntity
  8
A1
 62
     1
100
AcDbText
 10
101.1418062311347
 20
7.21953861551384
 30
0.0
 40
0.9450000000000002
  1

 72
     1
 11
101.1418062311347
 21
7.21953861551384
 31
0.0
100
AcDbAttributeDefinition
  3
ADD #/LF
  2
XXXXX
 70
     0
  0
LINE
  5
B402B
330
B4000
100
AcDbEntity
  8
0
100
AcDbLine
 10
25.9704997615305
 20
12.46470592426129
 30
0.0
 11
105.9925392881563
 21
12.46470592426129
 31
0.0
  0
ENDBLK
  5
B402D
330
B4000
100
AcDbEntity
  8
0
 62
     7
100
AcDbBlockEnd
  0
ENDSEC
  0
SECTION
  2
ENTITIES
  0
INSERT
  5
92A34
330
2
100
AcDbEntity
  8
ASHADE
 62
     1
100
AcDbBlockReference
  2
AVE_RENDER
 10
-164.2545252786472
 20
206.7292599803213
 30
0.0
 41
0.4444444444444571
 42
0.4444444444445708
 43
0.4444444444444445
1001
AVE_RENDER
1002
{
1070
     7
1000
Pref
1070
    60
1070
    20
1070
     1
1070
     0
1000

1070
    10
1070
     1
1070
    30
1040
1.0
1070
     1
1040
0.3
1040
0.7
1040
0.0
1040
10.0
1010
-1.0
1020
-1.0
1030
-1.0
1040
0.3
1070
    49
1070
     1
1070
     0
1010
1.0
1020
1.0
1030
1.0
1040
45.0
1070
     1
1070
     0
1000
WCS
1040
0.0
1070
     0
1040
10.0
1002
}
  0
INSERT
  5
92A35
330
2
100
AcDbEntity
  8
ASHADE
 62
     3
100
AcDbBlockReference
  2
AVE_RENDER
 10
-164.2545252786472
 20
206.7292599803213
 30
0.0
 41
0.4444444444444571
 42
0.4444444444445708
 43
0.4444444444444445
1001
AVE_RENDER
1002
{
1070
     0
1000
Full Opt
1070
     0
1070
     1
1070
     1
1070
     1
1070
     0
1070
     0
1070
     0
1070
     1
1070
     1
1040
0.0001
1040
0.0001
1002
}
  0
INSERT
  5
92A36
330
2
100
AcDbEntity
  8
ASHADE
 62
     4
100
AcDbBlockReference
  2
AVE_RENDER
 10
-164.2545252786472
 20
206.7292599803213
 30
0.0
 41
0.4444444444444571
 42
0.4444444444445708
 43
0.4444444444444445
1001
AVE_RENDER
1002
{
1070
     0
1000
Quick Opt
1070
     0
1070
     1
1070
     1
1070
     1
1070
     0
1070
     0
1070
     1
1002
}
  0
INSERT
  5
92A37
330
2
100
AcDbEntity
  8
ASHADE
 62
     5
100
AcDbBlockReference
  2
AVE_RENDER
 10
-164.2545252786472
 20
206.7292599803213
 30
0.0
 41
0.4444444444444571
 42
0.4444444444445708
 43
0.4444444444444445
1001
AVE_RENDER
1002
{
1070
     1
1000
Scanl Opt
1070
     2
1070
     0
1070
     2
1040
2.0
1040
4.0
1070
     0
1070
     1
1070
     0
1040
0.03
1002
}
  0
INSERT
  5
92A38
330
2
100
AcDbEntity
  8
ASHADE
 62
     6
100
AcDbBlockReference
  2
AVE_RENDER
 10
-164.2545252786472
 20
206.7292599803213
 30
0.0
 41
0.4444444444444571
 42
0.4444444444445708
 43
0.4444444444444445
1001
AVE_RENDER
1002
{
1070
     2
1000
Raytr Opt
1070
     2
1070
     0
1070
     2
1040
2.0
1040
4.0
1070
     0
1070
     1
1070
     1
1040
0.03
1070
     3
1040
0.03
1002
}
  0
INSERT
  5
92A39
330
2
100
AcDbEntity
  8
ASHADE
 62
     7
100
AcDbBlockReference
  2
AVE_RENDER
 10
-164.2545252786472
 20
206.7292599803213
 30
0.0
 41
0.4444444444444571
 42
0.4444444444445708
 43
0.4444444444444445
1001
AVE_RENDER
1002
{
1070
     0
1000
RFile Opt
1070
     5
1070
   640
1070
   480
1070
 10000
1070
     3
1070
    32
1070
    24
1070
     0
1070
     0
1070
     0
1070
     1
1070
     0
1070
     0
1070
     0
1002
}
  0
INSERT
  5
92A3A
330
2
100
AcDbEntity
  8
ASHADE
 62
     8
100
AcDbBlockReference
  2
AVE_RENDER
 10
-164.2545252786472
 20
206.7292599803213
 30
0.0
 41
0.4444444444444571
 42
0.4444444444445708
 43
0.4444444444444445
1001
AVE_RENDER
1002
{
1070
     0
1000
Fog Opt
1070
     0
1070
     0
1040
0.0
1040
1.0
1040
0.0
1040
1.0
1010
0.5
1020
0.5
1030
0.5
1002
}
  0
INSERT
  5
92A3B
330
2
100
AcDbEntity
  8
ASHADE
 62
     9
100
AcDbBlockReference
  2
AVE_RENDER
 10
-164.2545252786472
 20
206.7292599803213
 30
0.0
 41
0.4444444444444571
 42
0.4444444444445708
 43
0.4444444444444445
1001
AVE_RENDER
1002
{
1070
     0
1000
BG Opt
1070
     0
1070
     1
1010
0.0
1020
0.0
1030
0.0
1010
1.0
1020
0.0
1030
0.0
1010
0.0
1020
1.0
1030
0.0
1010
0.0
1020
0.0
1030
1.0
1040
0.5
1040
0.33
1040
0.0
1000

1070
     1
1000

1070
     1
1070
     1
1040
1.0
1040
1.0
1040
0.0
1040
0.0
1070
     0
1002
}
  0
INSERT
  5
92A3C
330
2
100
AcDbEntity
  8
ASHADE
 62
     1
100
AcDbBlockReference
  2
AVE_GLOBAL
 10
-164.2545252786472
 20
206.7292599803213
 30
0.0
 41
0.4444444444444571
 42
0.4444444444445708
 43
0.4444444444444445
1001
AVE_MATERIAL
1002
{
1000
*GLOBAL*
1000
1
1000
Global finish.
1002
{
1002
}
1002
{
1070
    63
1002
{
1002
{
1010
-1.0
1020
-1.0
1030
-1.0
1002
}
1040
0.1000000014901161
1000

1040
0.0
1002
{
1002
}
1040
0.0
1002
{
1002
}
1040
0.0
1002
}
1002
{
1002
{
1010
-1.0
1020
-1.0
1030
-1.0
1002
}
1040
0.6999999880790711
1000

1040
0.0
1002
{
1002
}
1040
0.0
1002
{
1002
}
1040
0.0
1002
}
1002
{
1002
{
1010
-1.0
1020
-1.0
1030
-1.0
1002
}
1040
0.2000000029802322
1000

1040
0.0
1002
{
1002
}
1040
0.0
1002
{
1002
}
1040
0.0
1002
}
1002
{
1070
     0
1002
{
1070
     1
1002
{
1040
1.0
1040
1.0
1000

1040
0.0
1002
{
1002
}
1040
0.0
1002
{
1002
}
1040
0.0
1002
}
1002
}
1040
1.0
1040
0.0
1040
0.0
1002
}
1002
{
1040
1.0
1040
1.0
1000

1040
0.0
1002
{
1002
}
1040
0.0
1002
{
1002
}
1040
0.0
1002
}
1002
{
1040
0.5
1040
1.0
1000

1040
0.0
1002
{
1002
}
1040
0.0
1002
{
1002
}
1040
0.0
1002
}
1002
{
1070
     0
1040
0.0
1002
{
1002
}
1040
1.0
1002
{
1002
}
1040
0.0
1002
}
1002
{
1040
0.0
1002
{
1002
{
1010
0.0
1020
0.0
1030
0.0
1002
}
1040
1.0
1000

1040
0.0
1002
{
1002
}
1040
0.0
1002
{
1002
}
1040
0.0
1002
}
1002
}
1002
{
1002
{
1070
     1
1002
{
1040
0.0
1040
1.0
1000

1040
0.0
1002
{
1002
}
1040
0.0
1002
{
1002
}
1040
0.0
1002
}
1002
}
1040
0.0
1002
{
1002
}
1010
1.0
1020
0.0
1030
0.0
1010
0.0
1020
1.0
1030
0.0
1010
0.0
1020
0.0
1030
1.0
1070
     0
1002
}
1002
{
1002
{
1040
1.0
1040
1.0
1002
{
1070
     1
1002
{
1040
1.0
1040
1.0
1000

1040
0.0
1002
{
1002
}
1040
0.0
1002
{
1002
}
1040
0.0
1002
}
1002
}
1002
}
1070
     0
1040
0.0
1002
{
1002
}
1002
}
1002
{
1002
}
1002
}
1002
{
1071
        3
1070
     3
1070
     0
1002
{
1070
     2
1070
     0
1070
     0
1040
0.0
1002
}
1070
     0
1070
     2
1002
{
1002
}
1002
}
1002
{
1040
8030.0
1040
190.3000030517578
1040
0.3050000071525574
1040
228.0
1040
545.0
1040
14.0
1040
17.39999961853027
1040
0.4560000002384186
1002
}
1002
}
  0
INSERT
  5
92A3D
330
2
100
AcDbEntity
  8
ASHADE
 62
     1
100
AcDbBlockReference
  2
AVE_GLOBAL
 10
98.52216174698344
 20
325.5581623885814
 30
0.0
1001
AVE_MATERIAL
1002
{
1000
*GLOBAL*
1000
1
1000
Global finish.
1002
{
1002
}
1002
{
1070
    63
1002
{
1002
{
1010
-1.0
1020
-1.0
1030
-1.0
1002
}
1040
0.1000000014901161
1000

1040
0.0
1002
{
1002
}
1040
0.0
1002
{
1002
}
1040
0.0
1002
}
1002
{
1002
{
1010
-1.0
1020
-1.0
1030
-1.0
1002
}
1040
0.6999999880790711
1000

1040
0.0
1002
{
1002
}
1040
0.0
1002
{
1002
}
1040
0.0
1002
}
1002
{
1002
{
1010
-1.0
1020
-1.0
1030
-1.0
1002
}
1040
0.2000000029802322
1000

1040
0.0
1002
{
1002
}
1040
0.0
1002
{
1002
}
1040
0.0
1002
}
1002
{
1070
     0
1002
{
1070
     1
1002
{
1040
1.0
1040
1.0
1000

1040
0.0
1002
{
1002
}
1040
0.0
1002
{
1002
}
1040
0.0
1002
}
1002
}
1040
1.0
1040
0.0
1040
0.0
1002
}
1002
{
1040
1.0
1040
1.0
1000

1040
0.0
1002
{
1002
}
1040
0.0
1002
{
1002
}
1040
0.0
1002
}
1002
{
1040
0.5
1040
1.0
1000

1040
0.0
1002
{
1002
}
1040
0.0
1002
{
1002
}
1040
0.0
1002
}
1002
{
1070
     0
1040
0.0
1002
{
1002
}
1040
1.0
1002
{
1002
}
1040
0.0
1002
}
1002
{
1040
0.0
1002
{
1002
{
1010
0.0
1020
0.0
1030
0.0
1002
}
1040
1.0
1000

1040
0.0
1002
{
1002
}
1040
0.0
1002
{
1002
}
1040
0.0
1002
}
1002
}
1002
{
1002
{
1070
     1
1002
{
1040
0.0
1040
1.0
1000

1040
0.0
1002
{
1002
}
1040
0.0
1002
{
1002
}
1040
0.0
1002
}
1002
}
1040
0.0
1002
{
1002
}
1010
1.0
1020
0.0
1030
0.0
1010
0.0
1020
1.0
1030
0.0
1010
0.0
1020
0.0
1030
1.0
1070
     0
1002
}
1002
{
1002
{
1040
1.0
1040
1.0
1002
{
1070
     1
1002
{
1040
1.0
1040
1.0
1000

1040
0.0
1002
{
1002
}
1040
0.0
1002
{
1002
}
1040
0.0
1002
}
1002
}
1002
}
1070
     0
1040
0.0
1002
{
1002
}
1002
}
1002
{
1002
}
1002
}
1002
{
1071
        3
1070
     3
1070
     0
1002
{
1070
     2
1070
     0
1070
     0
1040
0.0
1002
}
1070
     0
1070
     2
1002
{
1002
}
1002
}
1002
{
1040
8030.0
1040
190.3000030517578
1040
0.3050000071525574
1040
228.0
1040
545.0
1040
14.0
1040
17.39999961853027
1040
0.4560000002384186
1002
}
1002
}
  0
INSERT
  5
92A57
330
2
100
AcDbEntity
  8
ASHADE
 62
     1
100
AcDbBlockReference
  2
AVE_GLOBAL
 10
98.99410985158453
 20
297.7252267067419
 30
0.0
1001
AVE_MATERIAL
1002
{
1000
*GLOBAL*
1000
1
1000
Global finish.
1002
{
1002
}
1002
{
1070
    63
1002
{
1002
{
1010
-1.0
1020
-1.0
1030
-1.0
1002
}
1040
0.1000000014901161
1000

1040
0.0
1002
{
1002
}
1040
0.0
1002
{
1002
}
1040
0.0
1002
}
1002
{
1002
{
1010
-1.0
1020
-1.0
1030
-1.0
1002
}
1040
0.6999999880790711
1000

1040
0.0
1002
{
1002
}
1040
0.0
1002
{
1002
}
1040
0.0
1002
}
1002
{
1002
{
1010
-1.0
1020
-1.0
1030
-1.0
1002
}
1040
0.2000000029802322
1000

1040
0.0
1002
{
1002
}
1040
0.0
1002
{
1002
}
1040
0.0
1002
}
1002
{
1070
     0
1002
{
1070
     1
1002
{
1040
1.0
1040
1.0
1000

1040
0.0
1002
{
1002
}
1040
0.0
1002
{
1002
}
1040
0.0
1002
}
1002
}
1040
1.0
1040
0.0
1040
0.0
1002
}
1002
{
1040
1.0
1040
1.0
1000

1040
0.0
1002
{
1002
}
1040
0.0
1002
{
1002
}
1040
0.0
1002
}
1002
{
1040
0.5
1040
1.0
1000

1040
0.0
1002
{
1002
}
1040
0.0
1002
{
1002
}
1040
0.0
1002
}
1002
{
1070
     0
1040
0.0
1002
{
1002
}
1040
1.0
1002
{
1002
}
1040
0.0
1002
}
1002
{
1040
0.0
1002
{
1002
{
1010
0.0
1020
0.0
1030
0.0
1002
}
1040
1.0
1000

1040
0.0
1002
{
1002
}
1040
0.0
1002
{
1002
}
1040
0.0
1002
}
1002
}
1002
{
1002
{
1070
     1
1002
{
1040
0.0
1040
1.0
1000

1040
0.0
1002
{
1002
}
1040
0.0
1002
{
1002
}
1040
0.0
1002
}
1002
}
1040
0.0
1002
{
1002
}
1010
1.0
1020
0.0
1030
0.0
1010
0.0
1020
1.0
1030
0.0
1010
0.0
1020
0.0
1030
1.0
1070
     0
1002
}
1002
{
1002
{
1040
1.0
1040
1.0
1002
{
1070
     1
1002
{
1040
1.0
1040
1.0
1000

1040
0.0
1002
{
1002
}
1040
0.0
1002
{
1002
}
1040
0.0
1002
}
1002
}
1002
}
1070
     0
1040
0.0
1002
{
1002
}
1002
}
1002
{
1002
}
1002
}
1002
{
1071
        3
1070
     3
1070
     0
1002
{
1070
     2
1070
     0
1070
     0
1040
0.0
1002
}
1070
     0
1070
     2
1002
{
1002
}
1002
}
1002
{
1040
8030.0
1040
190.3000030517578
1040
0.3050000071525574
1040
228.0
1040
545.0
1040
14.0
1040
17.39999961853027
1040
0.4560000002384186
1002
}
1002
}
  0
INSERT
  5
92A58
330
2
100
AcDbEntity
  8
ASHADE
 62
     1
100
AcDbBlockReference
  2
AVE_GLOBAL
 10
-182.5720889753613
 20
342.1239334813278
 30
12.6740639196657
 41
0.6666666666666572
 42
0.6666666666667425
 43
0.6666666666666666
1001
AVE_MATERIAL
1002
{
1000
*GLOBAL*
1000
1
1000
Global finish.
1002
{
1002
}
1002
{
1070
    63
1002
{
1002
{
1010
-1.0
1020
-1.0
1030
-1.0
1002
}
1040
0.1000000014901161
1000

1040
0.0
1002
{
1002
}
1040
0.0
1002
{
1002
}
1040
0.0
1002
}
1002
{
1002
{
1010
-1.0
1020
-1.0
1030
-1.0
1002
}
1040
0.6999999880790711
1000

1040
0.0
1002
{
1002
}
1040
0.0
1002
{
1002
}
1040
0.0
1002
}
1002
{
1002
{
1010
-1.0
1020
-1.0
1030
-1.0
1002
}
1040
0.2000000029802322
1000

1040
0.0
1002
{
1002
}
1040
0.0
1002
{
1002
}
1040
0.0
1002
}
1002
{
1070
     0
1002
{
1070
     1
1002
{
1040
1.0
1040
1.0
1000

1040
0.0
1002
{
1002
}
1040
0.0
1002
{
1002
}
1040
0.0
1002
}
1002
}
1040
1.0
1040
0.0
1040
0.0
1002
}
1002
{
1040
1.0
1040
1.0
1000

1040
0.0
1002
{
1002
}
1040
0.0
1002
{
1002
}
1040
0.0
1002
}
1002
{
1040
0.5
1040
1.0
1000

1040
0.0
1002
{
1002
}
1040
0.0
1002
{
1002
}
1040
0.0
1002
}
1002
{
1070
     0
1040
0.0
1002
{
1002
}
1040
1.0
1002
{
1002
}
1040
0.0
1002
}
1002
{
1040
0.0
1002
{
1002
{
1010
0.0
1020
0.0
1030
0.0
1002
}
1040
1.0
1000

1040
0.0
1002
{
1002
}
1040
0.0
1002
{
1002
}
1040
0.0
1002
}
1002
}
1002
{
1002
{
1070
     1
1002
{
1040
0.0
1040
1.0
1000

1040
0.0
1002
{
1002
}
1040
0.0
1002
{
1002
}
1040
0.0
1002
}
1002
}
1040
0.0
1002
{
1002
}
1010
1.0
1020
0.0
1030
0.0
1010
0.0
1020
1.0
1030
0.0
1010
0.0
1020
0.0
1030
1.0
1070
     0
1002
}
1002
{
1002
{
1040
1.0
1040
1.0
1002
{
1070
     1
1002
{
1040
1.0
1040
1.0
1000

1040
0.0
1002
{
1002
}
1040
0.0
1002
{
1002
}
1040
0.0
1002
}
1002
}
1002
}
1070
     0
1040
0.0
1002
{
1002
}
1002
}
1002
{
1002
}
1002
}
1002
{
1071
        3
1070
     3
1070
     0
1002
{
1070
     2
1070
     0
1070
     0
1040
0.0
1002
}
1070
     0
1070
     2
1002
{
1002
}
1002
}
1002
{
1040
8030.0
1040
190.3000030517578
1040
0.3050000071525574
1040
228.0
1040
545.0
1040
14.0
1040
17.39999961853027
1040
0.4560000002384186
1002
}
1002
}
  0
INSERT
  5
92A72
330
2
100
AcDbEntity
  8
ASHADE
 62
     1
100
AcDbBlockReference
  2
AVE_GLOBAL
 10
-106.2258711206784
 20
342.1239334813278
 30
12.6740639196657
 41
0.6666666666666572
 42
0.6666666666667425
 43
0.6666666666666666
1001
AVE_MATERIAL
1002
{
1000
*GLOBAL*
1000
1
1000
Global finish.
1002
{
1002
}
1002
{
1070
    63
1002
{
1002
{
1010
-1.0
1020
-1.0
1030
-1.0
1002
}
1040
0.1000000014901161
1000

1040
0.0
1002
{
1002
}
1040
0.0
1002
{
1002
}
1040
0.0
1002
}
1002
{
1002
{
1010
-1.0
1020
-1.0
1030
-1.0
1002
}
1040
0.6999999880790711
1000

1040
0.0
1002
{
1002
}
1040
0.0
1002
{
1002
}
1040
0.0
1002
}
1002
{
1002
{
1010
-1.0
1020
-1.0
1030
-1.0
1002
}
1040
0.2000000029802322
1000

1040
0.0
1002
{
1002
}
1040
0.0
1002
{
1002
}
1040
0.0
1002
}
1002
{
1070
     0
1002
{
1070
     1
1002
{
1040
1.0
1040
1.0
1000

1040
0.0
1002
{
1002
}
1040
0.0
1002
{
1002
}
1040
0.0
1002
}
1002
}
1040
1.0
1040
0.0
1040
0.0
1002
}
1002
{
1040
1.0
1040
1.0
1000

1040
0.0
1002
{
1002
}
1040
0.0
1002
{
1002
}
1040
0.0
1002
}
1002
{
1040
0.5
1040
1.0
1000

1040
0.0
1002
{
1002
}
1040
0.0
1002
{
1002
}
1040
0.0
1002
}
1002
{
1070
     0
1040
0.0
1002
{
1002
}
1040
1.0
1002
{
1002
}
1040
0.0
1002
}
1002
{
1040
0.0
1002
{
1002
{
1010
0.0
1020
0.0
1030
0.0
1002
}
1040
1.0
1000

1040
0.0
1002
{
1002
}
1040
0.0
1002
{
1002
}
1040
0.0
1002
}
1002
}
1002
{
1002
{
1070
     1
1002
{
1040
0.0
1040
1.0
1000

1040
0.0
1002
{
1002
}
1040
0.0
1002
{
1002
}
1040
0.0
1002
}
1002
}
1040
0.0
1002
{
1002
}
1010
1.0
1020
0.0
1030
0.0
1010
0.0
1020
1.0
1030
0.0
1010
0.0
1020
0.0
1030
1.0
1070
     0
1002
}
1002
{
1002
{
1040
1.0
1040
1.0
1002
{
1070
     1
1002
{
1040
1.0
1040
1.0
1000

1040
0.0
1002
{
1002
}
1040
0.0
1002
{
1002
}
1040
0.0
1002
}
1002
}
1002
}
1070
     0
1040
0.0
1002
{
1002
}
1002
}
1002
{
1002
}
1002
}
1002
{
1071
        3
1070
     3
1070
     0
1002
{
1070
     2
1070
     0
1070
     0
1040
0.0
1002
}
1070
     0
1070
     2
1002
{
1002
}
1002
}
1002
{
1040
8030.0
1040
190.3000030517578
1040
0.3050000071525574
1040
228.0
1040
545.0
1040
14.0
1040
17.39999961853027
1040
0.4560000002384186
1002
}
1002
}
  0
INSERT
  5
92A8C
330
2
100
AcDbEntity
  8
ASHADE
 62
     1
100
AcDbBlockReference
  2
AVE_RENDER
 10
-345.6115092842143
 20
-401.7229348885227
 30
0.0
 41
1.305149999999997
 42
1.305149999999912
 43
1.305150000000001
1001
AVE_RENDER
1002
{
1070
     6
1000
Pref
1070
    30
1070
    20
1070
     1
1070
     0
1000

1070
    10
1070
     1
1070
    30
1040
1.0
1070
     1
1040
0.3
1040
0.7
1040
0.0
1040
10.0
1010
-1.0
1020
-1.0
1030
-1.0
1040
0.3
1070
    49
1070
     0
1070
     0
1010
1.0
1020
1.0
1030
1.0
1040
45.0
1070
     1
1070
     0
1000
WCS
1040
0.0
1002
}
  0
INSERT
  5
92A8D
330
2
100
AcDbEntity
  8
ASHADE
 62
     3
100
AcDbBlockReference
  2
AVE_RENDER
 10
-345.6115092842143
 20
-401.7229348885227
 30
0.0
 41
1.305149999999997
 42
1.305149999999912
 43
1.305150000000001
1001
AVE_RENDER
1002
{
1070
     0
1000
Full Opt
1070
     0
1070
     1
1070
     1
1070
     1
1070
     0
1070
     0
1070
     0
1070
     1
1070
     1
1040
0.0001
1040
0.0001
1002
}
  0
INSERT
  5
92A8E
330
2
100
AcDbEntity
  8
ASHADE
 62
     4
100
AcDbBlockReference
  2
AVE_RENDER
 10
-345.6115092842143
 20
-401.7229348885227
 30
0.0
 41
1.305149999999997
 42
1.305149999999912
 43
1.305150000000001
1001
AVE_RENDER
1002
{
1070
     0
1000
Quick Opt
1070
     0
1070
     1
1070
     1
1070
     1
1070
     0
1070
     0
1070
     1
1002
}
  0
INSERT
  5
92A8F
330
2
100
AcDbEntity
  8
ASHADE
 62
     5
100
AcDbBlockReference
  2
AVE_RENDER
 10
-345.6115092842143
 20
-401.7229348885227
 30
0.0
 41
1.305149999999997
 42
1.305149999999912
 43
1.305150000000001
1001
AVE_RENDER
1002
{
1070
     1
1000
Scanl Opt
1070
     2
1070
     0
1070
     2
1040
2.0
1040
4.0
1070
     0
1070
     1
1070
     0
1040
0.03
1002
}
  0
INSERT
  5
92A90
330
2
100
AcDbEntity
  8
ASHADE
 62
     6
100
AcDbBlockReference
  2
AVE_RENDER
 10
-345.6115092842143
 20
-401.7229348885227
 30
0.0
 41
1.305149999999997
 42
1.305149999999912
 43
1.305150000000001
1001
AVE_RENDER
1002
{
1070
     2
1000
Raytr Opt
1070
     2
1070
     0
1070
     2
1040
2.0
1040
4.0
1070
     0
1070
     1
1070
     1
1040
0.03
1070
     3
1040
0.03
1002
}
  0
INSERT
  5
92A91
330
2
100
AcDbEntity
  8
ASHADE
 62
     7
100
AcDbBlockReference
  2
AVE_RENDER
 10
-345.6115092842143
 20
-401.7229348885227
 30
0.0
 41
1.305149999999997
 42
1.305149999999912
 43
1.305150000000001
1001
AVE_RENDER
1002
{
1070
     0
1000
RFile Opt
1070
     5
1070
   640
1070
   480
1070
 10000
1070
     3
1070
    32
1070
    24
1070
     0
1070
     0
1070
     0
1070
     1
1070
     0
1070
     0
1070
     0
1002
}
  0
INSERT
  5
92A92
330
2
100
AcDbEntity
  8
ASHADE
 62
     8
100
AcDbBlockReference
  2
AVE_RENDER
 10
-345.6115092842143
 20
-401.7229348885227
 30
0.0
 41
1.305149999999997
 42
1.305149999999912
 43
1.305150000000001
1001
AVE_RENDER
1002
{
1070
     0
1000
Fog Opt
1070
     0
1070
     0
1040
0.0
1040
1.0
1040
0.0
1040
1.0
1010
0.5
1020
0.5
1030
0.5
1002
}
  0
INSERT
  5
92A93
330
2
100
AcDbEntity
  8
ASHADE
 62
     9
100
AcDbBlockReference
  2
AVE_RENDER
 10
-345.6115092842143
 20
-401.7229348885227
 30
0.0
 41
1.305149999999997
 42
1.305149999999912
 43
1.305150000000001
1001
AVE_RENDER
1002
{
1070
     0
1000
BG Opt
1070
     0
1070
     1
1010
0.0
1020
0.0
1030
0.0
1010
1.0
1020
0.0
1030
0.0
1010
0.0
1020
1.0
1030
0.0
1010
0.0
1020
0.0
1030
1.0
1040
0.5
1040
0.33
1040
0.0
1000

1070
     1
1000

1070
     1
1070
     1
1040
1.0
1040
1.0
1040
0.0
1040
0.0
1070
     0
1002
}
  0
INSERT
  5
92A94
330
2
100
AcDbEntity
  8
ASHADE
 62
     1
100
AcDbBlockReference
  2
AVE_GLOBAL
 10
-345.6115092842143
 20
-401.7229348885227
 30
0.0
 41
1.305149999999997
 42
1.305149999999912
 43
1.305150000000001
1001
AVE_MATERIAL
1002
{
1000
*GLOBAL*
1000
1
1000
Global finish.
1002
{
1002
}
1002
{
1070
    63
1002
{
1002
{
1010
-1.0
1020
-1.0
1030
-1.0
1002
}
1040
0.1000000014901161
1000

1040
0.0
1002
{
1002
}
1040
0.0
1002
{
1002
}
1040
0.0
1002
}
1002
{
1002
{
1010
-1.0
1020
-1.0
1030
-1.0
1002
}
1040
0.6999999880790711
1000

1040
0.0
1002
{
1002
}
1040
0.0
1002
{
1002
}
1040
0.0
1002
}
1002
{
1002
{
1010
-1.0
1020
-1.0
1030
-1.0
1002
}
1040
0.2000000029802322
1000

1040
0.0
1002
{
1002
}
1040
0.0
1002
{
1002
}
1040
0.0
1002
}
1002
{
1070
     0
1002
{
1070
     1
1002
{
1040
1.0
1040
1.0
1000

1040
0.0
1002
{
1002
}
1040
0.0
1002
{
1002
}
1040
0.0
1002
}
1002
}
1040
1.0
1040
0.0
1040
0.0
1002
}
1002
{
1040
1.0
1040
1.0
1000

1040
0.0
1002
{
1002
}
1040
0.0
1002
{
1002
}
1040
0.0
1002
}
1002
{
1040
0.5
1040
1.0
1000

1040
0.0
1002
{
1002
}
1040
0.0
1002
{
1002
}
1040
0.0
1002
}
1002
{
1070
     0
1040
0.0
1002
{
1002
}
1040
1.0
1002
{
1002
}
1040
0.0
1002
}
1002
{
1040
0.0
1002
{
1002
{
1010
0.0
1020
0.0
1030
0.0
1002
}
1040
1.0
1000

1040
0.0
1002
{
1002
}
1040
0.0
1002
{
1002
}
1040
0.0
1002
}
1002
}
1002
{
1002
{
1070
     1
1002
{
1040
0.0
1040
1.0
1000

1040
0.0
1002
{
1002
}
1040
0.0
1002
{
1002
}
1040
0.0
1002
}
1002
}
1040
0.0
1002
{
1002
}
1010
1.0
1020
0.0
1030
0.0
1010
0.0
1020
1.0
1030
0.0
1010
0.0
1020
0.0
1030
1.0
1070
     0
1002
}
1002
{
1002
{
1040
1.0
1040
1.0
1002
{
1070
     1
1002
{
1040
1.0
1040
1.0
1000

1040
0.0
1002
{
1002
}
1040
0.0
1002
{
1002
}
1040
0.0
1002
}
1002
}
1002
}
1070
     0
1040
0.0
1002
{
1002
}
1002
}
1002
{
1002
}
1002
}
1002
{
1071
        3
1070
     3
1070
     0
1002
{
1070
     2
1070
     0
1070
     0
1040
0.0
1002
}
1070
     0
1070
     2
1002
{
1002
}
1002
}
1002
{
1040
8030.0
1040
190.3000030517578
1040
0.3050000071525574
1040
228.0
1040
545.0
1040
14.0
1040
17.39999961853027
1040
0.4560000002384186
1002
}
1002
}
  0
INSERT
  5
92A95
330
2
100
AcDbEntity
  8
ASHADE
 62
     1
100
AcDbBlockReference
  2
AVE_RENDER
 10
71.15830328567222
 20
243.9880492700356
 30
0.0
 41
0.3262875000000065
 42
0.3262875000000349
 43
0.3262875000000003
1001
AVE_RENDER
1002
{
1070
     6
1000
Pref
1070
    30
1070
    20
1070
     1
1070
     0
1000

1070
    10
1070
     1
1070
    30
1040
1.0
1070
     1
1040
0.3
1040
0.7
1040
0.0
1040
10.0
1010
-1.0
1020
-1.0
1030
-1.0
1040
0.3
1070
    49
1070
     0
1070
     0
1010
1.0
1020
1.0
1030
1.0
1040
45.0
1070
     1
1070
     0
1000
WCS
1040
0.0
1002
}
  0
INSERT
  5
92A96
330
2
100
AcDbEntity
  8
ASHADE
 62
     3
100
AcDbBlockReference
  2
AVE_RENDER
 10
71.15830328567222
 20
243.9880492700356
 30
0.0
 41
0.3262875000000065
 42
0.3262875000000349
 43
0.3262875000000003
1001
AVE_RENDER
1002
{
1070
     0
1000
Full Opt
1070
     0
1070
     1
1070
     1
1070
     1
1070
     0
1070
     0
1070
     0
1070
     1
1070
     1
1040
0.0001
1040
0.0001
1002
}
  0
INSERT
  5
92A97
330
2
100
AcDbEntity
  8
ASHADE
 62
     4
100
AcDbBlockReference
  2
AVE_RENDER
 10
71.15830328567222
 20
243.9880492700356
 30
0.0
 41
0.3262875000000065
 42
0.3262875000000349
 43
0.3262875000000003
1001
AVE_RENDER
1002
{
1070
     0
1000
Quick Opt
1070
     0
1070
     1
1070
     1
1070
     1
1070
     0
1070
     0
1070
     1
1002
}
  0
INSERT
  5
92A98
330
2
100
AcDbEntity
  8
ASHADE
 62
     5
100
AcDbBlockReference
  2
AVE_RENDER
 10
71.15830328567222
 20
243.9880492700356
 30
0.0
 41
0.3262875000000065
 42
0.3262875000000349
 43
0.3262875000000003
1001
AVE_RENDER
1002
{
1070
     1
1000
Scanl Opt
1070
     2
1070
     0
1070
     2
1040
2.0
1040
4.0
1070
     0
1070
     1
1070
     0
1040
0.03
1002
}
  0
INSERT
  5
92A99
330
2
100
AcDbEntity
  8
ASHADE
 62
     6
100
AcDbBlockReference
  2
AVE_RENDER
 10
71.15830328567222
 20
243.9880492700356
 30
0.0
 41
0.3262875000000065
 42
0.3262875000000349
 43
0.3262875000000003
1001
AVE_RENDER
1002
{
1070
     2
1000
Raytr Opt
1070
     2
1070
     0
1070
     2
1040
2.0
1040
4.0
1070
     0
1070
     1
1070
     1
1040
0.03
1070
     3
1040
0.03
1002
}
  0
INSERT
  5
92A9A
330
2
100
AcDbEntity
  8
ASHADE
 62
     7
100
AcDbBlockReference
  2
AVE_RENDER
 10
71.15830328567222
 20
243.9880492700356
 30
0.0
 41
0.3262875000000065
 42
0.3262875000000349
 43
0.3262875000000003
1001
AVE_RENDER
1002
{
1070
     0
1000
RFile Opt
1070
     5
1070
   640
1070
   480
1070
 10000
1070
     3
1070
    32
1070
    24
1070
     0
1070
     0
1070
     0
1070
     1
1070
     0
1070
     0
1070
     0
1002
}
  0
INSERT
  5
92A9B
330
2
100
AcDbEntity
  8
ASHADE
 62
     8
100
AcDbBlockReference
  2
AVE_RENDER
 10
71.15830328567222
 20
243.9880492700356
 30
0.0
 41
0.3262875000000065
 42
0.3262875000000349
 43
0.3262875000000003
1001
AVE_RENDER
1002
{
1070
     0
1000
Fog Opt
1070
     0
1070
     0
1040
0.0
1040
1.0
1040
0.0
1040
1.0
1010
0.5
1020
0.5
1030
0.5
1002
}
  0
INSERT
  5
92A9C
330
2
100
AcDbEntity
  8
ASHADE
 62
     9
100
AcDbBlockReference
  2
AVE_RENDER
 10
71.15830328567222
 20
243.9880492700356
 30
0.0
 41
0.3262875000000065
 42
0.3262875000000349
 43
0.3262875000000003
1001
AVE_RENDER
1002
{
1070
     0
1000
BG Opt
1070
     0
1070
     1
1010
0.0
1020
0.0
1030
0.0
1010
1.0
1020
0.0
1030
0.0
1010
0.0
1020
1.0
1030
0.0
1010
0.0
1020
0.0
1030
1.0
1040
0.5
1040
0.33
1040
0.0
1000

1070
     1
1000

1070
     1
1070
     1
1040
1.0
1040
1.0
1040
0.0
1040
0.0
1070
     0
1002
}
  0
INSERT
  5
92A9D
330
2
100
AcDbEntity
  8
ASHADE
 62
     1
100
AcDbBlockReference
  2
AVE_GLOBAL
 10
71.15830328567222
 20
243.9880492700356
 30
0.0
 41
0.3262875000000065
 42
0.3262875000000349
 43
0.3262875000000003
1001
AVE_MATERIAL
1002
{
1000
*GLOBAL*
1000
1
1000
Global finish.
1002
{
1002
}
1002
{
1070
    63
1002
{
1002
{
1010
-1.0
1020
-1.0
1030
-1.0
1002
}
1040
0.1000000014901161
1000

1040
0.0
1002
{
1002
}
1040
0.0
1002
{
1002
}
1040
0.0
1002
}
1002
{
1002
{
1010
-1.0
1020
-1.0
1030
-1.0
1002
}
1040
0.6999999880790711
1000

1040
0.0
1002
{
1002
}
1040
0.0
1002
{
1002
}
1040
0.0
1002
}
1002
{
1002
{
1010
-1.0
1020
-1.0
1030
-1.0
1002
}
1040
0.2000000029802322
1000

1040
0.0
1002
{
1002
}
1040
0.0
1002
{
1002
}
1040
0.0
1002
}
1002
{
1070
     0
1002
{
1070
     1
1002
{
1040
1.0
1040
1.0
1000

1040
0.0
1002
{
1002
}
1040
0.0
1002
{
1002
}
1040
0.0
1002
}
1002
}
1040
1.0
1040
0.0
1040
0.0
1002
}
1002
{
1040
1.0
1040
1.0
1000

1040
0.0
1002
{
1002
}
1040
0.0
1002
{
1002
}
1040
0.0
1002
}
1002
{
1040
0.5
1040
1.0
1000

1040
0.0
1002
{
1002
}
1040
0.0
1002
{
1002
}
1040
0.0
1002
}
1002
{
1070
     0
1040
0.0
1002
{
1002
}
1040
1.0
1002
{
1002
}
1040
0.0
1002
}
1002
{
1040
0.0
1002
{
1002
{
1010
0.0
1020
0.0
1030
0.0
1002
}
1040
1.0
1000

1040
0.0
1002
{
1002
}
1040
0.0
1002
{
1002
}
1040
0.0
1002
}
1002
}
1002
{
1002
{
1070
     1
1002
{
1040
0.0
1040
1.0
1000

1040
0.0
1002
{
1002
}
1040
0.0
1002
{
1002
}
1040
0.0
1002
}
1002
}
1040
0.0
1002
{
1002
}
1010
1.0
1020
0.0
1030
0.0
1010
0.0
1020
1.0
1030
0.0
1010
0.0
1020
0.0
1030
1.0
1070
     0
1002
}
1002
{
1002
{
1040
1.0
1040
1.0
1002
{
1070
     1
1002
{
1040
1.0
1040
1.0
1000

1040
0.0
1002
{
1002
}
1040
0.0
1002
{
1002
}
1040
0.0
1002
}
1002
}
1002
}
1070
     0
1040
0.0
1002
{
1002
}
1002
}
1002
{
1002
}
1002
}
1002
{
1071
        3
1070
     3
1070
     0
1002
{
1070
     2
1070
     0
1070
     0
1040
0.0
1002
}
1070
     0
1070
     2
1002
{
1002
}
1002
}
1002
{
1040
8030.0
1040
190.3000030517578
1040
0.3050000071525574
1040
228.0
1040
545.0
1040
14.0
1040
17.39999961853027
1040
0.4560000002384186
1002
}
1002
}
  0
INSERT
  5
92A9E
330
2
100
AcDbEntity
  8
ASHADE
 62
     1
100
AcDbBlockReference
  2
AVE_RENDER
 10
-137.1380158279609
 20
-401.7229348885228
 30
0.0
 41
1.305149999999997
 42
1.305149999999912
 43
1.305150000000001
1001
AVE_RENDER
1002
{
1070
     6
1000
Pref
1070
    30
1070
    20
1070
     1
1070
     0
1000

1070
    10
1070
     1
1070
    30
1040
1.0
1070
     1
1040
0.3
1040
0.7
1040
0.0
1040
10.0
1010
-1.0
1020
-1.0
1030
-1.0
1040
0.3
1070
    49
1070
     0
1070
     0
1010
1.0
1020
1.0
1030
1.0
1040
45.0
1070
     1
1070
     0
1000
WCS
1040
0.0
1002
}
  0
INSERT
  5
92A9F
330
2
100
AcDbEntity
  8
ASHADE
 62
     3
100
AcDbBlockReference
  2
AVE_RENDER
 10
-137.1380158279609
 20
-401.7229348885228
 30
0.0
 41
1.305149999999997
 42
1.305149999999912
 43
1.305150000000001
1001
AVE_RENDER
1002
{
1070
     0
1000
Full Opt
1070
     0
1070
     1
1070
     1
1070
     1
1070
     0
1070
     0
1070
     0
1070
     1
1070
     1
1040
0.0001
1040
0.0001
1002
}
  0
INSERT
  5
92AA0
330
2
100
AcDbEntity
  8
ASHADE
 62
     4
100
AcDbBlockReference
  2
AVE_RENDER
 10
-137.1380158279609
 20
-401.7229348885228
 30
0.0
 41
1.305149999999997
 42
1.305149999999912
 43
1.305150000000001
1001
AVE_RENDER
1002
{
1070
     0
1000
Quick Opt
1070
     0
1070
     1
1070
     1
1070
     1
1070
     0
1070
     0
1070
     1
1002
}
  0
INSERT
  5
92AA1
330
2
100
AcDbEntity
  8
ASHADE
 62
     5
100
AcDbBlockReference
  2
AVE_RENDER
 10
-137.1380158279609
 20
-401.7229348885228
 30
0.0
 41
1.305149999999997
 42
1.305149999999912
 43
1.305150000000001
1001
AVE_RENDER
1002
{
1070
     1
1000
Scanl Opt
1070
     2
1070
     0
1070
     2
1040
2.0
1040
4.0
1070
     0
1070
     1
1070
     0
1040
0.03
1002
}
  0
INSERT
  5
92AA2
330
2
100
AcDbEntity
  8
ASHADE
 62
     6
100
AcDbBlockReference
  2
AVE_RENDER
 10
-137.1380158279609
 20
-401.7229348885228
 30
0.0
 41
1.305149999999997
 42
1.305149999999912
 43
1.305150000000001
1001
AVE_RENDER
1002
{
1070
     2
1000
Raytr Opt
1070
     2
1070
     0
1070
     2
1040
2.0
1040
4.0
1070
     0
1070
     1
1070
     1
1040
0.03
1070
     3
1040
0.03
1002
}
  0
INSERT
  5
92AA3
330
2
100
AcDbEntity
  8
ASHADE
 62
     7
100
AcDbBlockReference
  2
AVE_RENDER
 10
-137.1380158279609
 20
-401.7229348885228
 30
0.0
 41
1.305149999999997
 42
1.305149999999912
 43
1.305150000000001
1001
AVE_RENDER
1002
{
1070
     0
1000
RFile Opt
1070
     5
1070
   640
1070
   480
1070
 10000
1070
     3
1070
    32
1070
    24
1070
     0
1070
     0
1070
     0
1070
     1
1070
     0
1070
     0
1070
     0
1002
}
  0
INSERT
  5
92AA4
330
2
100
AcDbEntity
  8
ASHADE
 62
     8
100
AcDbBlockReference
  2
AVE_RENDER
 10
-137.1380158279609
 20
-401.7229348885228
 30
0.0
 41
1.305149999999997
 42
1.305149999999912
 43
1.305150000000001
1001
AVE_RENDER
1002
{
1070
     0
1000
Fog Opt
1070
     0
1070
     0
1040
0.0
1040
1.0
1040
0.0
1040
1.0
1010
0.5
1020
0.5
1030
0.5
1002
}
  0
INSERT
  5
92AA5
330
2
100
AcDbEntity
  8
ASHADE
 62
     9
100
AcDbBlockReference
  2
AVE_RENDER
 10
-137.1380158279609
 20
-401.7229348885228
 30
0.0
 41
1.305149999999997
 42
1.305149999999912
 43
1.305150000000001
1001
AVE_RENDER
1002
{
1070
     0
1000
BG Opt
1070
     0
1070
     1
1010
0.0
1020
0.0
1030
0.0
1010
1.0
1020
0.0
1030
0.0
1010
0.0
1020
1.0
1030
0.0
1010
0.0
1020
0.0
1030
1.0
1040
0.5
1040
0.33
1040
0.0
1000

1070
     1
1000

1070
     1
1070
     1
1040
1.0
1040
1.0
1040
0.0
1040
0.0
1070
     0
1002
}
  0
INSERT
  5
92AA6
330
2
100
AcDbEntity
  8
ASHADE
 62
     1
100
AcDbBlockReference
  2
AVE_GLOBAL
 10
-137.1380158279609
 20
-401.7229348885228
 30
0.0
 41
1.305149999999997
 42
1.305149999999912
 43
1.305150000000001
1001
AVE_MATERIAL
1002
{
1000
*GLOBAL*
1000
1
1000
Global finish.
1002
{
1002
}
1002
{
1070
    63
1002
{
1002
{
1010
-1.0
1020
-1.0
1030
-1.0
1002
}
1040
0.1000000014901161
1000

1040
0.0
1002
{
1002
}
1040
0.0
1002
{
1002
}
1040
0.0
1002
}
1002
{
1002
{
1010
-1.0
1020
-1.0
1030
-1.0
1002
}
1040
0.6999999880790711
1000

1040
0.0
1002
{
1002
}
1040
0.0
1002
{
1002
}
1040
0.0
1002
}
1002
{
1002
{
1010
-1.0
1020
-1.0
1030
-1.0
1002
}
1040
0.2000000029802322
1000

1040
0.0
1002
{
1002
}
1040
0.0
1002
{
1002
}
1040
0.0
1002
}
1002
{
1070
     0
1002
{
1070
     1
1002
{
1040
1.0
1040
1.0
1000

1040
0.0
1002
{
1002
}
1040
0.0
1002
{
1002
}
1040
0.0
1002
}
1002
}
1040
1.0
1040
0.0
1040
0.0
1002
}
1002
{
1040
1.0
1040
1.0
1000

1040
0.0
1002
{
1002
}
1040
0.0
1002
{
1002
}
1040
0.0
1002
}
1002
{
1040
0.5
1040
1.0
1000

1040
0.0
1002
{
1002
}
1040
0.0
1002
{
1002
}
1040
0.0
1002
}
1002
{
1070
     0
1040
0.0
1002
{
1002
}
1040
1.0
1002
{
1002
}
1040
0.0
1002
}
1002
{
1040
0.0
1002
{
1002
{
1010
0.0
1020
0.0
1030
0.0
1002
}
1040
1.0
1000

1040
0.0
1002
{
1002
}
1040
0.0
1002
{
1002
}
1040
0.0
1002
}
1002
}
1002
{
1002
{
1070
     1
1002
{
1040
0.0
1040
1.0
1000

1040
0.0
1002
{
1002
}
1040
0.0
1002
{
1002
}
1040
0.0
1002
}
1002
}
1040
0.0
1002
{
1002
}
1010
1.0
1020
0.0
1030
0.0
1010
0.0
1020
1.0
1030
0.0
1010
0.0
1020
0.0
1030
1.0
1070
     0
1002
}
1002
{
1002
{
1040
1.0
1040
1.0
1002
{
1070
     1
1002
{
1040
1.0
1040
1.0
1000

1040
0.0
1002
{
1002
}
1040
0.0
1002
{
1002
}
1040
0.0
1002
}
1002
}
1002
}
1070
     0
1040
0.0
1002
{
1002
}
1002
}
1002
{
1002
}
1002
}
1002
{
1071
        3
1070
     3
1070
     0
1002
{
1070
     2
1070
     0
1070
     0
1040
0.0
1002
}
1070
     0
1070
     2
1002
{
1002
}
1002
}
1002
{
1040
8030.0
1040
190.3000030517578
1040
0.3050000071525574
1040
228.0
1040
545.0
1040
14.0
1040
17.39999961853027
1040
0.4560000002384186
1002
}
1002
}
  0
INSERT
  5
92AA7
330
2
100
AcDbEntity
  8
ASHADE
 62
     1
100
AcDbBlockReference
  2
AVE_RENDER
 10
274.9222268164714
 20
439.0742775476521
 30
2.284012500000298
 41
1.305149999999997
 42
1.305149999999912
 43
1.305150000000001
1001
AVE_RENDER
1002
{
1070
     6
1000
Pref
1070
    30
1070
    20
1070
     1
1070
     0
1000

1070
    10
1070
     1
1070
    30
1040
1.0
1070
     1
1040
0.3
1040
0.7
1040
0.0
1040
10.0
1010
-1.0
1020
-1.0
1030
-1.0
1040
0.3
1070
    49
1070
     0
1070
     0
1010
1.0
1020
1.0
1030
1.0
1040
45.0
1070
     1
1070
     0
1000
WCS
1040
0.0
1002
}
  0
INSERT
  5
92AA8
330
2
100
AcDbEntity
  8
ASHADE
 62
     3
100
AcDbBlockReference
  2
AVE_RENDER
 10
274.9222268164714
 20
439.0742775476521
 30
2.284012500000298
 41
1.305149999999997
 42
1.305149999999912
 43
1.305150000000001
1001
AVE_RENDER
1002
{
1070
     0
1000
Full Opt
1070
     0
1070
     1
1070
     1
1070
     1
1070
     0
1070
     0
1070
     0
1070
     1
1070
     1
1040
0.0001
1040
0.0001
1002
}
  0
INSERT
  5
92AA9
330
2
100
AcDbEntity
  8
ASHADE
 62
     4
100
AcDbBlockReference
  2
AVE_RENDER
 10
274.9222268164714
 20
439.0742775476521
 30
2.284012500000298
 41
1.305149999999997
 42
1.305149999999912
 43
1.305150000000001
1001
AVE_RENDER
1002
{
1070
     0
1000
Quick Opt
1070
     0
1070
     1
1070
     1
1070
     1
1070
     0
1070
     0
1070
     1
1002
}
  0
INSERT
  5
92AAA
330
2
100
AcDbEntity
  8
ASHADE
 62
     5
100
AcDbBlockReference
  2
AVE_RENDER
 10
274.9222268164714
 20
439.0742775476521
 30
2.284012500000298
 41
1.305149999999997
 42
1.305149999999912
 43
1.305150000000001
1001
AVE_RENDER
1002
{
1070
     1
1000
Scanl Opt
1070
     2
1070
     0
1070
     2
1040
2.0
1040
4.0
1070
     0
1070
     1
1070
     0
1040
0.03
1002
}
  0
INSERT
  5
92AAB
330
2
100
AcDbEntity
  8
ASHADE
 62
     6
100
AcDbBlockReference
  2
AVE_RENDER
 10
274.9222268164714
 20
439.0742775476521
 30
2.284012500000298
 41
1.305149999999997
 42
1.305149999999912
 43
1.305150000000001
1001
AVE_RENDER
1002
{
1070
     2
1000
Raytr Opt
1070
     2
1070
     0
1070
     2
1040
2.0
1040
4.0
1070
     0
1070
     1
1070
     1
1040
0.03
1070
     3
1040
0.03
1002
}
  0
INSERT
  5
92AAC
330
2
100
AcDbEntity
  8
ASHADE
 62
     7
100
AcDbBlockReference
  2
AVE_RENDER
 10
274.9222268164714
 20
439.0742775476521
 30
2.284012500000298
 41
1.305149999999997
 42
1.305149999999912
 43
1.305150000000001
1001
AVE_RENDER
1002
{
1070
     0
1000
RFile Opt
1070
     5
1070
   640
1070
   480
1070
 10000
1070
     3
1070
    32
1070
    24
1070
     0
1070
     0
1070
     0
1070
     1
1070
     0
1070
     0
1070
     0
1002
}
  0
INSERT
  5
92AAD
330
2
100
AcDbEntity
  8
ASHADE
 62
     8
100
AcDbBlockReference
  2
AVE_RENDER
 10
274.9222268164714
 20
439.0742775476521
 30
2.284012500000298
 41
1.305149999999997
 42
1.305149999999912
 43
1.305150000000001
1001
AVE_RENDER
1002
{
1070
     0
1000
Fog Opt
1070
     0
1070
     0
1040
0.0
1040
1.0
1040
0.0
1040
1.0
1010
0.5
1020
0.5
1030
0.5
1002
}
  0
INSERT
  5
92AAE
330
2
100
AcDbEntity
  8
ASHADE
 62
     9
100
AcDbBlockReference
  2
AVE_RENDER
 10
274.9222268164714
 20
439.0742775476521
 30
2.284012500000298
 41
1.305149999999997
 42
1.305149999999912
 43
1.305150000000001
1001
AVE_RENDER
1002
{
1070
     0
1000
BG Opt
1070
     0
1070
     1
1010
0.0
1020
0.0
1030
0.0
1010
1.0
1020
0.0
1030
0.0
1010
0.0
1020
1.0
1030
0.0
1010
0.0
1020
0.0
1030
1.0
1040
0.5
1040
0.33
1040
0.0
1000

1070
     1
1000

1070
     1
1070
     1
1040
1.0
1040
1.0
1040
0.0
1040
0.0
1070
     0
1002
}
  0
INSERT
  5
92AAF
330
2
100
AcDbEntity
  8
ASHADE
 62
     1
100
AcDbBlockReference
  2
AVE_GLOBAL
 10
274.9222268164714
 20
439.0742775476521
 30
2.284012500000298
 41
1.305149999999997
 42
1.305149999999912
 43
1.305150000000001
1001
AVE_MATERIAL
1002
{
1000
*GLOBAL*
1000
1
1000
Global finish.
1002
{
1002
}
1002
{
1070
    63
1002
{
1002
{
1010
-1.0
1020
-1.0
1030
-1.0
1002
}
1040
0.1000000014901161
1000

1040
0.0
1002
{
1002
}
1040
0.0
1002
{
1002
}
1040
0.0
1002
}
1002
{
1002
{
1010
-1.0
1020
-1.0
1030
-1.0
1002
}
1040
0.6999999880790711
1000

1040
0.0
1002
{
1002
}
1040
0.0
1002
{
1002
}
1040
0.0
1002
}
1002
{
1002
{
1010
-1.0
1020
-1.0
1030
-1.0
1002
}
1040
0.2000000029802322
1000

1040
0.0
1002
{
1002
}
1040
0.0
1002
{
1002
}
1040
0.0
1002
}
1002
{
1070
     0
1002
{
1070
     1
1002
{
1040
1.0
1040
1.0
1000

1040
0.0
1002
{
1002
}
1040
0.0
1002
{
1002
}
1040
0.0
1002
}
1002
}
1040
1.0
1040
0.0
1040
0.0
1002
}
1002
{
1040
1.0
1040
1.0
1000

1040
0.0
1002
{
1002
}
1040
0.0
1002
{
1002
}
1040
0.0
1002
}
1002
{
1040
0.5
1040
1.0
1000

1040
0.0
1002
{
1002
}
1040
0.0
1002
{
1002
}
1040
0.0
1002
}
1002
{
1070
     0
1040
0.0
1002
{
1002
}
1040
1.0
1002
{
1002
}
1040
0.0
1002
}
1002
{
1040
0.0
1002
{
1002
{
1010
0.0
1020
0.0
1030
0.0
1002
}
1040
1.0
1000

1040
0.0
1002
{
1002
}
1040
0.0
1002
{
1002
}
1040
0.0
1002
}
1002
}
1002
{
1002
{
1070
     1
1002
{
1040
0.0
1040
1.0
1000

1040
0.0
1002
{
1002
}
1040
0.0
1002
{
1002
}
1040
0.0
1002
}
1002
}
1040
0.0
1002
{
1002
}
1010
1.0
1020
0.0
1030
0.0
1010
0.0
1020
1.0
1030
0.0
1010
0.0
1020
0.0
1030
1.0
1070
     0
1002
}
1002
{
1002
{
1040
1.0
1040
1.0
1002
{
1070
     1
1002
{
1040
1.0
1040
1.0
1000

1040
0.0
1002
{
1002
}
1040
0.0
1002
{
1002
}
1040
0.0
1002
}
1002
}
1002
}
1070
     0
1040
0.0
1002
{
1002
}
1002
}
1002
{
1002
}
1002
}
1002
{
1071
        3
1070
     3
1070
     0
1002
{
1070
     2
1070
     0
1070
     0
1040
0.0
1002
}
1070
     0
1070
     2
1002
{
1002
}
1002
}
1002
{
1040
8030.0
1040
190.3000030517578
1040
0.3050000071525574
1040
228.0
1040
545.0
1040
14.0
1040
17.39999961853027
1040
0.4560000002384186
1002
}
1002
}
  0
INSERT
  5
92AB0
330
2
100
AcDbEntity
  8
ASHADE
 62
     1
100
AcDbBlockReference
  2
AVE_RENDER
 10
-1175.187566700435
 20
-495.2434054336618
 30
-3.763544048676747
 41
1.305149999999997
 42
1.305149999999912
 43
1.305150000000001
1001
AVE_RENDER
1002
{
1070
     6
1000
Pref
1070
    30
1070
    20
1070
     1
1070
     0
1000

1070
    10
1070
     1
1070
    30
1040
1.0
1070
     1
1040
0.3
1040
0.7
1040
0.0
1040
10.0
1010
-1.0
1020
-1.0
1030
-1.0
1040
0.3
1070
    49
1070
     0
1070
     0
1010
1.0
1020
1.0
1030
1.0
1040
45.0
1070
     1
1070
     0
1000
WCS
1040
0.0
1002
}
  0
INSERT
  5
92AB1
330
2
100
AcDbEntity
  8
ASHADE
 62
     3
100
AcDbBlockReference
  2
AVE_RENDER
 10
-1175.187566700435
 20
-495.2434054336618
 30
-3.763544048676747
 41
1.305149999999997
 42
1.305149999999912
 43
1.305150000000001
1001
AVE_RENDER
1002
{
1070
     0
1000
Full Opt
1070
     0
1070
     1
1070
     1
1070
     1
1070
     0
1070
     0
1070
     0
1070
     1
1070
     1
1040
0.0001
1040
0.0001
1002
}
  0
INSERT
  5
92AB2
330
2
100
AcDbEntity
  8
ASHADE
 62
     4
100
AcDbBlockReference
  2
AVE_RENDER
 10
-1175.187566700435
 20
-495.2434054336618
 30
-3.763544048676747
 41
1.305149999999997
 42
1.305149999999912
 43
1.305150000000001
1001
AVE_RENDER
1002
{
1070
     0
1000
Quick Opt
1070
     0
1070
     1
1070
     1
1070
     1
1070
     0
1070
     0
1070
     1
1002
}
  0
INSERT
  5
92AB3
330
2
100
AcDbEntity
  8
ASHADE
 62
     5
100
AcDbBlockReference
  2
AVE_RENDER
 10
-1175.187566700435
 20
-495.2434054336618
 30
-3.763544048676747
 41
1.305149999999997
 42
1.305149999999912
 43
1.305150000000001
1001
AVE_RENDER
1002
{
1070
     1
1000
Scanl Opt
1070
     2
1070
     0
1070
     2
1040
2.0
1040
4.0
1070
     0
1070
     1
1070
     0
1040
0.03
1002
}
  0
INSERT
  5
92AB4
330
2
100
AcDbEntity
  8
ASHADE
 62
     6
100
AcDbBlockReference
  2
AVE_RENDER
 10
-1175.187566700435
 20
-495.2434054336618
 30
-3.763544048676747
 41
1.305149999999997
 42
1.305149999999912
 43
1.305150000000001
1001
AVE_RENDER
1002
{
1070
     2
1000
Raytr Opt
1070
     2
1070
     0
1070
     2
1040
2.0
1040
4.0
1070
     0
1070
     1
1070
     1
1040
0.03
1070
     3
1040
0.03
1002
}
  0
INSERT
  5
92AB5
330
2
100
AcDbEntity
  8
ASHADE
 62
     7
100
AcDbBlockReference
  2
AVE_RENDER
 10
-1175.187566700435
 20
-495.2434054336618
 30
-3.763544048676747
 41
1.305149999999997
 42
1.305149999999912
 43
1.305150000000001
1001
AVE_RENDER
1002
{
1070
     0
1000
RFile Opt
1070
     5
1070
   640
1070
   480
1070
 10000
1070
     3
1070
    32
1070
    24
1070
     0
1070
     0
1070
     0
1070
     1
1070
     0
1070
     0
1070
     0
1002
}
  0
INSERT
  5
92AB6
330
2
100
AcDbEntity
  8
ASHADE
 62
     8
100
AcDbBlockReference
  2
AVE_RENDER
 10
-1175.187566700435
 20
-495.2434054336618
 30
-3.763544048676747
 41
1.305149999999997
 42
1.305149999999912
 43
1.305150000000001
1001
AVE_RENDER
1002
{
1070
     0
1000
Fog Opt
1070
     0
1070
     0
1040
0.0
1040
1.0
1040
0.0
1040
1.0
1010
0.5
1020
0.5
1030
0.5
1002
}
  0
INSERT
  5
92AB7
330
2
100
AcDbEntity
  8
ASHADE
 62
     9
100
AcDbBlockReference
  2
AVE_RENDER
 10
-1175.187566700435
 20
-495.2434054336618
 30
-3.763544048676747
 41
1.305149999999997
 42
1.305149999999912
 43
1.305150000000001
1001
AVE_RENDER
1002
{
1070
     0
1000
BG Opt
1070
     0
1070
     1
1010
0.0
1020
0.0
1030
0.0
1010
1.0
1020
0.0
1030
0.0
1010
0.0
1020
1.0
1030
0.0
1010
0.0
1020
0.0
1030
1.0
1040
0.5
1040
0.33
1040
0.0
1000

1070
     1
1000

1070
     1
1070
     1
1040
1.0
1040
1.0
1040
0.0
1040
0.0
1070
     0
1002
}
  0
INSERT
  5
92AB8
330
2
100
AcDbEntity
  8
ASHADE
 62
     1
100
AcDbBlockReference
  2
AVE_GLOBAL
 10
-1175.187566700435
 20
-495.2434054336618
 30
-3.763544048676747
 41
1.305149999999997
 42
1.305149999999912
 43
1.305150000000001
1001
AVE_MATERIAL
1002
{
1000
*GLOBAL*
1000
1
1000
Global finish.
1002
{
1002
}
1002
{
1070
    63
1002
{
1002
{
1010
-1.0
1020
-1.0
1030
-1.0
1002
}
1040
0.1000000014901161
1000

1040
0.0
1002
{
1002
}
1040
0.0
1002
{
1002
}
1040
0.0
1002
}
1002
{
1002
{
1010
-1.0
1020
-1.0
1030
-1.0
1002
}
1040
0.6999999880790711
1000

1040
0.0
1002
{
1002
}
1040
0.0
1002
{
1002
}
1040
0.0
1002
}
1002
{
1002
{
1010
-1.0
1020
-1.0
1030
-1.0
1002
}
1040
0.2000000029802322
1000

1040
0.0
1002
{
1002
}
1040
0.0
1002
{
1002
}
1040
0.0
1002
}
1002
{
1070
     0
1002
{
1070
     1
1002
{
1040
1.0
1040
1.0
1000

1040
0.0
1002
{
1002
}
1040
0.0
1002
{
1002
}
1040
0.0
1002
}
1002
}
1040
1.0
1040
0.0
1040
0.0
1002
}
1002
{
1040
1.0
1040
1.0
1000

1040
0.0
1002
{
1002
}
1040
0.0
1002
{
1002
}
1040
0.0
1002
}
1002
{
1040
0.5
1040
1.0
1000

1040
0.0
1002
{
1002
}
1040
0.0
1002
{
1002
}
1040
0.0
1002
}
1002
{
1070
     0
1040
0.0
1002
{
1002
}
1040
1.0
1002
{
1002
}
1040
0.0
1002
}
1002
{
1040
0.0
1002
{
1002
{
1010
0.0
1020
0.0
1030
0.0
1002
}
1040
1.0
1000

1040
0.0
1002
{
1002
}
1040
0.0
1002
{
1002
}
1040
0.0
1002
}
1002
}
1002
{
1002
{
1070
     1
1002
{
1040
0.0
1040
1.0
1000

1040
0.0
1002
{
1002
}
1040
0.0
1002
{
1002
}
1040
0.0
1002
}
1002
}
1040
0.0
1002
{
1002
}
1010
1.0
1020
0.0
1030
0.0
1010
0.0
1020
1.0
1030
0.0
1010
0.0
1020
0.0
1030
1.0
1070
     0
1002
}
1002
{
1002
{
1040
1.0
1040
1.0
1002
{
1070
     1
1002
{
1040
1.0
1040
1.0
1000

1040
0.0
1002
{
1002
}
1040
0.0
1002
{
1002
}
1040
0.0
1002
}
1002
}
1002
}
1070
     0
1040
0.0
1002
{
1002
}
1002
}
1002
{
1002
}
1002
}
1002
{
1071
        3
1070
     3
1070
     0
1002
{
1070
     2
1070
     0
1070
     0
1040
0.0
1002
}
1070
     0
1070
     2
1002
{
1002
}
1002
}
1002
{
1040
8030.0
1040
190.3000030517578
1040
0.3050000071525574
1040
228.0
1040
545.0
1040
14.0
1040
17.39999961853027
1040
0.4560000002384186
1002
}
1002
}
  0
INSERT
  5
92AB9
330
2
100
AcDbEntity
  8
ASHADE
 62
     1
100
AcDbBlockReference
  2
AVE_RENDER
 10
495.2434054336615
 20
-1480.989586647651
 30
-346.6225243329103
 41
1.305150000000001
 42
1.305150000000001
 43
1.305149999999997
 50
90.0
210
-1.0
220
0.0
230
0.0000000000000001
1001
AVE_RENDER
1002
{
1070
     6
1000
Pref
1070
    30
1070
    20
1070
     1
1070
     0
1000

1070
    10
1070
     1
1070
    30
1040
1.0
1070
     1
1040
0.3
1040
0.7
1040
0.0
1040
10.0
1010
-1.0
1020
-1.0
1030
-1.0
1040
0.3
1070
    49
1070
     0
1070
     0
1010
1.0
1020
1.0
1030
1.0
1040
45.0
1070
     1
1070
     0
1000
WCS
1040
0.0
1002
}
  0
INSERT
  5
92ABA
330
2
100
AcDbEntity
  8
ASHADE
 62
     3
100
AcDbBlockReference
  2
AVE_RENDER
 10
495.2434054336615
 20
-1480.989586647651
 30
-346.6225243329103
 41
1.305150000000001
 42
1.305150000000001
 43
1.305149999999997
 50
90.0
210
-1.0
220
0.0
230
0.0000000000000001
1001
AVE_RENDER
1002
{
1070
     0
1000
Full Opt
1070
     0
1070
     1
1070
     1
1070
     1
1070
     0
1070
     0
1070
     0
1070
     1
1070
     1
1040
0.0001
1040
0.0001
1002
}
  0
INSERT
  5
92ABB
330
2
100
AcDbEntity
  8
ASHADE
 62
     4
100
AcDbBlockReference
  2
AVE_RENDER
 10
495.2434054336615
 20
-1480.989586647651
 30
-346.6225243329103
 41
1.305150000000001
 42
1.305150000000001
 43
1.305149999999997
 50
90.0
210
-1.0
220
0.0
230
0.0000000000000001
1001
AVE_RENDER
1002
{
1070
     0
1000
Quick Opt
1070
     0
1070
     1
1070
     1
1070
     1
1070
     0
1070
     0
1070
     1
1002
}
  0
INSERT
  5
92ABC
330
2
100
AcDbEntity
  8
ASHADE
 62
     5
100
AcDbBlockReference
  2
AVE_RENDER
 10
495.2434054336615
 20
-1480.989586647651
 30
-346.6225243329103
 41
1.305150000000001
 42
1.305150000000001
 43
1.305149999999997
 50
90.0
210
-1.0
220
0.0
230
0.0000000000000001
1001
AVE_RENDER
1002
{
1070
     1
1000
Scanl Opt
1070
     2
1070
     0
1070
     2
1040
2.0
1040
4.0
1070
     0
1070
     1
1070
     0
1040
0.03
1002
}
  0
INSERT
  5
92ABD
330
2
100
AcDbEntity
  8
ASHADE
 62
     6
100
AcDbBlockReference
  2
AVE_RENDER
 10
495.2434054336615
 20
-1480.989586647651
 30
-346.6225243329103
 41
1.305150000000001
 42
1.305150000000001
 43
1.305149999999997
 50
90.0
210
-1.0
220
0.0
230
0.0000000000000001
1001
AVE_RENDER
1002
{
1070
     2
1000
Raytr Opt
1070
     2
1070
     0
1070
     2
1040
2.0
1040
4.0
1070
     0
1070
     1
1070
     1
1040
0.03
1070
     3
1040
0.03
1002
}
  0
INSERT
  5
92ABE
330
2
100
AcDbEntity
  8
ASHADE
 62
     7
100
AcDbBlockReference
  2
AVE_RENDER
 10
495.2434054336615
 20
-1480.989586647651
 30
-346.6225243329103
 41
1.305150000000001
 42
1.305150000000001
 43
1.305149999999997
 50
90.0
210
-1.0
220
0.0
230
0.0000000000000001
1001
AVE_RENDER
1002
{
1070
     0
1000
RFile Opt
1070
     5
1070
   640
1070
   480
1070
 10000
1070
     3
1070
    32
1070
    24
1070
     0
1070
     0
1070
     0
1070
     1
1070
     0
1070
     0
1070
     0
1002
}
  0
INSERT
  5
92ABF
330
2
100
AcDbEntity
  8
ASHADE
 62
     8
100
AcDbBlockReference
  2
AVE_RENDER
 10
495.2434054336615
 20
-1480.989586647651
 30
-346.6225243329103
 41
1.305150000000001
 42
1.305150000000001
 43
1.305149999999997
 50
90.0
210
-1.0
220
0.0
230
0.0000000000000001
1001
AVE_RENDER
1002
{
1070
     0
1000
Fog Opt
1070
     0
1070
     0
1040
0.0
1040
1.0
1040
0.0
1040
1.0
1010
0.5
1020
0.5
1030
0.5
1002
}
  0
INSERT
  5
92AC0
330
2
100
AcDbEntity
  8
ASHADE
 62
     9
100
AcDbBlockReference
  2
AVE_RENDER
 10
495.2434054336615
 20
-1480.989586647651
 30
-346.6225243329103
 41
1.305150000000001
 42
1.305150000000001
 43
1.305149999999997
 50
90.0
210
-1.0
220
0.0
230
0.0000000000000001
1001
AVE_RENDER
1002
{
1070
     0
1000
BG Opt
1070
     0
1070
     1
1010
0.0
1020
0.0
1030
0.0
1010
1.0
1020
0.0
1030
0.0
1010
0.0
1020
1.0
1030
0.0
1010
0.0
1020
0.0
1030
1.0
1040
0.5
1040
0.33
1040
0.0
1000

1070
     1
1000

1070
     1
1070
     1
1040
1.0
1040
1.0
1040
0.0
1040
0.0
1070
     0
1002
}
  0
INSERT
  5
92AC1
330
2
100
AcDbEntity
  8
ASHADE
 62
     1
100
AcDbBlockReference
  2
AVE_GLOBAL
 10
495.2434054336615
 20
-1480.989586647651
 30
-346.6225243329103
 41
1.305150000000001
 42
1.305150000000001
 43
1.305149999999997
 50
90.0
210
-1.0
220
0.0
230
0.0000000000000001
1001
AVE_MATERIAL
1002
{
1000
*GLOBAL*
1000
1
1000
Global finish.
1002
{
1002
}
1002
{
1070
    63
1002
{
1002
{
1010
-1.0
1020
-1.0
1030
-1.0
1002
}
1040
0.1000000014901161
1000

1040
0.0
1002
{
1002
}
1040
0.0
1002
{
1002
}
1040
0.0
1002
}
1002
{
1002
{
1010
-1.0
1020
-1.0
1030
-1.0
1002
}
1040
0.6999999880790711
1000

1040
0.0
1002
{
1002
}
1040
0.0
1002
{
1002
}
1040
0.0
1002
}
1002
{
1002
{
1010
-1.0
1020
-1.0
1030
-1.0
1002
}
1040
0.2000000029802322
1000

1040
0.0
1002
{
1002
}
1040
0.0
1002
{
1002
}
1040
0.0
1002
}
1002
{
1070
     0
1002
{
1070
     1
1002
{
1040
1.0
1040
1.0
1000

1040
0.0
1002
{
1002
}
1040
0.0
1002
{
1002
}
1040
0.0
1002
}
1002
}
1040
1.0
1040
0.0
1040
0.0
1002
}
1002
{
1040
1.0
1040
1.0
1000

1040
0.0
1002
{
1002
}
1040
0.0
1002
{
1002
}
1040
0.0
1002
}
1002
{
1040
0.5
1040
1.0
1000

1040
0.0
1002
{
1002
}
1040
0.0
1002
{
1002
}
1040
0.0
1002
}
1002
{
1070
     0
1040
0.0
1002
{
1002
}
1040
1.0
1002
{
1002
}
1040
0.0
1002
}
1002
{
1040
0.0
1002
{
1002
{
1010
0.0
1020
0.0
1030
0.0
1002
}
1040
1.0
1000

1040
0.0
1002
{
1002
}
1040
0.0
1002
{
1002
}
1040
0.0
1002
}
1002
}
1002
{
1002
{
1070
     1
1002
{
1040
0.0
1040
1.0
1000

1040
0.0
1002
{
1002
}
1040
0.0
1002
{
1002
}
1040
0.0
1002
}
1002
}
1040
0.0
1002
{
1002
}
1010
1.0
1020
0.0
1030
0.0
1010
0.0
1020
1.0
1030
0.0
1010
0.0
1020
0.0
1030
1.0
1070
     0
1002
}
1002
{
1002
{
1040
1.0
1040
1.0
1002
{
1070
     1
1002
{
1040
1.0
1040
1.0
1000

1040
0.0
1002
{
1002
}
1040
0.0
1002
{
1002
}
1040
0.0
1002
}
1002
}
1002
}
1070
     0
1040
0.0
1002
{
1002
}
1002
}
1002
{
1002
}
1002
}
1002
{
1071
        3
1070
     3
1070
     0
1002
{
1070
     2
1070
     0
1070
     0
1040
0.0
1002
}
1070
     0
1070
     2
1002
{
1002
}
1002
}
1002
{
1040
8030.0
1040
190.3000030517578
1040
0.3050000071525574
1040
228.0
1040
545.0
1040
14.0
1040
17.39999961853027
1040
0.4560000002384186
1002
}
1002
}
  0
INSERT
  5
92AC2
330
2
100
AcDbEntity
  8
ASHADE
 62
     1
100
AcDbBlockReference
  2
AVE_RENDER
 10
-439.0742775476521
 20
-30.87979313074396
 30
-348.3392831240367
 41
1.305150000000001
 42
1.305150000000001
 43
1.305149999999997
 50
90.0
210
-1.0
220
0.0
230
0.0000000000000001
1001
AVE_RENDER
1002
{
1070
     6
1000
Pref
1070
    30
1070
    20
1070
     1
1070
     0
1000

1070
    10
1070
     1
1070
    30
1040
1.0
1070
     1
1040
0.3
1040
0.7
1040
0.0
1040
10.0
1010
-1.0
1020
-1.0
1030
-1.0
1040
0.3
1070
    49
1070
     0
1070
     0
1010
1.0
1020
1.0
1030
1.0
1040
45.0
1070
     1
1070
     0
1000
WCS
1040
0.0
1002
}
  0
INSERT
  5
92AC3
330
2
100
AcDbEntity
  8
ASHADE
 62
     3
100
AcDbBlockReference
  2
AVE_RENDER
 10
-439.0742775476521
 20
-30.87979313074396
 30
-348.3392831240367
 41
1.305150000000001
 42
1.305150000000001
 43
1.305149999999997
 50
90.0
210
-1.0
220
0.0
230
0.0000000000000001
1001
AVE_RENDER
1002
{
1070
     0
1000
Full Opt
1070
     0
1070
     1
1070
     1
1070
     1
1070
     0
1070
     0
1070
     0
1070
     1
1070
     1
1040
0.0001
1040
0.0001
1002
}
  0
INSERT
  5
92AC4
330
2
100
AcDbEntity
  8
ASHADE
 62
     4
100
AcDbBlockReference
  2
AVE_RENDER
 10
-439.0742775476521
 20
-30.87979313074396
 30
-348.3392831240367
 41
1.305150000000001
 42
1.305150000000001
 43
1.305149999999997
 50
90.0
210
-1.0
220
0.0
230
0.0000000000000001
1001
AVE_RENDER
1002
{
1070
     0
1000
Quick Opt
1070
     0
1070
     1
1070
     1
1070
     1
1070
     0
1070
     0
1070
     1
1002
}
  0
INSERT
  5
92AC5
330
2
100
AcDbEntity
  8
ASHADE
 62
     5
100
AcDbBlockReference
  2
AVE_RENDER
 10
-439.0742775476521
 20
-30.87979313074396
 30
-348.3392831240367
 41
1.305150000000001
 42
1.305150000000001
 43
1.305149999999997
 50
90.0
210
-1.0
220
0.0
230
0.0000000000000001
1001
AVE_RENDER
1002
{
1070
     1
1000
Scanl Opt
1070
     2
1070
     0
1070
     2
1040
2.0
1040
4.0
1070
     0
1070
     1
1070
     0
1040
0.03
1002
}
  0
INSERT
  5
92AC6
330
2
100
AcDbEntity
  8
ASHADE
 62
     6
100
AcDbBlockReference
  2
AVE_RENDER
 10
-439.0742775476521
 20
-30.87979313074396
 30
-348.3392831240367
 41
1.305150000000001
 42
1.305150000000001
 43
1.305149999999997
 50
90.0
210
-1.0
220
0.0
230
0.0000000000000001
1001
AVE_RENDER
1002
{
1070
     2
1000
Raytr Opt
1070
     2
1070
     0
1070
     2
1040
2.0
1040
4.0
1070
     0
1070
     1
1070
     1
1040
0.03
1070
     3
1040
0.03
1002
}
  0
INSERT
  5
92AC7
330
2
100
AcDbEntity
  8
ASHADE
 62
     7
100
AcDbBlockReference
  2
AVE_RENDER
 10
-439.0742775476521
 20
-30.87979313074396
 30
-348.3392831240367
 41
1.305150000000001
 42
1.305150000000001
 43
1.305149999999997
 50
90.0
210
-1.0
220
0.0
230
0.0000000000000001
1001
AVE_RENDER
1002
{
1070
     0
1000
RFile Opt
1070
     5
1070
   640
1070
   480
1070
 10000
1070
     3
1070
    32
1070
    24
1070
     0
1070
     0
1070
     0
1070
     1
1070
     0
1070
     0
1070
     0
1002
}
  0
INSERT
  5
92AC8
330
2
100
AcDbEntity
  8
ASHADE
 62
     8
100
AcDbBlockReference
  2
AVE_RENDER
 10
-439.0742775476521
 20
-30.87979313074396
 30
-348.3392831240367
 41
1.305150000000001
 42
1.305150000000001
 43
1.305149999999997
 50
90.0
210
-1.0
220
0.0
230
0.0000000000000001
1001
AVE_RENDER
1002
{
1070
     0
1000
Fog Opt
1070
     0
1070
     0
1040
0.0
1040
1.0
1040
0.0
1040
1.0
1010
0.5
1020
0.5
1030
0.5
1002
}
  0
INSERT
  5
92AC9
330
2
100
AcDbEntity
  8
ASHADE
 62
     9
100
AcDbBlockReference
  2
AVE_RENDER
 10
-439.0742775476521
 20
-30.87979313074396
 30
-348.3392831240367
 41
1.305150000000001
 42
1.305150000000001
 43
1.305149999999997
 50
90.0
210
-1.0
220
0.0
230
0.0000000000000001
1001
AVE_RENDER
1002
{
1070
     0
1000
BG Opt
1070
     0
1070
     1
1010
0.0
1020
0.0
1030
0.0
1010
1.0
1020
0.0
1030
0.0
1010
0.0
1020
1.0
1030
0.0
1010
0.0
1020
0.0
1030
1.0
1040
0.5
1040
0.33
1040
0.0
1000

1070
     1
1000

1070
     1
1070
     1
1040
1.0
1040
1.0
1040
0.0
1040
0.0
1070
     0
1002
}
  0
INSERT
  5
92ACA
330
2
100
AcDbEntity
  8
ASHADE
 62
     1
100
AcDbBlockReference
  2
AVE_GLOBAL
 10
-439.0742775476521
 20
-30.87979313074396
 30
-348.3392831240367
 41
1.305150000000001
 42
1.305150000000001
 43
1.305149999999997
 50
90.0
210
-1.0
220
0.0
230
0.0000000000000001
1001
AVE_MATERIAL
1002
{
1000
*GLOBAL*
1000
1
1000
Global finish.
1002
{
1002
}
1002
{
1070
    63
1002
{
1002
{
1010
-1.0
1020
-1.0
1030
-1.0
1002
}
1040
0.1000000014901161
1000

1040
0.0
1002
{
1002
}
1040
0.0
1002
{
1002
}
1040
0.0
1002
}
1002
{
1002
{
1010
-1.0
1020
-1.0
1030
-1.0
1002
}
1040
0.6999999880790711
1000

1040
0.0
1002
{
1002
}
1040
0.0
1002
{
1002
}
1040
0.0
1002
}
1002
{
1002
{
1010
-1.0
1020
-1.0
1030
-1.0
1002
}
1040
0.2000000029802322
1000

1040
0.0
1002
{
1002
}
1040
0.0
1002
{
1002
}
1040
0.0
1002
}
1002
{
1070
     0
1002
{
1070
     1
1002
{
1040
1.0
1040
1.0
1000

1040
0.0
1002
{
1002
}
1040
0.0
1002
{
1002
}
1040
0.0
1002
}
1002
}
1040
1.0
1040
0.0
1040
0.0
1002
}
1002
{
1040
1.0
1040
1.0
1000

1040
0.0
1002
{
1002
}
1040
0.0
1002
{
1002
}
1040
0.0
1002
}
1002
{
1040
0.5
1040
1.0
1000

1040
0.0
1002
{
1002
}
1040
0.0
1002
{
1002
}
1040
0.0
1002
}
1002
{
1070
     0
1040
0.0
1002
{
1002
}
1040
1.0
1002
{
1002
}
1040
0.0
1002
}
1002
{
1040
0.0
1002
{
1002
{
1010
0.0
1020
0.0
1030
0.0
1002
}
1040
1.0
1000

1040
0.0
1002
{
1002
}
1040
0.0
1002
{
1002
}
1040
0.0
1002
}
1002
}
1002
{
1002
{
1070
     1
1002
{
1040
0.0
1040
1.0
1000

1040
0.0
1002
{
1002
}
1040
0.0
1002
{
1002
}
1040
0.0
1002
}
1002
}
1040
0.0
1002
{
1002
}
1010
1.0
1020
0.0
1030
0.0
1010
0.0
1020
1.0
1030
0.0
1010
0.0
1020
0.0
1030
1.0
1070
     0
1002
}
1002
{
1002
{
1040
1.0
1040
1.0
1002
{
1070
     1
1002
{
1040
1.0
1040
1.0
1000

1040
0.0
1002
{
1002
}
1040
0.0
1002
{
1002
}
1040
0.0
1002
}
1002
}
1002
}
1070
     0
1040
0.0
1002
{
1002
}
1002
}
1002
{
1002
}
1002
}
1002
{
1071
        3
1070
     3
1070
     0
1002
{
1070
     2
1070
     0
1070
     0
1040
0.0
1002
}
1070
     0
1070
     2
1002
{
1002
}
1002
}
1002
{
1040
8030.0
1040
190.3000030517578
1040
0.3050000071525574
1040
228.0
1040
545.0
1040
14.0
1040
17.39999961853027
1040
0.4560000002384186
1002
}
1002
}
  0
INSERT
  5
92ACB
330
2
100
AcDbEntity
  8
ASHADE
 62
     1
100
AcDbBlockReference
  2
AVE_RENDER
 10
-432.4118861896812
 20
-344.6698425593818
 30
0.0
1001
AVE_RENDER
1002
{
1070
     6
1000
Pref
1070
    30
1070
    20
1070
     1
1070
     0
1000

1070
    10
1070
     1
1070
    30
1040
1.0
1070
     1
1040
0.3
1040
0.7
1040
0.0
1040
10.0
1010
-1.0
1020
-1.0
1030
-1.0
1040
0.3
1070
    49
1070
     0
1070
     0
1010
1.0
1020
1.0
1030
1.0
1040
45.0
1070
     1
1070
     0
1000
WCS
1040
0.0
1002
}
  0
INSERT
  5
92ACC
330
2
100
AcDbEntity
  8
ASHADE
 62
     3
100
AcDbBlockReference
  2
AVE_RENDER
 10
-432.4118861896812
 20
-344.6698425593818
 30
0.0
1001
AVE_RENDER
1002
{
1070
     0
1000
Full Opt
1070
     0
1070
     1
1070
     1
1070
     1
1070
     0
1070
     0
1070
     0
1070
     1
1070
     1
1040
0.0001
1040
0.0001
1002
}
  0
INSERT
  5
92ACD
330
2
100
AcDbEntity
  8
ASHADE
 62
     4
100
AcDbBlockReference
  2
AVE_RENDER
 10
-432.4118861896812
 20
-344.6698425593818
 30
0.0
1001
AVE_RENDER
1002
{
1070
     0
1000
Quick Opt
1070
     0
1070
     1
1070
     1
1070
     1
1070
     0
1070
     0
1070
     1
1002
}
  0
INSERT
  5
92ACE
330
2
100
AcDbEntity
  8
ASHADE
 62
     5
100
AcDbBlockReference
  2
AVE_RENDER
 10
-432.4118861896812
 20
-344.6698425593818
 30
0.0
1001
AVE_RENDER
1002
{
1070
     1
1000
Scanl Opt
1070
     2
1070
     0
1070
     2
1040
2.0
1040
4.0
1070
     0
1070
     1
1070
     0
1040
0.03
1002
}
  0
INSERT
  5
92ACF
330
2
100
AcDbEntity
  8
ASHADE
 62
     6
100
AcDbBlockReference
  2
AVE_RENDER
 10
-432.4118861896812
 20
-344.6698425593818
 30
0.0
1001
AVE_RENDER
1002
{
1070
     2
1000
Raytr Opt
1070
     2
1070
     0
1070
     2
1040
2.0
1040
4.0
1070
     0
1070
     1
1070
     1
1040
0.03
1070
     3
1040
0.03
1002
}
  0
INSERT
  5
92AD0
330
2
100
AcDbEntity
  8
ASHADE
 62
     7
100
AcDbBlockReference
  2
AVE_RENDER
 10
-432.4118861896812
 20
-344.6698425593818
 30
0.0
1001
AVE_RENDER
1002
{
1070
     0
1000
RFile Opt
1070
     5
1070
   640
1070
   480
1070
 10000
1070
     3
1070
    32
1070
    24
1070
     0
1070
     0
1070
     0
1070
     1
1070
     0
1070
     0
1070
     0
1002
}
  0
INSERT
  5
92AD1
330
2
100
AcDbEntity
  8
ASHADE
 62
     8
100
AcDbBlockReference
  2
AVE_RENDER
 10
-432.4118861896812
 20
-344.6698425593818
 30
0.0
1001
AVE_RENDER
1002
{
1070
     0
1000
Fog Opt
1070
     0
1070
     0
1040
0.0
1040
1.0
1040
0.0
1040
1.0
1010
0.5
1020
0.5
1030
0.5
1002
}
  0
INSERT
  5
92AD2
330
2
100
AcDbEntity
  8
ASHADE
 62
     9
100
AcDbBlockReference
  2
AVE_RENDER
 10
-432.4118861896812
 20
-344.6698425593818
 30
0.0
1001
AVE_RENDER
1002
{
1070
     0
1000
BG Opt
1070
     0
1070
     1
1010
0.0
1020
0.0
1030
0.0
1010
1.0
1020
0.0
1030
0.0
1010
0.0
1020
1.0
1030
0.0
1010
0.0
1020
0.0
1030
1.0
1040
0.5
1040
0.33
1040
0.0
1000

1070
     1
1000

1070
     1
1070
     1
1040
1.0
1040
1.0
1040
0.0
1040
0.0
1070
     0
1002
}
  0
INSERT
  5
92AD3
330
2
100
AcDbEntity
  8
ASHADE
 62
     1
100
AcDbBlockReference
  2
AVE_GLOBAL
 10
-432.4118861896812
 20
-344.6698425593818
 30
0.0
1001
AVE_MATERIAL
1002
{
1000
*GLOBAL*
1000
1
1000
Global finish.
1002
{
1002
}
1002
{
1070
    63
1002
{
1002
{
1010
-1.0
1020
-1.0
1030
-1.0
1002
}
1040
0.1000000014901161
1000

1040
0.0
1002
{
1002
}
1040
0.0
1002
{
1002
}
1040
0.0
1002
}
1002
{
1002
{
1010
-1.0
1020
-1.0
1030
-1.0
1002
}
1040
0.6999999880790711
1000

1040
0.0
1002
{
1002
}
1040
0.0
1002
{
1002
}
1040
0.0
1002
}
1002
{
1002
{
1010
-1.0
1020
-1.0
1030
-1.0
1002
}
1040
0.2000000029802322
1000

1040
0.0
1002
{
1002
}
1040
0.0
1002
{
1002
}
1040
0.0
1002
}
1002
{
1070
     0
1002
{
1070
     1
1002
{
1040
1.0
1040
1.0
1000

1040
0.0
1002
{
1002
}
1040
0.0
1002
{
1002
}
1040
0.0
1002
}
1002
}
1040
1.0
1040
0.0
1040
0.0
1002
}
1002
{
1040
1.0
1040
1.0
1000

1040
0.0
1002
{
1002
}
1040
0.0
1002
{
1002
}
1040
0.0
1002
}
1002
{
1040
0.5
1040
1.0
1000

1040
0.0
1002
{
1002
}
1040
0.0
1002
{
1002
}
1040
0.0
1002
}
1002
{
1070
     0
1040
0.0
1002
{
1002
}
1040
1.0
1002
{
1002
}
1040
0.0
1002
}
1002
{
1040
0.0
1002
{
1002
{
1010
0.0
1020
0.0
1030
0.0
1002
}
1040
1.0
1000

1040
0.0
1002
{
1002
}
1040
0.0
1002
{
1002
}
1040
0.0
1002
}
1002
}
1002
{
1002
{
1070
     1
1002
{
1040
0.0
1040
1.0
1000

1040
0.0
1002
{
1002
}
1040
0.0
1002
{
1002
}
1040
0.0
1002
}
1002
}
1040
0.0
1002
{
1002
}
1010
1.0
1020
0.0
1030
0.0
1010
0.0
1020
1.0
1030
0.0
1010
0.0
1020
0.0
1030
1.0
1070
     0
1002
}
1002
{
1002
{
1040
1.0
1040
1.0
1002
{
1070
     1
1002
{
1040
1.0
1040
1.0
1000

1040
0.0
1002
{
1002
}
1040
0.0
1002
{
1002
}
1040
0.0
1002
}
1002
}
1002
}
1070
     0
1040
0.0
1002
{
1002
}
1002
}
1002
{
1002
}
1002
}
1002
{
1071
        3
1070
     3
1070
     0
1002
{
1070
     2
1070
     0
1070
     0
1040
0.0
1002
}
1070
     0
1070
     2
1002
{
1002
}
1002
}
1002
{
1040
8030.0
1040
190.3000030517578
1040
0.3050000071525574
1040
228.0
1040
545.0
1040
14.0
1040
17.39999961853027
1040
0.4560000002384186
1002
}
1002
}
  0
INSERT
  5
92AD4
330
2
100
AcDbEntity
  8
ASHADE
 62
     1
100
AcDbBlockReference
  2
AVE_RENDER
 10
-332.6907117598663
 20
-345.7646198341548
 30
0.0
1001
AVE_RENDER
1002
{
1070
     6
1000
Pref
1070
    30
1070
    20
1070
     1
1070
     0
1000

1070
    10
1070
     1
1070
    30
1040
1.0
1070
     1
1040
0.3
1040
0.7
1040
0.0
1040
10.0
1010
-1.0
1020
-1.0
1030
-1.0
1040
0.3
1070
    49
1070
     0
1070
     0
1010
1.0
1020
1.0
1030
1.0
1040
45.0
1070
     1
1070
     0
1000
WCS
1040
0.0
1002
}
  0
INSERT
  5
92AD5
330
2
100
AcDbEntity
  8
ASHADE
 62
     3
100
AcDbBlockReference
  2
AVE_RENDER
 10
-332.6907117598663
 20
-345.7646198341548
 30
0.0
1001
AVE_RENDER
1002
{
1070
     0
1000
Full Opt
1070
     0
1070
     1
1070
     1
1070
     1
1070
     0
1070
     0
1070
     0
1070
     1
1070
     1
1040
0.0001
1040
0.0001
1002
}
  0
INSERT
  5
92AD6
330
2
100
AcDbEntity
  8
ASHADE
 62
     4
100
AcDbBlockReference
  2
AVE_RENDER
 10
-332.6907117598663
 20
-345.7646198341548
 30
0.0
1001
AVE_RENDER
1002
{
1070
     0
1000
Quick Opt
1070
     0
1070
     1
1070
     1
1070
     1
1070
     0
1070
     0
1070
     1
1002
}
  0
INSERT
  5
92AD7
330
2
100
AcDbEntity
  8
ASHADE
 62
     5
100
AcDbBlockReference
  2
AVE_RENDER
 10
-332.6907117598663
 20
-345.7646198341548
 30
0.0
1001
AVE_RENDER
1002
{
1070
     1
1000
Scanl Opt
1070
     2
1070
     0
1070
     2
1040
2.0
1040
4.0
1070
     0
1070
     1
1070
     0
1040
0.03
1002
}
  0
INSERT
  5
92AD8
330
2
100
AcDbEntity
  8
ASHADE
 62
     6
100
AcDbBlockReference
  2
AVE_RENDER
 10
-332.6907117598663
 20
-345.7646198341548
 30
0.0
1001
AVE_RENDER
1002
{
1070
     2
1000
Raytr Opt
1070
     2
1070
     0
1070
     2
1040
2.0
1040
4.0
1070
     0
1070
     1
1070
     1
1040
0.03
1070
     3
1040
0.03
1002
}
  0
INSERT
  5
92AD9
330
2
100
AcDbEntity
  8
ASHADE
 62
     7
100
AcDbBlockReference
  2
AVE_RENDER
 10
-332.6907117598663
 20
-345.7646198341548
 30
0.0
1001
AVE_RENDER
1002
{
1070
     0
1000
RFile Opt
1070
     5
1070
   640
1070
   480
1070
 10000
1070
     3
1070
    32
1070
    24
1070
     0
1070
     0
1070
     0
1070
     1
1070
     0
1070
     0
1070
     0
1002
}
  0
INSERT
  5
92ADA
330
2
100
AcDbEntity
  8
ASHADE
 62
     8
100
AcDbBlockReference
  2
AVE_RENDER
 10
-332.6907117598663
 20
-345.7646198341548
 30
0.0
1001
AVE_RENDER
1002
{
1070
     0
1000
Fog Opt
1070
     0
1070
     0
1040
0.0
1040
1.0
1040
0.0
1040
1.0
1010
0.5
1020
0.5
1030
0.5
1002
}
  0
INSERT
  5
92ADB
330
2
100
AcDbEntity
  8
ASHADE
 62
     9
100
AcDbBlockReference
  2
AVE_RENDER
 10
-332.6907117598663
 20
-345.7646198341548
 30
0.0
1001
AVE_RENDER
1002
{
1070
     0
1000
BG Opt
1070
     0
1070
     1
1010
0.0
1020
0.0
1030
0.0
1010
1.0
1020
0.0
1030
0.0
1010
0.0
1020
1.0
1030
0.0
1010
0.0
1020
0.0
1030
1.0
1040
0.5
1040
0.33
1040
0.0
1000

1070
     1
1000

1070
     1
1070
     1
1040
1.0
1040
1.0
1040
0.0
1040
0.0
1070
     0
1002
}
  0
INSERT
  5
92ADC
330
2
100
AcDbEntity
  8
ASHADE
 62
     1
100
AcDbBlockReference
  2
AVE_GLOBAL
 10
-332.6907117598663
 20
-345.7646198341548
 30
0.0
1001
AVE_MATERIAL
1002
{
1000
*GLOBAL*
1000
1
1000
Global finish.
1002
{
1002
}
1002
{
1070
    63
1002
{
1002
{
1010
-1.0
1020
-1.0
1030
-1.0
1002
}
1040
0.1000000014901161
1000

1040
0.0
1002
{
1002
}
1040
0.0
1002
{
1002
}
1040
0.0
1002
}
1002
{
1002
{
1010
-1.0
1020
-1.0
1030
-1.0
1002
}
1040
0.6999999880790711
1000

1040
0.0
1002
{
1002
}
1040
0.0
1002
{
1002
}
1040
0.0
1002
}
1002
{
1002
{
1010
-1.0
1020
-1.0
1030
-1.0
1002
}
1040
0.2000000029802322
1000

1040
0.0
1002
{
1002
}
1040
0.0
1002
{
1002
}
1040
0.0
1002
}
1002
{
1070
     0
1002
{
1070
     1
1002
{
1040
1.0
1040
1.0
1000

1040
0.0
1002
{
1002
}
1040
0.0
1002
{
1002
}
1040
0.0
1002
}
1002
}
1040
1.0
1040
0.0
1040
0.0
1002
}
1002
{
1040
1.0
1040
1.0
1000

1040
0.0
1002
{
1002
}
1040
0.0
1002
{
1002
}
1040
0.0
1002
}
1002
{
1040
0.5
1040
1.0
1000

1040
0.0
1002
{
1002
}
1040
0.0
1002
{
1002
}
1040
0.0
1002
}
1002
{
1070
     0
1040
0.0
1002
{
1002
}
1040
1.0
1002
{
1002
}
1040
0.0
1002
}
1002
{
1040
0.0
1002
{
1002
{
1010
0.0
1020
0.0
1030
0.0
1002
}
1040
1.0
1000

1040
0.0
1002
{
1002
}
1040
0.0
1002
{
1002
}
1040
0.0
1002
}
1002
}
1002
{
1002
{
1070
     1
1002
{
1040
0.0
1040
1.0
1000

1040
0.0
1002
{
1002
}
1040
0.0
1002
{
1002
}
1040
0.0
1002
}
1002
}
1040
0.0
1002
{
1002
}
1010
1.0
1020
0.0
1030
0.0
1010
0.0
1020
1.0
1030
0.0
1010
0.0
1020
0.0
1030
1.0
1070
     0
1002
}
1002
{
1002
{
1040
1.0
1040
1.0
1002
{
1070
     1
1002
{
1040
1.0
1040
1.0
1000

1040
0.0
1002
{
1002
}
1040
0.0
1002
{
1002
}
1040
0.0
1002
}
1002
}
1002
}
1070
     0
1040
0.0
1002
{
1002
}
1002
}
1002
{
1002
}
1002
}
1002
{
1071
        3
1070
     3
1070
     0
1002
{
1070
     2
1070
     0
1070
     0
1040
0.0
1002
}
1070
     0
1070
     2
1002
{
1002
}
1002
}
1002
{
1040
8030.0
1040
190.3000030517578
1040
0.3050000071525574
1040
228.0
1040
545.0
1040
14.0
1040
17.39999961853027
1040
0.4560000002384186
1002
}
1002
}
  0
INSERT
  5
92ADD
330
2
100
AcDbEntity
  8
ASHADE
 62
     1
100
AcDbBlockReference
  2
AVE_RENDER
 10
-525.4032908687123
 20
-407.5680695426369
 30
0.0
1001
AVE_RENDER
1002
{
1070
     7
1000
Pref
1070
    60
1070
    20
1070
     1
1070
     0
1000

1070
    10
1070
     1
1070
    30
1040
1.0
1070
     1
1040
0.3
1040
0.7
1040
0.0
1040
10.0
1010
-1.0
1020
-1.0
1030
-1.0
1040
1.0
1070
    49
1070
     0
1070
     0
1010
1.0
1020
1.0
1030
1.0
1040
45.0
1070
     1
1070
     0
1000
WCS
1040
0.0
1070
     0
1040
10.0
1002
}
  0
INSERT
  5
92ADE
330
2
100
AcDbEntity
  8
ASHADE
 62
     3
100
AcDbBlockReference
  2
AVE_RENDER
 10
-525.4032908687123
 20
-407.5680695426369
 30
0.0
1001
AVE_RENDER
1002
{
1070
     0
1000
Full Opt
1070
     0
1070
     1
1070
     1
1070
     1
1070
     0
1070
     0
1070
     0
1070
     1
1070
     1
1040
0.0001
1040
0.0001
1002
}
  0
INSERT
  5
92ADF
330
2
100
AcDbEntity
  8
ASHADE
 62
     4
100
AcDbBlockReference
  2
AVE_RENDER
 10
-525.4032908687123
 20
-407.5680695426369
 30
0.0
1001
AVE_RENDER
1002
{
1070
     0
1000
Quick Opt
1070
     0
1070
     1
1070
     1
1070
     1
1070
     0
1070
     0
1070
     1
1002
}
  0
INSERT
  5
92AE0
330
2
100
AcDbEntity
  8
ASHADE
 62
     5
100
AcDbBlockReference
  2
AVE_RENDER
 10
-525.4032908687123
 20
-407.5680695426369
 30
0.0
1001
AVE_RENDER
1002
{
1070
     1
1000
Scanl Opt
1070
     2
1070
     0
1070
     2
1040
2.0
1040
4.0
1070
     0
1070
     1
1070
     0
1040
0.03
1002
}
  0
INSERT
  5
92AE1
330
2
100
AcDbEntity
  8
ASHADE
 62
     6
100
AcDbBlockReference
  2
AVE_RENDER
 10
-525.4032908687123
 20
-407.5680695426369
 30
0.0
1001
AVE_RENDER
1002
{
1070
     2
1000
Raytr Opt
1070
     2
1070
     0
1070
     2
1040
2.0
1040
4.0
1070
     0
1070
     1
1070
     1
1040
0.03
1070
     3
1040
0.03
1002
}
  0
INSERT
  5
92AE2
330
2
100
AcDbEntity
  8
ASHADE
 62
     7
100
AcDbBlockReference
  2
AVE_RENDER
 10
-525.4032908687123
 20
-407.5680695426369
 30
0.0
1001
AVE_RENDER
1002
{
1070
     0
1000
RFile Opt
1070
     4
1070
  1024
1070
   768
1070
 10000
1070
     3
1070
     8
1070
     8
1070
     0
1070
     0
1070
     0
1070
     1
1070
     0
1070
     0
1070
     0
1002
}
  0
INSERT
  5
92AE3
330
2
100
AcDbEntity
  8
ASHADE
 62
     8
100
AcDbBlockReference
  2
AVE_RENDER
 10
-525.4032908687123
 20
-407.5680695426369
 30
0.0
1001
AVE_RENDER
1002
{
1070
     0
1000
Fog Opt
1070
     0
1070
     0
1040
0.0
1040
1.0
1040
0.0
1040
1.0
1010
0.5
1020
0.5
1030
0.5
1002
}
  0
INSERT
  5
92AE4
330
2
100
AcDbEntity
  8
ASHADE
 62
     9
100
AcDbBlockReference
  2
AVE_RENDER
 10
-525.4032908687123
 20
-407.5680695426369
 30
0.0
1001
AVE_RENDER
1002
{
1070
     0
1000
BG Opt
1070
     0
1070
     1
1010
0.0
1020
0.0
1030
0.0
1010
1.0
1020
0.0
1030
0.0
1010
0.0
1020
1.0
1030
0.0
1010
0.0
1020
0.0
1030
1.0
1040
0.5
1040
0.33
1040
0.0
1000

1070
     1
1000

1070
     1
1070
     1
1040
1.0
1040
1.0
1040
0.0
1040
0.0
1070
     0
1002
}
  0
INSERT
  5
92AE5
330
2
100
AcDbEntity
  8
ASHADE
 62
     1
100
AcDbBlockReference
  2
AVE_GLOBAL
 10
-525.4032908687123
 20
-407.5680695426369
 30
0.0
1001
AVE_MATERIAL
1002
{
1000
*GLOBAL*
1000
1
1000
Global finish.
1002
{
1002
}
1002
{
1070
    63
1002
{
1002
{
1010
-1.0
1020
-1.0
1030
-1.0
1002
}
1040
0.1000000014901161
1000

1040
0.0
1002
{
1002
}
1040
0.0
1002
{
1002
}
1040
0.0
1002
}
1002
{
1002
{
1010
-1.0
1020
-1.0
1030
-1.0
1002
}
1040
0.6999999880790711
1000

1040
0.0
1002
{
1002
}
1040
0.0
1002
{
1002
}
1040
0.0
1002
}
1002
{
1002
{
1010
-1.0
1020
-1.0
1030
-1.0
1002
}
1040
0.2000000029802322
1000

1040
0.0
1002
{
1002
}
1040
0.0
1002
{
1002
}
1040
0.0
1002
}
1002
{
1070
     0
1002
{
1070
     1
1002
{
1040
1.0
1040
1.0
1000

1040
0.0
1002
{
1002
}
1040
0.0
1002
{
1002
}
1040
0.0
1002
}
1002
}
1040
1.0
1040
0.0
1040
0.0
1002
}
1002
{
1040
1.0
1040
1.0
1000

1040
0.0
1002
{
1002
}
1040
0.0
1002
{
1002
}
1040
0.0
1002
}
1002
{
1040
0.5
1040
1.0
1000

1040
0.0
1002
{
1002
}
1040
0.0
1002
{
1002
}
1040
0.0
1002
}
1002
{
1070
     0
1040
0.0
1002
{
1002
}
1040
1.0
1002
{
1002
}
1040
0.0
1002
}
1002
{
1040
0.0
1002
{
1002
{
1010
0.0
1020
0.0
1030
0.0
1002
}
1040
1.0
1000

1040
0.0
1002
{
1002
}
1040
0.0
1002
{
1002
}
1040
0.0
1002
}
1002
}
1002
{
1002
{
1070
     1
1002
{
1040
0.0
1040
1.0
1000

1040
0.0
1002
{
1002
}
1040
0.0
1002
{
1002
}
1040
0.0
1002
}
1002
}
1040
0.0
1002
{
1002
}
1010
1.0
1020
0.0
1030
0.0
1010
0.0
1020
1.0
1030
0.0
1010
0.0
1020
0.0
1030
1.0
1070
     0
1002
}
1002
{
1002
{
1040
1.0
1040
1.0
1002
{
1070
     1
1002
{
1040
1.0
1040
1.0
1000

1040
0.0
1002
{
1002
}
1040
0.0
1002
{
1002
}
1040
0.0
1002
}
1002
}
1002
}
1070
     0
1040
0.0
1002
{
1002
}
1002
}
1002
{
1002
}
1002
}
1002
{
1071
        3
1070
     3
1070
     0
1002
{
1070
     2
1070
     0
1070
     0
1040
0.0
1002
}
1070
     0
1070
     2
1002
{
1002
}
1002
}
1002
{
1040
8030.0
1040
190.3000030517578
1040
0.3050000071525574
1040
228.0
1040
545.0
1040
14.0
1040
17.39999961853027
1040
0.4560000002384186
1002
}
1002
}
  0
INSERT
  5
92AE6
330
2
100
AcDbEntity
  8
ASHADE
 62
     1
100
AcDbBlockReference
  2
AVE_RENDER
 10
-49.52981678039453
 20
226.8558963940324
 30
0.0
 41
0.3480083857442366
 42
0.3480083857441514
 43
0.3480083857442348
1001
AVE_RENDER
1002
{
1070
     7
1000
Pref
1070
    30
1070
    20
1070
     1
1070
     0
1000

1070
    10
1070
     1
1070
    30
1040
1.0
1070
     1
1040
0.3
1040
0.7
1040
0.0
1040
10.0
1010
-1.0
1020
-1.0
1030
-1.0
1040
0.3
1070
    49
1070
     0
1070
     0
1010
1.0
1020
1.0
1030
1.0
1040
45.0
1070
     1
1070
     0
1000
WCS
1040
0.0
1070
     0
1040
10.0
1002
}
  0
INSERT
  5
92AE7
330
2
100
AcDbEntity
  8
ASHADE
 62
     3
100
AcDbBlockReference
  2
AVE_RENDER
 10
-49.52981678039453
 20
226.8558963940324
 30
0.0
 41
0.3480083857442366
 42
0.3480083857441514
 43
0.3480083857442348
1001
AVE_RENDER
1002
{
1070
     0
1000
Full Opt
1070
     0
1070
     1
1070
     1
1070
     1
1070
     0
1070
     0
1070
     0
1070
     1
1070
     1
1040
0.0001
1040
0.0001
1002
}
  0
INSERT
  5
92AE8
330
2
100
AcDbEntity
  8
ASHADE
 62
     4
100
AcDbBlockReference
  2
AVE_RENDER
 10
-49.52981678039453
 20
226.8558963940324
 30
0.0
 41
0.3480083857442366
 42
0.3480083857441514
 43
0.3480083857442348
1001
AVE_RENDER
1002
{
1070
     0
1000
Quick Opt
1070
     0
1070
     1
1070
     1
1070
     1
1070
     0
1070
     0
1070
     1
1002
}
  0
INSERT
  5
92AE9
330
2
100
AcDbEntity
  8
ASHADE
 62
     5
100
AcDbBlockReference
  2
AVE_RENDER
 10
-49.52981678039453
 20
226.8558963940324
 30
0.0
 41
0.3480083857442366
 42
0.3480083857441514
 43
0.3480083857442348
1001
AVE_RENDER
1002
{
1070
     1
1000
Scanl Opt
1070
     2
1070
     0
1070
     2
1040
2.0
1040
4.0
1070
     0
1070
     1
1070
     0
1040
0.03
1002
}
  0
INSERT
  5
92AEA
330
2
100
AcDbEntity
  8
ASHADE
 62
     6
100
AcDbBlockReference
  2
AVE_RENDER
 10
-49.52981678039453
 20
226.8558963940324
 30
0.0
 41
0.3480083857442366
 42
0.3480083857441514
 43
0.3480083857442348
1001
AVE_RENDER
1002
{
1070
     2
1000
Raytr Opt
1070
     2
1070
     0
1070
     2
1040
2.0
1040
4.0
1070
     0
1070
     1
1070
     1
1040
0.03
1070
     3
1040
0.03
1002
}
  0
INSERT
  5
92AEB
330
2
100
AcDbEntity
  8
ASHADE
 62
     7
100
AcDbBlockReference
  2
AVE_RENDER
 10
-49.52981678039453
 20
226.8558963940324
 30
0.0
 41
0.3480083857442366
 42
0.3480083857441514
 43
0.3480083857442348
1001
AVE_RENDER
1002
{
1070
     0
1000
RFile Opt
1070
     5
1070
   640
1070
   480
1070
 10000
1070
     3
1070
    32
1070
    24
1070
     0
1070
     0
1070
     0
1070
     1
1070
     0
1070
     0
1070
     0
1002
}
  0
INSERT
  5
92AEC
330
2
100
AcDbEntity
  8
ASHADE
 62
     8
100
AcDbBlockReference
  2
AVE_RENDER
 10
-49.52981678039453
 20
226.8558963940324
 30
0.0
 41
0.3480083857442366
 42
0.3480083857441514
 43
0.3480083857442348
1001
AVE_RENDER
1002
{
1070
     0
1000
Fog Opt
1070
     0
1070
     0
1040
0.0
1040
1.0
1040
0.0
1040
1.0
1010
0.5
1020
0.5
1030
0.5
1002
}
  0
INSERT
  5
92AED
330
2
100
AcDbEntity
  8
ASHADE
 62
     9
100
AcDbBlockReference
  2
AVE_RENDER
 10
-49.52981678039453
 20
226.8558963940324
 30
0.0
 41
0.3480083857442366
 42
0.3480083857441514
 43
0.3480083857442348
1001
AVE_RENDER
1002
{
1070
     0
1000
BG Opt
1070
     0
1070
     1
1010
0.0
1020
0.0
1030
0.0
1010
1.0
1020
0.0
1030
0.0
1010
0.0
1020
1.0
1030
0.0
1010
0.0
1020
0.0
1030
1.0
1040
0.5
1040
0.33
1040
0.0
1000

1070
     1
1000

1070
     1
1070
     1
1040
1.0
1040
1.0
1040
0.0
1040
0.0
1070
     0
1002
}
  0
INSERT
  5
92AEE
330
2
100
AcDbEntity
  8
ASHADE
 62
     1
100
AcDbBlockReference
  2
AVE_GLOBAL
 10
-49.52981678039453
 20
226.8558963940324
 30
0.0
 41
0.3480083857442366
 42
0.3480083857441514
 43
0.3480083857442348
1001
AVE_MATERIAL
1002
{
1000
*GLOBAL*
1000
1
1000
Global finish.
1002
{
1002
}
1002
{
1070
    63
1002
{
1002
{
1010
-1.0
1020
-1.0
1030
-1.0
1002
}
1040
0.1000000014901161
1000

1040
0.0
1002
{
1002
}
1040
0.0
1002
{
1002
}
1040
0.0
1002
}
1002
{
1002
{
1010
-1.0
1020
-1.0
1030
-1.0
1002
}
1040
0.6999999880790711
1000

1040
0.0
1002
{
1002
}
1040
0.0
1002
{
1002
}
1040
0.0
1002
}
1002
{
1002
{
1010
-1.0
1020
-1.0
1030
-1.0
1002
}
1040
0.2000000029802322
1000

1040
0.0
1002
{
1002
}
1040
0.0
1002
{
1002
}
1040
0.0
1002
}
1002
{
1070
     0
1002
{
1070
     1
1002
{
1040
1.0
1040
1.0
1000

1040
0.0
1002
{
1002
}
1040
0.0
1002
{
1002
}
1040
0.0
1002
}
1002
}
1040
1.0
1040
0.0
1040
0.0
1002
}
1002
{
1040
1.0
1040
1.0
1000

1040
0.0
1002
{
1002
}
1040
0.0
1002
{
1002
}
1040
0.0
1002
}
1002
{
1040
0.5
1040
1.0
1000

1040
0.0
1002
{
1002
}
1040
0.0
1002
{
1002
}
1040
0.0
1002
}
1002
{
1070
     0
1040
0.0
1002
{
1002
}
1040
1.0
1002
{
1002
}
1040
0.0
1002
}
1002
{
1040
0.0
1002
{
1002
{
1010
0.0
1020
0.0
1030
0.0
1002
}
1040
1.0
1000

1040
0.0
1002
{
1002
}
1040
0.0
1002
{
1002
}
1040
0.0
1002
}
1002
}
1002
{
1002
{
1070
     1
1002
{
1040
0.0
1040
1.0
1000

1040
0.0
1002
{
1002
}
1040
0.0
1002
{
1002
}
1040
0.0
1002
}
1002
}
1040
0.0
1002
{
1002
}
1010
1.0
1020
0.0
1030
0.0
1010
0.0
1020
1.0
1030
0.0
1010
0.0
1020
0.0
1030
1.0
1070
     0
1002
}
1002
{
1002
{
1040
1.0
1040
1.0
1002
{
1070
     1
1002
{
1040
1.0
1040
1.0
1000

1040
0.0
1002
{
1002
}
1040
0.0
1002
{
1002
}
1040
0.0
1002
}
1002
}
1002
}
1070
     0
1040
0.0
1002
{
1002
}
1002
}
1002
{
1002
}
1002
}
1002
{
1071
        3
1070
     3
1070
     0
1002
{
1070
     2
1070
     0
1070
     0
1040
0.0
1002
}
1070
     0
1070
     2
1002
{
1002
}
1002
}
1002
{
1040
8030.0
1040
190.3000030517578
1040
0.3050000071525574
1040
228.0
1040
545.0
1040
14.0
1040
17.39999961853027
1040
0.4560000002384186
1002
}
1002
}
  0
LWPOLYLINE
  5
B37D7
330
2
100
AcDbEntity
  8
A1
 62
     7
100
AcDbPolyline
 90
      103
 70
     1
 43
0.125
 10
534.980929688651
 20
336.4266396112383
 10
534.550445018302
 20
336.2975550021996
 10
534.2921556845844
 20
335.9318154725514
 10
534.07691334941
 20
335.3509341439898
 10
534.0338645152521
 20
334.2322000818039
 10
534.0338645152521
 20
333.780403362281
 10
533.9262442654721
 20
333.6728330507107
 10
533.8616710142355
 20
333.4792055492659
 10
533.7325263473767
 20
333.2640649261254
 10
533.6894775132188
 20
332.9628671131101
 10
533.6894775132188
 20
332.7692396116653
 10
533.4096637624222
 20
332.4035000820171
 10
533.2159458443268
 20
332.1023022690021
 10
533.2159458443268
 20
331.6935341444165
 10
533.086801177468
 20
331.6720198469478
 10
532.9361320935301
 20
331.4568780480344
 10
532.8715588422936
 20
331.2847660198312
 10
532.7639385925135
 20
331.0696242209175
 10
532.6993653412769
 20
330.9190253144099
 10
532.6563183427335
 20
330.6393417988635
 10
532.6993653412769
 20
330.0799747677706
 10
532.7208897583557
 20
329.9293758612629
 10
532.6778409241978
 20
329.6927209406537
 10
532.6132695085757
 20
329.3915231276386
 10
532.5917450914969
 20
328.9827550030531
 10
532.5271718402603
 20
328.5309582835304
 10
532.4841248417169
 20
328.1006758614764
 10
532.5486962573391
 20
327.9285626575001
 10
532.6563183427335
 20
326.9604275018215
 10
532.6778409241978
 20
326.6807439862752
 10
532.6993653412769
 20
326.4656033631347
 10
532.6563183427335
 20
326.1428912526507
 10
532.6132695085757
 20
325.9062363320417
 10
532.6347939256548
 20
325.454439612519
 10
532.7854630095924
 20
325.002642892996
 10
532.9361320935301
 20
324.8305296890197
 10
533.0222279262311
 20
324.5938747684107
 10
533.065276760389
 20
324.4647901593718
 10
533.065276760389
 20
324.3572198478015
 10
533.1944214272477
 20
324.1205637514191
 10
533.3020435126423
 20
323.3890835163498
 10
533.4311881795013
 20
323.1094000008035
 10
533.8831954313143
 20
322.5930615646479
 10
534.5073961841442
 20
321.9906659386176
 10
538.5048829823954
 20
321.9859656097556
 10
538.7862442316501
 20
322.2130950657583
 10
538.9430828943743
 20
322.3403383799401
 10
539.0046009098571
 20
322.4224814767643
 10
539.3391526013927
 20
322.7245021975785
 10
539.6247128645062
 20
323.13870015299
 10
539.7648766950103
 20
323.3896962188812
 10
539.846087867301
 20
323.8729064720034
 10
539.8573825229487
 20
324.0876439600652
 10
539.9828320067752
 20
324.3080453564786
 10
539.9828320067752
 20
324.3080453564786
 10
539.9677673101607
 20
324.6590341783944
 10
540.3414491053579
 20
325.2156949037616
 10
540.4203057591485
 20
325.4839318867136
 10
540.4397447359652
 20
325.7469786941819
 10
540.334463220882
 20
326.4386500053424
 10
540.4158320199491
 20
326.7693735030276
 10
540.4388573923434
 20
327.1587779006314
 10
540.5281851847728
 20
327.8679428467127
 10
540.5699295148085
 20
328.1993471583368
 10
540.5305644603022
 20
328.4003492616849
 10
540.4227350901269
 20
329.2342006199195
 10
540.4227350901269
 20
329.2342006199195
 10
540.4424609849207
 20
329.4565482184454
 10
540.4424609849207
 20
329.5449064802038
 10
540.3301575722483
 20
329.9230109153502
 10
540.3858811213711
 20
330.6370965712438
 10
540.3858811213711
 20
330.6370965712438
 10
540.3872185773608
 20
330.8315933375937
 10
540.265514701609
 20
331.1292703008969
 10
539.8794160555868
 20
331.7447147052723
 10
539.8865633110652
 20
331.9809278098927
 10
539.7627988333674
 20
332.2932606049492
 10
539.7619238610815
 20
332.2954686903768
 10
539.565579129249
 20
332.6186407051577
 10
539.3503367940745
 20
332.7692396116653
 10
538.9844272105769
 20
332.9198385181729
 10
538.9844272105769
 20
333.3286066427583
 10
538.8768051251823
 20
334.0816011752962
 10
538.8552807081034
 20
334.9851934385684
 10
538.7476604583234
 20
335.4154758606227
 10
538.4032734562902
 20
335.8457582826767
 10
538.1234597054938
 20
335.9748428917157
 10
537.8221215376181
 20
336.0609000815904
 10
537.5853547853648
 20
336.1039286765278
 10
537.4992589526639
 20
336.0824143790591
 10
537.3270654516472
 20
336.3405835971367
 10
537.1979189491737
 20
336.448153908707
 10
536.9826784496139
 20
336.5126968011131
 10
536.444573529485
 20
336.6202671126834
 10
536.2939044455474
 20
336.6202671126834
 10
536.1001865274517
 20
336.577238517746
 10
535.9279930264351
 20
336.4266396112383
 10
535.8634197751984
 20
336.2330132855667
 10
535.6266548585597
 20
336.3190692996683
 10
535.2176946052898
 20
336.3836121920741
 10
535.0670255213519
 20
336.4051253137696
 10
534.959405271572
 20
336.4051253137696
 10
534.8302606047131
 20
336.3836121920741
  0
ARC
  5
B37D9
330
2
100
AcDbEntity
  8
0
100
AcDbCircle
 10
535.6914731764927
 20
335.4883212211883
 30
0.0
 40
1.622412236219842
100
AcDbArc
 50
343.2509207834746
 51
40.96860108883498
  0
ARC
  5
B37DA
330
2
100
AcDbEntity
  8
0
100
AcDbCircle
 10
535.8015039443304
 20
335.4559797820258
 30
0.0
 40
1.401431789401315
100
AcDbArc
 50
342.3820038700827
 51
56.09491419576104
  0
ARC
  5
B37DB
330
2
100
AcDbEntity
  8
0
100
AcDbCircle
 10
536.2533584023735
 20
336.2030985533802
 30
0.0
 40
0.3984863395992671
100
AcDbArc
 50
58.04890579959875
 51
175.5622382233027
  0
ARC
  5
B37DC
330
2
100
AcDbEntity
  8
0
100
AcDbCircle
 10
535.5706470819155
 20
335.3407938305297
 30
0.0
 40
1.496499045053533
100
AcDbArc
 50
347.3614189481823
 51
53.33614378505
  0
ARC
  5
B37DD
330
2
100
AcDbEntity
  8
0
100
AcDbCircle
 10
536.2932095928497
 20
336.1803604581421
 30
0.0
 40
0.2571676575342094
100
AcDbArc
 50
80.40686573727418
 51
179.2042764472621
  0
ARC
  5
B37DE
330
2
100
AcDbEntity
  8
0
100
AcDbCircle
 10
536.1690667357071
 20
335.8584318867142
 30
0.0
 40
0.5992405610431312
100
AcDbArc
 50
38.80166616208727
 51
73.81819878591345
  0
ARC
  5
B37DF
330
2
100
AcDbEntity
  8
0
100
AcDbCircle
 10
536.5426456830753
 20
335.419458202503
 30
0.0
 40
1.195161355139944
100
AcDbArc
 50
3.092355715288852
 51
62.95537939630488
  0
ARC
  5
B37E0
330
2
100
AcDbEntity
  8
0
100
AcDbCircle
 10
535.0262908151717
 20
335.5850571246998
 30
0.0
 40
0.8364318927180409
100
AcDbArc
 50
68.93282330640502
 51
134.2758148178238
  0
ARC
  5
B37E1
330
2
100
AcDbEntity
  8
0
100
AcDbCircle
 10
535.2502661019615
 20
334.8602777673686
 30
0.0
 40
1.507256120651832
100
AcDbArc
 50
48.20175979341145
 51
114.3059156814786
  0
ARC
  5
B37EA
330
2
100
AcDbEntity
  8
0
100
AcDbCircle
 10
553.3798167357069
 20
336.3433068867136
 30
0.0
 40
22.89542398500472
100
AcDbArc
 50
205.5112370588791
 51
208.3139972216353
  0
ARC
  5
B37EB
330
2
100
AcDbEntity
  8
0
100
AcDbCircle
 10
553.3798167357069
 20
336.3433068867136
 30
0.0
 40
22.89542398500472
100
AcDbArc
 50
205.5112370588791
 51
208.3139972216353
  0
ARC
  5
B37EC
330
2
100
AcDbEntity
  8
0
100
AcDbCircle
 10
553.3798167357069
 20
336.3433068867136
 30
0.0
 40
22.89542398500472
100
AcDbArc
 50
205.5112370588791
 51
208.3139972216353
  0
ARC
  5
B37ED
330
2
100
AcDbEntity
  8
0
100
AcDbCircle
 10
534.496357036465
 20
325.817106358102
 30
0.0
 40
1.865287033258435
100
AcDbArc
 50
160.5359043981358
 51
182.1546101273701
  0
ARC
  5
B37EE
330
2
100
AcDbEntity
  8
0
100
AcDbCircle
 10
532.1298167357066
 20
331.2651818867137
 30
0.0
 40
8.59793829467779
100
AcDbArc
 50
319.2944117926748
 51
326.9584184432001
  0
ARC
  5
B37EF
330
2
100
AcDbEntity
  8
0
100
AcDbCircle
 10
532.1298167357066
 20
331.2651818867137
 30
0.0
 40
8.66043829467779
100
AcDbArc
 50
319.5374368145205
 51
325.2551223376232
  0
ARC
  5
B37F0
330
2
100
AcDbEntity
  8
0
100
AcDbCircle
 10
519.6923167357067
 20
336.3433068867136
 30
0.0
 40
22.86417398500471
100
AcDbArc
 50
332.1693610082514
 51
333.9413374304164
  0
ARC
  5
B37F1
330
2
100
AcDbEntity
  8
0
100
AcDbCircle
 10
519.6923167357067
 20
336.3433068867136
 30
0.0
 40
22.92667398500471
100
AcDbArc
 50
331.9909948719556
 51
333.561256186444
  0
ARC
  5
B37F2
330
2
100
AcDbEntity
  8
0
100
AcDbCircle
 10
540.942316735707
 20
331.2651818867137
 30
0.0
 40
8.59793829467779
100
AcDbArc
 50
212.5906060789696
 51
219.95089343786
  0
ARC
  5
B37F3
330
2
100
AcDbEntity
  8
0
100
AcDbCircle
 10
540.942316735707
 20
331.2651818867137
 30
0.0
 40
8.66043829467779
100
AcDbArc
 50
213.0911979129082
 51
218.277153632315
  0
ARC
  5
B37F4
330
2
100
AcDbEntity
  8
0
100
AcDbCircle
 10
542.6688792357055
 20
323.331588136714
 30
0.0
 40
9.656190933538345
100
AcDbArc
 50
160.5136090269582
 51
165.2893988306004
  0
ARC
  5
B37F5
330
2
100
AcDbEntity
  8
0
100
AcDbCircle
 10
542.6688792357055
 20
323.331588136714
 30
0.0
 40
9.718690933538345
100
AcDbArc
 50
160.59873819373
 51
166.7213739820691
  0
ARC
  5
B37F6
330
2
100
AcDbEntity
  8
0
100
AcDbCircle
 10
553.3798167357069
 20
336.3433068867136
 30
0.0
 40
22.86417398500471
100
AcDbArc
 50
206.9708154291227
 51
207.986165025593
  0
ARC
  5
B37F7
330
2
100
AcDbEntity
  8
0
100
AcDbCircle
 10
553.3798167357069
 20
336.3433068867136
 30
0.0
 40
22.92667398500471
100
AcDbArc
 50
206.0435762046541
 51
207.8560744710465
  0
ARC
  5
B37F8
330
2
100
AcDbEntity
  8
0
100
AcDbCircle
 10
467.6923167357021
 20
385.0776818867174
 30
0.0
 40
91.02300280087732
100
AcDbArc
 50
319.291661144247
 51
320.0812296236162
  0
ARC
  5
B37F9
330
2
100
AcDbEntity
  8
0
100
AcDbCircle
 10
530.4032542357081
 20
323.331588136714
 30
0.0
 40
9.718690933538345
100
AcDbArc
 50
13.82790771947755
 51
19.12880460522784
  0
ARC
  5
B37FA
330
2
100
AcDbEntity
  8
0
100
AcDbCircle
 10
530.4032542357081
 20
323.331588136714
 30
0.0
 40
9.656190933538345
100
AcDbArc
 50
14.85124526968098
 51
20.56145328785925
  0
ARC
  5
B37FB
330
2
100
AcDbEntity
  8
0
100
AcDbCircle
 10
467.6923167357021
 20
385.0776818867174
 30
0.0
 40
91.08550280087731
100
AcDbArc
 50
319.2195570112748
 51
319.7403686304403
  0
ARC
  5
B37FC
330
2
100
AcDbEntity
  8
0
100
AcDbCircle
 10
605.3798167357114
 20
385.0776818867174
 30
0.0
 40
91.08550280087731
100
AcDbArc
 50
219.9653235151642
 51
220.753389712257
  0
ARC
  5
B37FD
330
2
100
AcDbEntity
  8
0
100
AcDbCircle
 10
605.3798167357114
 20
385.0776818867174
 30
0.0
 40
91.02300280087732
100
AcDbArc
 50
220.0302990802122
 51
220.6984941033138
  0
ARC
  5
B37FE
330
2
100
AcDbEntity
  8
0
100
AcDbCircle
 10
551.4364619887079
 20
314.7011989303682
 30
0.0
 40
20.07846151969816
100
AcDbArc
 50
143.2210130913241
 51
146.950176544629
  0
ARC
  5
B37FF
330
2
100
AcDbEntity
  8
0
100
AcDbCircle
 10
551.4364619887079
 20
314.7011989303682
 30
0.0
 40
20.01596151969816
100
AcDbArc
 50
143.676517093959
 51
146.3483511696793
  0
ARC
  5
B3800
330
2
100
AcDbEntity
  8
0
100
AcDbCircle
 10
521.6356714827058
 20
314.7011989303682
 30
0.0
 40
20.07846151969816
100
AcDbArc
 50
33.21688241178337
 51
36.22972570401316
  0
ARC
  5
B3801
330
2
100
AcDbEntity
  8
0
100
AcDbCircle
 10
521.6356714827058
 20
314.7011989303682
 30
0.0
 40
20.01596151969816
100
AcDbArc
 50
33.42694893466131
 51
35.86557390679824
  0
ARC
  5
B3802
330
2
100
AcDbEntity
  8
0
100
AcDbCircle
 10
551.4364619887079
 20
314.7011989303682
 30
0.0
 40
20.04721151969816
100
AcDbArc
 50
138.0103108126435
 51
147.4614478995021
  0
ARC
  5
B3803
330
2
100
AcDbEntity
  8
0
100
AcDbCircle
 10
540.942316735707
 20
331.2651818867137
 30
0.0
 40
8.62918829467779
100
AcDbArc
 50
201.4546336160467
 51
222.0643265535788
  0
ARC
  5
B3804
330
2
100
AcDbEntity
  8
0
100
AcDbCircle
 10
605.3798167357114
 20
385.0776818867174
 30
0.0
 40
91.05425280087732
100
AcDbArc
 50
218.7304413816693
 51
220.880700802861
  0
ARC
  5
B3805
330
2
100
AcDbEntity
  8
0
100
AcDbCircle
 10
542.6688792357055
 20
323.331588136714
 30
0.0
 40
9.687440933538345
100
AcDbArc
 50
159.4385467121407
 51
172.3485491443175
  0
LINE
  5
B3806
330
2
100
AcDbEntity
  8
0
100
AcDbLine
 10
536.5360667357069
 20
324.6240969296585
 30
0.0
 11
536.5360667357069
 21
326.4688018008237
 31
0.0
  0
LINE
  5
B3807
330
2
100
AcDbEntity
  8
0
100
AcDbLine
 10
535.4735492571793
 20
325.7491144081861
 30
0.0
 11
535.4359462379917
 21
326.7790375377765
 31
0.0
  0
LINE
  5
B3808
330
2
100
AcDbEntity
  8
0
100
AcDbLine
 10
534.5360667357068
 20
325.4839318867136
 30
0.0
 11
534.2860492571793
 21
326.4687843222962
 31
0.0
  0
LINE
  5
B3809
330
2
100
AcDbEntity
  8
0
100
AcDbLine
 10
533.5432228987186
 20
325.7491144081861
 30
0.0
 11
533.5985667357069
 21
326.7339318867136
 31
0.0
  0
LINE
  5
B380A
330
2
100
AcDbEntity
  8
0
100
AcDbLine
 10
536.535979602052
 20
324.6240969299426
 30
0.0
 11
536.5359916333292
 21
326.4688018010687
 31
0.0
  0
LINE
  5
B380B
330
2
100
AcDbEntity
  8
0
100
AcDbLine
 10
536.5360667357069
 20
324.6240969296585
 30
0.0
 11
536.5360667357069
 21
326.4688018008237
 31
0.0
  0
LINE
  5
B380C
330
2
100
AcDbEntity
  8
0
100
AcDbLine
 10
536.535979602052
 20
324.6240969299426
 30
0.0
 11
536.5359916333292
 21
326.4688018010687
 31
0.0
  0
LINE
  5
B380D
330
2
100
AcDbEntity
  8
0
100
AcDbLine
 10
536.5361538693616
 20
324.6240969299426
 30
0.0
 11
536.5361418380845
 21
326.4688018010687
 31
0.0
  0
LINE
  5
B380E
330
2
100
AcDbEntity
  8
0
100
AcDbLine
 10
536.5360667357069
 20
324.6240969296585
 30
0.0
 11
536.5360667357069
 21
326.4688018008237
 31
0.0
  0
LINE
  5
B380F
330
2
100
AcDbEntity
  8
0
100
AcDbLine
 10
536.5361538693616
 20
324.6240969299426
 30
0.0
 11
536.5361418380845
 21
326.4688018010687
 31
0.0
  0
LINE
  5
B3810
330
2
100
AcDbEntity
  8
0
100
AcDbLine
 10
539.528910572695
 20
325.7491144081861
 30
0.0
 11
539.4735667357068
 21
326.7339318867136
 31
0.0
  0
LINE
  5
B3811
330
2
100
AcDbEntity
  8
0
100
AcDbLine
 10
538.5360667357068
 20
325.4839318867136
 30
0.0
 11
538.7860842142344
 21
326.4687843222962
 31
0.0
  0
LINE
  5
B3812
330
2
100
AcDbEntity
  8
0
100
AcDbLine
 10
537.5985842142344
 20
325.7491144081861
 30
0.0
 11
537.636187233422
 21
326.7790375377765
 31
0.0
  0
LINE
  5
B3813
330
2
100
AcDbEntity
  8
0
100
AcDbLine
 10
536.5360667357069
 20
324.6240969296585
 30
0.0
 11
536.5360667357069
 21
326.4688018008237
 31
0.0
  0
ARC
  5
B3814
330
2
100
AcDbEntity
  8
0
100
AcDbCircle
 10
538.5757764349485
 20
325.817106358102
 30
0.0
 40
1.865287033258435
100
AcDbArc
 50
357.8453898726298
 51
19.46409560186413
  0
ARC
  5
B3815
330
2
100
AcDbEntity
  8
0
100
AcDbCircle
 10
530.4032542357081
 20
323.331588136714
 30
0.0
 40
9.687440933538345
100
AcDbArc
 50
7.651450855682421
 51
20.56145328785925
  0
ARC
  5
B3816
330
2
100
AcDbEntity
  8
0
100
AcDbCircle
 10
467.6923167357021
 20
385.0776818867174
 30
0.0
 40
91.05425280087732
100
AcDbArc
 50
319.1192991971389
 51
321.2695586183306
  0
ARC
  5
B3817
330
2
100
AcDbEntity
  8
0
100
AcDbCircle
 10
532.1298167357066
 20
331.2651818867137
 30
0.0
 40
8.62918829467779
100
AcDbArc
 50
317.9356734464211
 51
338.5453663839531
  0
ARC
  5
B3818
330
2
100
AcDbEntity
  8
0
100
AcDbCircle
 10
521.6356714827058
 20
314.7011989303682
 30
0.0
 40
20.04721151969816
100
AcDbArc
 50
32.5385521004979
 51
41.98968918735643
  0
ARC
  5
B3819
330
2
100
AcDbEntity
  8
0
100
AcDbCircle
 10
519.6923167357067
 20
336.3433068867136
 30
0.0
 40
22.89542398500472
100
AcDbArc
 50
331.6860027783646
 51
334.4887629411151
  0
ARC
  5
B381C
330
2
100
AcDbEntity
  8
0
100
AcDbCircle
 10
534.496357036465
 20
325.817106358102
 30
0.0
 40
1.865287033258435
100
AcDbArc
 50
198.8095215416405
 51
219.9910499228352
  0
LINE
  5
B381D
330
2
100
AcDbEntity
  8
0
100
AcDbLine
 10
532.6518277122652
 20
325.4839318867136
 30
0.0
 11
532.7652791470678
 21
325.4840960392025
 31
0.0
  0
LINE
  5
B381E
330
2
100
AcDbEntity
  8
0
100
AcDbLine
 10
532.7652791470678
 20
325.4840960392025
 30
0.0
 11
532.6518277122652
 21
325.5281110175928
 31
0.0
  0
LINE
  5
B381F
330
2
100
AcDbEntity
  8
0
100
AcDbLine
 10
532.7652791470678
 20
325.4840960392025
 30
0.0
 11
532.6518277122652
 21
325.4397527558344
 31
0.0
  0
LINE
  5
B3820
330
2
100
AcDbEntity
  8
0
100
AcDbLine
 10
532.7652791470678
 20
325.4840960392025
 30
0.0
 11
532.6518277122652
 21
325.4397527558344
 31
0.0
  0
LINE
  5
B3821
330
2
100
AcDbEntity
  8
0
100
AcDbLine
 10
532.7652791470678
 20
325.4840960392025
 30
0.0
 11
532.6518277122652
 21
325.5281110175928
 31
0.0
  0
LINE
  5
B3822
330
2
100
AcDbEntity
  8
0
100
AcDbLine
 10
532.6518277122652
 20
325.4839318867136
 30
0.0
 11
532.7652791470678
 21
325.4840960392025
 31
0.0
  0
LINE
  5
B3823
330
2
100
AcDbEntity
  8
0
100
AcDbLine
 10
532.7306843660558
 20
325.2156949037615
 30
0.0
 11
532.7682288655354
 21
325.4839318867136
 31
0.0
  0
LINE
  5
B3824
330
2
100
AcDbEntity
  8
0
100
AcDbLine
 10
532.7682288655354
 20
325.4839318867136
 30
0.0
 11
532.6323887354483
 21
325.7469786941821
 31
0.0
  0
LINE
  5
B3825
330
2
100
AcDbEntity
  8
0
100
AcDbLine
 10
532.632261674632
 20
325.7472247403398
 30
0.0
 11
532.6518277122652
 21
325.5281110175928
 31
0.0
  0
LINE
  5
B3826
330
2
100
AcDbEntity
  8
0
100
AcDbLine
 10
532.7306843660558
 20
325.2156949037615
 30
0.0
 11
532.6518277122652
 21
325.4397527558344
 31
0.0
  0
LINE
  5
B3827
330
2
100
AcDbEntity
  8
0
100
AcDbLine
 10
532.6518277122652
 20
325.4397527558344
 30
0.0
 11
532.6518277122652
 21
325.5281110175928
 31
0.0
  0
LINE
  5
B3828
330
2
100
AcDbEntity
  8
0
100
AcDbLine
 10
532.6518277122652
 20
325.4397527558344
 30
0.0
 11
532.6518277122652
 21
325.5281110175928
 31
0.0
  0
LINE
  5
B3829
330
2
100
AcDbEntity
  8
0
100
AcDbLine
 10
532.7306843660558
 20
325.2156949037615
 30
0.0
 11
532.6518277122652
 21
325.4397527558344
 31
0.0
  0
LINE
  5
B382A
330
2
100
AcDbEntity
  8
0
100
AcDbLine
 10
532.632261674632
 20
325.7472247403398
 30
0.0
 11
532.6518277122652
 21
325.5281110175928
 31
0.0
  0
ARC
  5
B382B
330
2
100
AcDbEntity
  8
0
100
AcDbCircle
 10
537.3173167357069
 20
323.2026818867136
 30
0.0
 40
3.565895135381667
100
AcDbArc
 50
164.914408180309
 51
177.5104470780002
  0
ARC
  5
B382C
330
2
100
AcDbEntity
  8
0
100
AcDbCircle
 10
537.3173167357069
 20
323.2026818867136
 30
0.0
 40
3.628395135381667
100
AcDbArc
 50
163.66287065329
 51
177.5104470780002
  0
ARC
  5
B382D
330
2
100
AcDbEntity
  8
0
100
AcDbCircle
 10
537.3173167357069
 20
323.2026818867136
 30
0.0
 40
3.565895135381667
100
AcDbArc
 50
147.2659971802765
 51
159.3263517392997
  0
ARC
  5
B382E
330
2
100
AcDbEntity
  8
0
100
AcDbCircle
 10
537.3173167357069
 20
323.2026818867136
 30
0.0
 40
3.628395135381667
100
AcDbArc
 50
144.5341032786446
 51
157.326237071927
  0
ARC
  5
B382F
330
2
100
AcDbEntity
  8
0
100
AcDbCircle
 10
553.5985667357076
 20
341.4214318867145
 30
0.0
 40
24.81593922735648
100
AcDbArc
 50
221.1043373901417
 51
222.742173698301
  0
ARC
  5
B3830
330
2
100
AcDbEntity
  8
0
100
AcDbCircle
 10
535.6610667357069
 20
322.1714318867136
 30
0.0
 40
2.912357642904027
100
AcDbArc
 50
357.8696031582554
 51
1.357576678297437
  0
ARC
  5
B3831
330
2
100
AcDbEntity
  8
0
100
AcDbCircle
 10
497.1629049710012
 20
353.0979024749488
 30
0.0
 40
51.58305451119208
100
AcDbArc
 50
325.1060138234108
 51
325.8191737032611
  0
ARC
  5
B3832
330
2
100
AcDbEntity
  8
0
100
AcDbCircle
 10
535.6610667357069
 20
322.1714318867136
 30
0.0
 40
2.912357642904027
100
AcDbArc
 50
7.058927956074559
 51
21.18538761424371
  0
ARC
  5
B3833
330
2
100
AcDbEntity
  8
0
100
AcDbCircle
 10
535.6610667357069
 20
322.1714318867136
 30
0.0
 40
2.849857642904027
100
AcDbArc
 50
8.709427380065333
 51
18.95308358671784
  0
ARC
  5
B3834
330
2
100
AcDbEntity
  8
0
100
AcDbCircle
 10
548.4110667357068
 20
313.9214318867136
 30
0.0
 40
16.54303825772011
100
AcDbArc
 50
136.4970581351456
 51
140.4032873884764
  0
ARC
  5
B3835
330
2
100
AcDbEntity
  8
0
100
AcDbCircle
 10
534.0673167357068
 20
326.5776818867136
 30
0.0
 40
5.337680356181072
100
AcDbArc
 50
301.4580754247488
 51
304.6378032503424
  0
ARC
  5
B3836
330
2
100
AcDbEntity
  8
0
100
AcDbCircle
 10
536.4423167357069
 20
324.8901818867136
 30
0.0
 40
3.316218131504475
100
AcDbArc
 50
299.534813849942
 51
305.0873530347625
  0
ARC
  5
B3837
330
2
100
AcDbEntity
  8
0
100
AcDbCircle
 10
548.4110667357068
 20
313.9214318867136
 30
0.0
 40
16.54303825772011
100
AcDbArc
 50
142.0952108435283
 51
145.2911818423824
  0
ARC
  5
B3838
330
2
100
AcDbEntity
  8
0
100
AcDbCircle
 10
548.4110667357068
 20
313.9214318867136
 30
0.0
 40
16.54303825772011
100
AcDbArc
 50
141.6141783128732
 51
145.2911818423824
  0
ARC
  5
B3839
330
2
100
AcDbEntity
  8
0
100
AcDbCircle
 10
548.4110667357068
 20
313.9214318867136
 30
0.0
 40
16.54303825772011
100
AcDbArc
 50
136.6900163762508
 51
140.1573356865644
  0
ARC
  5
B383A
330
2
100
AcDbEntity
  8
0
100
AcDbCircle
 10
537.1853722912624
 20
323.7096263311581
 30
0.0
 40
2.222687153522661
100
AcDbArc
 50
329.5393797478819
 51
350.7913953968539
  0
ARC
  5
B383B
330
2
100
AcDbEntity
  8
0
100
AcDbCircle
 10
542.6688792357055
 20
323.331588136714
 30
0.0
 40
9.656190933538345
100
AcDbArc
 50
168.2019365488685
 51
172.3485491443175
  0
ARC
  5
B383C
330
2
100
AcDbEntity
  8
0
100
AcDbCircle
 10
542.6688792357055
 20
323.331588136714
 30
0.0
 40
9.718690933538345
100
AcDbArc
 50
167.5771341298938
 51
172.3485491443175
  0
ARC
  5
B383D
330
2
100
AcDbEntity
  8
0
100
AcDbCircle
 10
553.5985667357076
 20
341.4214318867145
 30
0.0
 40
24.84718922735648
100
AcDbArc
 50
223.9544146890827
 51
226.6307560745017
  0
ARC
  5
B383E
330
2
100
AcDbEntity
  8
0
100
AcDbCircle
 10
553.5985667357076
 20
341.4214318867145
 30
0.0
 40
24.84718922735648
100
AcDbArc
 50
220.4228119541688
 51
222.9300512880762
  0
ARC
  5
B383F
330
2
100
AcDbEntity
  8
0
100
AcDbCircle
 10
540.1840930514963
 20
328.9650174130295
 30
0.0
 40
7.751222809738755
100
AcDbArc
 50
207.7553062883072
 51
214.3478806748685
  0
ARC
  5
B3840
330
2
100
AcDbEntity
  8
0
100
AcDbCircle
 10
540.1840930514963
 20
328.9650174130295
 30
0.0
 40
7.813722809738755
100
AcDbArc
 50
207.5784217352311
 51
215.0230664514228
  0
ARC
  5
B3841
330
2
100
AcDbEntity
  8
0
100
AcDbCircle
 10
575.9092285004125
 20
353.0979024749488
 30
0.0
 40
51.64555451119208
100
AcDbArc
 50
214.3605533268569
 51
214.9079152903358
  0
ARC
  5
B3842
330
2
100
AcDbEntity
  8
0
100
AcDbCircle
 10
536.6298167357069
 20
324.8901818867136
 30
0.0
 40
3.316218131504475
100
AcDbArc
 50
212.4200422147369
 51
225.42689341935
  0
ARC
  5
B3843
330
2
100
AcDbEntity
  8
0
100
AcDbCircle
 10
536.6298167357069
 20
324.8901818867136
 30
0.0
 40
3.253718131504475
100
AcDbArc
 50
210.9377539638413
 51
226.9953951951506
  0
ARC
  5
B3844
330
2
100
AcDbEntity
  8
0
100
AcDbCircle
 10
536.6298167357069
 20
324.8901818867136
 30
0.0
 40
3.253718131504475
100
AcDbArc
 50
236.3168338036995
 51
242.2160735877936
  0
ARC
  5
B3845
330
2
100
AcDbEntity
  8
0
100
AcDbCircle
 10
536.6298167357069
 20
324.8901818867136
 30
0.0
 40
3.316218131504475
100
AcDbArc
 50
233.9067504596943
 51
242.2160735877936
  0
ARC
  5
B3846
330
2
100
AcDbEntity
  8
0
100
AcDbCircle
 10
539.0048167357068
 20
326.5776818867136
 30
0.0
 40
5.337680356181072
100
AcDbArc
 50
220.3039236631886
 51
230.2183471889482
  0
ARC
  5
B3847
330
2
100
AcDbEntity
  8
0
100
AcDbCircle
 10
540.1840930514963
 20
328.9650174130295
 30
0.0
 40
7.813722809738755
100
AcDbArc
 50
217.4344631292373
 51
224.2774082981454
  0
ARC
  5
B3848
330
2
100
AcDbEntity
  8
0
100
AcDbCircle
 10
540.1840930514963
 20
328.9650174130295
 30
0.0
 40
7.751222809738755
100
AcDbArc
 50
217.8481954043009
 51
224.124717593153
  0
ARC
  5
B3849
330
2
100
AcDbEntity
  8
0
100
AcDbCircle
 10
539.0048167357068
 20
326.5776818867136
 30
0.0
 40
5.275180356181072
100
AcDbArc
 50
219.7721853320037
 51
229.751227797396
  0
ARC
  5
B384A
330
2
100
AcDbEntity
  8
0
100
AcDbCircle
 10
575.9092285004125
 20
353.0979024749488
 30
0.0
 40
51.58305451119208
100
AcDbArc
 50
214.1808262967388
 51
215.0476287198045
  0
ARC
  5
B384B
330
2
100
AcDbEntity
  8
0
100
AcDbCircle
 10
535.7548167357069
 20
323.2026818867136
 30
0.0
 40
3.565895135381667
100
AcDbArc
 50
4.558589336353723
 51
15.42491631673537
  0
ARC
  5
B384C
330
2
100
AcDbEntity
  8
0
100
AcDbCircle
 10
535.7548167357069
 20
323.2026818867136
 30
0.0
 40
3.628395135381667
100
AcDbArc
 50
4.674476270984667
 51
15.79539032977414
  0
ARC
  5
B384D
330
2
100
AcDbEntity
  8
0
100
AcDbCircle
 10
536.4423167357069
 20
324.8901818867136
 30
0.0
 40
3.253718131504475
100
AcDbArc
 50
313.7775180060522
 51
328.0721799774704
  0
ARC
  5
B384E
330
2
100
AcDbEntity
  8
0
100
AcDbCircle
 10
536.4423167357069
 20
324.8901818867136
 30
0.0
 40
3.316218131504475
100
AcDbArc
 50
312.9585636872139
 51
332.2160735877892
  0
ARC
  5
B384F
330
2
100
AcDbEntity
  8
0
100
AcDbCircle
 10
548.4110667357068
 20
313.6714318867136
 30
0.0
 40
15.35649979404903
100
AcDbArc
 50
146.2105330578413
 51
147.1524567347622
  0
ARC
  5
B3850
330
2
100
AcDbEntity
  8
0
100
AcDbCircle
 10
548.4110667357068
 20
313.6714318867136
 30
0.0
 40
15.29399979404903
100
AcDbArc
 50
146.09973074559
 51
147.1524567347622
  0
ARC
  5
B3851
330
2
100
AcDbEntity
  8
0
100
AcDbCircle
 10
548.4110667357068
 20
313.6714318867136
 30
0.0
 40
15.35649979404903
100
AcDbArc
 50
141.7818463013613
 51
144.4457494116527
  0
ARC
  5
B3852
330
2
100
AcDbEntity
  8
0
100
AcDbCircle
 10
548.4110667357068
 20
313.6714318867136
 30
0.0
 40
15.29399979404903
100
AcDbArc
 50
141.7538563842364
 51
144.680818484947
  0
ARC
  5
B3853
330
2
100
AcDbEntity
  8
0
100
AcDbCircle
 10
519.473566735706
 20
341.4214318867145
 30
0.0
 40
24.81593922735648
100
AcDbArc
 50
313.7199262797443
 51
316.0644456281239
  0
ARC
  5
B3854
330
2
100
AcDbEntity
  8
0
100
AcDbCircle
 10
519.473566735706
 20
341.4214318867145
 30
0.0
 40
24.87843922735649
100
AcDbArc
 50
313.9999248641018
 51
315.9660108723973
  0
ARC
  5
B3855
330
2
100
AcDbEntity
  8
0
100
AcDbCircle
 10
548.4110667357068
 20
313.6714318867136
 30
0.0
 40
15.32524979404903
100
AcDbArc
 50
140.7927964950289
 51
147.1524567347622
  0
ARC
  5
B3856
330
2
100
AcDbEntity
  8
0
100
AcDbCircle
 10
536.4423167357069
 20
324.8901818867136
 30
0.0
 40
3.253718131504475
100
AcDbArc
 50
297.7839264122063
 51
306.2739013583557
  0
ARC
  5
B3857
330
2
100
AcDbEntity
  8
0
100
AcDbCircle
 10
539.0048167357068
 20
326.5776818867136
 30
0.0
 40
5.337680356181072
100
AcDbArc
 50
234.4510310912818
 51
238.4111765028969
  0
ARC
  5
B3858
330
2
100
AcDbEntity
  8
0
100
AcDbCircle
 10
539.0048167357068
 20
326.5776818867136
 30
0.0
 40
5.275180356181072
100
AcDbArc
 50
234.9125011101726
 51
239.9621552543223
  0
ARC
  5
B3859
330
2
100
AcDbEntity
  8
0
100
AcDbCircle
 10
532.8880404199174
 20
328.9650174130295
 30
0.0
 40
7.813722809738755
100
AcDbArc
 50
325.3230517435507
 51
332.0950986565741
  0
ARC
  5
B385A
330
2
100
AcDbEntity
  8
0
100
AcDbCircle
 10
532.8880404199174
 20
328.9650174130295
 30
0.0
 40
7.751222809738755
100
AcDbArc
 50
326.8526416311483
 51
331.7338089772046
  0
ARC
  5
B385B
330
2
100
AcDbEntity
  8
0
100
AcDbCircle
 10
532.8880404199174
 20
328.9650174130295
 30
0.0
 40
7.751222809738755
100
AcDbArc
 50
315.5838000201757
 51
322.7442481415093
  0
ARC
  5
B385C
330
2
100
AcDbEntity
  8
0
100
AcDbCircle
 10
532.8880404199174
 20
328.9650174130295
 30
0.0
 40
7.813722809738755
100
AcDbArc
 50
315.5991048257648
 51
320.6437697255484
  0
ARC
  5
B385D
330
2
100
AcDbEntity
  8
0
100
AcDbCircle
 10
524.6610667357068
 20
313.9214318867136
 30
0.0
 40
16.6055382577201
100
AcDbArc
 50
35.52399794016999
 51
38.68856152746717
  0
ARC
  5
B385E
330
2
100
AcDbEntity
  8
0
100
AcDbCircle
 10
524.6610667357068
 20
313.9214318867136
 30
0.0
 40
16.54303825772011
100
AcDbArc
 50
35.38819585645837
 51
38.16927550847543
  0
ARC
  5
B385F
330
2
100
AcDbEntity
  8
0
100
AcDbCircle
 10
534.0673167357068
 20
326.5776818867136
 30
0.0
 40
5.337680356181072
100
AcDbArc
 50
309.7603625377757
 51
320.0115300392047
  0
ARC
  5
B3860
330
2
100
AcDbEntity
  8
0
100
AcDbCircle
 10
534.0673167357068
 20
326.5776818867136
 30
0.0
 40
5.275180356181072
100
AcDbArc
 50
310.6281617094249
 51
319.901144667188
  0
ARC
  5
B3861
330
2
100
AcDbEntity
  8
0
100
AcDbCircle
 10
524.6610667357068
 20
313.6714318867136
 30
0.0
 40
15.29399979404903
100
AcDbArc
 50
35.02252043195474
 51
38.09593141013408
  0
ARC
  5
B3862
330
2
100
AcDbEntity
  8
0
100
AcDbCircle
 10
524.6610667357068
 20
313.6714318867136
 30
0.0
 40
15.35649979404903
100
AcDbArc
 50
35.6067039707879
 51
38.24304283800078
  0
ARC
  5
B3863
330
2
100
AcDbEntity
  8
0
100
AcDbCircle
 10
553.5985667357076
 20
341.4214318867145
 30
0.0
 40
24.81593922735648
100
AcDbArc
 50
224.1654675076588
 51
225.9138495382448
  0
ARC
  5
B3864
330
2
100
AcDbEntity
  8
0
100
AcDbCircle
 10
553.5985667357076
 20
341.4214318867145
 30
0.0
 40
24.87843922735649
100
AcDbArc
 50
223.863613989129
 51
226.1315694821148
  0
ARC
  5
B3865
330
2
100
AcDbEntity
  8
0
100
AcDbCircle
 10
524.6610667357068
 20
313.6714318867136
 30
0.0
 40
15.29399979404903
100
AcDbArc
 50
32.84754326523775
 51
33.75634842437435
  0
ARC
  5
B3866
330
2
100
AcDbEntity
  8
0
100
AcDbCircle
 10
524.6610667357068
 20
313.6714318867136
 30
0.0
 40
15.35649979404903
100
AcDbArc
 50
32.84754326523775
 51
33.55138700236219
  0
ARC
  5
B3867
330
2
100
AcDbEntity
  8
0
100
AcDbCircle
 10
534.0673167357068
 20
326.5776818867136
 30
0.0
 40
5.275180356181072
100
AcDbArc
 50
300.0378447456776
 51
304.75009831482
  0
ARC
  5
B3868
330
2
100
AcDbEntity
  8
0
100
AcDbCircle
 10
535.6610667357069
 20
322.1714318867136
 30
0.0
 40
2.849857642904027
100
AcDbArc
 50
356.2686030008389
 51
1.056846140589933
  0
ARC
  5
B3869
330
2
100
AcDbEntity
  8
0
100
AcDbCircle
 10
530.4032542357081
 20
323.331588136714
 30
0.0
 40
9.656190933538345
100
AcDbArc
 50
7.901529134771792
 51
11.7526631058354
  0
ARC
  5
B386A
330
2
100
AcDbEntity
  8
0
100
AcDbCircle
 10
530.4032542357081
 20
323.331588136714
 30
0.0
 40
9.718690933538345
100
AcDbArc
 50
8.610790828927823
 51
11.70419110423664
  0
ARC
  5
B386B
330
2
100
AcDbEntity
  8
0
100
AcDbCircle
 10
535.7548167357069
 20
323.2026818867136
 30
0.0
 40
3.565895135381667
100
AcDbArc
 50
21.609185250801
 51
34.2955268082656
  0
ARC
  5
B386C
330
2
100
AcDbEntity
  8
0
100
AcDbCircle
 10
535.7548167357069
 20
323.2026818867136
 30
0.0
 40
3.628395135381667
100
AcDbArc
 50
22.75713683966254
 51
34.09959494139957
  0
ARC
  5
B386D
330
2
100
AcDbEntity
  8
0
100
AcDbCircle
 10
519.473566735706
 20
341.4214318867145
 30
0.0
 40
24.81593922735648
100
AcDbArc
 50
317.3601639103274
 51
319.3596961002573
  0
ARC
  5
B386E
330
2
100
AcDbEntity
  8
0
100
AcDbCircle
 10
519.473566735706
 20
341.4214318867145
 30
0.0
 40
24.87843922735649
100
AcDbArc
 50
317.0792870036821
 51
319.3385813749301
  0
ARC
  5
B386F
330
2
100
AcDbEntity
  8
0
100
AcDbCircle
 10
548.4110667357068
 20
313.9214318867136
 30
0.0
 40
16.57428825772011
100
AcDbArc
 50
136.6900163762508
 51
145.2911818423824
  0
ARC
  5
B3870
330
2
100
AcDbEntity
  8
0
100
AcDbCircle
 10
524.6610667357068
 20
313.9214318867136
 30
0.0
 40
16.6055382577201
100
AcDbArc
 50
39.91456099935215
 51
43.26713993623715
  0
ARC
  5
B3871
330
2
100
AcDbEntity
  8
0
100
AcDbCircle
 10
524.6610667357068
 20
313.9214318867136
 30
0.0
 40
16.54303825772011
100
AcDbArc
 50
39.79095134646646
 51
43.39631770285533
  0
LINE
  5
B3872
330
2
100
AcDbEntity
  8
0
100
AcDbLine
 10
536.5360667357069
 20
321.9839318867136
 30
0.0
 11
536.5360667357069
 21
322.2018491932046
 31
0.0
  0
LINE
  5
B3873
330
2
100
AcDbEntity
  8
0
100
AcDbLine
 10
536.5360667357069
 20
321.9839318867136
 30
0.0
 11
534.5360667357068
 21
321.9839318867136
 31
0.0
  0
LINE
  5
B3874
330
2
100
AcDbEntity
  8
0
100
AcDbLine
 10
536.5360667357069
 20
322.3589318867136
 30
0.0
 11
535.2957199468492
 21
322.3589318867136
 31
0.0
  0
LINE
  5
B3875
330
2
100
AcDbEntity
  8
0
100
AcDbLine
 10
536.5360667357069
 20
323.3589318867136
 30
0.0
 11
535.8011968215967
 21
323.3589318867136
 31
0.0
  0
LINE
  5
B3876
330
2
100
AcDbEntity
  8
0
100
AcDbLine
 10
536.270936649817
 20
324.3589318867136
 30
0.0
 11
534.6505879333713
 21
324.3589318867136
 31
0.0
  0
LINE
  5
B3877
330
2
100
AcDbEntity
  8
0
100
AcDbLine
 10
536.5360667357069
 20
325.4839318867136
 30
0.0
 11
535.7386968215966
 21
325.4839318867136
 31
0.0
  0
LINE
  5
B3878
330
2
100
AcDbEntity
  8
0
100
AcDbLine
 10
534.5360667357068
 20
321.9839318867136
 30
0.0
 11
534.5360667357068
 21
322.1575664094146
 31
0.0
  0
ARC
  5
B3879
330
2
100
AcDbEntity
  8
0
100
AcDbCircle
 10
539.0048167357068
 20
326.5776818867136
 30
0.0
 40
5.306430356181072
100
AcDbArc
 50
217.3422903062836
 51
239.9621552543223
  0
ARC
  5
B387A
330
2
100
AcDbEntity
  8
0
100
AcDbCircle
 10
540.1840930514963
 20
328.9650174130295
 30
0.0
 40
7.782472809738755
100
AcDbArc
 50
206.5704664012487
 51
226.0831855029889
  0
ARC
  5
B387B
330
2
100
AcDbEntity
  8
0
100
AcDbCircle
 10
548.4110667357068
 20
313.6714318867136
 30
0.0
 40
15.32524979404903
100
AcDbArc
 50
140.7927964950289
 51
147.1524567347622
  0
ARC
  5
B387C
330
2
100
AcDbEntity
  8
0
100
AcDbCircle
 10
536.6298167357069
 20
324.8901818867136
 30
0.0
 40
3.284968131504475
100
AcDbArc
 50
207.7839264122107
 51
242.2160735877936
  0
ARC
  5
B387D
330
2
100
AcDbEntity
  8
0
100
AcDbCircle
 10
575.9092285004125
 20
353.0979024749488
 30
0.0
 40
51.61430451119208
100
AcDbArc
 50
214.1808262967388
 51
215.1820937896818
  0
ARC
  5
B387E
330
2
100
AcDbEntity
  8
0
100
AcDbCircle
 10
535.8867611801513
 20
323.7096263311581
 30
0.0
 40
2.191437153522661
100
AcDbArc
 50
223.0706352693491
 51
231.9498491418326
  0
ARC
  5
B387F
330
2
100
AcDbEntity
  8
0
100
AcDbCircle
 10
537.3173167357069
 20
323.2026818867136
 30
0.0
 40
3.597145135381667
100
AcDbArc
 50
140.6405494321549
 51
177.5104470780002
  0
ARC
  5
B3880
330
2
100
AcDbEntity
  8
0
100
AcDbCircle
 10
537.4110667357069
 20
322.1714318867136
 30
0.0
 40
2.881107642904027
100
AcDbArc
 50
155.6589100633097
 51
183.731396999161
  0
ARC
  5
B3881
330
2
100
AcDbEntity
  8
0
100
AcDbCircle
 10
548.4110667357068
 20
313.9214318867136
 30
0.0
 40
16.57428825772011
100
AcDbArc
 50
135.7638984609323
 51
145.2911818423824
  0
ARC
  5
B3882
330
2
100
AcDbEntity
  8
0
100
AcDbCircle
 10
553.5985667357076
 20
341.4214318867145
 30
0.0
 40
24.84718922735648
100
AcDbArc
 50
219.8978347476419
 51
226.6307560745017
  0
ARC
  5
B3883
330
2
100
AcDbEntity
  8
0
100
AcDbCircle
 10
535.2674481721648
 20
324.0879449288359
 30
0.0
 40
2.052697245764164
100
AcDbArc
 50
207.5445257878082
 51
234.2708486175771
  0
LWPOLYLINE
  5
B3884
330
2
100
AcDbEntity
  8
0
100
AcDbPolyline
 90
        2
 70
     0
 10
535.4735317786518
 20
325.3513668437686
 40
0.0
 41
0.03125
 10
535.4735317786516
 20
325.4839318867136
 40
0.03125
 41
0.03125
  0
LWPOLYLINE
  5
B3885
330
2
100
AcDbEntity
  8
0
100
AcDbPolyline
 90
        2
 70
     0
 10
535.3442424311507
 20
325.4819944925652
 40
0.0
 41
0.03125
 10
535.4735317786518
 20
325.4839318867136
 40
0.03125
 41
0.03125
  0
LWPOLYLINE
  5
B3886
330
2
100
AcDbEntity
  8
0
100
AcDbPolyline
 90
        2
 70
     0
 10
535.4735317786518
 20
325.6165318867136
 40
0.0
 41
0.03125
 10
535.4735667357068
 20
325.4839318867136
 40
0.03125
 41
0.03125
  0
LWPOLYLINE
  5
B3887
330
2
100
AcDbEntity
  8
0
100
AcDbPolyline
 90
        2
 70
     0
 10
535.6061317786518
 20
325.4839318867136
 40
0.0
 41
0.03125
 10
535.4735667357068
 20
325.4839318867136
 40
0.03125
 41
0.03125
  0
LINE
  5
B3888
330
2
100
AcDbEntity
  8
0
100
AcDbLine
 10
535.4735317786518
 20
325.6165318867136
 30
0.0
 11
535.4735317786518
 21
325.3513668437686
 31
0.0
  0
LINE
  5
B3889
330
2
100
AcDbEntity
  8
0
100
AcDbLine
 10
535.3409667357068
 20
325.4839318867136
 30
0.0
 11
535.6061317786518
 21
325.4839318867136
 31
0.0
  0
LINE
  5
B388A
330
2
100
AcDbEntity
  8
0
100
AcDbLine
 10
535.4735492571793
 20
325.2187843222961
 30
0.0
 11
535.7387143001242
 21
325.4839493652411
 31
0.0
  0
LINE
  5
B388B
330
2
100
AcDbEntity
  8
0
100
AcDbLine
 10
535.2083842142343
 20
325.4839493652411
 30
0.0
 11
535.4735492571793
 21
325.2187843222961
 31
0.0
  0
LINE
  5
B388C
330
2
100
AcDbEntity
  8
0
100
AcDbLine
 10
535.4735492571793
 20
325.7491144081861
 30
0.0
 11
535.2083842142343
 21
325.4839493652411
 31
0.0
  0
LINE
  5
B388D
330
2
100
AcDbEntity
  8
0
100
AcDbLine
 10
535.7387143001242
 20
325.4839493652411
 30
0.0
 11
535.4735492571793
 21
325.7491144081861
 31
0.0
  0
LWPOLYLINE
  5
B388E
330
2
100
AcDbEntity
  8
0
100
AcDbPolyline
 90
        2
 70
     0
 10
536.5360667357069
 20
324.2263668437686
 40
0.0
 41
0.03125
 10
536.5360667357069
 20
324.3589318867136
 40
0.03125
 41
0.03125
  0
LWPOLYLINE
  5
B388F
330
2
100
AcDbEntity
  8
0
100
AcDbPolyline
 90
        2
 70
     0
 10
536.4067773882059
 20
324.3569944925652
 40
0.0
 41
0.03125
 10
536.5360667357069
 20
324.3589318867136
 40
0.03125
 41
0.03125
  0
LWPOLYLINE
  5
B3890
330
2
100
AcDbEntity
  8
0
100
AcDbPolyline
 90
        2
 70
     0
 10
536.5360667357069
 20
324.4915318867136
 40
0.0
 41
0.03125
 10
536.5361016927619
 20
324.3589318867136
 40
0.03125
 41
0.03125
  0
LWPOLYLINE
  5
B3891
330
2
100
AcDbEntity
  8
0
100
AcDbPolyline
 90
        2
 70
     0
 10
536.6686667357068
 20
324.3589318867136
 40
0.0
 41
0.03125
 10
536.5361016927619
 20
324.3589318867136
 40
0.03125
 41
0.03125
  0
LINE
  5
B3892
330
2
100
AcDbEntity
  8
0
100
AcDbLine
 10
536.5360667357069
 20
324.4915318867136
 30
0.0
 11
536.5360667357069
 21
324.2263668437686
 31
0.0
  0
LINE
  5
B3893
330
2
100
AcDbEntity
  8
0
100
AcDbLine
 10
536.403501692762
 20
324.3589318867136
 30
0.0
 11
536.6686667357068
 21
324.3589318867136
 31
0.0
  0
LINE
  5
B3894
330
2
100
AcDbEntity
  8
0
100
AcDbLine
 10
536.2709191712895
 20
324.3589493652411
 30
0.0
 11
536.5360842142344
 21
324.0937843222961
 31
0.0
  0
LINE
  5
B3895
330
2
100
AcDbEntity
  8
0
100
AcDbLine
 10
536.5360842142344
 20
324.6241144081861
 30
0.0
 11
536.2709191712895
 21
324.3589493652411
 31
0.0
  0
LWPOLYLINE
  5
B3896
330
2
100
AcDbEntity
  8
0
100
AcDbPolyline
 90
        2
 70
     0
 10
535.1192798336261
 20
322.2263668437686
 40
0.0
 41
0.03125
 10
535.0985317786516
 20
322.3589318867136
 40
0.03125
 41
0.03125
  0
LWPOLYLINE
  5
B3897
330
2
100
AcDbEntity
  8
0
100
AcDbPolyline
 90
        2
 70
     0
 10
534.9692424311507
 20
322.3569944925652
 40
0.0
 41
0.03125
 10
535.0985317786518
 20
322.3589318867136
 40
0.03125
 41
0.03125
  0
LWPOLYLINE
  5
B3898
330
2
100
AcDbEntity
  8
0
100
AcDbPolyline
 90
        2
 70
     0
 10
535.0652446414443
 20
322.4915318867136
 40
0.0
 41
0.03125
 10
535.0985667357068
 20
322.3589318867136
 40
0.03125
 41
0.03125
  0
LWPOLYLINE
  5
B3899
330
2
100
AcDbEntity
  8
0
100
AcDbPolyline
 90
        2
 70
     0
 10
535.2311317786518
 20
322.3589318867136
 40
0.0
 41
0.03125
 10
535.0985667357068
 20
322.3589318867136
 40
0.03125
 41
0.03125
  0
LINE
  5
B389A
330
2
100
AcDbEntity
  8
0
100
AcDbLine
 10
535.0652446414443
 20
322.4915318867136
 30
0.0
 11
535.1192798336261
 21
322.2263668437686
 31
0.0
  0
LINE
  5
B389B
330
2
100
AcDbEntity
  8
0
100
AcDbLine
 10
534.9659667357068
 20
322.3589318867136
 30
0.0
 11
535.2311317786518
 21
322.3589318867136
 31
0.0
  0
LINE
  5
B389C
330
2
100
AcDbEntity
  8
0
100
AcDbLine
 10
535.1318363943867
 20
322.1770314188851
 30
0.0
 11
535.2957388926681
 21
322.3589493652411
 31
0.0
  0
LINE
  5
B389D
330
2
100
AcDbEntity
  8
0
100
AcDbLine
 10
534.8843657698264
 20
322.3589493652411
 30
0.0
 11
535.1318363943867
 21
322.1770314188851
 31
0.0
  0
LINE
  5
B389E
330
2
100
AcDbEntity
  8
0
100
AcDbLine
 10
535.0402967670662
 20
322.6241144081861
 30
0.0
 11
534.8843657698264
 21
322.3589493652411
 31
0.0
  0
LINE
  5
B389F
330
2
100
AcDbEntity
  8
0
100
AcDbLine
 10
535.2957388926681
 20
322.3589493652411
 30
0.0
 11
535.0402967670662
 21
322.6241144081861
 31
0.0
  0
LWPOLYLINE
  5
B38A0
330
2
100
AcDbEntity
  8
0
100
AcDbPolyline
 90
        2
 70
     0
 10
533.5432054201911
 20
325.3513668437686
 40
0.0
 41
0.03125
 10
533.543205420191
 20
325.4839318867136
 40
0.03125
 41
0.03125
  0
LWPOLYLINE
  5
B38A1
330
2
100
AcDbEntity
  8
0
100
AcDbPolyline
 90
        2
 70
     0
 10
533.5293930447498
 20
325.4819944925652
 40
0.0
 41
0.03125
 10
533.5432054201911
 20
325.4839318867136
 40
0.03125
 41
0.03125
  0
LWPOLYLINE
  5
B38A2
330
2
100
AcDbEntity
  8
0
100
AcDbPolyline
 90
        2
 70
     0
 10
533.5432054201911
 20
325.6165318867136
 40
0.0
 41
0.03125
 10
533.5432403772462
 20
325.4839318867136
 40
0.03125
 41
0.03125
  0
LWPOLYLINE
  5
B38A3
330
2
100
AcDbEntity
  8
0
100
AcDbPolyline
 90
        2
 70
     0
 10
533.5859899974779
 20
325.4839318867136
 40
0.0
 41
0.03125
 10
533.5432403772462
 20
325.4839318867136
 40
0.03125
 41
0.03125
  0
LINE
  5
B38A4
330
2
100
AcDbEntity
  8
0
100
AcDbLine
 10
533.5432054201911
 20
325.6165318867136
 30
0.0
 11
533.5432054201911
 21
325.3513668437686
 31
0.0
  0
LINE
  5
B38A5
330
2
100
AcDbEntity
  8
0
100
AcDbLine
 10
533.5261173493059
 20
325.4839318867136
 30
0.0
 11
533.5859899974779
 21
325.4839318867136
 31
0.0
  0
LINE
  5
B38A6
330
2
100
AcDbEntity
  8
0
100
AcDbLine
 10
533.5432228987186
 20
325.2187843222961
 30
0.0
 11
533.7185725189503
 21
325.4839493652411
 31
0.0
  0
LINE
  5
B38A7
330
2
100
AcDbEntity
  8
0
100
AcDbLine
 10
533.3935348278336
 20
325.4839493652411
 30
0.0
 11
533.5432228987186
 21
325.2187843222961
 31
0.0
  0
LINE
  5
B38A8
330
2
100
AcDbEntity
  8
0
100
AcDbLine
 10
533.5432228987186
 20
325.7491144081861
 30
0.0
 11
533.3935348278336
 21
325.4839493652411
 31
0.0
  0
LINE
  5
B38A9
330
2
100
AcDbEntity
  8
0
100
AcDbLine
 10
533.7185725189503
 20
325.4839493652411
 30
0.0
 11
533.5432228987186
 21
325.7491144081861
 31
0.0
  0
LINE
  5
B38AA
330
2
100
AcDbEntity
  8
0
100
AcDbLine
 10
533.0676916325805
 20
324.6214363643724
 30
0.0
 11
533.0752541072932
 21
324.396403618237
 31
0.0
  0
LINE
  5
B38AB
330
2
100
AcDbEntity
  8
0
100
AcDbLine
 10
533.2103337290355
 20
324.1006471655759
 30
0.0
 11
533.0893014646384
 21
324.3080453564786
 31
0.0
  0
LINE
  5
B38AC
330
2
100
AcDbEntity
  8
0
100
AcDbLine
 10
533.0893014646384
 20
324.3080453564786
 30
0.0
 11
533.0752541072932
 21
324.396403618237
 31
0.0
  0
LINE
  5
B38AD
330
2
100
AcDbEntity
  8
0
100
AcDbLine
 10
533.0893014646384
 20
324.3522244873578
 30
0.0
 11
533.2027528994411
 21
324.3523886398467
 31
0.0
  0
LINE
  5
B38AE
330
2
100
AcDbEntity
  8
0
100
AcDbLine
 10
533.2027528994411
 20
324.3523886398467
 30
0.0
 11
533.0752541072932
 21
324.396403618237
 31
0.0
  0
LINE
  5
B38AF
330
2
100
AcDbEntity
  8
0
100
AcDbLine
 10
533.2027528994411
 20
324.3523886398467
 30
0.0
 11
533.0893014646384
 21
324.3080453564786
 31
0.0
  0
LINE
  5
B38B0
330
2
100
AcDbEntity
  8
0
100
AcDbLine
 10
533.2027528994411
 20
324.3523886398467
 30
0.0
 11
533.0893014646384
 21
324.3080453564786
 31
0.0
  0
LINE
  5
B38B1
330
2
100
AcDbEntity
  8
0
100
AcDbLine
 10
533.2027528994411
 20
324.3523886398467
 30
0.0
 11
533.0752541072932
 21
324.396403618237
 31
0.0
  0
LINE
  5
B38B2
330
2
100
AcDbEntity
  8
0
100
AcDbLine
 10
533.0893014646384
 20
324.3522244873578
 30
0.0
 11
533.2027528994411
 21
324.3523886398467
 31
0.0
  0
LINE
  5
B38B3
330
2
100
AcDbEntity
  8
0
100
AcDbLine
 10
533.0893014646384
 20
324.3080453564786
 30
0.0
 11
533.0752541072932
 21
324.396403618237
 31
0.0
  0
LINE
  5
B38B4
330
2
100
AcDbEntity
  8
0
100
AcDbLine
 10
533.2103337290355
 20
324.1006471655759
 30
0.0
 11
533.0893014646384
 21
324.3080453564786
 31
0.0
  0
LINE
  5
B38B5
330
2
100
AcDbEntity
  8
0
100
AcDbLine
 10
533.0676916325805
 20
324.6214363643724
 30
0.0
 11
533.0752541072932
 21
324.396403618237
 31
0.0
  0
LINE
  5
B38B6
330
2
100
AcDbEntity
  8
0
100
AcDbLine
 10
536.5360492571793
 20
322.6241144081861
 30
0.0
 11
536.2708842142343
 21
322.3589493652411
 31
0.0
  0
LINE
  5
B38B7
330
2
100
AcDbEntity
  8
0
100
AcDbLine
 10
536.2708842142343
 20
322.3589493652411
 30
0.0
 11
536.5360492571793
 21
322.2018388371612
 31
0.0
  0
LINE
  5
B38B8
330
2
100
AcDbEntity
  8
0
100
AcDbLine
 10
536.4034667357068
 20
322.3589318867136
 30
0.0
 11
536.6686317786518
 21
322.3589318867136
 31
0.0
  0
LINE
  5
B38B9
330
2
100
AcDbEntity
  8
0
100
AcDbLine
 10
536.5360317786517
 20
322.4915318867136
 30
0.0
 11
536.5360317786517
 21
322.2263668437686
 31
0.0
  0
LWPOLYLINE
  5
B38BA
330
2
100
AcDbEntity
  8
0
100
AcDbPolyline
 90
        2
 70
     0
 10
536.6686317786518
 20
322.3589318867136
 40
0.0
 41
0.03125
 10
536.5360667357069
 20
322.3589318867136
 40
0.03125
 41
0.03125
  0
LWPOLYLINE
  5
B38BB
330
2
100
AcDbEntity
  8
0
100
AcDbPolyline
 90
        2
 70
     0
 10
536.5360317786517
 20
322.4915318867136
 40
0.0
 41
0.03125
 10
536.5360667357069
 20
322.3589318867136
 40
0.03125
 41
0.03125
  0
LWPOLYLINE
  5
B38BC
330
2
100
AcDbEntity
  8
0
100
AcDbPolyline
 90
        2
 70
     0
 10
536.4067424311507
 20
322.3569944925652
 40
0.0
 41
0.03125
 10
536.5360317786517
 20
322.3589318867136
 40
0.03125
 41
0.03125
  0
LWPOLYLINE
  5
B38BD
330
2
100
AcDbEntity
  8
0
100
AcDbPolyline
 90
        2
 70
     0
 10
536.5360317786517
 20
322.2263668437686
 40
0.0
 41
0.03125
 10
536.5360317786517
 20
322.3589318867136
 40
0.03125
 41
0.03125
  0
LINE
  5
B38BE
330
2
100
AcDbEntity
  8
0
100
AcDbLine
 10
535.8012143001242
 20
323.3589493652412
 30
0.0
 11
535.5360492571793
 21
323.6241144081862
 31
0.0
  0
LINE
  5
B38BF
330
2
100
AcDbEntity
  8
0
100
AcDbLine
 10
535.5360492571793
 20
323.6241144081862
 30
0.0
 11
535.2960241932544
 21
323.3589493652412
 31
0.0
  0
LINE
  5
B38C0
330
2
100
AcDbEntity
  8
0
100
AcDbLine
 10
535.2960241932544
 20
323.3589493652412
 30
0.0
 11
535.5360492571793
 21
323.0937843222962
 31
0.0
  0
LINE
  5
B38C1
330
2
100
AcDbEntity
  8
0
100
AcDbLine
 10
535.5360492571793
 20
323.0937843222962
 30
0.0
 11
535.8012143001242
 21
323.3589493652412
 31
0.0
  0
LINE
  5
B38C2
330
2
100
AcDbEntity
  8
0
100
AcDbLine
 10
535.4034667357068
 20
323.3589318867136
 30
0.0
 11
535.6686317786518
 21
323.3589318867136
 31
0.0
  0
LINE
  5
B38C3
330
2
100
AcDbEntity
  8
0
100
AcDbLine
 10
535.5360317786518
 20
323.4915318867137
 30
0.0
 11
535.5360317786518
 21
323.2263668437687
 31
0.0
  0
LWPOLYLINE
  5
B38C4
330
2
100
AcDbEntity
  8
0
100
AcDbPolyline
 90
        2
 70
     0
 10
535.6686317786518
 20
323.3589318867136
 40
0.0
 41
0.03125
 10
535.5360667357068
 20
323.3589318867136
 40
0.03125
 41
0.03125
  0
LWPOLYLINE
  5
B38C5
330
2
100
AcDbEntity
  8
0
100
AcDbPolyline
 90
        2
 70
     0
 10
535.5360317786518
 20
323.4915318867137
 40
0.0
 41
0.03125
 10
535.5360667357068
 20
323.3589318867136
 40
0.03125
 41
0.03125
  0
LWPOLYLINE
  5
B38C6
330
2
100
AcDbEntity
  8
0
100
AcDbPolyline
 90
        2
 70
     0
 10
535.4067424311507
 20
323.3569944925652
 40
0.0
 41
0.03125
 10
535.5360317786518
 20
323.3589318867136
 40
0.03125
 41
0.03125
  0
LWPOLYLINE
  5
B38C7
330
2
100
AcDbEntity
  8
0
100
AcDbPolyline
 90
        2
 70
     0
 10
535.5360317786518
 20
323.2263668437687
 40
0.0
 41
0.03125
 10
535.5360317786517
 20
323.3589318867136
 40
0.03125
 41
0.03125
  0
LINE
  5
B38C8
330
2
100
AcDbEntity
  8
0
100
AcDbLine
 10
534.6506009312569
 20
324.3589493652431
 30
0.0
 11
534.453411295768
 21
324.6241144081881
 31
0.0
  0
LINE
  5
B38C9
330
2
100
AcDbEntity
  8
0
100
AcDbLine
 10
534.453411295768
 20
324.6241144081881
 30
0.0
 11
534.2392278084152
 21
324.3589493652431
 31
0.0
  0
LINE
  5
B38CA
330
2
100
AcDbEntity
  8
0
100
AcDbLine
 10
534.2392278084152
 20
324.3589493652431
 30
0.0
 11
534.453411295768
 21
324.0937843222981
 31
0.0
  0
LINE
  5
B38CB
330
2
100
AcDbEntity
  8
0
100
AcDbLine
 10
534.453411295768
 20
324.0937843222981
 30
0.0
 11
534.6506009312569
 21
324.3589493652431
 31
0.0
  0
LINE
  5
B38CC
330
2
100
AcDbEntity
  8
0
100
AcDbLine
 10
534.3208287742956
 20
324.3589318867155
 30
0.0
 11
534.5859938172404
 21
324.3589318867155
 31
0.0
  0
LINE
  5
B38CD
330
2
100
AcDbEntity
  8
0
100
AcDbLine
 10
534.4533938172405
 20
324.4915318867156
 30
0.0
 11
534.4533938172405
 21
324.2263668437706
 31
0.0
  0
LWPOLYLINE
  5
B38CE
330
2
100
AcDbEntity
  8
0
100
AcDbPolyline
 90
        2
 70
     0
 10
534.5859938172404
 20
324.3589318867155
 40
0.0
 41
0.03125
 10
534.4534287742956
 20
324.3589318867155
 40
0.03125
 41
0.03125
  0
LWPOLYLINE
  5
B38CF
330
2
100
AcDbEntity
  8
0
100
AcDbPolyline
 90
        2
 70
     0
 10
534.4533938172405
 20
324.4915318867156
 40
0.0
 41
0.03125
 10
534.4534287742956
 20
324.3589318867155
 40
0.03125
 41
0.03125
  0
LWPOLYLINE
  5
B38D0
330
2
100
AcDbEntity
  8
0
100
AcDbPolyline
 90
        2
 70
     0
 10
534.3241044697395
 20
324.3569944925671
 40
0.0
 41
0.03125
 10
534.4533938172405
 20
324.3589318867155
 40
0.03125
 41
0.03125
  0
LWPOLYLINE
  5
B38D1
330
2
100
AcDbEntity
  8
0
100
AcDbPolyline
 90
        2
 70
     0
 10
534.4533938172405
 20
324.2263668437706
 40
0.0
 41
0.03125
 10
534.4533938172404
 20
324.3589318867155
 40
0.03125
 41
0.03125
  0
LINE
  5
B38D2
330
2
100
AcDbEntity
  8
0
100
AcDbLine
 10
534.2131105842384
 20
323.3589493652412
 30
0.0
 11
534.0377609640066
 21
323.6241144081862
 31
0.0
  0
LINE
  5
B38D3
330
2
100
AcDbEntity
  8
0
100
AcDbLine
 10
534.0377609640066
 20
323.6241144081862
 30
0.0
 11
533.8880728931216
 21
323.3589493652412
 31
0.0
  0
LINE
  5
B38D4
330
2
100
AcDbEntity
  8
0
100
AcDbLine
 10
533.8880728931216
 20
323.3589493652412
 30
0.0
 11
534.0377609640066
 21
323.0937843222962
 31
0.0
  0
LINE
  5
B38D5
330
2
100
AcDbEntity
  8
0
100
AcDbLine
 10
534.0377609640066
 20
323.0937843222962
 30
0.0
 11
534.2131105842384
 21
323.3589493652412
 31
0.0
  0
LINE
  5
B38D6
330
2
100
AcDbEntity
  8
0
100
AcDbLine
 10
534.020655414594
 20
323.3589318867136
 30
0.0
 11
534.080528062766
 21
323.3589318867136
 31
0.0
  0
LINE
  5
B38D7
330
2
100
AcDbEntity
  8
0
100
AcDbLine
 10
534.0377434854791
 20
323.4915318867137
 30
0.0
 11
534.0377434854791
 21
323.2263668437687
 31
0.0
  0
LWPOLYLINE
  5
B38D8
330
2
100
AcDbEntity
  8
0
100
AcDbPolyline
 90
        2
 70
     0
 10
534.080528062766
 20
323.3589318867136
 40
0.0
 41
0.03125
 10
534.0377784425341
 20
323.3589318867136
 40
0.03125
 41
0.03125
  0
LWPOLYLINE
  5
B38D9
330
2
100
AcDbEntity
  8
0
100
AcDbPolyline
 90
        2
 70
     0
 10
534.0377434854791
 20
323.4915318867137
 40
0.0
 41
0.03125
 10
534.0377784425341
 20
323.3589318867136
 40
0.03125
 41
0.03125
  0
LWPOLYLINE
  5
B38DA
330
2
100
AcDbEntity
  8
0
100
AcDbPolyline
 90
        2
 70
     0
 10
534.023931110038
 20
323.3569944925652
 40
0.0
 41
0.03125
 10
534.0377434854791
 20
323.3589318867136
 40
0.03125
 41
0.03125
  0
LWPOLYLINE
  5
B38DB
330
2
100
AcDbEntity
  8
0
100
AcDbPolyline
 90
        2
 70
     0
 10
534.0377434854791
 20
323.2263668437687
 40
0.0
 41
0.03125
 10
534.0377434854791
 20
323.3589318867136
 40
0.03125
 41
0.03125
  0
LINE
  5
B38DC
330
2
100
AcDbEntity
  8
0
100
AcDbLine
 10
533.2679054851329
 20
323.6238382325851
 30
0.0
 11
533.3072567764032
 21
323.3896962188812
 31
0.0
  0
LINE
  5
B38DD
330
2
100
AcDbEntity
  8
0
100
AcDbLine
 10
533.4474206069074
 20
323.1387001529899
 30
0.0
 11
533.3306690386453
 21
323.3080453564785
 31
0.0
  0
LINE
  5
B38DE
330
2
100
AcDbEntity
  8
0
100
AcDbLine
 10
533.3306690386453
 20
323.3080453564785
 30
0.0
 11
533.3072567764032
 21
323.3896962188812
 31
0.0
  0
LINE
  5
B38DF
330
2
100
AcDbEntity
  8
0
100
AcDbLine
 10
533.3306690386453
 20
323.3522244873578
 30
0.0
 11
533.444120473448
 21
323.3523886398466
 31
0.0
  0
LINE
  5
B38E0
330
2
100
AcDbEntity
  8
0
100
AcDbLine
 10
533.444120473448
 20
323.3523886398466
 30
0.0
 11
533.3072567764032
 21
323.3896962188812
 31
0.0
  0
LINE
  5
B38E1
330
2
100
AcDbEntity
  8
0
100
AcDbLine
 10
533.444120473448
 20
323.3523886398466
 30
0.0
 11
533.3306690386453
 21
323.3080453564785
 31
0.0
  0
LINE
  5
B38E2
330
2
100
AcDbEntity
  8
0
100
AcDbLine
 10
533.444120473448
 20
323.3523886398466
 30
0.0
 11
533.3306690386453
 21
323.3080453564785
 31
0.0
  0
LINE
  5
B38E3
330
2
100
AcDbEntity
  8
0
100
AcDbLine
 10
533.444120473448
 20
323.3523886398466
 30
0.0
 11
533.3072567764032
 21
323.3896962188812
 31
0.0
  0
LINE
  5
B38E4
330
2
100
AcDbEntity
  8
0
100
AcDbLine
 10
533.3306690386453
 20
323.3522244873578
 30
0.0
 11
533.444120473448
 21
323.3523886398466
 31
0.0
  0
LINE
  5
B38E5
330
2
100
AcDbEntity
  8
0
100
AcDbLine
 10
533.3306690386453
 20
323.3080453564785
 30
0.0
 11
533.3072567764032
 21
323.3896962188812
 31
0.0
  0
LINE
  5
B38E6
330
2
100
AcDbEntity
  8
0
100
AcDbLine
 10
533.4474206069074
 20
323.1387001529899
 30
0.0
 11
533.3306690386453
 21
323.3080453564785
 31
0.0
  0
LINE
  5
B38E7
330
2
100
AcDbEntity
  8
0
100
AcDbLine
 10
533.2679054851329
 20
323.6238382325851
 30
0.0
 11
533.3072567764032
 21
323.3896962188812
 31
0.0
  0
LINE
  5
B38E8
330
2
100
AcDbEntity
  8
0
100
AcDbLine
 10
534.8843863484007
 20
322.3589318867136
 30
0.0
 11
534.2429949414478
 21
322.3589318867136
 31
0.0
  0
ARC
  5
B38E9
330
2
100
AcDbEntity
  8
0
100
AcDbCircle
 10
535.2674481721648
 20
324.0879449288359
 30
0.0
 40
2.052697245764164
100
AcDbArc
 50
180.0084007714324
 51
193.0673369809008
  0
LINE
  5
B38EA
330
2
100
AcDbEntity
  8
0
100
AcDbLine
 10
533.9977910230146
 20
322.5986859442396
 30
0.0
 11
534.0712848940612
 21
322.4130010757779
 31
0.0
  0
LINE
  5
B38EB
330
2
100
AcDbEntity
  8
0
100
AcDbLine
 10
534.1847363288638
 20
322.3689860973877
 30
0.0
 11
534.0712848940612
 21
322.4130010757779
 31
0.0
  0
LINE
  5
B38EC
330
2
100
AcDbEntity
  8
0
100
AcDbLine
 10
534.1847363288638
 20
322.3689860973877
 30
0.0
 11
534.0712848940612
 21
322.4130010757779
 31
0.0
  0
LINE
  5
B38ED
330
2
100
AcDbEntity
  8
0
100
AcDbLine
 10
533.9977910230146
 20
322.5986859442396
 30
0.0
 11
534.0712848940612
 21
322.4130010757779
 31
0.0
  0
ARC
  5
B38EE
330
2
100
AcDbEntity
  8
0
100
AcDbCircle
 10
535.8867611801513
 20
323.7096263311581
 30
0.0
 40
2.191437153522661
100
AcDbArc
 50
189.208604603146
 51
210.460620252118
  0
LINE
  5
B38EF
330
2
100
AcDbEntity
  8
0
100
AcDbLine
 10
534.0712848940612
 20
322.4124557462128
 30
0.0
 11
534.1072981599719
 21
322.3289359473128
 31
0.0
  0
LINE
  5
B38F0
330
2
100
AcDbEntity
  8
0
100
AcDbLine
 10
534.1836989550245
 20
322.368984596415
 30
0.0
 11
534.1072981599719
 21
322.3289359473128
 31
0.0
  0
LINE
  5
B38F1
330
2
100
AcDbEntity
  8
0
100
AcDbLine
 10
534.2858892397635
 20
322.2130950657584
 30
0.0
 11
534.1072981599719
 21
322.3289359473128
 31
0.0
  0
LINE
  5
B38F2
330
2
100
AcDbEntity
  8
0
100
AcDbLine
 10
535.2084016927618
 20
325.4839318867136
 30
0.0
 11
533.7185609606653
 21
325.4839318867136
 31
0.0
  0
LINE
  5
B38F3
330
2
100
AcDbEntity
  8
0
100
AcDbLine
 10
533.3935446946208
 20
325.4839318867136
 30
0.0
 11
532.7682288655354
 21
325.4839318867136
 31
0.0
  0
LINE
  5
B38F4
330
2
100
AcDbEntity
  8
0
100
AcDbLine
 10
534.2392419264617
 20
324.3589318867136
 30
0.0
 11
533.2073028488282
 21
324.3589318867136
 31
0.0
  0
LINE
  5
B38F5
330
2
100
AcDbEntity
  8
0
100
AcDbLine
 10
535.2960400146637
 20
323.3589318867136
 30
0.0
 11
534.2130990259533
 21
323.3589318867136
 31
0.0
  0
LINE
  5
B38F6
330
2
100
AcDbEntity
  8
0
100
AcDbLine
 10
533.8880827599089
 20
323.3589318867136
 30
0.0
 11
533.4476534420173
 21
323.3589318867136
 31
0.0
  0
LINE
  5
B38F7
330
2
100
AcDbEntity
  8
0
100
AcDbLine
 10
533.5432228987186
 20
325.2187843222961
 30
0.0
 11
533.9110667357068
 21
324.3589318867136
 31
0.0
  0
LINE
  5
B38F8
330
2
100
AcDbEntity
  8
0
100
AcDbLine
 10
533.9110667357068
 20
324.3589318867136
 30
0.0
 11
534.0377609640066
 21
323.6241144081862
 31
0.0
  0
LINE
  5
B38F9
330
2
100
AcDbEntity
  8
0
100
AcDbLine
 10
534.5360667357068
 20
325.4839318867136
 30
0.0
 11
534.453411295768
 21
324.6241144081881
 31
0.0
  0
LINE
  5
B38FA
330
2
100
AcDbEntity
  8
0
100
AcDbLine
 10
534.453411295768
 20
324.0937843222981
 30
0.0
 11
534.7860667357068
 21
323.3589318867136
 31
0.0
  0
LINE
  5
B38FB
330
2
100
AcDbEntity
  8
0
100
AcDbLine
 10
535.4735492571793
 20
325.2187843222961
 30
0.0
 11
535.5360667357068
 21
324.3589318867136
 31
0.0
  0
LINE
  5
B38FC
330
2
100
AcDbEntity
  8
0
100
AcDbLine
 10
535.5360667357068
 20
324.3589318867136
 30
0.0
 11
535.5360492571793
 21
323.6241144081862
 31
0.0
  0
LINE
  5
B38FD
330
2
100
AcDbEntity
  8
0
100
AcDbLine
 10
535.5360492571793
 20
323.0937843222962
 30
0.0
 11
535.7860667357068
 21
322.3589318867136
 31
0.0
  0
LINE
  5
B38FE
330
2
100
AcDbEntity
  8
0
100
AcDbLine
 10
534.7860667357068
 20
323.3589318867136
 30
0.0
 11
535.0402967670662
 21
322.6241144081861
 31
0.0
  0
LINE
  5
B38FF
330
2
100
AcDbEntity
  8
0
100
AcDbLine
 10
534.0377609640066
 20
323.0937843222962
 30
0.0
 11
534.5360667357068
 21
322.3589318867136
 31
0.0
  0
LINE
  5
B3900
330
2
100
AcDbEntity
  8
0
100
AcDbLine
 10
535.1318363943867
 20
322.1770314188851
 30
0.0
 11
535.2683393088849
 21
321.9839318867136
 31
0.0
  0
LINE
  5
B3901
330
2
100
AcDbEntity
  8
0
100
AcDbLine
 10
536.5360667357069
 20
322.6240969296586
 30
0.0
 11
536.5360667357069
 21
324.0938018008238
 31
0.0
  0
LINE
  5
B3902
330
2
100
AcDbEntity
  8
0
100
AcDbLine
 10
536.5359665579306
 20
322.6240969299853
 30
0.0
 11
536.535976143435
 21
324.0938018011192
 31
0.0
  0
LWPOLYLINE
  5
B3903
330
2
100
AcDbEntity
  8
0
100
AcDbPolyline
 90
        2
 70
     0
 10
536.5359989209658
 20
322.2263668438758
 40
0.0
 41
0.03125
 10
536.5359997855631
 20
322.358931886818
 40
0.03125
 41
0.03125
  0
LWPOLYLINE
  5
B3904
330
2
100
AcDbEntity
  8
0
100
AcDbPolyline
 90
        2
 70
     0
 10
536.6652891204256
 20
322.3569936494366
 40
0.0
 41
0.03125
 10
536.5359997855631
 20
322.358931886818
 40
0.03125
 41
0.03125
  0
LWPOLYLINE
  5
B3905
330
2
100
AcDbEntity
  8
0
100
AcDbPolyline
 90
        2
 70
     0
 10
536.5360006503883
 20
322.4915318868152
 40
0.0
 41
0.03125
 10
536.5359648285081
 20
322.3589318870459
 40
0.03125
 41
0.03125
  0
LWPOLYLINE
  5
B3906
330
2
100
AcDbEntity
  8
0
100
AcDbPolyline
 90
        2
 70
     0
 10
536.4033997855659
 20
322.3589327516432
 40
0.0
 41
0.03125
 10
536.5359648285081
 20
322.3589318870459
 40
0.03125
 41
0.03125
  0
LINE
  5
B3907
330
2
100
AcDbEntity
  8
0
100
AcDbLine
 10
536.5360006503883
 20
322.4915318868152
 30
0.0
 11
536.5359989209658
 21
322.2263668438758
 31
0.0
  0
LINE
  5
B3908
330
2
100
AcDbEntity
  8
0
100
AcDbLine
 10
536.6685648285052
 20
322.3589310222207
 30
0.0
 11
536.4033997855659
 21
322.3589327516432
 31
0.0
  0
LINE
  5
B3909
330
2
100
AcDbEntity
  8
0
100
AcDbLine
 10
536.5359812824651
 20
322.2018388373828
 30
0.0
 11
536.2708172642103
 21
322.358951094882
 31
0.0
  0
LINE
  5
B390A
330
2
100
AcDbEntity
  8
0
100
AcDbLine
 10
536.2708172642103
 20
322.358951094882
 30
0.0
 11
536.5359840365721
 21
322.6241144083987
 31
0.0
  0
LINE
  5
B390B
330
2
100
AcDbEntity
  8
0
100
AcDbLine
 10
536.2707953512766
 20
324.3589510950674
 30
0.0
 11
536.5359621236384
 21
324.6241144085843
 31
0.0
  0
LINE
  5
B390C
330
2
100
AcDbEntity
  8
0
100
AcDbLine
 10
536.5359586647933
 20
324.0937843227056
 30
0.0
 11
536.2707953512766
 21
324.3589510950674
 31
0.0
  0
LINE
  5
B390D
330
2
100
AcDbEntity
  8
0
100
AcDbLine
 10
536.6685429155715
 20
324.3589310224062
 30
0.0
 11
536.4033778726322
 21
324.3589327518286
 31
0.0
  0
LINE
  5
B390E
330
2
100
AcDbEntity
  8
0
100
AcDbLine
 10
536.5359787374546
 20
324.4915318870006
 30
0.0
 11
536.5359770080321
 21
324.2263668440613
 31
0.0
  0
LWPOLYLINE
  5
B390F
330
2
100
AcDbEntity
  8
0
100
AcDbPolyline
 90
        2
 70
     0
 10
536.4033778726322
 20
324.3589327518286
 40
0.0
 41
0.03125
 10
536.5359429155744
 20
324.3589318872313
 40
0.03125
 41
0.03125
  0
LWPOLYLINE
  5
B3910
330
2
100
AcDbEntity
  8
0
100
AcDbPolyline
 90
        2
 70
     0
 10
536.5359787374546
 20
324.4915318870006
 40
0.0
 41
0.03125
 10
536.5359429155744
 20
324.3589318872313
 40
0.03125
 41
0.03125
  0
LWPOLYLINE
  5
B3911
330
2
100
AcDbEntity
  8
0
100
AcDbPolyline
 90
        2
 70
     0
 10
536.6652672074919
 20
324.3569936496221
 40
0.0
 41
0.03125
 10
536.5359778726294
 20
324.3589318870034
 40
0.03125
 41
0.03125
  0
LWPOLYLINE
  5
B3912
330
2
100
AcDbEntity
  8
0
100
AcDbPolyline
 90
        2
 70
     0
 10
536.5359770080321
 20
324.2263668440613
 40
0.0
 41
0.03125
 10
536.5359778726294
 20
324.3589318870034
 40
0.03125
 41
0.03125
  0
LINE
  5
B3913
330
2
100
AcDbEntity
  8
0
100
AcDbLine
 10
536.5359623827353
 20
321.9839318870539
 30
0.0
 11
536.5359638040051
 21
322.2018491935402
 31
0.0
  0
LINE
  5
B3914
330
2
100
AcDbEntity
  8
0
100
AcDbLine
 10
536.5360667357069
 20
321.9839318867136
 30
0.0
 11
536.5360667357069
 21
322.2018491932046
 31
0.0
  0
LWPOLYLINE
  5
B3915
330
2
100
AcDbEntity
  8
0
100
AcDbPolyline
 90
        2
 70
     0
 10
536.5360667357069
 20
324.2263668437686
 40
0.0
 41
0.03125
 10
536.5360667357069
 20
324.3589318867136
 40
0.03125
 41
0.03125
  0
LWPOLYLINE
  5
B3916
330
2
100
AcDbEntity
  8
0
100
AcDbPolyline
 90
        2
 70
     0
 10
536.5360667357069
 20
324.4915318867136
 40
0.0
 41
0.03125
 10
536.5361016927619
 20
324.3589318867136
 40
0.03125
 41
0.03125
  0
LWPOLYLINE
  5
B3917
330
2
100
AcDbEntity
  8
0
100
AcDbPolyline
 90
        2
 70
     0
 10
536.6686667357068
 20
324.3589318867136
 40
0.0
 41
0.03125
 10
536.5361016927619
 20
324.3589318867136
 40
0.03125
 41
0.03125
  0
LINE
  5
B3918
330
2
100
AcDbEntity
  8
0
100
AcDbLine
 10
536.5360667357069
 20
324.4915318867136
 30
0.0
 11
536.5360667357069
 21
324.2263668437686
 31
0.0
  0
LINE
  5
B3919
330
2
100
AcDbEntity
  8
0
100
AcDbLine
 10
536.5360317786517
 20
322.4915318867136
 30
0.0
 11
536.5360317786517
 21
322.2263668437686
 31
0.0
  0
LWPOLYLINE
  5
B391A
330
2
100
AcDbEntity
  8
0
100
AcDbPolyline
 90
        2
 70
     0
 10
536.6686317786518
 20
322.3589318867136
 40
0.0
 41
0.03125
 10
536.5360667357069
 20
322.3589318867136
 40
0.03125
 41
0.03125
  0
LWPOLYLINE
  5
B391B
330
2
100
AcDbEntity
  8
0
100
AcDbPolyline
 90
        2
 70
     0
 10
536.5360317786517
 20
322.4915318867136
 40
0.0
 41
0.03125
 10
536.5360667357069
 20
322.3589318867136
 40
0.03125
 41
0.03125
  0
LWPOLYLINE
  5
B391C
330
2
100
AcDbEntity
  8
0
100
AcDbPolyline
 90
        2
 70
     0
 10
536.5360317786517
 20
322.2263668437686
 40
0.0
 41
0.03125
 10
536.5360317786517
 20
322.3589318867136
 40
0.03125
 41
0.03125
  0
LINE
  5
B391D
330
2
100
AcDbEntity
  8
0
100
AcDbLine
 10
536.5360667357069
 20
322.6240969296586
 30
0.0
 11
536.5360667357069
 21
324.0938018008238
 31
0.0
  0
LINE
  5
B391E
330
2
100
AcDbEntity
  8
0
100
AcDbLine
 10
536.5359665579306
 20
322.6240969299853
 30
0.0
 11
536.535976143435
 21
324.0938018011192
 31
0.0
  0
LWPOLYLINE
  5
B391F
330
2
100
AcDbEntity
  8
0
100
AcDbPolyline
 90
        2
 70
     0
 10
536.5359989209658
 20
322.2263668438758
 40
0.0
 41
0.03125
 10
536.5359997855631
 20
322.358931886818
 40
0.03125
 41
0.03125
  0
LWPOLYLINE
  5
B3920
330
2
100
AcDbEntity
  8
0
100
AcDbPolyline
 90
        2
 70
     0
 10
536.6652891204256
 20
322.3569936494366
 40
0.0
 41
0.03125
 10
536.5359997855631
 20
322.358931886818
 40
0.03125
 41
0.03125
  0
LWPOLYLINE
  5
B3921
330
2
100
AcDbEntity
  8
0
100
AcDbPolyline
 90
        2
 70
     0
 10
536.5360006503883
 20
322.4915318868152
 40
0.0
 41
0.03125
 10
536.5359648285081
 20
322.3589318870459
 40
0.03125
 41
0.03125
  0
LINE
  5
B3922
330
2
100
AcDbEntity
  8
0
100
AcDbLine
 10
536.5360006503883
 20
322.4915318868152
 30
0.0
 11
536.5359989209658
 21
322.2263668438758
 31
0.0
  0
LINE
  5
B3923
330
2
100
AcDbEntity
  8
0
100
AcDbLine
 10
536.5359787374546
 20
324.4915318870006
 30
0.0
 11
536.5359770080321
 21
324.2263668440613
 31
0.0
  0
LWPOLYLINE
  5
B3924
330
2
100
AcDbEntity
  8
0
100
AcDbPolyline
 90
        2
 70
     0
 10
536.5359787374546
 20
324.4915318870006
 40
0.0
 41
0.03125
 10
536.5359429155744
 20
324.3589318872313
 40
0.03125
 41
0.03125
  0
LWPOLYLINE
  5
B3925
330
2
100
AcDbEntity
  8
0
100
AcDbPolyline
 90
        2
 70
     0
 10
536.6652672074919
 20
324.3569936496221
 40
0.0
 41
0.03125
 10
536.5359778726294
 20
324.3589318870034
 40
0.03125
 41
0.03125
  0
LWPOLYLINE
  5
B3926
330
2
100
AcDbEntity
  8
0
100
AcDbPolyline
 90
        2
 70
     0
 10
536.5359770080321
 20
324.2263668440613
 40
0.0
 41
0.03125
 10
536.5359778726294
 20
324.3589318870034
 40
0.03125
 41
0.03125
  0
LINE
  5
B3927
330
2
100
AcDbEntity
  8
0
100
AcDbLine
 10
536.5359623827353
 20
321.9839318870539
 30
0.0
 11
536.5359638040051
 21
322.2018491935402
 31
0.0
  0
LINE
  5
B3928
330
2
100
AcDbEntity
  8
0
100
AcDbLine
 10
534.2858892397635
 20
322.2130950657584
 30
0.0
 11
534.2429949414478
 21
322.3589318867136
 31
0.0
  0
LINE
  5
B3929
330
2
100
AcDbEntity
  8
0
100
AcDbLine
 10
534.2429949414478
 20
322.3589318867136
 30
0.0
 11
533.9977910230146
 21
322.5986859442396
 31
0.0
  0
INSERT
  5
B392A
330
2
100
AcDbEntity
  8
0
100
AcDbBlockReference
  2
*X3
 10
536.5360667357069
 20
321.9839318867136
 30
0.0
 41
-1.0
  0
LINE
  5
B392B
330
2
100
AcDbEntity
  8
0
100
AcDbLine
 10
533.4474206069074
 20
323.1387001529899
 30
0.0
 11
533.4476534420173
 21
323.3589318867136
 31
0.0
  0
LINE
  5
B392C
330
2
100
AcDbEntity
  8
0
100
AcDbLine
 10
533.4476534420173
 20
323.3589318867136
 30
0.0
 11
533.2679054851329
 21
323.6238382325851
 31
0.0
  0
LINE
  5
B392D
330
2
100
AcDbEntity
  8
0
100
AcDbLine
 10
533.2103337290355
 20
324.1006471655759
 30
0.0
 11
533.2027528994411
 21
324.3523886398467
 31
0.0
  0
LINE
  5
B392E
330
2
100
AcDbEntity
  8
0
100
AcDbLine
 10
533.2027528994411
 20
324.3523886398467
 30
0.0
 11
533.0672769960741
 21
324.6183461841728
 31
0.0
  0
LINE
  5
B392F
330
2
100
AcDbEntity
  8
0
100
AcDbLine
 10
539.8693805719725
 20
324.3523886398467
 30
0.0
 11
540.0048564753396
 21
324.6183461841728
 31
0.0
  0
LINE
  5
B3930
330
2
100
AcDbEntity
  8
0
100
AcDbLine
 10
539.861799742378
 20
324.1006471655759
 30
0.0
 11
539.8693805719725
 21
324.3523886398467
 31
0.0
  0
LINE
  5
B3931
330
2
100
AcDbEntity
  8
0
100
AcDbLine
 10
540.3039046058783
 20
325.4839318867136
 30
0.0
 11
540.4397447359654
 21
325.7469786941821
 31
0.0
  0
LINE
  5
B3932
330
2
100
AcDbEntity
  8
0
100
AcDbLine
 10
540.3414491053579
 20
325.2156949037615
 30
0.0
 11
540.3039046058783
 21
325.4839318867136
 31
0.0
  0
LINE
  5
B3933
330
2
100
AcDbEntity
  8
0
100
AcDbLine
 10
539.6244800293963
 20
323.3589318867136
 30
0.0
 11
539.8042279862806
 21
323.6238382325851
 31
0.0
  0
LINE
  5
B3934
330
2
100
AcDbEntity
  8
0
100
AcDbLine
 10
539.6247128645062
 20
323.1387001529899
 30
0.0
 11
539.6244800293963
 21
323.3589318867136
 31
0.0
  0
INSERT
  5
B3935
330
2
100
AcDbEntity
  8
0
100
AcDbBlockReference
  2
*X3
 10
536.5360667357069
 20
321.9839318867136
 30
0.0
  0
LINE
  5
B3936
330
2
100
AcDbEntity
  8
0
100
AcDbLine
 10
538.8291385299658
 20
322.3589318867136
 30
0.0
 11
539.074342448399
 21
322.5986859442396
 31
0.0
  0
LINE
  5
B3937
330
2
100
AcDbEntity
  8
0
100
AcDbLine
 10
538.7862442316501
 20
322.2130950657584
 30
0.0
 11
538.8291385299658
 21
322.3589318867136
 31
0.0
  0
LINE
  5
B3938
330
2
100
AcDbEntity
  8
0
100
AcDbLine
 10
536.5361710886784
 20
321.9839318870539
 30
0.0
 11
536.5361696674084
 21
322.2018491935402
 31
0.0
  0
LWPOLYLINE
  5
B3939
330
2
100
AcDbEntity
  8
0
100
AcDbPolyline
 90
        2
 70
     0
 10
536.5361564633815
 20
324.2263668440613
 40
0.0
 41
0.03125
 10
536.5361555987841
 20
324.3589318870034
 40
0.03125
 41
0.03125
  0
LWPOLYLINE
  5
B393A
330
2
100
AcDbEntity
  8
0
100
AcDbPolyline
 90
        2
 70
     0
 10
536.4068662639217
 20
324.3569936496221
 40
0.0
 41
0.03125
 10
536.5361555987842
 20
324.3589318870034
 40
0.03125
 41
0.03125
  0
LWPOLYLINE
  5
B393B
330
2
100
AcDbEntity
  8
0
100
AcDbPolyline
 90
        2
 70
     0
 10
536.5361547339589
 20
324.4915318870006
 40
0.0
 41
0.03125
 10
536.5361905558393
 20
324.3589318872313
 40
0.03125
 41
0.03125
  0
LINE
  5
B393C
330
2
100
AcDbEntity
  8
0
100
AcDbLine
 10
536.5361547339589
 20
324.4915318870006
 30
0.0
 11
536.5361564633815
 21
324.2263668440613
 31
0.0
  0
LINE
  5
B393D
330
2
100
AcDbEntity
  8
0
100
AcDbLine
 10
536.2710080342584
 20
324.3589476362224
 30
0.0
 11
536.5361748066202
 21
324.0937843227056
 31
0.0
  0
LINE
  5
B393E
330
2
100
AcDbEntity
  8
0
100
AcDbLine
 10
536.5361713477752
 20
324.6241144085843
 30
0.0
 11
536.2710080342584
 21
324.3589476362224
 31
0.0
  0
LINE
  5
B393F
330
2
100
AcDbEntity
  8
0
100
AcDbLine
 10
536.5361494348416
 20
322.6241144083987
 30
0.0
 11
536.2709861213247
 21
322.3589476360369
 31
0.0
  0
LINE
  5
B3940
330
2
100
AcDbEntity
  8
0
100
AcDbLine
 10
536.2709861213247
 20
322.3589476360369
 30
0.0
 11
536.5361521889484
 21
322.2018388373828
 31
0.0
  0
LINE
  5
B3941
330
2
100
AcDbEntity
  8
0
100
AcDbLine
 10
536.5361328210252
 20
322.4915318868152
 30
0.0
 11
536.5361345504478
 21
322.2263668438758
 31
0.0
  0
LWPOLYLINE
  5
B3942
330
2
100
AcDbEntity
  8
0
100
AcDbPolyline
 90
        2
 70
     0
 10
536.5361328210252
 20
322.4915318868152
 40
0.0
 41
0.03125
 10
536.5361686429056
 20
322.3589318870459
 40
0.03125
 41
0.03125
  0
LWPOLYLINE
  5
B3943
330
2
100
AcDbEntity
  8
0
100
AcDbPolyline
 90
        2
 70
     0
 10
536.406844350988
 20
322.3569936494366
 40
0.0
 41
0.03125
 10
536.5361336858505
 20
322.358931886818
 40
0.03125
 41
0.03125
  0
LWPOLYLINE
  5
B3944
330
2
100
AcDbEntity
  8
0
100
AcDbPolyline
 90
        2
 70
     0
 10
536.5361345504478
 20
322.2263668438758
 40
0.0
 41
0.03125
 10
536.5361336858504
 20
322.358931886818
 40
0.03125
 41
0.03125
  0
LINE
  5
B3945
330
2
100
AcDbEntity
  8
0
100
AcDbLine
 10
536.5361669134832
 20
322.6240969299853
 30
0.0
 11
536.5361573279787
 21
324.0938018011192
 31
0.0
  0
LINE
  5
B3946
330
2
100
AcDbEntity
  8
0
100
AcDbLine
 10
536.5360667357069
 20
322.6240969296586
 30
0.0
 11
536.5360667357069
 21
324.0938018008238
 31
0.0
  0
LWPOLYLINE
  5
B3947
330
2
100
AcDbEntity
  8
0
100
AcDbPolyline
 90
        2
 70
     0
 10
536.5361016927619
 20
322.2263668437686
 40
0.0
 41
0.03125
 10
536.5361016927619
 20
322.3589318867136
 40
0.03125
 41
0.03125
  0
LWPOLYLINE
  5
B3948
330
2
100
AcDbEntity
  8
0
100
AcDbPolyline
 90
        2
 70
     0
 10
536.5361016927619
 20
322.4915318867136
 40
0.0
 41
0.03125
 10
536.5360667357069
 20
322.3589318867136
 40
0.03125
 41
0.03125
  0
LWPOLYLINE
  5
B3949
330
2
100
AcDbEntity
  8
0
100
AcDbPolyline
 90
        2
 70
     0
 10
536.4035016927618
 20
322.3589318867136
 40
0.0
 41
0.03125
 10
536.5360667357069
 20
322.3589318867136
 40
0.03125
 41
0.03125
  0
LINE
  5
B394A
330
2
100
AcDbEntity
  8
0
100
AcDbLine
 10
536.5361016927619
 20
322.4915318867136
 30
0.0
 11
536.5361016927619
 21
322.2263668437686
 31
0.0
  0
LINE
  5
B394B
330
2
100
AcDbEntity
  8
0
100
AcDbLine
 10
536.5360842142344
 20
322.2018388371612
 30
0.0
 11
536.2709191712894
 21
322.3589493652411
 31
0.0
  0
LINE
  5
B394C
330
2
100
AcDbEntity
  8
0
100
AcDbLine
 10
536.2709191712894
 20
322.3589493652411
 30
0.0
 11
536.5360842142344
 21
322.6241144081861
 31
0.0
  0
LINE
  5
B394D
330
2
100
AcDbEntity
  8
0
100
AcDbLine
 10
536.2708842142343
 20
324.3589493652411
 30
0.0
 11
536.5360492571792
 21
324.6241144081861
 31
0.0
  0
LINE
  5
B394E
330
2
100
AcDbEntity
  8
0
100
AcDbLine
 10
536.5360492571792
 20
324.0937843222961
 30
0.0
 11
536.2708842142343
 21
324.3589493652411
 31
0.0
  0
LINE
  5
B394F
330
2
100
AcDbEntity
  8
0
100
AcDbLine
 10
536.5360667357067
 20
324.4915318867136
 30
0.0
 11
536.5360667357067
 21
324.2263668437686
 31
0.0
  0
LWPOLYLINE
  5
B3950
330
2
100
AcDbEntity
  8
0
100
AcDbPolyline
 90
        2
 70
     0
 10
536.4034667357067
 20
324.3589318867136
 40
0.0
 41
0.03125
 10
536.5360317786517
 20
324.3589318867136
 40
0.03125
 41
0.03125
  0
LWPOLYLINE
  5
B3951
330
2
100
AcDbEntity
  8
0
100
AcDbPolyline
 90
        2
 70
     0
 10
536.5360667357067
 20
324.4915318867136
 40
0.0
 41
0.03125
 10
536.5360317786517
 20
324.3589318867136
 40
0.03125
 41
0.03125
  0
LWPOLYLINE
  5
B3952
330
2
100
AcDbEntity
  8
0
100
AcDbPolyline
 90
        2
 70
     0
 10
536.5360667357067
 20
324.2263668437686
 40
0.0
 41
0.03125
 10
536.5360667357069
 20
324.3589318867136
 40
0.03125
 41
0.03125
  0
LINE
  5
B3953
330
2
100
AcDbEntity
  8
0
100
AcDbLine
 10
536.5360667357069
 20
321.9839318867136
 30
0.0
 11
536.5360667357069
 21
322.2018491932046
 31
0.0
  0
LINE
  5
B3954
330
2
100
AcDbEntity
  8
0
100
AcDbLine
 10
536.5361710886784
 20
321.9839318870539
 30
0.0
 11
536.5361696674084
 21
322.2018491935402
 31
0.0
  0
LWPOLYLINE
  5
B3955
330
2
100
AcDbEntity
  8
0
100
AcDbPolyline
 90
        2
 70
     0
 10
536.5361564633815
 20
324.2263668440613
 40
0.0
 41
0.03125
 10
536.5361555987841
 20
324.3589318870034
 40
0.03125
 41
0.03125
  0
LWPOLYLINE
  5
B3956
330
2
100
AcDbEntity
  8
0
100
AcDbPolyline
 90
        2
 70
     0
 10
536.4068662639217
 20
324.3569936496221
 40
0.0
 41
0.03125
 10
536.5361555987842
 20
324.3589318870034
 40
0.03125
 41
0.03125
  0
LWPOLYLINE
  5
B3957
330
2
100
AcDbEntity
  8
0
100
AcDbPolyline
 90
        2
 70
     0
 10
536.5361547339589
 20
324.4915318870006
 40
0.0
 41
0.03125
 10
536.5361905558393
 20
324.3589318872313
 40
0.03125
 41
0.03125
  0
LWPOLYLINE
  5
B3958
330
2
100
AcDbEntity
  8
0
100
AcDbPolyline
 90
        2
 70
     0
 10
536.6687555987814
 20
324.3589327518286
 40
0.0
 41
0.03125
 10
536.5361905558393
 20
324.3589318872313
 40
0.03125
 41
0.03125
  0
LINE
  5
B3959
330
2
100
AcDbEntity
  8
0
100
AcDbLine
 10
536.5361547339589
 20
324.4915318870006
 30
0.0
 11
536.5361564633815
 21
324.2263668440613
 31
0.0
  0
LINE
  5
B395A
330
2
100
AcDbEntity
  8
0
100
AcDbLine
 10
536.4035905558421
 20
324.3589310224062
 30
0.0
 11
536.6687555987814
 21
324.3589327518286
 31
0.0
  0
LINE
  5
B395B
330
2
100
AcDbEntity
  8
0
100
AcDbLine
 10
536.5361748066202
 20
324.0937843227056
 30
0.0
 11
536.8013381201371
 21
324.3589510950674
 31
0.0
  0
LINE
  5
B395C
330
2
100
AcDbEntity
  8
0
100
AcDbLine
 10
536.2710080342584
 20
324.3589476362224
 30
0.0
 11
536.5361748066202
 21
324.0937843227056
 31
0.0
  0
LINE
  5
B395D
330
2
100
AcDbEntity
  8
0
100
AcDbLine
 10
536.5361713477752
 20
324.6241144085843
 30
0.0
 11
536.2710080342584
 21
324.3589476362224
 31
0.0
  0
LINE
  5
B395E
330
2
100
AcDbEntity
  8
0
100
AcDbLine
 10
536.8013381201371
 20
324.3589510950674
 30
0.0
 11
536.5361713477752
 21
324.6241144085843
 31
0.0
  0
LINE
  5
B395F
330
2
100
AcDbEntity
  8
0
100
AcDbLine
 10
536.8013162072034
 20
322.358951094882
 30
0.0
 11
536.5361494348416
 21
322.6241144083987
 31
0.0
  0
LINE
  5
B3960
330
2
100
AcDbEntity
  8
0
100
AcDbLine
 10
536.5361494348416
 20
322.6241144083987
 30
0.0
 11
536.2709861213247
 21
322.3589476360369
 31
0.0
  0
LINE
  5
B3961
330
2
100
AcDbEntity
  8
0
100
AcDbLine
 10
536.2709861213247
 20
322.3589476360369
 30
0.0
 11
536.5361521889484
 21
322.2018388373828
 31
0.0
  0
LINE
  5
B3962
330
2
100
AcDbEntity
  8
0
100
AcDbLine
 10
536.5361521889484
 20
322.2018388373828
 30
0.0
 11
536.8013162072034
 21
322.358951094882
 31
0.0
  0
LINE
  5
B3963
330
2
100
AcDbEntity
  8
0
100
AcDbLine
 10
536.4035686429084
 20
322.3589310222207
 30
0.0
 11
536.6687336858477
 21
322.3589327516432
 31
0.0
  0
LINE
  5
B3964
330
2
100
AcDbEntity
  8
0
100
AcDbLine
 10
536.5361328210252
 20
322.4915318868152
 30
0.0
 11
536.5361345504478
 21
322.2263668438758
 31
0.0
  0
LWPOLYLINE
  5
B3965
330
2
100
AcDbEntity
  8
0
100
AcDbPolyline
 90
        2
 70
     0
 10
536.6687336858477
 20
322.3589327516432
 40
0.0
 41
0.03125
 10
536.5361686429056
 20
322.3589318870459
 40
0.03125
 41
0.03125
  0
LWPOLYLINE
  5
B3966
330
2
100
AcDbEntity
  8
0
100
AcDbPolyline
 90
        2
 70
     0
 10
536.5361328210252
 20
322.4915318868152
 40
0.0
 41
0.03125
 10
536.5361686429056
 20
322.3589318870459
 40
0.03125
 41
0.03125
  0
LWPOLYLINE
  5
B3967
330
2
100
AcDbEntity
  8
0
100
AcDbPolyline
 90
        2
 70
     0
 10
536.406844350988
 20
322.3569936494366
 40
0.0
 41
0.03125
 10
536.5361336858505
 20
322.358931886818
 40
0.03125
 41
0.03125
  0
LWPOLYLINE
  5
B3968
330
2
100
AcDbEntity
  8
0
100
AcDbPolyline
 90
        2
 70
     0
 10
536.5361345504478
 20
322.2263668438758
 40
0.0
 41
0.03125
 10
536.5361336858504
 20
322.358931886818
 40
0.03125
 41
0.03125
  0
LINE
  5
B3969
330
2
100
AcDbEntity
  8
0
100
AcDbLine
 10
536.5361669134832
 20
322.6240969299853
 30
0.0
 11
536.5361573279787
 21
324.0938018011192
 31
0.0
  0
LINE
  5
B396A
330
2
100
AcDbEntity
  8
0
100
AcDbLine
 10
536.5360667357069
 20
322.6240969296586
 30
0.0
 11
536.5360667357069
 21
324.0938018008238
 31
0.0
  0
LINE
  5
B396B
330
2
100
AcDbEntity
  8
0
100
AcDbLine
 10
537.9402970770269
 20
322.1770314188851
 30
0.0
 11
537.8037941625287
 21
321.9839318867136
 31
0.0
  0
LINE
  5
B396C
330
2
100
AcDbEntity
  8
0
100
AcDbLine
 10
539.0343725074069
 20
323.0937843222962
 30
0.0
 11
538.5360667357068
 21
322.3589318867136
 31
0.0
  0
LINE
  5
B396D
330
2
100
AcDbEntity
  8
0
100
AcDbLine
 10
538.2860667357069
 20
323.3589318867136
 30
0.0
 11
538.0318367043473
 21
322.6241144081861
 31
0.0
  0
LINE
  5
B396E
330
2
100
AcDbEntity
  8
0
100
AcDbLine
 10
537.5360842142343
 20
323.0937843222962
 30
0.0
 11
537.2860667357068
 21
322.3589318867136
 31
0.0
  0
LINE
  5
B396F
330
2
100
AcDbEntity
  8
0
100
AcDbLine
 10
537.5360667357068
 20
324.3589318867136
 30
0.0
 11
537.5360842142343
 21
323.6241144081862
 31
0.0
  0
LINE
  5
B3970
330
2
100
AcDbEntity
  8
0
100
AcDbLine
 10
537.5985842142344
 20
325.2187843222961
 30
0.0
 11
537.5360667357068
 21
324.3589318867136
 31
0.0
  0
LINE
  5
B3971
330
2
100
AcDbEntity
  8
0
100
AcDbLine
 10
538.6187221756456
 20
324.0937843222981
 30
0.0
 11
538.2860667357069
 21
323.3589318867136
 31
0.0
  0
LINE
  5
B3972
330
2
100
AcDbEntity
  8
0
100
AcDbLine
 10
538.5360667357068
 20
325.4839318867136
 30
0.0
 11
538.6187221756456
 21
324.6241144081881
 31
0.0
  0
LINE
  5
B3973
330
2
100
AcDbEntity
  8
0
100
AcDbLine
 10
539.1610667357069
 20
324.3589318867136
 30
0.0
 11
539.0343725074069
 21
323.6241144081862
 31
0.0
  0
LINE
  5
B3974
330
2
100
AcDbEntity
  8
0
100
AcDbLine
 10
539.528910572695
 20
325.2187843222961
 30
0.0
 11
539.1610667357069
 21
324.3589318867136
 31
0.0
  0
LINE
  5
B3975
330
2
100
AcDbEntity
  8
0
100
AcDbLine
 10
539.1840507115047
 20
323.3589318867136
 30
0.0
 11
539.6244800293963
 21
323.3589318867136
 31
0.0
  0
LINE
  5
B3976
330
2
100
AcDbEntity
  8
0
100
AcDbLine
 10
537.77609345675
 20
323.3589318867136
 30
0.0
 11
538.8590344454603
 21
323.3589318867136
 31
0.0
  0
LINE
  5
B3977
330
2
100
AcDbEntity
  8
0
100
AcDbLine
 10
538.8328915449521
 20
324.3589318867136
 30
0.0
 11
539.8648306225855
 21
324.3589318867136
 31
0.0
  0
LINE
  5
B3978
330
2
100
AcDbEntity
  8
0
100
AcDbLine
 10
539.6785887767929
 20
325.4839318867136
 30
0.0
 11
540.3039046058783
 21
325.4839318867136
 31
0.0
  0
LINE
  5
B3979
330
2
100
AcDbEntity
  8
0
100
AcDbLine
 10
537.8637317786517
 20
325.4839318867136
 30
0.0
 11
539.3535725107483
 21
325.4839318867136
 31
0.0
  0
LINE
  5
B397A
330
2
100
AcDbEntity
  8
0
100
AcDbLine
 10
538.7862442316501
 20
322.2130950657584
 30
0.0
 11
538.9648353114417
 21
322.3289359473128
 31
0.0
  0
LINE
  5
B397B
330
2
100
AcDbEntity
  8
0
100
AcDbLine
 10
538.8884345163891
 20
322.368984596415
 30
0.0
 11
538.9648353114417
 21
322.3289359473128
 31
0.0
  0
LINE
  5
B397C
330
2
100
AcDbEntity
  8
0
100
AcDbLine
 10
539.0008485773525
 20
322.4124557462128
 30
0.0
 11
538.9648353114417
 21
322.3289359473128
 31
0.0
  0
ARC
  5
B397D
330
2
100
AcDbEntity
  8
0
100
AcDbCircle
 10
537.1853722912624
 20
323.7096263311581
 30
0.0
 40
2.191437153522661
100
AcDbArc
 50
329.5393797478819
 51
350.7913953968539
  0
LINE
  5
B397E
330
2
100
AcDbEntity
  8
0
100
AcDbLine
 10
539.074342448399
 20
322.5986859442396
 30
0.0
 11
539.0008485773525
 21
322.4130010757779
 31
0.0
  0
LINE
  5
B397F
330
2
100
AcDbEntity
  8
0
100
AcDbLine
 10
538.8873971425498
 20
322.3689860973877
 30
0.0
 11
539.0008485773525
 21
322.4130010757779
 31
0.0
  0
LINE
  5
B3980
330
2
100
AcDbEntity
  8
0
100
AcDbLine
 10
538.8873971425498
 20
322.3689860973877
 30
0.0
 11
539.0008485773525
 21
322.4130010757779
 31
0.0
  0
LINE
  5
B3981
330
2
100
AcDbEntity
  8
0
100
AcDbLine
 10
539.074342448399
 20
322.5986859442396
 30
0.0
 11
539.0008485773525
 21
322.4130010757779
 31
0.0
  0
ARC
  5
B3982
330
2
100
AcDbEntity
  8
0
100
AcDbCircle
 10
537.8046852992487
 20
324.0879449288359
 30
0.0
 40
2.052697245764164
100
AcDbArc
 50
346.9326630190991
 51
359.9915992285676
  0
LINE
  5
B3983
330
2
100
AcDbEntity
  8
0
100
AcDbLine
 10
538.1877471230129
 20
322.3589318867136
 30
0.0
 11
538.8291385299658
 21
322.3589318867136
 31
0.0
  0
LINE
  5
B3984
330
2
100
AcDbEntity
  8
0
100
AcDbLine
 10
539.8042279862806
 20
323.6238382325851
 30
0.0
 11
539.7648766950103
 21
323.3896962188812
 31
0.0
  0
LINE
  5
B3985
330
2
100
AcDbEntity
  8
0
100
AcDbLine
 10
539.6247128645062
 20
323.1387001529899
 30
0.0
 11
539.7414644327683
 21
323.3080453564785
 31
0.0
  0
LINE
  5
B3986
330
2
100
AcDbEntity
  8
0
100
AcDbLine
 10
539.7414644327683
 20
323.3080453564785
 30
0.0
 11
539.7648766950103
 21
323.3896962188812
 31
0.0
  0
LINE
  5
B3987
330
2
100
AcDbEntity
  8
0
100
AcDbLine
 10
539.7414644327683
 20
323.3522244873578
 30
0.0
 11
539.6280129979657
 21
323.3523886398466
 31
0.0
  0
LINE
  5
B3988
330
2
100
AcDbEntity
  8
0
100
AcDbLine
 10
539.6280129979657
 20
323.3523886398466
 30
0.0
 11
539.7648766950103
 21
323.3896962188812
 31
0.0
  0
LINE
  5
B3989
330
2
100
AcDbEntity
  8
0
100
AcDbLine
 10
539.6280129979657
 20
323.3523886398466
 30
0.0
 11
539.7414644327683
 21
323.3080453564785
 31
0.0
  0
LINE
  5
B398A
330
2
100
AcDbEntity
  8
0
100
AcDbLine
 10
539.6280129979657
 20
323.3523886398466
 30
0.0
 11
539.7414644327683
 21
323.3080453564785
 31
0.0
  0
LINE
  5
B398B
330
2
100
AcDbEntity
  8
0
100
AcDbLine
 10
539.6280129979657
 20
323.3523886398466
 30
0.0
 11
539.7648766950103
 21
323.3896962188812
 31
0.0
  0
LINE
  5
B398C
330
2
100
AcDbEntity
  8
0
100
AcDbLine
 10
539.7414644327683
 20
323.3522244873578
 30
0.0
 11
539.6280129979657
 21
323.3523886398466
 31
0.0
  0
LINE
  5
B398D
330
2
100
AcDbEntity
  8
0
100
AcDbLine
 10
539.7414644327683
 20
323.3080453564785
 30
0.0
 11
539.7648766950103
 21
323.3896962188812
 31
0.0
  0
LINE
  5
B398E
330
2
100
AcDbEntity
  8
0
100
AcDbLine
 10
539.6247128645062
 20
323.1387001529899
 30
0.0
 11
539.7414644327683
 21
323.3080453564785
 31
0.0
  0
LINE
  5
B398F
330
2
100
AcDbEntity
  8
0
100
AcDbLine
 10
539.8042279862806
 20
323.6238382325851
 30
0.0
 11
539.7648766950103
 21
323.3896962188812
 31
0.0
  0
LWPOLYLINE
  5
B3990
330
2
100
AcDbEntity
  8
0
100
AcDbPolyline
 90
        2
 70
     0
 10
539.0343899859344
 20
323.2263668437687
 40
0.0
 41
0.03125
 10
539.0343899859345
 20
323.3589318867136
 40
0.03125
 41
0.03125
  0
LWPOLYLINE
  5
B3991
330
2
100
AcDbEntity
  8
0
100
AcDbPolyline
 90
        2
 70
     0
 10
539.0482023613757
 20
323.3569944925652
 40
0.0
 41
0.03125
 10
539.0343899859344
 20
323.3589318867136
 40
0.03125
 41
0.03125
  0
LWPOLYLINE
  5
B3992
330
2
100
AcDbEntity
  8
0
100
AcDbPolyline
 90
        2
 70
     0
 10
539.0343899859344
 20
323.4915318867137
 40
0.0
 41
0.03125
 10
539.0343550288794
 20
323.3589318867136
 40
0.03125
 41
0.03125
  0
LWPOLYLINE
  5
B3993
330
2
100
AcDbEntity
  8
0
100
AcDbPolyline
 90
        2
 70
     0
 10
538.9916054086477
 20
323.3589318867136
 40
0.0
 41
0.03125
 10
539.0343550288794
 20
323.3589318867136
 40
0.03125
 41
0.03125
  0
LINE
  5
B3994
330
2
100
AcDbEntity
  8
0
100
AcDbLine
 10
539.0343899859344
 20
323.4915318867137
 30
0.0
 11
539.0343899859344
 21
323.2263668437687
 31
0.0
  0
LINE
  5
B3995
330
2
100
AcDbEntity
  8
0
100
AcDbLine
 10
539.0514780568196
 20
323.3589318867136
 30
0.0
 11
538.9916054086477
 21
323.3589318867136
 31
0.0
  0
LINE
  5
B3996
330
2
100
AcDbEntity
  8
0
100
AcDbLine
 10
539.0343725074069
 20
323.0937843222962
 30
0.0
 11
538.8590228871752
 21
323.3589493652412
 31
0.0
  0
LINE
  5
B3997
330
2
100
AcDbEntity
  8
0
100
AcDbLine
 10
539.1840605782921
 20
323.3589493652412
 30
0.0
 11
539.0343725074069
 21
323.0937843222962
 31
0.0
  0
LINE
  5
B3998
330
2
100
AcDbEntity
  8
0
100
AcDbLine
 10
539.0343725074069
 20
323.6241144081862
 30
0.0
 11
539.1840605782921
 21
323.3589493652412
 31
0.0
  0
LINE
  5
B3999
330
2
100
AcDbEntity
  8
0
100
AcDbLine
 10
538.8590228871752
 20
323.3589493652412
 30
0.0
 11
539.0343725074069
 21
323.6241144081862
 31
0.0
  0
LWPOLYLINE
  5
B399A
330
2
100
AcDbEntity
  8
0
100
AcDbPolyline
 90
        2
 70
     0
 10
538.6187396541731
 20
324.2263668437706
 40
0.0
 41
0.03125
 10
538.6187396541733
 20
324.3589318867155
 40
0.03125
 41
0.03125
  0
LWPOLYLINE
  5
B399B
330
2
100
AcDbEntity
  8
0
100
AcDbPolyline
 90
        2
 70
     0
 10
538.7480290016742
 20
324.3569944925671
 40
0.0
 41
0.03125
 10
538.6187396541731
 20
324.3589318867155
 40
0.03125
 41
0.03125
  0
LWPOLYLINE
  5
B399C
330
2
100
AcDbEntity
  8
0
100
AcDbPolyline
 90
        2
 70
     0
 10
538.6187396541731
 20
324.4915318867156
 40
0.0
 41
0.03125
 10
538.6187046971181
 20
324.3589318867155
 40
0.03125
 41
0.03125
  0
LWPOLYLINE
  5
B399D
330
2
100
AcDbEntity
  8
0
100
AcDbPolyline
 90
        2
 70
     0
 10
538.4861396541731
 20
324.3589318867155
 40
0.0
 41
0.03125
 10
538.6187046971181
 20
324.3589318867155
 40
0.03125
 41
0.03125
  0
LINE
  5
B399E
330
2
100
AcDbEntity
  8
0
100
AcDbLine
 10
538.6187396541731
 20
324.4915318867156
 30
0.0
 11
538.6187396541731
 21
324.2263668437706
 31
0.0
  0
LINE
  5
B399F
330
2
100
AcDbEntity
  8
0
100
AcDbLine
 10
538.7513046971181
 20
324.3589318867155
 30
0.0
 11
538.4861396541731
 21
324.3589318867155
 31
0.0
  0
LINE
  5
B39A0
330
2
100
AcDbEntity
  8
0
100
AcDbLine
 10
538.6187221756456
 20
324.0937843222981
 30
0.0
 11
538.4215325401568
 21
324.3589493652431
 31
0.0
  0
LINE
  5
B39A1
330
2
100
AcDbEntity
  8
0
100
AcDbLine
 10
538.8329056629985
 20
324.3589493652431
 30
0.0
 11
538.6187221756456
 21
324.0937843222981
 31
0.0
  0
LINE
  5
B39A2
330
2
100
AcDbEntity
  8
0
100
AcDbLine
 10
538.6187221756456
 20
324.6241144081881
 30
0.0
 11
538.8329056629985
 21
324.3589493652431
 31
0.0
  0
LINE
  5
B39A3
330
2
100
AcDbEntity
  8
0
100
AcDbLine
 10
538.4215325401568
 20
324.3589493652431
 30
0.0
 11
538.6187221756456
 21
324.6241144081881
 31
0.0
  0
LWPOLYLINE
  5
B39A4
330
2
100
AcDbEntity
  8
0
100
AcDbPolyline
 90
        2
 70
     0
 10
537.5361016927619
 20
323.2263668437687
 40
0.0
 41
0.03125
 10
537.5361016927619
 20
323.3589318867136
 40
0.03125
 41
0.03125
  0
LWPOLYLINE
  5
B39A5
330
2
100
AcDbEntity
  8
0
100
AcDbPolyline
 90
        2
 70
     0
 10
537.6653910402629
 20
323.3569944925652
 40
0.0
 41
0.03125
 10
537.5361016927619
 20
323.3589318867136
 40
0.03125
 41
0.03125
  0
LWPOLYLINE
  5
B39A6
330
2
100
AcDbEntity
  8
0
100
AcDbPolyline
 90
        2
 70
     0
 10
537.5361016927619
 20
323.4915318867137
 40
0.0
 41
0.03125
 10
537.5360667357068
 20
323.3589318867136
 40
0.03125
 41
0.03125
  0
LWPOLYLINE
  5
B39A7
330
2
100
AcDbEntity
  8
0
100
AcDbPolyline
 90
        2
 70
     0
 10
537.4035016927619
 20
323.3589318867136
 40
0.0
 41
0.03125
 10
537.5360667357068
 20
323.3589318867136
 40
0.03125
 41
0.03125
  0
LINE
  5
B39A8
330
2
100
AcDbEntity
  8
0
100
AcDbLine
 10
537.5361016927619
 20
323.4915318867137
 30
0.0
 11
537.5361016927619
 21
323.2263668437687
 31
0.0
  0
LINE
  5
B39A9
330
2
100
AcDbEntity
  8
0
100
AcDbLine
 10
537.6686667357069
 20
323.3589318867136
 30
0.0
 11
537.4035016927619
 21
323.3589318867136
 31
0.0
  0
LINE
  5
B39AA
330
2
100
AcDbEntity
  8
0
100
AcDbLine
 10
537.5360842142343
 20
323.0937843222962
 30
0.0
 11
537.2709191712893
 21
323.3589493652412
 31
0.0
  0
LINE
  5
B39AB
330
2
100
AcDbEntity
  8
0
100
AcDbLine
 10
537.7761092781593
 20
323.3589493652412
 30
0.0
 11
537.5360842142343
 21
323.0937843222962
 31
0.0
  0
LINE
  5
B39AC
330
2
100
AcDbEntity
  8
0
100
AcDbLine
 10
537.5360842142343
 20
323.6241144081862
 30
0.0
 11
537.7761092781593
 21
323.3589493652412
 31
0.0
  0
LINE
  5
B39AD
330
2
100
AcDbEntity
  8
0
100
AcDbLine
 10
537.2709191712893
 20
323.3589493652412
 30
0.0
 11
537.5360842142343
 21
323.6241144081862
 31
0.0
  0
LWPOLYLINE
  5
B39AE
330
2
100
AcDbEntity
  8
0
100
AcDbPolyline
 90
        2
 70
     0
 10
536.5361016927619
 20
322.2263668437686
 40
0.0
 41
0.03125
 10
536.5361016927619
 20
322.3589318867136
 40
0.03125
 41
0.03125
  0
LWPOLYLINE
  5
B39AF
330
2
100
AcDbEntity
  8
0
100
AcDbPolyline
 90
        2
 70
     0
 10
536.665391040263
 20
322.3569944925652
 40
0.0
 41
0.03125
 10
536.5361016927619
 20
322.3589318867136
 40
0.03125
 41
0.03125
  0
LWPOLYLINE
  5
B39B0
330
2
100
AcDbEntity
  8
0
100
AcDbPolyline
 90
        2
 70
     0
 10
536.5361016927619
 20
322.4915318867136
 40
0.0
 41
0.03125
 10
536.5360667357069
 20
322.3589318867136
 40
0.03125
 41
0.03125
  0
LWPOLYLINE
  5
B39B1
330
2
100
AcDbEntity
  8
0
100
AcDbPolyline
 90
        2
 70
     0
 10
536.4035016927618
 20
322.3589318867136
 40
0.0
 41
0.03125
 10
536.5360667357069
 20
322.3589318867136
 40
0.03125
 41
0.03125
  0
LINE
  5
B39B2
330
2
100
AcDbEntity
  8
0
100
AcDbLine
 10
536.5361016927619
 20
322.4915318867136
 30
0.0
 11
536.5361016927619
 21
322.2263668437686
 31
0.0
  0
LINE
  5
B39B3
330
2
100
AcDbEntity
  8
0
100
AcDbLine
 10
536.6686667357068
 20
322.3589318867136
 30
0.0
 11
536.4035016927618
 21
322.3589318867136
 31
0.0
  0
LINE
  5
B39B4
330
2
100
AcDbEntity
  8
0
100
AcDbLine
 10
536.5360842142344
 20
322.2018388371612
 30
0.0
 11
536.2709191712894
 21
322.3589493652411
 31
0.0
  0
LINE
  5
B39B5
330
2
100
AcDbEntity
  8
0
100
AcDbLine
 10
536.8012492571792
 20
322.3589493652411
 30
0.0
 11
536.5360842142344
 21
322.2018388371612
 31
0.0
  0
LINE
  5
B39B6
330
2
100
AcDbEntity
  8
0
100
AcDbLine
 10
536.5360842142344
 20
322.6241144081861
 30
0.0
 11
536.8012492571792
 21
322.3589493652411
 31
0.0
  0
LINE
  5
B39B7
330
2
100
AcDbEntity
  8
0
100
AcDbLine
 10
536.2709191712894
 20
322.3589493652411
 30
0.0
 11
536.5360842142344
 21
322.6241144081861
 31
0.0
  0
LINE
  5
B39B8
330
2
100
AcDbEntity
  8
0
100
AcDbLine
 10
540.0044418388331
 20
324.6214363643724
 30
0.0
 11
539.9968793641204
 21
324.396403618237
 31
0.0
  0
LINE
  5
B39B9
330
2
100
AcDbEntity
  8
0
100
AcDbLine
 10
539.861799742378
 20
324.1006471655759
 30
0.0
 11
539.9828320067752
 21
324.3080453564786
 31
0.0
  0
LINE
  5
B39BA
330
2
100
AcDbEntity
  8
0
100
AcDbLine
 10
539.9828320067752
 20
324.3080453564786
 30
0.0
 11
539.9968793641204
 21
324.396403618237
 31
0.0
  0
LINE
  5
B39BB
330
2
100
AcDbEntity
  8
0
100
AcDbLine
 10
539.9828320067752
 20
324.3522244873578
 30
0.0
 11
539.8693805719725
 21
324.3523886398467
 31
0.0
  0
LINE
  5
B39BC
330
2
100
AcDbEntity
  8
0
100
AcDbLine
 10
539.8693805719725
 20
324.3523886398467
 30
0.0
 11
539.9968793641204
 21
324.396403618237
 31
0.0
  0
LINE
  5
B39BD
330
2
100
AcDbEntity
  8
0
100
AcDbLine
 10
539.8693805719725
 20
324.3523886398467
 30
0.0
 11
539.9828320067752
 21
324.3080453564786
 31
0.0
  0
LINE
  5
B39BE
330
2
100
AcDbEntity
  8
0
100
AcDbLine
 10
539.8693805719725
 20
324.3523886398467
 30
0.0
 11
539.9828320067752
 21
324.3080453564786
 31
0.0
  0
LINE
  5
B39BF
330
2
100
AcDbEntity
  8
0
100
AcDbLine
 10
539.8693805719725
 20
324.3523886398467
 30
0.0
 11
539.9968793641204
 21
324.396403618237
 31
0.0
  0
LINE
  5
B39C0
330
2
100
AcDbEntity
  8
0
100
AcDbLine
 10
539.9828320067752
 20
324.3522244873578
 30
0.0
 11
539.8693805719725
 21
324.3523886398467
 31
0.0
  0
LINE
  5
B39C1
330
2
100
AcDbEntity
  8
0
100
AcDbLine
 10
539.9828320067752
 20
324.3080453564786
 30
0.0
 11
539.9968793641204
 21
324.396403618237
 31
0.0
  0
LINE
  5
B39C2
330
2
100
AcDbEntity
  8
0
100
AcDbLine
 10
539.861799742378
 20
324.1006471655759
 30
0.0
 11
539.9828320067752
 21
324.3080453564786
 31
0.0
  0
LINE
  5
B39C3
330
2
100
AcDbEntity
  8
0
100
AcDbLine
 10
540.0044418388331
 20
324.6214363643724
 30
0.0
 11
539.9968793641204
 21
324.396403618237
 31
0.0
  0
LINE
  5
B39C4
330
2
100
AcDbEntity
  8
0
100
AcDbLine
 10
540.4398717967815
 20
325.7472247403398
 30
0.0
 11
540.4203057591485
 21
325.5281110175928
 31
0.0
  0
LINE
  5
B39C5
330
2
100
AcDbEntity
  8
0
100
AcDbLine
 10
540.3414491053579
 20
325.2156949037615
 30
0.0
 11
540.4203057591485
 21
325.4397527558344
 31
0.0
  0
LINE
  5
B39C6
330
2
100
AcDbEntity
  8
0
100
AcDbLine
 10
540.4203057591485
 20
325.4397527558344
 30
0.0
 11
540.4203057591485
 21
325.5281110175928
 31
0.0
  0
LINE
  5
B39C7
330
2
100
AcDbEntity
  8
0
100
AcDbLine
 10
540.4203057591485
 20
325.4839318867136
 30
0.0
 11
540.3068543243457
 21
325.4840960392025
 31
0.0
  0
LINE
  5
B39C8
330
2
100
AcDbEntity
  8
0
100
AcDbLine
 10
540.3068543243457
 20
325.4840960392025
 30
0.0
 11
540.4203057591485
 21
325.5281110175928
 31
0.0
  0
LINE
  5
B39C9
330
2
100
AcDbEntity
  8
0
100
AcDbLine
 10
540.3068543243457
 20
325.4840960392025
 30
0.0
 11
540.4203057591485
 21
325.4397527558344
 31
0.0
  0
LINE
  5
B39CA
330
2
100
AcDbEntity
  8
0
100
AcDbLine
 10
540.3068543243457
 20
325.4840960392025
 30
0.0
 11
540.4203057591485
 21
325.4397527558344
 31
0.0
  0
LINE
  5
B39CB
330
2
100
AcDbEntity
  8
0
100
AcDbLine
 10
540.3068543243457
 20
325.4840960392025
 30
0.0
 11
540.4203057591485
 21
325.5281110175928
 31
0.0
  0
LINE
  5
B39CC
330
2
100
AcDbEntity
  8
0
100
AcDbLine
 10
540.4203057591485
 20
325.4839318867136
 30
0.0
 11
540.3068543243457
 21
325.4840960392025
 31
0.0
  0
LINE
  5
B39CD
330
2
100
AcDbEntity
  8
0
100
AcDbLine
 10
540.4203057591485
 20
325.4397527558344
 30
0.0
 11
540.4203057591485
 21
325.5281110175928
 31
0.0
  0
LINE
  5
B39CE
330
2
100
AcDbEntity
  8
0
100
AcDbLine
 10
540.3414491053579
 20
325.2156949037615
 30
0.0
 11
540.4203057591485
 21
325.4397527558344
 31
0.0
  0
LINE
  5
B39CF
330
2
100
AcDbEntity
  8
0
100
AcDbLine
 10
540.4398717967815
 20
325.7472247403398
 30
0.0
 11
540.4203057591485
 21
325.5281110175928
 31
0.0
  0
LINE
  5
B39D0
330
2
100
AcDbEntity
  8
0
100
AcDbLine
 10
539.3535609524632
 20
325.4839493652411
 30
0.0
 11
539.528910572695
 21
325.7491144081861
 31
0.0
  0
LINE
  5
B39D1
330
2
100
AcDbEntity
  8
0
100
AcDbLine
 10
539.528910572695
 20
325.7491144081861
 30
0.0
 11
539.67859864358
 21
325.4839493652411
 31
0.0
  0
LINE
  5
B39D2
330
2
100
AcDbEntity
  8
0
100
AcDbLine
 10
539.67859864358
 20
325.4839493652411
 30
0.0
 11
539.528910572695
 21
325.2187843222961
 31
0.0
  0
LINE
  5
B39D3
330
2
100
AcDbEntity
  8
0
100
AcDbLine
 10
539.528910572695
 20
325.2187843222961
 30
0.0
 11
539.3535609524632
 21
325.4839493652411
 31
0.0
  0
LINE
  5
B39D4
330
2
100
AcDbEntity
  8
0
100
AcDbLine
 10
539.5460161221076
 20
325.4839318867136
 30
0.0
 11
539.4861434739357
 21
325.4839318867136
 31
0.0
  0
LINE
  5
B39D5
330
2
100
AcDbEntity
  8
0
100
AcDbLine
 10
539.5289280512225
 20
325.6165318867136
 30
0.0
 11
539.5289280512225
 21
325.3513668437686
 31
0.0
  0
LWPOLYLINE
  5
B39D6
330
2
100
AcDbEntity
  8
0
100
AcDbPolyline
 90
        2
 70
     0
 10
539.4861434739357
 20
325.4839318867136
 40
0.0
 41
0.03125
 10
539.5288930941675
 20
325.4839318867136
 40
0.03125
 41
0.03125
  0
LWPOLYLINE
  5
B39D7
330
2
100
AcDbEntity
  8
0
100
AcDbPolyline
 90
        2
 70
     0
 10
539.5289280512225
 20
325.6165318867136
 40
0.0
 41
0.03125
 10
539.5288930941675
 20
325.4839318867136
 40
0.03125
 41
0.03125
  0
LWPOLYLINE
  5
B39D8
330
2
100
AcDbEntity
  8
0
100
AcDbPolyline
 90
        2
 70
     0
 10
539.5427404266637
 20
325.4819944925652
 40
0.0
 41
0.03125
 10
539.5289280512225
 20
325.4839318867136
 40
0.03125
 41
0.03125
  0
LWPOLYLINE
  5
B39D9
330
2
100
AcDbEntity
  8
0
100
AcDbPolyline
 90
        2
 70
     0
 10
539.5289280512225
 20
325.3513668437686
 40
0.0
 41
0.03125
 10
539.5289280512225
 20
325.4839318867136
 40
0.03125
 41
0.03125
  0
LINE
  5
B39DA
330
2
100
AcDbEntity
  8
0
100
AcDbLine
 10
537.7763945787456
 20
322.3589493652411
 30
0.0
 11
538.0318367043473
 21
322.6241144081861
 31
0.0
  0
LINE
  5
B39DB
330
2
100
AcDbEntity
  8
0
100
AcDbLine
 10
538.0318367043473
 20
322.6241144081861
 30
0.0
 11
538.1877677015872
 21
322.3589493652411
 31
0.0
  0
LINE
  5
B39DC
330
2
100
AcDbEntity
  8
0
100
AcDbLine
 10
538.1877677015872
 20
322.3589493652411
 30
0.0
 11
537.9402970770269
 21
322.1770314188851
 31
0.0
  0
LINE
  5
B39DD
330
2
100
AcDbEntity
  8
0
100
AcDbLine
 10
537.9402970770269
 20
322.1770314188851
 30
0.0
 11
537.7763945787456
 21
322.3589493652411
 31
0.0
  0
LINE
  5
B39DE
330
2
100
AcDbEntity
  8
0
100
AcDbLine
 10
538.1061667357069
 20
322.3589318867136
 30
0.0
 11
537.8410016927618
 21
322.3589318867136
 31
0.0
  0
LINE
  5
B39DF
330
2
100
AcDbEntity
  8
0
100
AcDbLine
 10
538.0068888299693
 20
322.4915318867136
 30
0.0
 11
537.9528536377875
 21
322.2263668437686
 31
0.0
  0
LWPOLYLINE
  5
B39E0
330
2
100
AcDbEntity
  8
0
100
AcDbPolyline
 90
        2
 70
     0
 10
537.8410016927618
 20
322.3589318867136
 40
0.0
 41
0.03125
 10
537.9735667357068
 20
322.3589318867136
 40
0.03125
 41
0.03125
  0
LWPOLYLINE
  5
B39E1
330
2
100
AcDbEntity
  8
0
100
AcDbPolyline
 90
        2
 70
     0
 10
538.0068888299693
 20
322.4915318867136
 40
0.0
 41
0.03125
 10
537.9735667357068
 20
322.3589318867136
 40
0.03125
 41
0.03125
  0
LWPOLYLINE
  5
B39E2
330
2
100
AcDbEntity
  8
0
100
AcDbPolyline
 90
        2
 70
     0
 10
538.102891040263
 20
322.3569944925652
 40
0.0
 41
0.03125
 10
537.9736016927619
 20
322.3589318867136
 40
0.03125
 41
0.03125
  0
LWPOLYLINE
  5
B39E3
330
2
100
AcDbEntity
  8
0
100
AcDbPolyline
 90
        2
 70
     0
 10
537.9528536377875
 20
322.2263668437686
 40
0.0
 41
0.03125
 10
537.9736016927619
 20
322.3589318867136
 40
0.03125
 41
0.03125
  0
LINE
  5
B39E4
330
2
100
AcDbEntity
  8
0
100
AcDbLine
 10
536.2708842142343
 20
324.3589493652411
 30
0.0
 11
536.5360492571792
 21
324.6241144081861
 31
0.0
  0
LINE
  5
B39E5
330
2
100
AcDbEntity
  8
0
100
AcDbLine
 10
536.5360492571792
 20
324.6241144081861
 30
0.0
 11
536.8012143001242
 21
324.3589493652411
 31
0.0
  0
LINE
  5
B39E6
330
2
100
AcDbEntity
  8
0
100
AcDbLine
 10
536.8012143001242
 20
324.3589493652411
 30
0.0
 11
536.5360492571792
 21
324.0937843222961
 31
0.0
  0
LINE
  5
B39E7
330
2
100
AcDbEntity
  8
0
100
AcDbLine
 10
536.5360492571792
 20
324.0937843222961
 30
0.0
 11
536.2708842142343
 21
324.3589493652411
 31
0.0
  0
LINE
  5
B39E8
330
2
100
AcDbEntity
  8
0
100
AcDbLine
 10
536.6686317786517
 20
324.3589318867136
 30
0.0
 11
536.4034667357067
 21
324.3589318867136
 31
0.0
  0
LINE
  5
B39E9
330
2
100
AcDbEntity
  8
0
100
AcDbLine
 10
536.5360667357067
 20
324.4915318867136
 30
0.0
 11
536.5360667357067
 21
324.2263668437686
 31
0.0
  0
LWPOLYLINE
  5
B39EA
330
2
100
AcDbEntity
  8
0
100
AcDbPolyline
 90
        2
 70
     0
 10
536.4034667357067
 20
324.3589318867136
 40
0.0
 41
0.03125
 10
536.5360317786517
 20
324.3589318867136
 40
0.03125
 41
0.03125
  0
LWPOLYLINE
  5
B39EB
330
2
100
AcDbEntity
  8
0
100
AcDbPolyline
 90
        2
 70
     0
 10
536.5360667357067
 20
324.4915318867136
 40
0.0
 41
0.03125
 10
536.5360317786517
 20
324.3589318867136
 40
0.03125
 41
0.03125
  0
LWPOLYLINE
  5
B39EC
330
2
100
AcDbEntity
  8
0
100
AcDbPolyline
 90
        2
 70
     0
 10
536.6653560832078
 20
324.3569944925652
 40
0.0
 41
0.03125
 10
536.5360667357067
 20
324.3589318867136
 40
0.03125
 41
0.03125
  0
LWPOLYLINE
  5
B39ED
330
2
100
AcDbEntity
  8
0
100
AcDbPolyline
 90
        2
 70
     0
 10
536.5360667357067
 20
324.2263668437686
 40
0.0
 41
0.03125
 10
536.5360667357069
 20
324.3589318867136
 40
0.03125
 41
0.03125
  0
LINE
  5
B39EE
330
2
100
AcDbEntity
  8
0
100
AcDbLine
 10
537.3334191712894
 20
325.4839493652411
 30
0.0
 11
537.5985842142344
 21
325.7491144081861
 31
0.0
  0
LINE
  5
B39EF
330
2
100
AcDbEntity
  8
0
100
AcDbLine
 10
537.5985842142344
 20
325.7491144081861
 30
0.0
 11
537.8637492571792
 21
325.4839493652411
 31
0.0
  0
LINE
  5
B39F0
330
2
100
AcDbEntity
  8
0
100
AcDbLine
 10
537.8637492571792
 20
325.4839493652411
 30
0.0
 11
537.5985842142344
 21
325.2187843222961
 31
0.0
  0
LINE
  5
B39F1
330
2
100
AcDbEntity
  8
0
100
AcDbLine
 10
537.5985842142344
 20
325.2187843222961
 30
0.0
 11
537.3334191712894
 21
325.4839493652411
 31
0.0
  0
LINE
  5
B39F2
330
2
100
AcDbEntity
  8
0
100
AcDbLine
 10
537.7311667357068
 20
325.4839318867136
 30
0.0
 11
537.4660016927618
 21
325.4839318867136
 31
0.0
  0
LINE
  5
B39F3
330
2
100
AcDbEntity
  8
0
100
AcDbLine
 10
537.5986016927619
 20
325.6165318867136
 30
0.0
 11
537.5986016927619
 21
325.3513668437686
 31
0.0
  0
LWPOLYLINE
  5
B39F4
330
2
100
AcDbEntity
  8
0
100
AcDbPolyline
 90
        2
 70
     0
 10
537.4660016927618
 20
325.4839318867136
 40
0.0
 41
0.03125
 10
537.5985667357069
 20
325.4839318867136
 40
0.03125
 41
0.03125
  0
LWPOLYLINE
  5
B39F5
330
2
100
AcDbEntity
  8
0
100
AcDbPolyline
 90
        2
 70
     0
 10
537.5986016927619
 20
325.6165318867136
 40
0.0
 41
0.03125
 10
537.5985667357069
 20
325.4839318867136
 40
0.03125
 41
0.03125
  0
LWPOLYLINE
  5
B39F6
330
2
100
AcDbEntity
  8
0
100
AcDbPolyline
 90
        2
 70
     0
 10
537.727891040263
 20
325.4819944925652
 40
0.0
 41
0.03125
 10
537.5986016927619
 20
325.4839318867136
 40
0.03125
 41
0.03125
  0
LWPOLYLINE
  5
B39F7
330
2
100
AcDbEntity
  8
0
100
AcDbPolyline
 90
        2
 70
     0
 10
537.5986016927619
 20
325.3513668437686
 40
0.0
 41
0.03125
 10
537.5986016927619
 20
325.4839318867136
 40
0.03125
 41
0.03125
  0
ARC
  5
B39F8
330
2
100
AcDbEntity
  8
0
100
AcDbCircle
 10
538.5757764349485
 20
325.817106358102
 30
0.0
 40
1.865287033258435
100
AcDbArc
 50
320.0089500771647
 51
341.1904784583595
  0
ARC
  5
B39F9
330
2
100
AcDbEntity
  8
0
100
AcDbCircle
 10
537.8046852992487
 20
324.0879449288359
 30
0.0
 40
2.052697245764164
100
AcDbArc
 50
305.7291513824228
 51
332.4554742121918
  0
ARC
  5
B39FA
330
2
100
AcDbEntity
  8
0
100
AcDbCircle
 10
519.473566735706
 20
341.4214318867145
 30
0.0
 40
24.84718922735648
100
AcDbArc
 50
313.3692439254982
 51
320.102165252358
  0
ARC
  5
B39FB
330
2
100
AcDbEntity
  8
0
100
AcDbCircle
 10
524.6610667357068
 20
313.9214318867136
 30
0.0
 40
16.57428825772011
100
AcDbArc
 50
34.70881815761753
 51
44.23610153906767
  0
ARC
  5
B39FC
330
2
100
AcDbEntity
  8
0
100
AcDbCircle
 10
535.6610667357069
 20
322.1714318867136
 30
0.0
 40
2.881107642904027
100
AcDbArc
 50
356.2686030008389
 51
24.34108993669025
  0
ARC
  5
B39FD
330
2
100
AcDbEntity
  8
0
100
AcDbCircle
 10
535.7548167357069
 20
323.2026818867136
 30
0.0
 40
3.597145135381667
100
AcDbArc
 50
2.489552921999721
 51
39.35945056784507
  0
ARC
  5
B39FE
330
2
100
AcDbEntity
  8
0
100
AcDbCircle
 10
537.1853722912624
 20
323.7096263311581
 30
0.0
 40
2.191437153522661
100
AcDbArc
 50
308.0501508581673
 51
316.9293647306508
  0
ARC
  5
B39FF
330
2
100
AcDbEntity
  8
0
100
AcDbCircle
 10
497.1629049710012
 20
353.0979024749488
 30
0.0
 40
51.61430451119208
100
AcDbArc
 50
324.817906210318
 51
325.8191737032611
  0
ARC
  5
B3A00
330
2
100
AcDbEntity
  8
0
100
AcDbCircle
 10
536.4423167357069
 20
324.8901818867136
 30
0.0
 40
3.284968131504475
100
AcDbArc
 50
297.7839264122063
 51
332.2160735877892
  0
ARC
  5
B3A01
330
2
100
AcDbEntity
  8
0
100
AcDbCircle
 10
524.6610667357068
 20
313.6714318867136
 30
0.0
 40
15.32524979404903
100
AcDbArc
 50
32.84754326523775
 51
39.20720350497103
  0
ARC
  5
B3A02
330
2
100
AcDbEntity
  8
0
100
AcDbCircle
 10
532.8880404199174
 20
328.9650174130295
 30
0.0
 40
7.782472809738755
100
AcDbArc
 50
313.916814497011
 51
333.4295335987513
  0
ARC
  5
B3A03
330
2
100
AcDbEntity
  8
0
100
AcDbCircle
 10
534.0673167357068
 20
326.5776818867136
 30
0.0
 40
5.306430356181072
100
AcDbArc
 50
300.0378447456776
 51
322.6577096937162
  0
LINE
  5
B3A04
330
2
100
AcDbEntity
  8
0
100
AcDbLine
 10
538.5360667357068
 20
321.9839318867136
 30
0.0
 11
538.5360667357068
 21
322.1575664094146
 31
0.0
  0
LINE
  5
B3A05
330
2
100
AcDbEntity
  8
0
100
AcDbLine
 10
536.5360667357069
 20
325.4839318867136
 30
0.0
 11
537.3334366498169
 21
325.4839318867136
 31
0.0
  0
LINE
  5
B3A06
330
2
100
AcDbEntity
  8
0
100
AcDbLine
 10
536.8011968215967
 20
324.3589318867136
 30
0.0
 11
538.4215455380422
 21
324.3589318867136
 31
0.0
  0
LINE
  5
B3A07
330
2
100
AcDbEntity
  8
0
100
AcDbLine
 10
536.5360667357069
 20
323.3589318867136
 30
0.0
 11
537.2709366498169
 21
323.3589318867136
 31
0.0
  0
LINE
  5
B3A08
330
2
100
AcDbEntity
  8
0
100
AcDbLine
 10
536.5360667357069
 20
322.3589318867136
 30
0.0
 11
537.7764135245644
 21
322.3589318867136
 31
0.0
  0
LINE
  5
B3A09
330
2
100
AcDbEntity
  8
0
100
AcDbLine
 10
536.5360667357069
 20
321.9839318867136
 30
0.0
 11
538.5360667357068
 21
321.9839318867136
 31
0.0
  0
LINE
  5
B3A0A
330
2
100
AcDbEntity
  8
0
100
AcDbLine
 10
536.5360667357069
 20
321.9839318867136
 30
0.0
 11
536.5360667357069
 21
322.2018491932046
 31
0.0
  0
ARC
  5
B3A0D
330
2
100
AcDbEntity
  8
0
100
AcDbCircle
 10
543.1048167357074
 20
322.4407500685315
 30
0.0
 40
10.46198339638592
100
AcDbArc
 50
137.5277056231672
 51
144.017673180502
  0
ARC
  5
B3A0E
330
2
100
AcDbEntity
  8
0
100
AcDbCircle
 10
538.0751292357067
 20
331.2385483639864
 30
0.0
 40
4.866391616097331
100
AcDbArc
 50
184.4740628500095
 51
220.0239844644163
  0
ARC
  5
B3A0F
330
2
100
AcDbEntity
  8
0
100
AcDbCircle
 10
558.4204108716457
 20
346.1519461550732
 30
0.0
 40
28.36085647889021
100
AcDbArc
 50
212.6312121032609
 51
219.4986975600783
  0
ARC
  5
B3A10
330
2
100
AcDbEntity
  8
0
100
AcDbCircle
 10
543.1048167357074
 20
322.4407500685315
 30
0.0
 40
10.43073339638592
100
AcDbArc
 50
137.5277056231672
 51
155.6952672246146
  0
ARC
  5
B3A11
330
2
100
AcDbEntity
  8
0
100
AcDbCircle
 10
529.9875260342052
 20
335.0691015515785
 30
0.0
 40
7.785172697260564
100
AcDbArc
 50
314.158848600725
 51
327.2623376742734
  0
ARC
  5
B3A12
330
2
100
AcDbEntity
  8
0
100
AcDbCircle
 10
539.7423167357067
 20
325.8333637048955
 30
0.0
 40
7.200290765837265
100
AcDbArc
 50
149.5356012666305
 51
170.6872342807844
  0
ARC
  5
B3A13
330
2
100
AcDbEntity
  8
0
100
AcDbCircle
 10
632.3485667357084
 20
258.6714318867125
 30
0.0
 40
121.5661149848118
100
AcDbArc
 50
142.6882413492062
 51
144.3732898706894
  0
LWPOLYLINE
  5
B3A14
330
2
100
AcDbEntity
  8
0
100
AcDbPolyline
 90
        2
 70
     0
 10
536.5360317786517
 20
329.6165318867136
 40
0.0
 41
0.03125
 10
536.5360667357069
 20
329.4839318867136
 40
0.03125
 41
0.03125
  0
LINE
  5
B3A15
330
2
100
AcDbEntity
  8
0
100
AcDbLine
 10
536.5360317786517
 20
329.6165318867136
 30
0.0
 11
536.5360317786517
 21
329.3513668437686
 31
0.0
  0
LINE
  5
B3A16
330
2
100
AcDbEntity
  8
0
100
AcDbLine
 10
536.5360492571793
 20
329.7491144081861
 30
0.0
 11
536.2708842142343
 21
329.4839493652411
 31
0.0
  0
LWPOLYLINE
  5
B3A17
330
2
100
AcDbEntity
  8
0
100
AcDbPolyline
 90
        2
 70
     0
 10
534.1610317786518
 20
329.6165318867136
 40
0.0
 41
0.03125
 10
534.1610667357068
 20
329.4839318867136
 40
0.03125
 41
0.03125
  0
LINE
  5
B3A18
330
2
100
AcDbEntity
  8
0
100
AcDbLine
 10
534.1610317786518
 20
329.6165318867136
 30
0.0
 11
534.1610317786518
 21
329.3513668437686
 31
0.0
  0
LINE
  5
B3A19
330
2
100
AcDbEntity
  8
0
100
AcDbLine
 10
534.1610492571793
 20
329.7491144081861
 30
0.0
 11
533.9468657698264
 21
329.4839493652411
 31
0.0
  0
LINE
  5
B3A1A
330
2
100
AcDbEntity
  8
0
100
AcDbLine
 10
534.3582388926681
 20
329.4839493652411
 30
0.0
 11
534.1610492571793
 21
329.7491144081861
 31
0.0
  0
LINE
  5
B3A1B
330
2
100
AcDbEntity
  8
0
100
AcDbLine
 10
532.6296724864929
 20
329.4565482184454
 30
0.0
 11
532.6296724864929
 21
329.5449064802038
 31
0.0
  0
LINE
  5
B3A1C
330
2
100
AcDbEntity
  8
0
100
AcDbLine
 10
532.7431239212956
 20
329.5008915018136
 30
0.0
 11
532.6296724864929
 21
329.5449064802038
 31
0.0
  0
LINE
  5
B3A1D
330
2
100
AcDbEntity
  8
0
100
AcDbLine
 10
532.7431239212956
 20
329.5008915018136
 30
0.0
 11
532.6296724864929
 21
329.5449064802038
 31
0.0
  0
LINE
  5
B3A1E
330
2
100
AcDbEntity
  8
0
100
AcDbLine
 10
532.6296724864929
 20
329.4565482184454
 30
0.0
 11
532.6296724864929
 21
329.5449064802038
 31
0.0
  0
LINE
  5
B3A1F
330
2
100
AcDbEntity
  8
0
100
AcDbLine
 10
533.5360667357068
 20
329.4839318867136
 30
0.0
 11
533.4110492571793
 21
330.5937843222961
 31
0.0
  0
LINE
  5
B3A20
330
2
100
AcDbEntity
  8
0
100
AcDbLine
 10
536.2708842142343
 20
329.4839493652411
 30
0.0
 11
535.4481772397516
 21
329.5202095596998
 31
0.0
  0
LINE
  5
B3A21
330
2
100
AcDbEntity
  8
0
100
AcDbLine
 10
534.3582388926681
 20
329.4839493652411
 30
0.0
 11
535.4481772397516
 21
329.5202095596998
 31
0.0
  0
LINE
  5
B3A22
330
2
100
AcDbEntity
  8
0
100
AcDbLine
 10
535.4481772397516
 20
329.5202095596998
 30
0.0
 11
535.3485492571793
 21
328.3741144081862
 31
0.0
  0
LINE
  5
B3A23
330
2
100
AcDbEntity
  8
0
100
AcDbLine
 10
536.2708637338929
 20
329.4839510947305
 30
0.0
 11
536.5360305062547
 21
329.7491144082473
 31
0.0
  0
LINE
  5
B3A24
330
2
100
AcDbEntity
  8
0
100
AcDbLine
 10
536.5360471200709
 20
329.6165318866636
 30
0.0
 11
536.5360453906484
 21
329.3513668437243
 31
0.0
  0
LWPOLYLINE
  5
B3A25
330
2
100
AcDbEntity
  8
0
100
AcDbPolyline
 90
        2
 70
     0
 10
536.5360471200709
 20
329.6165318866636
 40
0.0
 41
0.03125
 10
536.5360112981907
 20
329.4839318868944
 40
0.03125
 41
0.03125
  0
LWPOLYLINE
  5
B3A26
330
2
100
AcDbEntity
  8
0
100
AcDbPolyline
 90
        2
 70
     0
 10
536.5360317786517
 20
329.6165318867136
 40
0.0
 41
0.03125
 10
536.5360667357069
 20
329.4839318867136
 40
0.03125
 41
0.03125
  0
LINE
  5
B3A27
330
2
100
AcDbEntity
  8
0
100
AcDbLine
 10
536.5360317786517
 20
329.6165318867136
 30
0.0
 11
536.5360317786517
 21
329.3513668437686
 31
0.0
  0
LINE
  5
B3A28
330
2
100
AcDbEntity
  8
0
100
AcDbLine
 10
536.5360471200709
 20
329.6165318866636
 30
0.0
 11
536.5360453906484
 21
329.3513668437243
 31
0.0
  0
LWPOLYLINE
  5
B3A29
330
2
100
AcDbEntity
  8
0
100
AcDbPolyline
 90
        2
 70
     0
 10
536.5360471200709
 20
329.6165318866636
 40
0.0
 41
0.03125
 10
536.5360112981907
 20
329.4839318868944
 40
0.03125
 41
0.03125
  0
LINE
  5
B3A2A
330
2
100
AcDbEntity
  8
0
100
AcDbLine
 10
532.7573085054662
 20
329.4839318867136
 30
0.0
 11
532.7070304071173
 21
329.7805963567225
 31
0.0
  0
LINE
  5
B3A2B
330
2
100
AcDbEntity
  8
0
100
AcDbLine
 10
540.3148249659475
 20
329.4839318867136
 30
0.0
 11
540.3651030642962
 21
329.7805963567225
 31
0.0
  0
LWPOLYLINE
  5
B3A2C
330
2
100
AcDbEntity
  8
0
100
AcDbPolyline
 90
        2
 70
     0
 10
536.5360863513426
 20
329.6165318866636
 40
0.0
 41
0.03125
 10
536.5361221732229
 20
329.4839318868944
 40
0.03125
 41
0.03125
  0
LINE
  5
B3A2D
330
2
100
AcDbEntity
  8
0
100
AcDbLine
 10
536.5360863513426
 20
329.6165318866636
 30
0.0
 11
536.5360880807652
 21
329.3513668437243
 31
0.0
  0
LINE
  5
B3A2E
330
2
100
AcDbEntity
  8
0
100
AcDbLine
 10
536.5361029651589
 20
329.7491144082473
 30
0.0
 11
536.2709396516421
 21
329.4839476358854
 31
0.0
  0
LINE
  5
B3A2F
330
2
100
AcDbEntity
  8
0
100
AcDbLine
 10
536.2709191712894
 20
329.4839493652411
 30
0.0
 11
536.5360842142344
 21
329.7491144081861
 31
0.0
  0
LINE
  5
B3A30
330
2
100
AcDbEntity
  8
0
100
AcDbLine
 10
536.5361016927619
 20
329.6165318867136
 30
0.0
 11
536.5361016927619
 21
329.3513668437686
 31
0.0
  0
LWPOLYLINE
  5
B3A31
330
2
100
AcDbEntity
  8
0
100
AcDbPolyline
 90
        2
 70
     0
 10
536.5361016927619
 20
329.6165318867136
 40
0.0
 41
0.03125
 10
536.5360667357069
 20
329.4839318867136
 40
0.03125
 41
0.03125
  0
LWPOLYLINE
  5
B3A32
330
2
100
AcDbEntity
  8
0
100
AcDbPolyline
 90
        2
 70
     0
 10
536.5360863513426
 20
329.6165318866636
 40
0.0
 41
0.03125
 10
536.5361221732229
 20
329.4839318868944
 40
0.03125
 41
0.03125
  0
LINE
  5
B3A33
330
2
100
AcDbEntity
  8
0
100
AcDbLine
 10
536.5360863513426
 20
329.6165318866636
 30
0.0
 11
536.5360880807652
 21
329.3513668437243
 31
0.0
  0
LINE
  5
B3A34
330
2
100
AcDbEntity
  8
0
100
AcDbLine
 10
536.5361029651589
 20
329.7491144082473
 30
0.0
 11
536.2709396516421
 21
329.4839476358854
 31
0.0
  0
LINE
  5
B3A35
330
2
100
AcDbEntity
  8
0
100
AcDbLine
 10
536.8012697375207
 20
329.4839510947305
 30
0.0
 11
536.5361029651589
 21
329.7491144082473
 31
0.0
  0
LINE
  5
B3A36
330
2
100
AcDbEntity
  8
0
100
AcDbLine
 10
537.623956231662
 20
329.5202095596998
 30
0.0
 11
537.7235842142344
 21
328.3741144081862
 31
0.0
  0
LINE
  5
B3A37
330
2
100
AcDbEntity
  8
0
100
AcDbLine
 10
538.7138945787455
 20
329.4839493652411
 30
0.0
 11
537.623956231662
 21
329.5202095596998
 31
0.0
  0
LINE
  5
B3A38
330
2
100
AcDbEntity
  8
0
100
AcDbLine
 10
536.8012492571792
 20
329.4839493652411
 30
0.0
 11
537.623956231662
 21
329.5202095596998
 31
0.0
  0
LINE
  5
B3A39
330
2
100
AcDbEntity
  8
0
100
AcDbLine
 10
539.5360667357068
 20
329.4839318867136
 30
0.0
 11
539.6610842142344
 21
330.5937843222961
 31
0.0
  0
LINE
  5
B3A3A
330
2
100
AcDbEntity
  8
0
100
AcDbLine
 10
540.4424609849207
 20
329.4565482184454
 30
0.0
 11
540.4424609849207
 21
329.5449064802038
 31
0.0
  0
LINE
  5
B3A3B
330
2
100
AcDbEntity
  8
0
100
AcDbLine
 10
540.329009550118
 20
329.5008915018136
 30
0.0
 11
540.4424609849207
 21
329.5449064802038
 31
0.0
  0
LINE
  5
B3A3C
330
2
100
AcDbEntity
  8
0
100
AcDbLine
 10
540.329009550118
 20
329.5008915018136
 30
0.0
 11
540.4424609849207
 21
329.5449064802038
 31
0.0
  0
LINE
  5
B3A3D
330
2
100
AcDbEntity
  8
0
100
AcDbLine
 10
540.4424609849207
 20
329.4565482184454
 30
0.0
 11
540.4424609849207
 21
329.5449064802038
 31
0.0
  0
LINE
  5
B3A3E
330
2
100
AcDbEntity
  8
0
100
AcDbLine
 10
538.7138945787455
 20
329.4839493652411
 30
0.0
 11
538.9110842142343
 21
329.7491144081861
 31
0.0
  0
LINE
  5
B3A3F
330
2
100
AcDbEntity
  8
0
100
AcDbLine
 10
538.9110842142343
 20
329.7491144081861
 30
0.0
 11
539.1252677015873
 21
329.4839493652411
 31
0.0
  0
LINE
  5
B3A40
330
2
100
AcDbEntity
  8
0
100
AcDbLine
 10
538.9111016927619
 20
329.6165318867136
 30
0.0
 11
538.9111016927619
 21
329.3513668437686
 31
0.0
  0
LWPOLYLINE
  5
B3A41
330
2
100
AcDbEntity
  8
0
100
AcDbPolyline
 90
        2
 70
     0
 10
538.9111016927619
 20
329.6165318867136
 40
0.0
 41
0.03125
 10
538.9110667357068
 20
329.4839318867136
 40
0.03125
 41
0.03125
  0
LINE
  5
B3A42
330
2
100
AcDbEntity
  8
0
100
AcDbLine
 10
536.2709191712894
 20
329.4839493652411
 30
0.0
 11
536.5360842142344
 21
329.7491144081861
 31
0.0
  0
LINE
  5
B3A43
330
2
100
AcDbEntity
  8
0
100
AcDbLine
 10
536.5360842142344
 20
329.7491144081861
 30
0.0
 11
536.8012492571792
 21
329.4839493652411
 31
0.0
  0
LINE
  5
B3A44
330
2
100
AcDbEntity
  8
0
100
AcDbLine
 10
536.5361016927619
 20
329.6165318867136
 30
0.0
 11
536.5361016927619
 21
329.3513668437686
 31
0.0
  0
LWPOLYLINE
  5
B3A45
330
2
100
AcDbEntity
  8
0
100
AcDbPolyline
 90
        2
 70
     0
 10
536.5361016927619
 20
329.6165318867136
 40
0.0
 41
0.03125
 10
536.5360667357069
 20
329.4839318867136
 40
0.03125
 41
0.03125
  0
ARC
  5
B3A46
330
2
100
AcDbEntity
  8
0
100
AcDbCircle
 10
440.723566735705
 20
258.6714318867125
 30
0.0
 40
121.5661149848118
100
AcDbArc
 50
35.62671012931054
 51
37.3117586507937
  0
ARC
  5
B3A47
330
2
100
AcDbEntity
  8
0
100
AcDbCircle
 10
533.329816735707
 20
325.8333637048955
 30
0.0
 40
7.200290765837265
100
AcDbArc
 50
9.312765719215553
 51
30.4643987333695
  0
ARC
  5
B3A48
330
2
100
AcDbEntity
  8
0
100
AcDbCircle
 10
543.0846074372084
 20
335.0691015515785
 30
0.0
 40
7.785172697260564
100
AcDbArc
 50
212.7376623257265
 51
225.8411513992749
  0
ARC
  5
B3A49
330
2
100
AcDbEntity
  8
0
100
AcDbCircle
 10
529.9673167357062
 20
322.4407500685315
 30
0.0
 40
10.43073339638592
100
AcDbArc
 50
24.30473277538534
 51
42.47229437683276
  0
ARC
  5
B3A4A
330
2
100
AcDbEntity
  8
0
100
AcDbCircle
 10
514.6517225997679
 20
346.1519461550732
 30
0.0
 40
28.36085647889021
100
AcDbArc
 50
320.5013024399216
 51
327.3687878967391
  0
ARC
  5
B3A4B
330
2
100
AcDbEntity
  8
0
100
AcDbCircle
 10
534.9970042357069
 20
331.2385483639864
 30
0.0
 40
4.866391616097331
100
AcDbArc
 50
319.9760155355836
 51
355.5259371499905
  0
ARC
  5
B3A4C
330
2
100
AcDbEntity
  8
0
100
AcDbCircle
 10
539.7423167357067
 20
325.8333637048955
 30
0.0
 40
7.169040765837265
100
AcDbArc
 50
165.0520659619651
 51
170.6872342807844
  0
ARC
  5
B3A4D
330
2
100
AcDbEntity
  8
0
100
AcDbCircle
 10
535.221162889553
 20
329.2391766419584
 30
0.0
 40
2.54051932223189
100
AcDbArc
 50
183.2609570673116
 51
206.0707964330668
  0
ARC
  5
B3A4E
330
2
100
AcDbEntity
  8
0
100
AcDbCircle
 10
535.221162889553
 20
329.2391766419584
 30
0.0
 40
2.60301932223189
100
AcDbArc
 50
185.0734851404069
 51
206.0707964330668
  0
ARC
  5
B3A4F
330
2
100
AcDbEntity
  8
0
100
AcDbCircle
 10
539.7423167357067
 20
325.8333637048955
 30
0.0
 40
7.200290765837265
100
AcDbArc
 50
162.0648976631982
 51
169.3058194822007
  0
ARC
  5
B3A50
330
2
100
AcDbEntity
  8
0
100
AcDbCircle
 10
535.221162889553
 20
329.2391766419584
 30
0.0
 40
2.57176932223189
100
AcDbArc
 50
179.8960363596234
 51
206.0707964330668
  0
LINE
  5
B3A51
330
2
100
AcDbEntity
  8
0
100
AcDbLine
 10
532.6296724864929
 20
329.5007273493246
 30
0.0
 11
532.7431239212956
 21
329.5008915018136
 31
0.0
  0
LINE
  5
B3A52
330
2
100
AcDbEntity
  8
0
100
AcDbLine
 10
532.7431239212956
 20
329.5008915018136
 30
0.0
 11
532.6296724864929
 21
329.4565482184454
 31
0.0
  0
LINE
  5
B3A53
330
2
100
AcDbEntity
  8
0
100
AcDbLine
 10
532.7431239212956
 20
329.5008915018136
 30
0.0
 11
532.6296724864929
 21
329.4565482184454
 31
0.0
  0
LINE
  5
B3A54
330
2
100
AcDbEntity
  8
0
100
AcDbLine
 10
532.6296724864929
 20
329.5007273493246
 30
0.0
 11
532.7431239212956
 21
329.5008915018136
 31
0.0
  0
LINE
  5
B3A55
330
2
100
AcDbEntity
  8
0
100
AcDbLine
 10
532.6563014514645
 20
326.7251943721483
 30
0.0
 11
532.7697528862672
 21
326.7253585246372
 31
0.0
  0
LINE
  5
B3A56
330
2
100
AcDbEntity
  8
0
100
AcDbLine
 10
532.7697528862672
 20
326.7253585246372
 30
0.0
 11
532.6563014514645
 21
326.7693735030276
 31
0.0
  0
LINE
  5
B3A57
330
2
100
AcDbEntity
  8
0
100
AcDbLine
 10
532.7697528862672
 20
326.7253585246372
 30
0.0
 11
532.6563014514645
 21
326.6810152412691
 31
0.0
  0
LINE
  5
B3A58
330
2
100
AcDbEntity
  8
0
100
AcDbLine
 10
532.7697528862672
 20
326.7253585246372
 30
0.0
 11
532.6563014514645
 21
326.6810152412691
 31
0.0
  0
LINE
  5
B3A59
330
2
100
AcDbEntity
  8
0
100
AcDbLine
 10
532.7697528862672
 20
326.7253585246372
 30
0.0
 11
532.6563014514645
 21
326.7693735030276
 31
0.0
  0
LINE
  5
B3A5A
330
2
100
AcDbEntity
  8
0
100
AcDbLine
 10
532.6563014514645
 20
326.7251943721483
 30
0.0
 11
532.7697528862672
 21
326.7253585246372
 31
0.0
  0
LINE
  5
B3A5B
330
2
100
AcDbEntity
  8
0
100
AcDbLine
 10
533.0689422243223
 20
328.1089318867136
 30
0.0
 11
532.6447393077343
 21
328.1089318867136
 31
0.0
  0
LINE
  5
B3A5C
330
2
100
AcDbEntity
  8
0
100
AcDbLine
 10
532.7376702505315
 20
326.4386500053425
 30
0.0
 11
532.7956709894912
 21
326.7201473785703
 31
0.0
  0
LINE
  5
B3A5D
330
2
100
AcDbEntity
  8
0
100
AcDbLine
 10
532.7956709894912
 20
326.7201473785703
 30
0.0
 11
532.6369280633278
 21
326.9985413424392
 31
0.0
  0
LINE
  5
B3A5E
330
2
100
AcDbEntity
  8
0
100
AcDbLine
 10
532.6493983812867
 20
329.2342006199196
 30
0.0
 11
532.7573085054662
 21
329.4839318867136
 31
0.0
  0
ARC
  5
B3A5F
330
2
100
AcDbEntity
  8
0
100
AcDbCircle
 10
537.6999390431633
 20
328.1571930212667
 30
0.0
 40
5.164097824869733
100
AcDbArc
 50
183.1904247707731
 51
192.0786224956944
  0
LINE
  5
B3A60
330
2
100
AcDbEntity
  8
0
100
AcDbLine
 10
532.6494636737838
 20
329.2437743196155
 30
0.0
 11
532.6296724864929
 21
329.4565482184454
 31
0.0
  0
LINE
  5
B3A61
330
2
100
AcDbEntity
  8
0
100
AcDbLine
 10
532.6494636737838
 20
329.2437743196155
 30
0.0
 11
532.6296724864929
 21
329.4565482184454
 31
0.0
  0
LINE
  5
B3A62
330
2
100
AcDbEntity
  8
0
100
AcDbLine
 10
532.5415690111115
 20
328.4003492616848
 30
0.0
 11
532.4932275218617
 21
328.153512539622
 31
0.0
  0
LINE
  5
B3A63
330
2
100
AcDbEntity
  8
0
100
AcDbLine
 10
532.5444716986405
 20
327.8691943129043
 30
0.0
 11
532.4932275218617
 21
328.0651542778636
 31
0.0
  0
LINE
  5
B3A64
330
2
100
AcDbEntity
  8
0
100
AcDbLine
 10
532.4932275218617
 20
328.0651542778636
 30
0.0
 11
532.4932275218617
 21
328.153512539622
 31
0.0
  0
LINE
  5
B3A65
330
2
100
AcDbEntity
  8
0
100
AcDbLine
 10
532.4932275218617
 20
328.1093334087428
 30
0.0
 11
532.6066789566644
 21
328.1094975612318
 31
0.0
  0
LINE
  5
B3A66
330
2
100
AcDbEntity
  8
0
100
AcDbLine
 10
532.6066789566644
 20
328.1094975612318
 30
0.0
 11
532.4932275218617
 21
328.153512539622
 31
0.0
  0
LINE
  5
B3A67
330
2
100
AcDbEntity
  8
0
100
AcDbLine
 10
532.6066789566644
 20
328.1094975612318
 30
0.0
 11
532.4932275218617
 21
328.0651542778636
 31
0.0
  0
LINE
  5
B3A68
330
2
100
AcDbEntity
  8
0
100
AcDbLine
 10
532.6066789566644
 20
328.1094975612318
 30
0.0
 11
532.4932275218617
 21
328.0651542778636
 31
0.0
  0
LINE
  5
B3A69
330
2
100
AcDbEntity
  8
0
100
AcDbLine
 10
532.6066789566644
 20
328.1094975612318
 30
0.0
 11
532.4932275218617
 21
328.153512539622
 31
0.0
  0
LINE
  5
B3A6A
330
2
100
AcDbEntity
  8
0
100
AcDbLine
 10
532.4932275218617
 20
328.1093334087428
 30
0.0
 11
532.6066789566644
 21
328.1094975612318
 31
0.0
  0
LINE
  5
B3A6B
330
2
100
AcDbEntity
  8
0
100
AcDbLine
 10
532.4932275218617
 20
328.0651542778636
 30
0.0
 11
532.4932275218617
 21
328.153512539622
 31
0.0
  0
LINE
  5
B3A6C
330
2
100
AcDbEntity
  8
0
100
AcDbLine
 10
532.5444716986405
 20
327.8691943129043
 30
0.0
 11
532.4932275218617
 21
328.0651542778636
 31
0.0
  0
LINE
  5
B3A6D
330
2
100
AcDbEntity
  8
0
100
AcDbLine
 10
532.5415690111115
 20
328.4003492616848
 30
0.0
 11
532.4932275218617
 21
328.153512539622
 31
0.0
  0
LINE
  5
B3A6E
330
2
100
AcDbEntity
  8
0
100
AcDbLine
 10
532.6369280633278
 20
326.9985413424393
 30
0.0
 11
532.6563014514645
 21
326.7693735030276
 31
0.0
  0
LINE
  5
B3A6F
330
2
100
AcDbEntity
  8
0
100
AcDbLine
 10
532.7166775042363
 20
326.4825200745981
 30
0.0
 11
532.6563014514645
 21
326.6810152412691
 31
0.0
  0
LINE
  5
B3A70
330
2
100
AcDbEntity
  8
0
100
AcDbLine
 10
532.6563014514645
 20
326.6810152412691
 30
0.0
 11
532.6563014514645
 21
326.7693735030276
 31
0.0
  0
LINE
  5
B3A71
330
2
100
AcDbEntity
  8
0
100
AcDbLine
 10
532.6563014514645
 20
326.6810152412691
 30
0.0
 11
532.6563014514645
 21
326.7693735030276
 31
0.0
  0
LINE
  5
B3A72
330
2
100
AcDbEntity
  8
0
100
AcDbLine
 10
532.6369280633278
 20
326.9985413424393
 30
0.0
 11
532.6563014514645
 21
326.7693735030276
 31
0.0
  0
ARC
  5
B3A73
330
2
100
AcDbEntity
  8
0
100
AcDbCircle
 10
537.6999390431633
 20
328.1571930212667
 30
0.0
 40
5.164097824869733
100
AcDbArc
 50
167.9622109062854
 51
177.3011782588326
  0
LINE
  5
B3A74
330
2
100
AcDbEntity
  8
0
100
AcDbLine
 10
532.5444716986405
 20
327.8691943129043
 30
0.0
 11
532.6447393077343
 21
328.1089318867136
 31
0.0
  0
LINE
  5
B3A75
330
2
100
AcDbEntity
  8
0
100
AcDbLine
 10
532.6447393077343
 20
328.1089318867136
 30
0.0
 11
532.5415690111115
 21
328.4003492616848
 31
0.0
  0
ARC
  5
B3A76
330
2
100
AcDbEntity
  8
0
100
AcDbCircle
 10
538.0751292357067
 20
331.2385483639864
 30
0.0
 40
4.835141616097331
100
AcDbArc
 50
202.5873474809428
 51
216.486353337828
  0
ARC
  5
B3A77
330
2
100
AcDbEntity
  8
0
100
AcDbCircle
 10
538.0751292357067
 20
331.2385483639864
 30
0.0
 40
4.897641616097331
100
AcDbArc
 50
206.8232698617496
 51
216.1718396411684
  0
ARC
  5
B3A78
330
2
100
AcDbEntity
  8
0
100
AcDbCircle
 10
539.7423167357067
 20
325.8333637048955
 30
0.0
 40
7.169040765837265
100
AcDbArc
 50
152.6999787257069
 51
159.0749276879089
  0
ARC
  5
B3A79
330
2
100
AcDbEntity
  8
0
100
AcDbCircle
 10
540.942316735707
 20
331.2651818867137
 30
0.0
 40
8.59793829467779
100
AcDbArc
 50
202.9299059943324
 51
210.6896253349652
  0
ARC
  5
B3A7A
330
2
100
AcDbEntity
  8
0
100
AcDbCircle
 10
540.942316735707
 20
331.2651818867137
 30
0.0
 40
8.66043829467779
100
AcDbArc
 50
203.4817219000617
 51
210.6160407891825
  0
ARC
  5
B3A7B
330
2
100
AcDbEntity
  8
0
100
AcDbCircle
 10
605.3798167357114
 20
385.0776818867174
 30
0.0
 40
91.02300280087732
100
AcDbArc
 50
218.8518341938534
 51
219.6358516774111
  0
ARC
  5
B3A7C
330
2
100
AcDbEntity
  8
0
100
AcDbCircle
 10
605.3798167357114
 20
385.0776818867174
 30
0.0
 40
91.08550280087731
100
AcDbArc
 50
218.9029276456956
 51
219.703233823097
  0
ARC
  5
B3A7D
330
2
100
AcDbEntity
  8
0
100
AcDbCircle
 10
543.1048167357074
 20
322.4407500685315
 30
0.0
 40
10.39948339638592
100
AcDbArc
 50
148.4485149783668
 51
154.9220587054053
  0
ARC
  5
B3A7E
330
2
100
AcDbEntity
  8
0
100
AcDbCircle
 10
543.1048167357074
 20
322.4407500685315
 30
0.0
 40
10.46198339638592
100
AcDbArc
 50
148.1679293248607
 51
154.9013996775169
  0
ARC
  5
B3A7F
330
2
100
AcDbEntity
  8
0
100
AcDbCircle
 10
553.3798167357069
 20
336.3433068867136
 30
0.0
 40
22.86417398500471
100
AcDbArc
 50
205.8955743391368
 51
206.7376540777976
  0
ARC
  5
B3A80
330
2
100
AcDbEntity
  8
0
100
AcDbCircle
 10
543.1048167357074
 20
322.4407500685315
 30
0.0
 40
10.39948339638592
100
AcDbArc
 50
137.5277056231672
 51
145.4171126066448
  0
ARC
  5
B3A81
330
2
100
AcDbEntity
  8
0
100
AcDbCircle
 10
539.7423167357067
 20
325.8333637048955
 30
0.0
 40
7.200290765837265
100
AcDbArc
 50
149.5356012666305
 51
157.3822612478326
  0
ARC
  5
B3A82
330
2
100
AcDbEntity
  8
0
100
AcDbCircle
 10
529.9673167357062
 20
322.4407500685315
 30
0.0
 40
10.46198339638592
100
AcDbArc
 50
26.13850543939893
 51
31.89958164415605
  0
ARC
  5
B3A83
330
2
100
AcDbEntity
  8
0
100
AcDbCircle
 10
551.4364619887079
 20
314.7011989303682
 30
0.0
 40
20.07846151969816
100
AcDbArc
 50
138.7080887161832
 51
142.1397641204978
  0
ARC
  5
B3A84
330
2
100
AcDbEntity
  8
0
100
AcDbCircle
 10
551.4364619887079
 20
314.7011989303682
 30
0.0
 40
20.01596151969816
100
AcDbArc
 50
139.2130109690855
 51
142.3533607143709
  0
ARC
  5
B3A85
330
2
100
AcDbEntity
  8
0
100
AcDbCircle
 10
514.6517225997679
 20
346.1519461550732
 30
0.0
 40
28.32960647889021
100
AcDbArc
 50
321.1433909779331
 51
323.689024952733
  0
ARC
  5
B3A86
330
2
100
AcDbEntity
  8
0
100
AcDbCircle
 10
514.6517225997679
 20
346.1519461550732
 30
0.0
 40
28.39210647889021
100
AcDbArc
 50
321.0517873370534
 51
323.4835366231687
  0
ARC
  5
B3A87
330
2
100
AcDbEntity
  8
0
100
AcDbCircle
 10
533.329816735707
 20
325.8333637048955
 30
0.0
 40
7.169040765837265
100
AcDbArc
 50
20.17380235811976
 51
27.98608708223906
  0
ARC
  5
B3A88
330
2
100
AcDbEntity
  8
0
100
AcDbCircle
 10
533.329816735707
 20
325.8333637048955
 30
0.0
 40
7.169040765837265
100
AcDbArc
 50
10.06355207010548
 51
15.86326519070781
  0
ARC
  5
B3A89
330
2
100
AcDbEntity
  8
0
100
AcDbCircle
 10
533.329816735707
 20
325.8333637048955
 30
0.0
 40
7.231540765837265
100
AcDbArc
 50
10.18126769516127
 51
15.35225008005691
  0
ARC
  5
B3A8A
330
2
100
AcDbEntity
  8
0
100
AcDbCircle
 10
533.329816735707
 20
325.8333637048955
 30
0.0
 40
7.231540765837265
100
AcDbArc
 50
21.22070937297152
 51
28.73508722470148
  0
ARC
  5
B3A8B
330
2
100
AcDbEntity
  8
0
100
AcDbCircle
 10
558.4204108716457
 20
346.1519461550732
 30
0.0
 40
28.39210647889021
100
AcDbArc
 50
216.6037379593803
 51
218.8180714838313
  0
ARC
  5
B3A8C
330
2
100
AcDbEntity
  8
0
100
AcDbCircle
 10
558.4204108716457
 20
346.1519461550732
 30
0.0
 40
28.32960647889021
100
AcDbArc
 50
216.3965423728649
 51
218.1508449834946
  0
ARC
  5
B3A8D
330
2
100
AcDbEntity
  8
0
100
AcDbCircle
 10
521.6356714827058
 20
314.7011989303682
 30
0.0
 40
20.01596151969816
100
AcDbArc
 50
38.30281389362457
 51
41.98968918735643
  0
ARC
  5
B3A8E
330
2
100
AcDbEntity
  8
0
100
AcDbCircle
 10
521.6356714827058
 20
314.7011989303682
 30
0.0
 40
20.07846151969816
100
AcDbArc
 50
39.13034971429759
 51
41.98968918735643
  0
ARC
  5
B3A8F
330
2
100
AcDbEntity
  8
0
100
AcDbCircle
 10
532.1298167357066
 20
331.2651818867137
 30
0.0
 40
8.59793829467779
100
AcDbArc
 50
330.6646520617025
 51
338.5453663839531
  0
ARC
  5
B3A90
330
2
100
AcDbEntity
  8
0
100
AcDbCircle
 10
532.1298167357066
 20
331.2651818867137
 30
0.0
 40
8.66043829467779
100
AcDbArc
 50
330.79428514019
 51
338.5453663839531
  0
ARC
  5
B3A91
330
2
100
AcDbEntity
  8
0
100
AcDbCircle
 10
467.6923167357021
 20
385.0776818867174
 30
0.0
 40
91.02300280087732
100
AcDbArc
 50
320.3621332489994
 51
321.1216617315121
  0
ARC
  5
B3A92
330
2
100
AcDbEntity
  8
0
100
AcDbCircle
 10
467.6923167357021
 20
385.0776818867174
 30
0.0
 40
91.08550280087731
100
AcDbArc
 50
320.462223231683
 51
321.0985901490389
  0
ARC
  5
B3A93
330
2
100
AcDbEntity
  8
0
100
AcDbCircle
 10
529.9673167357062
 20
322.4407500685315
 30
0.0
 40
10.39948339638592
100
AcDbArc
 50
35.23085465549752
 51
40.94078749470187
  0
ARC
  5
B3A94
330
2
100
AcDbEntity
  8
0
100
AcDbCircle
 10
529.9673167357062
 20
322.4407500685315
 30
0.0
 40
10.46198339638592
100
AcDbArc
 50
34.48885063234139
 51
41.82853008023022
  0
ARC
  5
B3A95
330
2
100
AcDbEntity
  8
0
100
AcDbCircle
 10
534.9970042357069
 20
331.2385483639864
 30
0.0
 40
4.835141616097331
100
AcDbArc
 50
319.9760155355836
 51
336.8734587534722
  0
ARC
  5
B3A96
330
2
100
AcDbEntity
  8
0
100
AcDbCircle
 10
534.9970042357069
 20
331.2385483639864
 30
0.0
 40
4.897641616097331
100
AcDbArc
 50
319.9760155355836
 51
333.5246939792703
  0
ARC
  5
B3A97
330
2
100
AcDbEntity
  8
0
100
AcDbCircle
 10
529.9673167357062
 20
322.4407500685315
 30
0.0
 40
10.39948339638592
100
AcDbArc
 50
24.30473277538534
 51
28.91544290619645
  0
LWPOLYLINE
  5
B3A98
330
2
100
AcDbEntity
  8
0
100
AcDbPolyline
 90
        2
 70
     0
 10
536.5360317786517
 20
329.3513668437686
 40
0.0
 41
0.03125
 10
536.5360317786517
 20
329.4839318867136
 40
0.03125
 41
0.03125
  0
LWPOLYLINE
  5
B3A99
330
2
100
AcDbEntity
  8
0
100
AcDbPolyline
 90
        2
 70
     0
 10
536.4067424311507
 20
329.4819944925652
 40
0.0
 41
0.03125
 10
536.5360317786517
 20
329.4839318867136
 40
0.03125
 41
0.03125
  0
LWPOLYLINE
  5
B3A9A
330
2
100
AcDbEntity
  8
0
100
AcDbPolyline
 90
        2
 70
     0
 10
536.6686317786518
 20
329.4839318867136
 40
0.0
 41
0.03125
 10
536.5360667357069
 20
329.4839318867136
 40
0.03125
 41
0.03125
  0
LINE
  5
B3A9B
330
2
100
AcDbEntity
  8
0
100
AcDbLine
 10
536.4034667357068
 20
329.4839318867136
 30
0.0
 11
536.6686317786518
 21
329.4839318867136
 31
0.0
  0
LINE
  5
B3A9C
330
2
100
AcDbEntity
  8
0
100
AcDbLine
 10
536.2708842142343
 20
329.4839493652411
 30
0.0
 11
536.5360492571793
 21
329.2187843222961
 31
0.0
  0
LWPOLYLINE
  5
B3A9D
330
2
100
AcDbEntity
  8
0
100
AcDbPolyline
 90
        2
 70
     0
 10
534.1610317786518
 20
329.3513668437686
 40
0.0
 41
0.03125
 10
534.1610317786517
 20
329.4839318867136
 40
0.03125
 41
0.03125
  0
LWPOLYLINE
  5
B3A9E
330
2
100
AcDbEntity
  8
0
100
AcDbPolyline
 90
        2
 70
     0
 10
534.0317424311507
 20
329.4819944925652
 40
0.0
 41
0.03125
 10
534.1610317786518
 20
329.4839318867136
 40
0.03125
 41
0.03125
  0
LWPOLYLINE
  5
B3A9F
330
2
100
AcDbEntity
  8
0
100
AcDbPolyline
 90
        2
 70
     0
 10
534.2936317786518
 20
329.4839318867136
 40
0.0
 41
0.03125
 10
534.1610667357068
 20
329.4839318867136
 40
0.03125
 41
0.03125
  0
LINE
  5
B3AA0
330
2
100
AcDbEntity
  8
0
100
AcDbLine
 10
534.0284667357068
 20
329.4839318867136
 30
0.0
 11
534.2936317786518
 21
329.4839318867136
 31
0.0
  0
LINE
  5
B3AA1
330
2
100
AcDbEntity
  8
0
100
AcDbLine
 10
534.1610492571793
 20
329.2187843222961
 30
0.0
 11
534.3582388926681
 21
329.4839493652411
 31
0.0
  0
LINE
  5
B3AA2
330
2
100
AcDbEntity
  8
0
100
AcDbLine
 10
533.9468657698264
 20
329.4839493652411
 30
0.0
 11
534.1610492571793
 21
329.2187843222961
 31
0.0
  0
LINE
  5
B3AA3
330
2
100
AcDbEntity
  8
0
100
AcDbLine
 10
533.3889307968664
 20
328.1178761515123
 30
0.0
 11
533.2135811766346
 21
328.3830411944573
 31
0.0
  0
LINE
  5
B3AA4
330
2
100
AcDbEntity
  8
0
100
AcDbLine
 10
533.2135811766346
 20
328.3830411944573
 30
0.0
 11
533.0638931057494
 21
328.1178761515123
 31
0.0
  0
LINE
  5
B3AA5
330
2
100
AcDbEntity
  8
0
100
AcDbLine
 10
533.0638931057494
 20
328.1178761515123
 30
0.0
 11
533.2135811766346
 21
327.8527111085673
 31
0.0
  0
LINE
  5
B3AA6
330
2
100
AcDbEntity
  8
0
100
AcDbLine
 10
533.2135811766346
 20
327.8527111085673
 30
0.0
 11
533.3889307968664
 21
328.1178761515123
 31
0.0
  0
LINE
  5
B3AA7
330
2
100
AcDbEntity
  8
0
100
AcDbLine
 10
533.196475627222
 20
328.1178586729848
 30
0.0
 11
533.2563482753938
 21
328.1178586729848
 31
0.0
  0
LINE
  5
B3AA8
330
2
100
AcDbEntity
  8
0
100
AcDbLine
 10
533.2135636981071
 20
328.2504586729849
 30
0.0
 11
533.2135636981071
 21
327.9852936300398
 31
0.0
  0
LWPOLYLINE
  5
B3AA9
330
2
100
AcDbEntity
  8
0
100
AcDbPolyline
 90
        2
 70
     0
 10
533.2563482753938
 20
328.1178586729848
 40
0.0
 41
0.03125
 10
533.2135986551621
 20
328.1178586729848
 40
0.03125
 41
0.03125
  0
LWPOLYLINE
  5
B3AAA
330
2
100
AcDbEntity
  8
0
100
AcDbPolyline
 90
        2
 70
     0
 10
533.2135636981071
 20
328.2504586729849
 40
0.0
 41
0.03125
 10
533.2135986551621
 20
328.1178586729848
 40
0.03125
 41
0.03125
  0
LWPOLYLINE
  5
B3AAB
330
2
100
AcDbEntity
  8
0
100
AcDbPolyline
 90
        2
 70
     0
 10
533.1997513226658
 20
328.1159212788364
 40
0.0
 41
0.03125
 10
533.2135636981071
 20
328.1178586729848
 40
0.03125
 41
0.03125
  0
LWPOLYLINE
  5
B3AAC
330
2
100
AcDbEntity
  8
0
100
AcDbPolyline
 90
        2
 70
     0
 10
533.2135636981071
 20
327.9852936300398
 40
0.0
 41
0.03125
 10
533.213563698107
 20
328.1178586729848
 40
0.03125
 41
0.03125
  0
LWPOLYLINE
  5
B3AAD
330
2
100
AcDbEntity
  8
0
100
AcDbPolyline
 90
        2
 70
     0
 10
535.3485317786518
 20
327.9763668437686
 40
0.0
 41
0.03125
 10
535.3485317786517
 20
328.1089318867136
 40
0.03125
 41
0.03125
  0
LWPOLYLINE
  5
B3AAE
330
2
100
AcDbEntity
  8
0
100
AcDbPolyline
 90
        2
 70
     0
 10
535.2192424311507
 20
328.1069944925652
 40
0.0
 41
0.03125
 10
535.3485317786518
 20
328.1089318867136
 40
0.03125
 41
0.03125
  0
LWPOLYLINE
  5
B3AAF
330
2
100
AcDbEntity
  8
0
100
AcDbPolyline
 90
        2
 70
     0
 10
535.3485317786518
 20
328.2415318867136
 40
0.0
 41
0.03125
 10
535.3485667357069
 20
328.1089318867136
 40
0.03125
 41
0.03125
  0
LWPOLYLINE
  5
B3AB0
330
2
100
AcDbEntity
  8
0
100
AcDbPolyline
 90
        2
 70
     0
 10
535.4811317786518
 20
328.1089318867136
 40
0.0
 41
0.03125
 10
535.3485667357069
 20
328.1089318867136
 40
0.03125
 41
0.03125
  0
LINE
  5
B3AB1
330
2
100
AcDbEntity
  8
0
100
AcDbLine
 10
535.3485317786518
 20
328.2415318867136
 30
0.0
 11
535.3485317786518
 21
327.9763668437686
 31
0.0
  0
LINE
  5
B3AB2
330
2
100
AcDbEntity
  8
0
100
AcDbLine
 10
535.2159667357068
 20
328.1089318867136
 30
0.0
 11
535.4811317786518
 21
328.1089318867136
 31
0.0
  0
LINE
  5
B3AB3
330
2
100
AcDbEntity
  8
0
100
AcDbLine
 10
535.3485492571793
 20
327.8437843222961
 30
0.0
 11
535.6137143001242
 21
328.1089493652411
 31
0.0
  0
LINE
  5
B3AB4
330
2
100
AcDbEntity
  8
0
100
AcDbLine
 10
535.0833842142343
 20
328.1089493652411
 30
0.0
 11
535.3485492571793
 21
327.8437843222961
 31
0.0
  0
LINE
  5
B3AB5
330
2
100
AcDbEntity
  8
0
100
AcDbLine
 10
535.3485492571793
 20
328.3741144081862
 30
0.0
 11
535.0833842142343
 21
328.1089493652411
 31
0.0
  0
LINE
  5
B3AB6
330
2
100
AcDbEntity
  8
0
100
AcDbLine
 10
535.6137143001242
 20
328.1089493652411
 30
0.0
 11
535.3485492571793
 21
328.3741144081862
 31
0.0
  0
LINE
  5
B3AB7
330
2
100
AcDbEntity
  8
0
100
AcDbLine
 10
534.4832388926682
 20
326.7339493652412
 30
0.0
 11
534.2860492571793
 21
326.9991144081862
 31
0.0
  0
LINE
  5
B3AB8
330
2
100
AcDbEntity
  8
0
100
AcDbLine
 10
534.2860492571793
 20
326.9991144081862
 30
0.0
 11
534.0718657698264
 21
326.7339493652412
 31
0.0
  0
LINE
  5
B3AB9
330
2
100
AcDbEntity
  8
0
100
AcDbLine
 10
534.0718657698264
 20
326.7339493652412
 30
0.0
 11
534.2860492571793
 21
326.4687843222962
 31
0.0
  0
LINE
  5
B3ABA
330
2
100
AcDbEntity
  8
0
100
AcDbLine
 10
534.2860492571793
 20
326.4687843222962
 30
0.0
 11
534.4832388926682
 21
326.7339493652412
 31
0.0
  0
LINE
  5
B3ABB
330
2
100
AcDbEntity
  8
0
100
AcDbLine
 10
534.1534667357068
 20
326.7339318867136
 30
0.0
 11
534.4186317786518
 21
326.7339318867136
 31
0.0
  0
LINE
  5
B3ABC
330
2
100
AcDbEntity
  8
0
100
AcDbLine
 10
534.2860317786517
 20
326.8665318867137
 30
0.0
 11
534.2860317786517
 21
326.6013668437687
 31
0.0
  0
LWPOLYLINE
  5
B3ABD
330
2
100
AcDbEntity
  8
0
100
AcDbPolyline
 90
        2
 70
     0
 10
534.4186317786518
 20
326.7339318867136
 40
0.0
 41
0.03125
 10
534.2860667357069
 20
326.7339318867136
 40
0.03125
 41
0.03125
  0
LWPOLYLINE
  5
B3ABE
330
2
100
AcDbEntity
  8
0
100
AcDbPolyline
 90
        2
 70
     0
 10
534.2860317786517
 20
326.8665318867137
 40
0.0
 41
0.03125
 10
534.2860667357069
 20
326.7339318867136
 40
0.03125
 41
0.03125
  0
LWPOLYLINE
  5
B3ABF
330
2
100
AcDbEntity
  8
0
100
AcDbPolyline
 90
        2
 70
     0
 10
534.1567424311507
 20
326.7319944925652
 40
0.0
 41
0.03125
 10
534.2860317786517
 20
326.7339318867136
 40
0.03125
 41
0.03125
  0
LWPOLYLINE
  5
B3AC0
330
2
100
AcDbEntity
  8
0
100
AcDbPolyline
 90
        2
 70
     0
 10
534.2860317786517
 20
326.6013668437687
 40
0.0
 41
0.03125
 10
534.2860317786517
 20
326.7339318867136
 40
0.03125
 41
0.03125
  0
LWPOLYLINE
  5
B3AC1
330
2
100
AcDbEntity
  8
0
100
AcDbPolyline
 90
        2
 70
     0
 10
536.5360317786517
 20
326.6013668437687
 40
0.0
 41
0.03125
 10
536.5360317786517
 20
326.7339318867136
 40
0.03125
 41
0.03125
  0
LWPOLYLINE
  5
B3AC2
330
2
100
AcDbEntity
  8
0
100
AcDbPolyline
 90
        2
 70
     0
 10
536.4067424311507
 20
326.7319944925652
 40
0.0
 41
0.03125
 10
536.5360317786517
 20
326.7339318867136
 40
0.03125
 41
0.03125
  0
LWPOLYLINE
  5
B3AC3
330
2
100
AcDbEntity
  8
0
100
AcDbPolyline
 90
        2
 70
     0
 10
536.5360317786517
 20
326.8665318867137
 40
0.0
 41
0.03125
 10
536.5360667357069
 20
326.7339318867136
 40
0.03125
 41
0.03125
  0
LWPOLYLINE
  5
B3AC4
330
2
100
AcDbEntity
  8
0
100
AcDbPolyline
 90
        2
 70
     0
 10
536.6686317786518
 20
326.7339318867136
 40
0.0
 41
0.03125
 10
536.5360667357069
 20
326.7339318867136
 40
0.03125
 41
0.03125
  0
LINE
  5
B3AC5
330
2
100
AcDbEntity
  8
0
100
AcDbLine
 10
536.5360317786517
 20
326.8665318867137
 30
0.0
 11
536.5360317786517
 21
326.6013668437687
 31
0.0
  0
LINE
  5
B3AC6
330
2
100
AcDbEntity
  8
0
100
AcDbLine
 10
536.4034667357068
 20
326.7339318867136
 30
0.0
 11
536.6686317786518
 21
326.7339318867136
 31
0.0
  0
LINE
  5
B3AC7
330
2
100
AcDbEntity
  8
0
100
AcDbLine
 10
536.2708842142343
 20
326.7339493652412
 30
0.0
 11
536.5360492571793
 21
326.4687843222962
 31
0.0
  0
LINE
  5
B3AC8
330
2
100
AcDbEntity
  8
0
100
AcDbLine
 10
536.5360492571793
 20
326.9991144081862
 30
0.0
 11
536.2708842142343
 21
326.7339493652412
 31
0.0
  0
LINE
  5
B3AC9
330
2
100
AcDbEntity
  8
0
100
AcDbLine
 10
533.9468798878713
 20
329.4839318867136
 30
0.0
 11
532.7573085054662
 21
329.4839318867136
 31
0.0
  0
LINE
  5
B3ACA
330
2
100
AcDbEntity
  8
0
100
AcDbLine
 10
534.0718798878713
 20
326.7339318867136
 30
0.0
 11
532.7878109298548
 21
326.7339318867136
 31
0.0
  0
LINE
  5
B3ACB
330
2
100
AcDbEntity
  8
0
100
AcDbLine
 10
535.0834016927619
 20
328.1089318867136
 30
0.0
 11
533.3830160902433
 21
328.1089318867136
 31
0.0
  0
LINE
  5
B3ACC
330
2
100
AcDbEntity
  8
0
100
AcDbLine
 10
536.5360667357069
 20
328.1127205077233
 30
0.0
 11
535.6137143001242
 21
328.1089493652411
 31
0.0
  0
LINE
  5
B3ACD
330
2
100
AcDbEntity
  8
0
100
AcDbLine
 10
536.2709016927619
 20
326.7339318867136
 30
0.0
 11
535.4359462379917
 21
326.7790375377765
 31
0.0
  0
LINE
  5
B3ACE
330
2
100
AcDbEntity
  8
0
100
AcDbLine
 10
535.4359462379917
 20
326.7790375377765
 30
0.0
 11
534.4832258947841
 21
326.7339318867136
 31
0.0
  0
LINE
  5
B3ACF
330
2
100
AcDbEntity
  8
0
100
AcDbLine
 10
536.5360667357069
 20
326.9990969296586
 30
0.0
 11
536.5360667357069
 21
329.2188018008237
 31
0.0
  0
LINE
  5
B3AD0
330
2
100
AcDbEntity
  8
0
100
AcDbLine
 10
534.1610492571793
 20
329.2187843222961
 30
0.0
 11
534.3485667357068
 21
328.1089318867136
 31
0.0
  0
LINE
  5
B3AD1
330
2
100
AcDbEntity
  8
0
100
AcDbLine
 10
535.3485492571793
 20
327.8437843222961
 30
0.0
 11
535.4359462379917
 21
326.7790375377765
 31
0.0
  0
LINE
  5
B3AD2
330
2
100
AcDbEntity
  8
0
100
AcDbLine
 10
534.2860492571793
 20
326.9991144081862
 30
0.0
 11
534.3485667357068
 21
328.1089318867136
 31
0.0
  0
LINE
  5
B3AD3
330
2
100
AcDbEntity
  8
0
100
AcDbLine
 10
533.5985667357069
 20
326.7339318867136
 30
0.0
 11
533.2135811766346
 21
327.8527111085673
 31
0.0
  0
LINE
  5
B3AD4
330
2
100
AcDbEntity
  8
0
100
AcDbLine
 10
533.2135811766346
 20
328.3830411944573
 30
0.0
 11
533.5360667357068
 21
329.4839318867136
 31
0.0
  0
LINE
  5
B3AD5
330
2
100
AcDbEntity
  8
0
100
AcDbLine
 10
536.5359950919462
 20
326.9990969298922
 30
0.0
 11
536.5360095689961
 21
329.2188018010101
 31
0.0
  0
LINE
  5
B3AD6
330
2
100
AcDbEntity
  8
0
100
AcDbLine
 10
536.2708457982259
 20
326.7339510947889
 30
0.0
 11
536.5360125705877
 21
326.9991144083058
 31
0.0
  0
LINE
  5
B3AD7
330
2
100
AcDbEntity
  8
0
100
AcDbLine
 10
536.5360091117427
 20
326.4687843224271
 30
0.0
 11
536.2708457982259
 21
326.7339510947889
 31
0.0
  0
LINE
  5
B3AD8
330
2
100
AcDbEntity
  8
0
100
AcDbLine
 10
536.6685933625209
 20
326.7339310221276
 30
0.0
 11
536.4034283195816
 21
326.7339327515502
 31
0.0
  0
LINE
  5
B3AD9
330
2
100
AcDbEntity
  8
0
100
AcDbLine
 10
536.536029184404
 20
326.8665318867221
 30
0.0
 11
536.5360274549815
 21
326.6013668437827
 31
0.0
  0
LWPOLYLINE
  5
B3ADA
330
2
100
AcDbEntity
  8
0
100
AcDbPolyline
 90
        2
 70
     0
 10
536.4034283195816
 20
326.7339327515502
 40
0.0
 41
0.03125
 10
536.5359933625237
 20
326.7339318869529
 40
0.03125
 41
0.03125
  0
LWPOLYLINE
  5
B3ADB
330
2
100
AcDbEntity
  8
0
100
AcDbPolyline
 90
        2
 70
     0
 10
536.536029184404
 20
326.8665318867221
 40
0.0
 41
0.03125
 10
536.5359933625237
 20
326.7339318869529
 40
0.03125
 41
0.03125
  0
LWPOLYLINE
  5
B3ADC
330
2
100
AcDbEntity
  8
0
100
AcDbPolyline
 90
        2
 70
     0
 10
536.6653176544413
 20
326.7319936493436
 40
0.0
 41
0.03125
 10
536.5360283195788
 20
326.7339318867249
 40
0.03125
 41
0.03125
  0
LWPOLYLINE
  5
B3ADD
330
2
100
AcDbEntity
  8
0
100
AcDbPolyline
 90
        2
 70
     0
 10
536.5360274549815
 20
326.6013668437827
 40
0.0
 41
0.03125
 10
536.5360283195788
 20
326.7339318867249
 40
0.03125
 41
0.03125
  0
LINE
  5
B3ADE
330
2
100
AcDbEntity
  8
0
100
AcDbLine
 10
536.5360270474097
 20
329.2187843223687
 30
0.0
 11
536.2708637338929
 21
329.4839510947305
 31
0.0
  0
LINE
  5
B3ADF
330
2
100
AcDbEntity
  8
0
100
AcDbLine
 10
536.6686112981879
 20
329.4839310220692
 30
0.0
 11
536.4034462552486
 21
329.4839327514917
 31
0.0
  0
LWPOLYLINE
  5
B3AE0
330
2
100
AcDbEntity
  8
0
100
AcDbPolyline
 90
        2
 70
     0
 10
536.4034462552486
 20
329.4839327514917
 40
0.0
 41
0.03125
 10
536.5360112981907
 20
329.4839318868944
 40
0.03125
 41
0.03125
  0
LWPOLYLINE
  5
B3AE1
330
2
100
AcDbEntity
  8
0
100
AcDbPolyline
 90
        2
 70
     0
 10
536.6653355901083
 20
329.481993649285
 40
0.0
 41
0.03125
 10
536.5360462552457
 20
329.4839318866664
 40
0.03125
 41
0.03125
  0
LWPOLYLINE
  5
B3AE2
330
2
100
AcDbEntity
  8
0
100
AcDbPolyline
 90
        2
 70
     0
 10
536.5360453906484
 20
329.3513668437243
 40
0.0
 41
0.03125
 10
536.5360462552458
 20
329.4839318866664
 40
0.03125
 41
0.03125
  0
LWPOLYLINE
  5
B3AE3
330
2
100
AcDbEntity
  8
0
100
AcDbPolyline
 90
        2
 70
     0
 10
536.5360317786517
 20
329.3513668437686
 40
0.0
 41
0.03125
 10
536.5360317786517
 20
329.4839318867136
 40
0.03125
 41
0.03125
  0
LWPOLYLINE
  5
B3AE4
330
2
100
AcDbEntity
  8
0
100
AcDbPolyline
 90
        2
 70
     0
 10
536.6686317786518
 20
329.4839318867136
 40
0.0
 41
0.03125
 10
536.5360667357069
 20
329.4839318867136
 40
0.03125
 41
0.03125
  0
LWPOLYLINE
  5
B3AE5
330
2
100
AcDbEntity
  8
0
100
AcDbPolyline
 90
        2
 70
     0
 10
536.5360317786517
 20
326.6013668437687
 40
0.0
 41
0.03125
 10
536.5360317786517
 20
326.7339318867136
 40
0.03125
 41
0.03125
  0
LWPOLYLINE
  5
B3AE6
330
2
100
AcDbEntity
  8
0
100
AcDbPolyline
 90
        2
 70
     0
 10
536.5360317786517
 20
326.8665318867137
 40
0.0
 41
0.03125
 10
536.5360667357069
 20
326.7339318867136
 40
0.03125
 41
0.03125
  0
LWPOLYLINE
  5
B3AE7
330
2
100
AcDbEntity
  8
0
100
AcDbPolyline
 90
        2
 70
     0
 10
536.6686317786518
 20
326.7339318867136
 40
0.0
 41
0.03125
 10
536.5360667357069
 20
326.7339318867136
 40
0.03125
 41
0.03125
  0
LINE
  5
B3AE8
330
2
100
AcDbEntity
  8
0
100
AcDbLine
 10
536.5360317786517
 20
326.8665318867137
 30
0.0
 11
536.5360317786517
 21
326.6013668437687
 31
0.0
  0
LINE
  5
B3AE9
330
2
100
AcDbEntity
  8
0
100
AcDbLine
 10
536.5360667357069
 20
326.9990969296586
 30
0.0
 11
536.5360667357069
 21
329.2188018008237
 31
0.0
  0
LINE
  5
B3AEA
330
2
100
AcDbEntity
  8
0
100
AcDbLine
 10
536.5359950919462
 20
326.9990969298922
 30
0.0
 11
536.5360095689961
 21
329.2188018010101
 31
0.0
  0
LINE
  5
B3AEB
330
2
100
AcDbEntity
  8
0
100
AcDbLine
 10
536.536029184404
 20
326.8665318867221
 30
0.0
 11
536.5360274549815
 21
326.6013668437827
 31
0.0
  0
LWPOLYLINE
  5
B3AEC
330
2
100
AcDbEntity
  8
0
100
AcDbPolyline
 90
        2
 70
     0
 10
536.536029184404
 20
326.8665318867221
 40
0.0
 41
0.03125
 10
536.5359933625237
 20
326.7339318869529
 40
0.03125
 41
0.03125
  0
LWPOLYLINE
  5
B3AED
330
2
100
AcDbEntity
  8
0
100
AcDbPolyline
 90
        2
 70
     0
 10
536.6653176544413
 20
326.7319936493436
 40
0.0
 41
0.03125
 10
536.5360283195788
 20
326.7339318867249
 40
0.03125
 41
0.03125
  0
LWPOLYLINE
  5
B3AEE
330
2
100
AcDbEntity
  8
0
100
AcDbPolyline
 90
        2
 70
     0
 10
536.5360274549815
 20
326.6013668437827
 40
0.0
 41
0.03125
 10
536.5360283195788
 20
326.7339318867249
 40
0.03125
 41
0.03125
  0
LWPOLYLINE
  5
B3AEF
330
2
100
AcDbEntity
  8
0
100
AcDbPolyline
 90
        2
 70
     0
 10
536.6653355901083
 20
329.481993649285
 40
0.0
 41
0.03125
 10
536.5360462552457
 20
329.4839318866664
 40
0.03125
 41
0.03125
  0
LWPOLYLINE
  5
B3AF0
330
2
100
AcDbEntity
  8
0
100
AcDbPolyline
 90
        2
 70
     0
 10
536.5360453906484
 20
329.3513668437243
 40
0.0
 41
0.03125
 10
536.5360462552458
 20
329.4839318866664
 40
0.03125
 41
0.03125
  0
LINE
  5
B3AF1
330
2
100
AcDbEntity
  8
0
100
AcDbLine
 10
540.4227350901269
 20
329.2342006199196
 30
0.0
 11
540.3148249659475
 21
329.4839318867136
 31
0.0
  0
LINE
  5
B3AF2
330
2
100
AcDbEntity
  8
0
100
AcDbLine
 10
540.4273941636794
 20
328.1089318867136
 30
0.0
 11
540.530564460302
 21
328.4003492616848
 31
0.0
  0
LINE
  5
B3AF3
330
2
100
AcDbEntity
  8
0
100
AcDbLine
 10
540.5276617727731
 20
327.8691943129043
 30
0.0
 11
540.4273941636794
 21
328.1089318867136
 31
0.0
  0
LINE
  5
B3AF4
330
2
100
AcDbEntity
  8
0
100
AcDbLine
 10
540.2764624819225
 20
326.7201473785703
 30
0.0
 11
540.4352054080858
 21
326.9985413424392
 31
0.0
  0
LINE
  5
B3AF5
330
2
100
AcDbEntity
  8
0
100
AcDbLine
 10
540.334463220882
 20
326.4386500053425
 30
0.0
 11
540.2764624819225
 21
326.7201473785703
 31
0.0
  0
LWPOLYLINE
  5
B3AF6
330
2
100
AcDbEntity
  8
0
100
AcDbPolyline
 90
        2
 70
     0
 10
536.5360880807652
 20
329.3513668437243
 40
0.0
 41
0.03125
 10
536.5360872161678
 20
329.4839318866664
 40
0.03125
 41
0.03125
  0
LWPOLYLINE
  5
B3AF7
330
2
100
AcDbEntity
  8
0
100
AcDbPolyline
 90
        2
 70
     0
 10
536.4067978813054
 20
329.481993649285
 40
0.0
 41
0.03125
 10
536.5360872161679
 20
329.4839318866664
 40
0.03125
 41
0.03125
  0
LINE
  5
B3AF8
330
2
100
AcDbEntity
  8
0
100
AcDbLine
 10
536.2709396516421
 20
329.4839476358854
 30
0.0
 11
536.536106424004
 21
329.2187843223687
 31
0.0
  0
LWPOLYLINE
  5
B3AF9
330
2
100
AcDbEntity
  8
0
100
AcDbPolyline
 90
        2
 70
     0
 10
536.5361060164322
 20
326.6013668437827
 40
0.0
 41
0.03125
 10
536.5361051518347
 20
326.7339318867249
 40
0.03125
 41
0.03125
  0
LWPOLYLINE
  5
B3AFA
330
2
100
AcDbEntity
  8
0
100
AcDbPolyline
 90
        2
 70
     0
 10
536.4068158169724
 20
326.7319936493436
 40
0.0
 41
0.03125
 10
536.5361051518349
 20
326.7339318867249
 40
0.03125
 41
0.03125
  0
LWPOLYLINE
  5
B3AFB
330
2
100
AcDbEntity
  8
0
100
AcDbPolyline
 90
        2
 70
     0
 10
536.5361042870095
 20
326.8665318867221
 40
0.0
 41
0.03125
 10
536.5361401088899
 20
326.7339318869529
 40
0.03125
 41
0.03125
  0
LINE
  5
B3AFC
330
2
100
AcDbEntity
  8
0
100
AcDbLine
 10
536.5361042870095
 20
326.8665318867221
 30
0.0
 11
536.5361060164322
 21
326.6013668437827
 31
0.0
  0
LINE
  5
B3AFD
330
2
100
AcDbEntity
  8
0
100
AcDbLine
 10
536.2709575873091
 20
326.733947635944
 30
0.0
 11
536.5361243596709
 21
326.4687843224271
 31
0.0
  0
LINE
  5
B3AFE
330
2
100
AcDbEntity
  8
0
100
AcDbLine
 10
536.5361209008259
 20
326.9991144083058
 30
0.0
 11
536.2709575873091
 21
326.733947635944
 31
0.0
  0
LINE
  5
B3AFF
330
2
100
AcDbEntity
  8
0
100
AcDbLine
 10
536.5361383794675
 20
326.9990969298922
 30
0.0
 11
536.5361239024174
 21
329.2188018010101
 31
0.0
  0
LINE
  5
B3B00
330
2
100
AcDbEntity
  8
0
100
AcDbLine
 10
536.5360667357069
 20
326.9990969296586
 30
0.0
 11
536.5360667357069
 21
329.2188018008237
 31
0.0
  0
LINE
  5
B3B01
330
2
100
AcDbEntity
  8
0
100
AcDbLine
 10
536.2709191712894
 20
326.7339493652412
 30
0.0
 11
536.5360842142344
 21
326.9991144081862
 31
0.0
  0
LINE
  5
B3B02
330
2
100
AcDbEntity
  8
0
100
AcDbLine
 10
536.5360842142344
 20
326.4687843222962
 30
0.0
 11
536.2709191712894
 21
326.7339493652412
 31
0.0
  0
LINE
  5
B3B03
330
2
100
AcDbEntity
  8
0
100
AcDbLine
 10
536.5361016927619
 20
326.8665318867137
 30
0.0
 11
536.5361016927619
 21
326.6013668437687
 31
0.0
  0
LWPOLYLINE
  5
B3B04
330
2
100
AcDbEntity
  8
0
100
AcDbPolyline
 90
        2
 70
     0
 10
536.4035016927618
 20
326.7339318867136
 40
0.0
 41
0.03125
 10
536.5360667357069
 20
326.7339318867136
 40
0.03125
 41
0.03125
  0
LWPOLYLINE
  5
B3B05
330
2
100
AcDbEntity
  8
0
100
AcDbPolyline
 90
        2
 70
     0
 10
536.5361016927619
 20
326.8665318867137
 40
0.0
 41
0.03125
 10
536.5360667357069
 20
326.7339318867136
 40
0.03125
 41
0.03125
  0
LWPOLYLINE
  5
B3B06
330
2
100
AcDbEntity
  8
0
100
AcDbPolyline
 90
        2
 70
     0
 10
536.5361016927619
 20
326.6013668437687
 40
0.0
 41
0.03125
 10
536.5361016927619
 20
326.7339318867136
 40
0.03125
 41
0.03125
  0
LINE
  5
B3B07
330
2
100
AcDbEntity
  8
0
100
AcDbLine
 10
536.5360842142344
 20
329.2187843222961
 30
0.0
 11
536.2709191712894
 21
329.4839493652411
 31
0.0
  0
LWPOLYLINE
  5
B3B08
330
2
100
AcDbEntity
  8
0
100
AcDbPolyline
 90
        2
 70
     0
 10
536.4035016927618
 20
329.4839318867136
 40
0.0
 41
0.03125
 10
536.5360667357069
 20
329.4839318867136
 40
0.03125
 41
0.03125
  0
LWPOLYLINE
  5
B3B09
330
2
100
AcDbEntity
  8
0
100
AcDbPolyline
 90
        2
 70
     0
 10
536.5361016927619
 20
329.3513668437686
 40
0.0
 41
0.03125
 10
536.5361016927619
 20
329.4839318867136
 40
0.03125
 41
0.03125
  0
LWPOLYLINE
  5
B3B0A
330
2
100
AcDbEntity
  8
0
100
AcDbPolyline
 90
        2
 70
     0
 10
536.5360880807652
 20
329.3513668437243
 40
0.0
 41
0.03125
 10
536.5360872161678
 20
329.4839318866664
 40
0.03125
 41
0.03125
  0
LWPOLYLINE
  5
B3B0B
330
2
100
AcDbEntity
  8
0
100
AcDbPolyline
 90
        2
 70
     0
 10
536.4067978813054
 20
329.481993649285
 40
0.0
 41
0.03125
 10
536.5360872161679
 20
329.4839318866664
 40
0.03125
 41
0.03125
  0
LWPOLYLINE
  5
B3B0C
330
2
100
AcDbEntity
  8
0
100
AcDbPolyline
 90
        2
 70
     0
 10
536.6686872161651
 20
329.4839327514917
 40
0.0
 41
0.03125
 10
536.5361221732229
 20
329.4839318868944
 40
0.03125
 41
0.03125
  0
LINE
  5
B3B0D
330
2
100
AcDbEntity
  8
0
100
AcDbLine
 10
536.4035221732258
 20
329.4839310220692
 30
0.0
 11
536.6686872161651
 21
329.4839327514917
 31
0.0
  0
LINE
  5
B3B0E
330
2
100
AcDbEntity
  8
0
100
AcDbLine
 10
536.536106424004
 20
329.2187843223687
 30
0.0
 11
536.8012697375207
 21
329.4839510947305
 31
0.0
  0
LINE
  5
B3B0F
330
2
100
AcDbEntity
  8
0
100
AcDbLine
 10
536.2709396516421
 20
329.4839476358854
 30
0.0
 11
536.536106424004
 21
329.2187843223687
 31
0.0
  0
LWPOLYLINE
  5
B3B10
330
2
100
AcDbEntity
  8
0
100
AcDbPolyline
 90
        2
 70
     0
 10
536.5361060164322
 20
326.6013668437827
 40
0.0
 41
0.03125
 10
536.5361051518347
 20
326.7339318867249
 40
0.03125
 41
0.03125
  0
LWPOLYLINE
  5
B3B11
330
2
100
AcDbEntity
  8
0
100
AcDbPolyline
 90
        2
 70
     0
 10
536.4068158169724
 20
326.7319936493436
 40
0.0
 41
0.03125
 10
536.5361051518349
 20
326.7339318867249
 40
0.03125
 41
0.03125
  0
LWPOLYLINE
  5
B3B12
330
2
100
AcDbEntity
  8
0
100
AcDbPolyline
 90
        2
 70
     0
 10
536.5361042870095
 20
326.8665318867221
 40
0.0
 41
0.03125
 10
536.5361401088899
 20
326.7339318869529
 40
0.03125
 41
0.03125
  0
LWPOLYLINE
  5
B3B13
330
2
100
AcDbEntity
  8
0
100
AcDbPolyline
 90
        2
 70
     0
 10
536.668705151832
 20
326.7339327515502
 40
0.0
 41
0.03125
 10
536.5361401088899
 20
326.7339318869529
 40
0.03125
 41
0.03125
  0
LINE
  5
B3B14
330
2
100
AcDbEntity
  8
0
100
AcDbLine
 10
536.5361042870095
 20
326.8665318867221
 30
0.0
 11
536.5361060164322
 21
326.6013668437827
 31
0.0
  0
LINE
  5
B3B15
330
2
100
AcDbEntity
  8
0
100
AcDbLine
 10
536.4035401088927
 20
326.7339310221276
 30
0.0
 11
536.668705151832
 21
326.7339327515502
 31
0.0
  0
LINE
  5
B3B16
330
2
100
AcDbEntity
  8
0
100
AcDbLine
 10
536.5361243596709
 20
326.4687843224271
 30
0.0
 11
536.8012876731877
 21
326.7339510947889
 31
0.0
  0
LINE
  5
B3B17
330
2
100
AcDbEntity
  8
0
100
AcDbLine
 10
536.2709575873091
 20
326.733947635944
 30
0.0
 11
536.5361243596709
 21
326.4687843224271
 31
0.0
  0
LINE
  5
B3B18
330
2
100
AcDbEntity
  8
0
100
AcDbLine
 10
536.5361209008259
 20
326.9991144083058
 30
0.0
 11
536.2709575873091
 21
326.733947635944
 31
0.0
  0
LINE
  5
B3B19
330
2
100
AcDbEntity
  8
0
100
AcDbLine
 10
536.8012876731877
 20
326.7339510947889
 30
0.0
 11
536.5361209008259
 21
326.9991144083058
 31
0.0
  0
LINE
  5
B3B1A
330
2
100
AcDbEntity
  8
0
100
AcDbLine
 10
536.5361383794675
 20
326.9990969298922
 30
0.0
 11
536.5361239024174
 21
329.2188018010101
 31
0.0
  0
LINE
  5
B3B1B
330
2
100
AcDbEntity
  8
0
100
AcDbLine
 10
539.858552294779
 20
328.3830411944573
 30
0.0
 11
539.5360667357068
 21
329.4839318867136
 31
0.0
  0
LINE
  5
B3B1C
330
2
100
AcDbEntity
  8
0
100
AcDbLine
 10
539.4735667357068
 20
326.7339318867136
 30
0.0
 11
539.858552294779
 21
327.8527111085673
 31
0.0
  0
LINE
  5
B3B1D
330
2
100
AcDbEntity
  8
0
100
AcDbLine
 10
538.7860842142344
 20
326.9991144081862
 30
0.0
 11
538.7235667357068
 21
328.1089318867136
 31
0.0
  0
LINE
  5
B3B1E
330
2
100
AcDbEntity
  8
0
100
AcDbLine
 10
537.7235842142344
 20
327.8437843222961
 30
0.0
 11
537.636187233422
 21
326.7790375377765
 31
0.0
  0
LINE
  5
B3B1F
330
2
100
AcDbEntity
  8
0
100
AcDbLine
 10
538.9110842142343
 20
329.2187843222961
 30
0.0
 11
538.7235667357068
 21
328.1089318867136
 31
0.0
  0
LINE
  5
B3B20
330
2
100
AcDbEntity
  8
0
100
AcDbLine
 10
536.5360667357069
 20
326.9990969296586
 30
0.0
 11
536.5360667357069
 21
329.2188018008237
 31
0.0
  0
LINE
  5
B3B21
330
2
100
AcDbEntity
  8
0
100
AcDbLine
 10
537.636187233422
 20
326.7790375377765
 30
0.0
 11
538.5889075766295
 21
326.7339318867136
 31
0.0
  0
LINE
  5
B3B22
330
2
100
AcDbEntity
  8
0
100
AcDbLine
 10
536.8012317786517
 20
326.7339318867136
 30
0.0
 11
537.636187233422
 21
326.7790375377765
 31
0.0
  0
LINE
  5
B3B23
330
2
100
AcDbEntity
  8
0
100
AcDbLine
 10
536.5360667357069
 20
328.1127205077233
 30
0.0
 11
537.4584191712894
 21
328.1089493652411
 31
0.0
  0
LINE
  5
B3B24
330
2
100
AcDbEntity
  8
0
100
AcDbLine
 10
537.9887317786518
 20
328.1089318867136
 30
0.0
 11
539.6891173811703
 21
328.1089318867136
 31
0.0
  0
LINE
  5
B3B25
330
2
100
AcDbEntity
  8
0
100
AcDbLine
 10
540.0031912470913
 20
328.1089318867136
 30
0.0
 11
540.4273941636794
 21
328.1089318867136
 31
0.0
  0
LINE
  5
B3B26
330
2
100
AcDbEntity
  8
0
100
AcDbLine
 10
539.0002535835423
 20
326.7339318867136
 30
0.0
 11
540.2843225415588
 21
326.7339318867136
 31
0.0
  0
LINE
  5
B3B27
330
2
100
AcDbEntity
  8
0
100
AcDbLine
 10
539.1252535835424
 20
329.4839318867136
 30
0.0
 11
540.3148249659475
 21
329.4839318867136
 31
0.0
  0
ARC
  5
B3B28
330
2
100
AcDbEntity
  8
0
100
AcDbCircle
 10
535.3721944282503
 20
328.1571930212667
 30
0.0
 40
5.164097824869733
100
AcDbArc
 50
2.698821741167349
 51
12.03778909371452
  0
LINE
  5
B3B29
330
2
100
AcDbEntity
  8
0
100
AcDbLine
 10
536.2709191712894
 20
326.7339493652412
 30
0.0
 11
536.5360842142344
 21
326.9991144081862
 31
0.0
  0
LINE
  5
B3B2A
330
2
100
AcDbEntity
  8
0
100
AcDbLine
 10
536.5360842142344
 20
326.9991144081862
 30
0.0
 11
536.8012492571792
 21
326.7339493652412
 31
0.0
  0
LINE
  5
B3B2B
330
2
100
AcDbEntity
  8
0
100
AcDbLine
 10
536.8012492571792
 20
326.7339493652412
 30
0.0
 11
536.5360842142344
 21
326.4687843222962
 31
0.0
  0
LINE
  5
B3B2C
330
2
100
AcDbEntity
  8
0
100
AcDbLine
 10
536.5360842142344
 20
326.4687843222962
 30
0.0
 11
536.2709191712894
 21
326.7339493652412
 31
0.0
  0
LINE
  5
B3B2D
330
2
100
AcDbEntity
  8
0
100
AcDbLine
 10
536.6686667357068
 20
326.7339318867136
 30
0.0
 11
536.4035016927618
 21
326.7339318867136
 31
0.0
  0
LINE
  5
B3B2E
330
2
100
AcDbEntity
  8
0
100
AcDbLine
 10
536.5361016927619
 20
326.8665318867137
 30
0.0
 11
536.5361016927619
 21
326.6013668437687
 31
0.0
  0
LWPOLYLINE
  5
B3B2F
330
2
100
AcDbEntity
  8
0
100
AcDbPolyline
 90
        2
 70
     0
 10
536.4035016927618
 20
326.7339318867136
 40
0.0
 41
0.03125
 10
536.5360667357069
 20
326.7339318867136
 40
0.03125
 41
0.03125
  0
LWPOLYLINE
  5
B3B30
330
2
100
AcDbEntity
  8
0
100
AcDbPolyline
 90
        2
 70
     0
 10
536.5361016927619
 20
326.8665318867137
 40
0.0
 41
0.03125
 10
536.5360667357069
 20
326.7339318867136
 40
0.03125
 41
0.03125
  0
LWPOLYLINE
  5
B3B31
330
2
100
AcDbEntity
  8
0
100
AcDbPolyline
 90
        2
 70
     0
 10
536.665391040263
 20
326.7319944925652
 40
0.0
 41
0.03125
 10
536.5361016927619
 20
326.7339318867136
 40
0.03125
 41
0.03125
  0
LWPOLYLINE
  5
B3B32
330
2
100
AcDbEntity
  8
0
100
AcDbPolyline
 90
        2
 70
     0
 10
536.5361016927619
 20
326.6013668437687
 40
0.0
 41
0.03125
 10
536.5361016927619
 20
326.7339318867136
 40
0.03125
 41
0.03125
  0
LINE
  5
B3B33
330
2
100
AcDbEntity
  8
0
100
AcDbLine
 10
540.4352054080858
 20
326.9985413424393
 30
0.0
 11
540.4158320199491
 21
326.7693735030276
 31
0.0
  0
LINE
  5
B3B34
330
2
100
AcDbEntity
  8
0
100
AcDbLine
 10
540.4158320199491
 20
326.6810152412691
 30
0.0
 11
540.4158320199491
 21
326.7693735030276
 31
0.0
  0
LINE
  5
B3B35
330
2
100
AcDbEntity
  8
0
100
AcDbLine
 10
540.4158320199491
 20
326.7251943721483
 30
0.0
 11
540.3023805851464
 21
326.7253585246372
 31
0.0
  0
LINE
  5
B3B36
330
2
100
AcDbEntity
  8
0
100
AcDbLine
 10
540.3023805851464
 20
326.7253585246372
 30
0.0
 11
540.4158320199491
 21
326.7693735030276
 31
0.0
  0
LINE
  5
B3B37
330
2
100
AcDbEntity
  8
0
100
AcDbLine
 10
540.3023805851464
 20
326.7253585246372
 30
0.0
 11
540.4158320199491
 21
326.6810152412691
 31
0.0
  0
LINE
  5
B3B38
330
2
100
AcDbEntity
  8
0
100
AcDbLine
 10
540.3023805851464
 20
326.7253585246372
 30
0.0
 11
540.4158320199491
 21
326.6810152412691
 31
0.0
  0
LINE
  5
B3B39
330
2
100
AcDbEntity
  8
0
100
AcDbLine
 10
540.3023805851464
 20
326.7253585246372
 30
0.0
 11
540.4158320199491
 21
326.7693735030276
 31
0.0
  0
LINE
  5
B3B3A
330
2
100
AcDbEntity
  8
0
100
AcDbLine
 10
540.4158320199491
 20
326.7251943721483
 30
0.0
 11
540.3023805851464
 21
326.7253585246372
 31
0.0
  0
LINE
  5
B3B3B
330
2
100
AcDbEntity
  8
0
100
AcDbLine
 10
540.4158320199491
 20
326.6810152412691
 30
0.0
 11
540.4158320199491
 21
326.7693735030276
 31
0.0
  0
LINE
  5
B3B3C
330
2
100
AcDbEntity
  8
0
100
AcDbLine
 10
540.3554559671773
 20
326.4825200745981
 30
0.0
 11
540.4158320199491
 21
326.6810152412691
 31
0.0
  0
LINE
  5
B3B3D
330
2
100
AcDbEntity
  8
0
100
AcDbLine
 10
540.4352054080858
 20
326.9985413424393
 30
0.0
 11
540.4158320199491
 21
326.7693735030276
 31
0.0
  0
LWPOLYLINE
  5
B3B3E
330
2
100
AcDbEntity
  8
0
100
AcDbPolyline
 90
        2
 70
     0
 10
538.7861016927619
 20
326.6013668437687
 40
0.0
 41
0.03125
 10
538.7861016927619
 20
326.7339318867136
 40
0.03125
 41
0.03125
  0
LWPOLYLINE
  5
B3B3F
330
2
100
AcDbEntity
  8
0
100
AcDbPolyline
 90
        2
 70
     0
 10
538.915391040263
 20
326.7319944925652
 40
0.0
 41
0.03125
 10
538.7861016927619
 20
326.7339318867136
 40
0.03125
 41
0.03125
  0
LWPOLYLINE
  5
B3B40
330
2
100
AcDbEntity
  8
0
100
AcDbPolyline
 90
        2
 70
     0
 10
538.7861016927619
 20
326.8665318867137
 40
0.0
 41
0.03125
 10
538.7860667357069
 20
326.7339318867136
 40
0.03125
 41
0.03125
  0
LWPOLYLINE
  5
B3B41
330
2
100
AcDbEntity
  8
0
100
AcDbPolyline
 90
        2
 70
     0
 10
538.6535016927618
 20
326.7339318867136
 40
0.0
 41
0.03125
 10
538.7860667357069
 20
326.7339318867136
 40
0.03125
 41
0.03125
  0
LINE
  5
B3B42
330
2
100
AcDbEntity
  8
0
100
AcDbLine
 10
538.7861016927619
 20
326.8665318867137
 30
0.0
 11
538.7861016927619
 21
326.6013668437687
 31
0.0
  0
LINE
  5
B3B43
330
2
100
AcDbEntity
  8
0
100
AcDbLine
 10
538.9186667357068
 20
326.7339318867136
 30
0.0
 11
538.6535016927618
 21
326.7339318867136
 31
0.0
  0
LINE
  5
B3B44
330
2
100
AcDbEntity
  8
0
100
AcDbLine
 10
538.7860842142344
 20
326.4687843222962
 30
0.0
 11
538.5888945787455
 21
326.7339493652412
 31
0.0
  0
LINE
  5
B3B45
330
2
100
AcDbEntity
  8
0
100
AcDbLine
 10
539.0002677015872
 20
326.7339493652412
 30
0.0
 11
538.7860842142344
 21
326.4687843222962
 31
0.0
  0
LINE
  5
B3B46
330
2
100
AcDbEntity
  8
0
100
AcDbLine
 10
538.7860842142344
 20
326.9991144081862
 30
0.0
 11
539.0002677015872
 21
326.7339493652412
 31
0.0
  0
LINE
  5
B3B47
330
2
100
AcDbEntity
  8
0
100
AcDbLine
 10
538.5888945787455
 20
326.7339493652412
 30
0.0
 11
538.7860842142344
 21
326.9991144081862
 31
0.0
  0
LINE
  5
B3B48
330
2
100
AcDbEntity
  8
0
100
AcDbLine
 10
537.4584191712894
 20
328.1089493652411
 30
0.0
 11
537.7235842142344
 21
328.3741144081862
 31
0.0
  0
LINE
  5
B3B49
330
2
100
AcDbEntity
  8
0
100
AcDbLine
 10
537.7235842142344
 20
328.3741144081862
 30
0.0
 11
537.9887492571793
 21
328.1089493652411
 31
0.0
  0
LINE
  5
B3B4A
330
2
100
AcDbEntity
  8
0
100
AcDbLine
 10
537.9887492571793
 20
328.1089493652411
 30
0.0
 11
537.7235842142344
 21
327.8437843222961
 31
0.0
  0
LINE
  5
B3B4B
330
2
100
AcDbEntity
  8
0
100
AcDbLine
 10
537.7235842142344
 20
327.8437843222961
 30
0.0
 11
537.4584191712894
 21
328.1089493652411
 31
0.0
  0
LINE
  5
B3B4C
330
2
100
AcDbEntity
  8
0
100
AcDbLine
 10
537.8561667357068
 20
328.1089318867136
 30
0.0
 11
537.5910016927618
 21
328.1089318867136
 31
0.0
  0
LINE
  5
B3B4D
330
2
100
AcDbEntity
  8
0
100
AcDbLine
 10
537.7236016927619
 20
328.2415318867136
 30
0.0
 11
537.7236016927619
 21
327.9763668437686
 31
0.0
  0
LWPOLYLINE
  5
B3B4E
330
2
100
AcDbEntity
  8
0
100
AcDbPolyline
 90
        2
 70
     0
 10
537.5910016927618
 20
328.1089318867136
 40
0.0
 41
0.03125
 10
537.7235667357068
 20
328.1089318867136
 40
0.03125
 41
0.03125
  0
LWPOLYLINE
  5
B3B4F
330
2
100
AcDbEntity
  8
0
100
AcDbPolyline
 90
        2
 70
     0
 10
537.7236016927619
 20
328.2415318867136
 40
0.0
 41
0.03125
 10
537.7235667357068
 20
328.1089318867136
 40
0.03125
 41
0.03125
  0
LWPOLYLINE
  5
B3B50
330
2
100
AcDbEntity
  8
0
100
AcDbPolyline
 90
        2
 70
     0
 10
537.8528910402629
 20
328.1069944925652
 40
0.0
 41
0.03125
 10
537.7236016927619
 20
328.1089318867136
 40
0.03125
 41
0.03125
  0
LWPOLYLINE
  5
B3B51
330
2
100
AcDbEntity
  8
0
100
AcDbPolyline
 90
        2
 70
     0
 10
537.7236016927619
 20
327.9763668437686
 40
0.0
 41
0.03125
 10
537.7236016927619
 20
328.1089318867136
 40
0.03125
 41
0.03125
  0
LINE
  5
B3B52
330
2
100
AcDbEntity
  8
0
 62
     1
100
AcDbLine
 10
540.530564460302
 20
328.4003492616848
 30
0.0
 11
540.578905949552
 21
328.153512539622
 31
0.0
  0
LINE
  5
B3B53
330
2
100
AcDbEntity
  8
0
100
AcDbLine
 10
540.5276617727731
 20
327.8691943129043
 30
0.0
 11
540.578905949552
 21
328.0651542778636
 31
0.0
  0
LINE
  5
B3B54
330
2
100
AcDbEntity
  8
0
100
AcDbLine
 10
540.578905949552
 20
328.0651542778636
 30
0.0
 11
540.578905949552
 21
328.153512539622
 31
0.0
  0
LINE
  5
B3B55
330
2
100
AcDbEntity
  8
0
100
AcDbLine
 10
540.578905949552
 20
328.1093334087428
 30
0.0
 11
540.4654545147493
 21
328.1094975612318
 31
0.0
  0
LINE
  5
B3B56
330
2
100
AcDbEntity
  8
0
100
AcDbLine
 10
540.4654545147493
 20
328.1094975612318
 30
0.0
 11
540.578905949552
 21
328.153512539622
 31
0.0
  0
LINE
  5
B3B57
330
2
100
AcDbEntity
  8
0
100
AcDbLine
 10
540.4654545147493
 20
328.1094975612318
 30
0.0
 11
540.578905949552
 21
328.0651542778636
 31
0.0
  0
LINE
  5
B3B58
330
2
100
AcDbEntity
  8
0
100
AcDbLine
 10
540.4654545147493
 20
328.1094975612318
 30
0.0
 11
540.578905949552
 21
328.0651542778636
 31
0.0
  0
LINE
  5
B3B59
330
2
100
AcDbEntity
  8
0
100
AcDbLine
 10
540.4654545147493
 20
328.1094975612318
 30
0.0
 11
540.578905949552
 21
328.153512539622
 31
0.0
  0
LINE
  5
B3B5A
330
2
100
AcDbEntity
  8
0
100
AcDbLine
 10
540.578905949552
 20
328.1093334087428
 30
0.0
 11
540.4654545147493
 21
328.1094975612318
 31
0.0
  0
LINE
  5
B3B5B
330
2
100
AcDbEntity
  8
0
100
AcDbLine
 10
540.578905949552
 20
328.0651542778636
 30
0.0
 11
540.578905949552
 21
328.153512539622
 31
0.0
  0
LINE
  5
B3B5C
330
2
100
AcDbEntity
  8
0
100
AcDbLine
 10
540.5276617727731
 20
327.8691943129043
 30
0.0
 11
540.578905949552
 21
328.0651542778636
 31
0.0
  0
LINE
  5
B3B5D
330
2
100
AcDbEntity
  8
0
 62
     1
100
AcDbLine
 10
540.530564460302
 20
328.4003492616848
 30
0.0
 11
540.578905949552
 21
328.153512539622
 31
0.0
  0
LINE
  5
B3B5E
330
2
100
AcDbEntity
  8
0
100
AcDbLine
 10
540.4226697976298
 20
329.2437743196155
 30
0.0
 11
540.4424609849207
 21
329.4565482184454
 31
0.0
  0
LINE
  5
B3B5F
330
2
100
AcDbEntity
  8
0
100
AcDbLine
 10
540.4424609849207
 20
329.5007273493246
 30
0.0
 11
540.329009550118
 21
329.5008915018136
 31
0.0
  0
LINE
  5
B3B60
330
2
100
AcDbEntity
  8
0
100
AcDbLine
 10
540.329009550118
 20
329.5008915018136
 30
0.0
 11
540.4424609849207
 21
329.4565482184454
 31
0.0
  0
LINE
  5
B3B61
330
2
100
AcDbEntity
  8
0
100
AcDbLine
 10
540.329009550118
 20
329.5008915018136
 30
0.0
 11
540.4424609849207
 21
329.4565482184454
 31
0.0
  0
LINE
  5
B3B62
330
2
100
AcDbEntity
  8
0
100
AcDbLine
 10
540.4424609849207
 20
329.5007273493246
 30
0.0
 11
540.329009550118
 21
329.5008915018136
 31
0.0
  0
LINE
  5
B3B63
330
2
100
AcDbEntity
  8
0
100
AcDbLine
 10
540.4226697976298
 20
329.2437743196155
 30
0.0
 11
540.4424609849207
 21
329.4565482184454
 31
0.0
  0
LWPOLYLINE
  5
B3B64
330
2
100
AcDbEntity
  8
0
100
AcDbPolyline
 90
        2
 70
     0
 10
539.8585697733066
 20
327.9852936300398
 40
0.0
 41
0.03125
 10
539.8585697733066
 20
328.1178586729848
 40
0.03125
 41
0.03125
  0
LWPOLYLINE
  5
B3B65
330
2
100
AcDbEntity
  8
0
100
AcDbPolyline
 90
        2
 70
     0
 10
539.8723821487477
 20
328.1159212788364
 40
0.0
 41
0.03125
 10
539.8585697733066
 20
328.1178586729848
 40
0.03125
 41
0.03125
  0
LWPOLYLINE
  5
B3B66
330
2
100
AcDbEntity
  8
0
100
AcDbPolyline
 90
        2
 70
     0
 10
539.8585697733066
 20
328.2504586729849
 40
0.0
 41
0.03125
 10
539.8585348162515
 20
328.1178586729848
 40
0.03125
 41
0.03125
  0
LWPOLYLINE
  5
B3B67
330
2
100
AcDbEntity
  8
0
100
AcDbPolyline
 90
        2
 70
     0
 10
539.8157851960197
 20
328.1178586729848
 40
0.0
 41
0.03125
 10
539.8585348162515
 20
328.1178586729848
 40
0.03125
 41
0.03125
  0
LINE
  5
B3B68
330
2
100
AcDbEntity
  8
0
100
AcDbLine
 10
539.8585697733066
 20
328.2504586729849
 30
0.0
 11
539.8585697733066
 21
327.9852936300398
 31
0.0
  0
LINE
  5
B3B69
330
2
100
AcDbEntity
  8
0
100
AcDbLine
 10
539.8756578441917
 20
328.1178586729848
 30
0.0
 11
539.8157851960197
 21
328.1178586729848
 31
0.0
  0
LINE
  5
B3B6A
330
2
100
AcDbEntity
  8
0
100
AcDbLine
 10
539.858552294779
 20
327.8527111085673
 30
0.0
 11
539.6832026745474
 21
328.1178761515123
 31
0.0
  0
LINE
  5
B3B6B
330
2
100
AcDbEntity
  8
0
100
AcDbLine
 10
540.0082403656641
 20
328.1178761515123
 30
0.0
 11
539.858552294779
 21
327.8527111085673
 31
0.0
  0
LINE
  5
B3B6C
330
2
100
AcDbEntity
  8
0
100
AcDbLine
 10
539.858552294779
 20
328.3830411944573
 30
0.0
 11
540.0082403656641
 21
328.1178761515123
 31
0.0
  0
LINE
  5
B3B6D
330
2
100
AcDbEntity
  8
0
100
AcDbLine
 10
539.6832026745474
 20
328.1178761515123
 30
0.0
 11
539.858552294779
 21
328.3830411944573
 31
0.0
  0
LINE
  5
B3B6E
330
2
100
AcDbEntity
  8
0
100
AcDbLine
 10
539.1252677015873
 20
329.4839493652411
 30
0.0
 11
538.9110842142343
 21
329.2187843222961
 31
0.0
  0
LINE
  5
B3B6F
330
2
100
AcDbEntity
  8
0
100
AcDbLine
 10
538.9110842142343
 20
329.2187843222961
 30
0.0
 11
538.7138945787455
 21
329.4839493652411
 31
0.0
  0
LINE
  5
B3B70
330
2
100
AcDbEntity
  8
0
100
AcDbLine
 10
539.0436667357069
 20
329.4839318867136
 30
0.0
 11
538.7785016927619
 21
329.4839318867136
 31
0.0
  0
LWPOLYLINE
  5
B3B71
330
2
100
AcDbEntity
  8
0
100
AcDbPolyline
 90
        2
 70
     0
 10
538.7785016927619
 20
329.4839318867136
 40
0.0
 41
0.03125
 10
538.9110667357068
 20
329.4839318867136
 40
0.03125
 41
0.03125
  0
LWPOLYLINE
  5
B3B72
330
2
100
AcDbEntity
  8
0
100
AcDbPolyline
 90
        2
 70
     0
 10
539.0403910402629
 20
329.4819944925652
 40
0.0
 41
0.03125
 10
538.9111016927619
 20
329.4839318867136
 40
0.03125
 41
0.03125
  0
LWPOLYLINE
  5
B3B73
330
2
100
AcDbEntity
  8
0
100
AcDbPolyline
 90
        2
 70
     0
 10
538.9111016927619
 20
329.3513668437686
 40
0.0
 41
0.03125
 10
538.9111016927619
 20
329.4839318867136
 40
0.03125
 41
0.03125
  0
LINE
  5
B3B74
330
2
100
AcDbEntity
  8
0
100
AcDbLine
 10
536.8012492571792
 20
329.4839493652411
 30
0.0
 11
536.5360842142344
 21
329.2187843222961
 31
0.0
  0
LINE
  5
B3B75
330
2
100
AcDbEntity
  8
0
100
AcDbLine
 10
536.5360842142344
 20
329.2187843222961
 30
0.0
 11
536.2709191712894
 21
329.4839493652411
 31
0.0
  0
LINE
  5
B3B76
330
2
100
AcDbEntity
  8
0
100
AcDbLine
 10
536.6686667357068
 20
329.4839318867136
 30
0.0
 11
536.4035016927618
 21
329.4839318867136
 31
0.0
  0
LWPOLYLINE
  5
B3B77
330
2
100
AcDbEntity
  8
0
100
AcDbPolyline
 90
        2
 70
     0
 10
536.4035016927618
 20
329.4839318867136
 40
0.0
 41
0.03125
 10
536.5360667357069
 20
329.4839318867136
 40
0.03125
 41
0.03125
  0
LWPOLYLINE
  5
B3B78
330
2
100
AcDbEntity
  8
0
100
AcDbPolyline
 90
        2
 70
     0
 10
536.665391040263
 20
329.4819944925652
 40
0.0
 41
0.03125
 10
536.5361016927619
 20
329.4839318867136
 40
0.03125
 41
0.03125
  0
LWPOLYLINE
  5
B3B79
330
2
100
AcDbEntity
  8
0
100
AcDbPolyline
 90
        2
 70
     0
 10
536.5361016927619
 20
329.3513668437686
 40
0.0
 41
0.03125
 10
536.5361016927619
 20
329.4839318867136
 40
0.03125
 41
0.03125
  0
ARC
  5
B3B7A
330
2
100
AcDbEntity
  8
0
100
AcDbCircle
 10
535.3721944282503
 20
328.1571930212667
 30
0.0
 40
5.164097824869733
100
AcDbArc
 50
347.9213775043055
 51
356.8095752292269
  0
ARC
  5
B3B7B
330
2
100
AcDbEntity
  8
0
100
AcDbCircle
 10
537.8509705818607
 20
329.2391766419584
 30
0.0
 40
2.57176932223189
100
AcDbArc
 50
333.9292035669273
 51
0.1039636403765565
  0
ARC
  5
B3B7C
330
2
100
AcDbEntity
  8
0
100
AcDbCircle
 10
535.221162889553
 20
329.2391766419584
 30
0.0
 40
2.54051932223189
100
AcDbArc
 50
144.3934035674255
 51
167.8469257242592
  0
LINE
  5
B3B7D
330
2
100
AcDbEntity
  8
0
100
AcDbLine
 10
532.7983663288555
 20
330.8759366209618
 30
0.0
 11
532.6849148940529
 21
330.8315933375937
 31
0.0
  0
LINE
  5
B3B7E
330
2
100
AcDbEntity
  8
0
100
AcDbLine
 10
532.7983663288555
 20
330.8759366209618
 30
0.0
 11
532.6849148940529
 21
330.9199515993522
 31
0.0
  0
LINE
  5
B3B7F
330
2
100
AcDbEntity
  8
0
100
AcDbLine
 10
532.6849148940529
 20
330.8757724684729
 30
0.0
 11
532.7983663288555
 21
330.8759366209618
 31
0.0
  0
LINE
  5
B3B80
330
2
100
AcDbEntity
  8
0
100
AcDbLine
 10
532.8066187698047
 20
331.129270300897
 30
0.0
 11
532.6849148940529
 21
330.9199515993522
 31
0.0
  0
ARC
  5
B3B81
330
2
100
AcDbEntity
  8
0
100
AcDbCircle
 10
535.221162889553
 20
329.2391766419584
 30
0.0
 40
2.57176932223189
100
AcDbArc
 50
140.9630561811252
 51
167.8469257242592
  0
LINE
  5
B3B82
330
2
100
AcDbEntity
  8
0
100
AcDbLine
 10
532.6862523500424
 20
330.6370965712439
 30
0.0
 11
532.8440157800454
 21
330.8589318867136
 31
0.0
  0
ARC
  5
B3B83
330
2
100
AcDbEntity
  8
0
100
AcDbCircle
 10
534.6082321192361
 20
330.4278609093521
 30
0.0
 40
1.933335406854492
100
AcDbArc
 50
173.7869822681008
 51
195.1370651646177
  0
LINE
  5
B3B84
330
2
100
AcDbEntity
  8
0
100
AcDbLine
 10
532.6849148940529
 20
330.8315933375937
 30
0.0
 11
532.6849148940529
 21
330.9199515993522
 31
0.0
  0
LINE
  5
B3B85
330
2
100
AcDbEntity
  8
0
100
AcDbLine
 10
532.6862523500424
 20
330.6370965712439
 30
0.0
 11
532.6849148940529
 21
330.8315933375937
 31
0.0
  0
LINE
  5
B3B86
330
2
100
AcDbEntity
  8
0
100
AcDbLine
 10
532.7070304071173
 20
329.7805963567225
 30
0.0
 11
532.6296724864929
 21
329.5449064802038
 31
0.0
  0
LINE
  5
B3B87
330
2
100
AcDbEntity
  8
0
100
AcDbLine
 10
532.7070304071173
 20
329.7805963567225
 30
0.0
 11
532.6296724864929
 21
329.5449064802038
 31
0.0
  0
ARC
  5
B3B88
330
2
100
AcDbEntity
  8
0
100
AcDbCircle
 10
537.5397755838187
 20
331.4526818867136
 30
0.0
 40
4.388106422125837
100
AcDbArc
 50
177.8063914103625
 51
185.642714871321
  0
ARC
  5
B3B89
330
2
100
AcDbEntity
  8
0
100
AcDbCircle
 10
537.8509705818607
 20
329.2391766419584
 30
0.0
 40
2.54051932223189
100
AcDbArc
 50
12.15307427574077
 51
34.48807850467627
  0
ARC
  5
B3B8A
330
2
100
AcDbEntity
  8
0
100
AcDbCircle
 10
535.532357887595
 20
331.4526818867136
 30
0.0
 40
4.325606422125837
100
AcDbArc
 50
354.6080142688671
 51
2.158276145276841
  0
ARC
  5
B3B8B
330
2
100
AcDbEntity
  8
0
100
AcDbCircle
 10
535.532357887595
 20
331.4526818867136
 30
0.0
 40
4.388106422125837
100
AcDbArc
 50
354.1888022384759
 51
0.36335740621305
  0
ARC
  5
B3B8C
330
2
100
AcDbEntity
  8
0
100
AcDbCircle
 10
540.5381593238261
 20
334.1986942297832
 30
0.0
 40
5.212557682372943
100
AcDbArc
 50
192.3511478003183
 51
219.8451337073643
  0
ARC
  5
B3B8D
330
2
100
AcDbEntity
  8
0
100
AcDbCircle
 10
540.5381593238261
 20
334.1986942297832
 30
0.0
 40
5.243807682372943
100
AcDbArc
 50
192.4751159700701
 51
199.0858048958165
  0
ARC
  5
B3B8E
330
2
100
AcDbEntity
  8
0
100
AcDbCircle
 10
532.5714663308888
 20
333.5590494653454
 30
0.0
 40
3.283250394326893
100
AcDbArc
 50
340.2396352761961
 51
347.3261755156536
  0
ARC
  5
B3B8F
330
2
100
AcDbEntity
  8
0
100
AcDbCircle
 10
532.5714663308888
 20
333.5590494653454
 30
0.0
 40
3.345750394326893
100
AcDbArc
 50
342.1039175003481
 51
347.1154327958631
  0
ARC
  5
B3B90
330
2
100
AcDbEntity
  8
0
100
AcDbCircle
 10
632.3485667357084
 20
258.6714318867125
 30
0.0
 40
121.5348649848118
100
AcDbArc
 50
142.8721657147422
 51
143.4789208814603
  0
ARC
  5
B3B91
330
2
100
AcDbEntity
  8
0
100
AcDbCircle
 10
632.3485667357084
 20
258.6714318867125
 30
0.0
 40
121.5973649848118
100
AcDbArc
 50
142.7637531608281
 51
143.3811768870765
  0
ARC
  5
B3B92
330
2
100
AcDbEntity
  8
0
100
AcDbCircle
 10
540.5381593238261
 20
334.1986942297832
 30
0.0
 40
5.243807682372943
100
AcDbArc
 50
204.2734724048625
 51
215.9909145914607
  0
ARC
  5
B3B93
330
2
100
AcDbEntity
  8
0
100
AcDbCircle
 10
540.5381593238261
 20
334.1986942297832
 30
0.0
 40
5.181307682372943
100
AcDbArc
 50
202.4994272681943
 51
217.3059788153339
  0
ARC
  5
B3B94
330
2
100
AcDbEntity
  8
0
100
AcDbCircle
 10
536.8819228870972
 20
332.6776501786704
 30
0.0
 40
2.99954535398922
100
AcDbArc
 50
192.2655777586145
 51
213.6337457744925
  0
ARC
  5
B3B95
330
2
100
AcDbEntity
  8
0
100
AcDbCircle
 10
536.8819228870972
 20
332.6776501786704
 30
0.0
 40
2.93704535398922
100
AcDbArc
 50
190.1331156631518
 51
210.0828729669746
  0
ARC
  5
B3B96
330
2
100
AcDbEntity
  8
0
100
AcDbCircle
 10
558.4204108716457
 20
346.1519461550732
 30
0.0
 40
28.32960647889021
100
AcDbArc
 50
213.1857471133371
 51
215.1524170805244
  0
ARC
  5
B3B97
330
2
100
AcDbEntity
  8
0
100
AcDbCircle
 10
558.4204108716457
 20
346.1519461550732
 30
0.0
 40
28.39210647889021
100
AcDbArc
 50
213.1460892652631
 51
215.7085664022952
  0
ARC
  5
B3B98
330
2
100
AcDbEntity
  8
0
100
AcDbCircle
 10
632.3485667357084
 20
258.6714318867125
 30
0.0
 40
121.5348649848118
100
AcDbArc
 50
143.6702298592232
 51
144.2186350021075
  0
ARC
  5
B3B99
330
2
100
AcDbEntity
  8
0
100
AcDbCircle
 10
632.3485667357084
 20
258.6714318867125
 30
0.0
 40
121.5973649848118
100
AcDbArc
 50
143.7295588876215
 51
144.2285500748029
  0
ARC
  5
B3B9A
330
2
100
AcDbEntity
  8
0
100
AcDbCircle
 10
538.0751292357067
 20
331.2385483639864
 30
0.0
 40
4.835141616097331
100
AcDbArc
 50
188.2946541271709
 51
198.303963771233
  0
ARC
  5
B3B9B
330
2
100
AcDbEntity
  8
0
100
AcDbCircle
 10
538.0751292357067
 20
331.2385483639864
 30
0.0
 40
4.897641616097331
100
AcDbArc
 50
187.4915829598613
 51
199.4085917779685
  0
ARC
  5
B3B9C
330
2
100
AcDbEntity
  8
0
100
AcDbCircle
 10
540.6040332377357
 20
333.9642999684048
 30
0.0
 40
5.181307682372943
100
AcDbArc
 50
190.6047116241368
 51
196.2586254896002
  0
ARC
  5
B3B9D
330
2
100
AcDbEntity
  8
0
100
AcDbCircle
 10
536.8819228870972
 20
332.6776501786704
 30
0.0
 40
2.99954535398922
100
AcDbArc
 50
186.5713243336765
 51
186.6594003139716
  0
ARC
  5
B3B9E
330
2
100
AcDbEntity
  8
0
100
AcDbCircle
 10
537.5397755838187
 20
331.4526818867136
 30
0.0
 40
4.325606422125837
100
AcDbArc
 50
175.7432375202429
 51
184.2060020210532
  0
ARC
  5
B3B9F
330
2
100
AcDbEntity
  8
0
100
AcDbCircle
 10
440.723566735705
 20
258.6714318867125
 30
0.0
 40
121.5348649848118
100
AcDbArc
 50
35.76175982704457
 51
35.94246754341053
  0
ARC
  5
B3BA0
330
2
100
AcDbEntity
  8
0
100
AcDbCircle
 10
440.723566735705
 20
258.6714318867125
 30
0.0
 40
121.5973649848118
100
AcDbArc
 50
35.75396588856561
 51
36.22989444169375
  0
ARC
  5
B3BA1
330
2
100
AcDbEntity
  8
0
100
AcDbCircle
 10
514.6517225997679
 20
346.1519461550732
 30
0.0
 40
28.32960647889021
100
AcDbArc
 50
324.8072003306488
 51
327.0738921165615
  0
ARC
  5
B3BA2
330
2
100
AcDbEntity
  8
0
100
AcDbCircle
 10
536.1902105843165
 20
332.6776501786704
 30
0.0
 40
2.93704535398922
100
AcDbArc
 50
325.4824660463802
 51
353.4286756663234
  0
ARC
  5
B3BA3
330
2
100
AcDbEntity
  8
0
100
AcDbCircle
 10
536.1902105843165
 20
332.6776501786704
 30
0.0
 40
2.99954535398922
100
AcDbArc
 50
326.3767595127337
 51
353.4286756663234
  0
ARC
  5
B3BA4
330
2
100
AcDbEntity
  8
0
100
AcDbCircle
 10
514.6517225997679
 20
346.1519461550732
 30
0.0
 40
28.39210647889021
100
AcDbArc
 50
324.563095629622
 51
326.9742268350394
  0
ARC
  5
B3BA5
330
2
100
AcDbEntity
  8
0
100
AcDbCircle
 10
543.0846074372084
 20
335.0691015515785
 30
0.0
 40
7.816422697260564
100
AcDbArc
 50
214.5604919291472
 51
221.602631854102
  0
ARC
  5
B3BA6
330
2
100
AcDbEntity
  8
0
100
AcDbCircle
 10
543.0846074372084
 20
335.0691015515785
 30
0.0
 40
7.753922697260564
100
AcDbArc
 50
215.1108411227757
 51
223.5436786293373
  0
ARC
  5
B3BA7
330
2
100
AcDbEntity
  8
0
100
AcDbCircle
 10
534.9970042357069
 20
331.2385483639864
 30
0.0
 40
4.835141616097331
100
AcDbArc
 50
342.8553328447212
 51
353.1374346212837
  0
ARC
  5
B3BA8
330
2
100
AcDbEntity
  8
0
100
AcDbCircle
 10
534.9970042357069
 20
331.2385483639864
 30
0.0
 40
4.897641616097331
100
AcDbArc
 50
341.7350712800456
 51
352.0092192245594
  0
ARC
  5
B3BA9
330
2
100
AcDbEntity
  8
0
100
AcDbCircle
 10
440.723566735705
 20
258.6714318867125
 30
0.0
 40
121.5348649848118
100
AcDbArc
 50
36.52194381971095
 51
37.11668724889452
  0
ARC
  5
B3BAA
330
2
100
AcDbEntity
  8
0
100
AcDbCircle
 10
440.723566735705
 20
258.6714318867125
 30
0.0
 40
121.5973649848118
100
AcDbArc
 50
36.6443343937394
 51
37.3117586507937
  0
ARC
  5
B3BAB
330
2
100
AcDbEntity
  8
0
100
AcDbCircle
 10
532.5339741475874
 20
334.1986942297832
 30
0.0
 40
5.181307682372943
100
AcDbArc
 50
324.3041804663909
 51
345.8780722464109
  0
ARC
  5
B3BAC
330
2
100
AcDbEntity
  8
0
100
AcDbCircle
 10
532.5339741475874
 20
334.1986942297832
 30
0.0
 40
5.243807682372943
100
AcDbArc
 50
320.1548662926356
 51
336.1682065464522
  0
ARC
  5
B3BAD
330
2
100
AcDbEntity
  8
0
100
AcDbCircle
 10
525.3672099835045
 20
335.4721992080291
 30
0.0
 40
13.28034566317498
100
AcDbArc
 50
347.5353979617897
 51
350.2952042601573
  0
ARC
  5
B3BAE
330
2
100
AcDbEntity
  8
0
100
AcDbCircle
 10
536.3262799702584
 20
334.1393045212739
 30
0.0
 40
2.315727180260986
100
AcDbArc
 50
336.9738846386856
 51
31.24235213927618
  0
ARC
  5
B3BAF
330
2
100
AcDbEntity
  8
0
100
AcDbCircle
 10
542.561443027173
 20
332.3903202890868
 30
0.0
 40
4.256000601278813
100
AcDbArc
 50
167.6641575641717
 51
176.9492156364036
  0
ARC
  5
B3BB0
330
2
100
AcDbEntity
  8
0
100
AcDbCircle
 10
536.6823159480121
 20
334.0829039975565
 30
0.0
 40
1.891236812933185
100
AcDbArc
 50
335.5318906585158
 51
47.59029789537936
  0
ARC
  5
B3BB1
330
2
100
AcDbEntity
  8
0
100
AcDbCircle
 10
539.8356985365114
 20
332.8615733991744
 30
0.0
 40
1.561698251976496
100
AcDbArc
 50
161.1691381113471
 51
187.7911547939819
  0
ARC
  5
B3BB2
330
2
100
AcDbEntity
  8
0
100
AcDbCircle
 10
536.6129710200432
 20
334.0040850602091
 30
0.0
 40
1.857764951886316
100
AcDbArc
 50
339.9001737969675
 51
52.80415564480646
  0
ARC
  5
B3BB3
330
2
100
AcDbEntity
  8
0
100
AcDbCircle
 10
540.1094806331119
 20
333.0121878893208
 30
0.0
 40
1.883747994618278
100
AcDbArc
 50
167.1315410217243
 51
191.7728922570069
  0
ARC
  5
B3BB4
330
2
100
AcDbEntity
  8
0
100
AcDbCircle
 10
536.2463237050453
 20
333.9691836746529
 30
0.0
 40
2.096774183687463
100
AcDbArc
 50
345.1477731605557
 51
44.81472226532365
  0
ARC
  5
B3BB5
330
2
100
AcDbEntity
  8
0
100
AcDbCircle
 10
539.9316799300514
 20
333.2262434289002
 30
0.0
 40
1.777746736607875
100
AcDbArc
 50
171.5725557450172
 51
199.6702927195723
  0
ARC
  5
B3BB6
330
2
100
AcDbEntity
  8
0
100
AcDbCircle
 10
535.8716574390282
 20
333.9554167501925
 30
0.0
 40
2.348698997675334
100
AcDbArc
 50
348.4906130560653
 51
37.71993234056384
  0
ARC
  5
B3BB7
330
2
100
AcDbEntity
  8
0
100
AcDbCircle
 10
540.0507296647003
 20
333.4170581605678
 30
0.0
 40
1.980185144315763
100
AcDbArc
 50
177.0252754412597
 51
203.4880068896176
  0
ARC
  5
B3BB8
330
2
100
AcDbEntity
  8
0
100
AcDbCircle
 10
535.2314813943406
 20
333.8734137391428
 30
0.0
 40
2.863645448638763
100
AcDbArc
 50
352.9072133068555
 51
29.69258769658203
  0
ARC
  5
B3BB9
330
2
100
AcDbEntity
  8
0
100
AcDbCircle
 10
524.3772963034396
 20
336.0926081130617
 30
0.0
 40
10.42881785572958
100
AcDbArc
 50
340.1253130959904
 51
343.0147729125223
  0
ARC
  5
B3BBA
330
2
100
AcDbEntity
  8
0
100
AcDbCircle
 10
536.3167703554006
 20
332.3683617856248
 30
0.0
 40
2.169168790669362
100
AcDbArc
 50
159.5323642867657
 51
175.1465051415294
  0
ARC
  5
B3BBB
330
2
100
AcDbEntity
  8
0
100
AcDbCircle
 10
535.3164369433434
 20
332.7307499778502
 30
0.0
 40
1.194959361570769
100
AcDbArc
 50
156.1128282445485
 51
188.8365701601805
  0
ARC
  5
B3BBC
330
2
100
AcDbEntity
  8
0
100
AcDbCircle
 10
535.0535228710646
 20
332.8555438078592
 30
0.0
 40
1.005607262895385
100
AcDbArc
 50
152.3191533521349
 51
195.8950435387435
  0
ARC
  5
B3BBD
330
2
100
AcDbEntity
  8
0
100
AcDbCircle
 10
533.9229192384997
 20
333.2748996953279
 30
0.0
 40
3.414032244438244
100
AcDbArc
 50
28.17579550885589
 51
31.00682715015703
  0
ARC
  5
B3BBE
330
2
100
AcDbEntity
  8
0
100
AcDbCircle
 10
538.0880734521814
 20
332.5619244582944
 30
0.0
 40
0.9421660101313113
100
AcDbArc
 50
163.682137469187
 51
194.6159152676356
  0
ARC
  5
B3BBF
330
2
100
AcDbEntity
  8
0
100
AcDbCircle
 10
537.8951434667554
 20
332.6674163431462
 30
0.0
 40
0.8259716916188354
100
AcDbArc
 50
168.1286032528273
 51
206.1958482879743
  0
ARC
  5
B3BC0
330
2
100
AcDbEntity
  8
0
100
AcDbCircle
 10
534.2032973124715
 20
333.9557345162253
 30
0.0
 40
3.458528156963681
100
AcDbArc
 50
332.0528377537186
 51
12.21850232642014
  0
ARC
  5
B3BC1
330
2
100
AcDbEntity
  8
0
100
AcDbCircle
 10
533.4396922262533
 20
333.6659364056695
 30
0.0
 40
4.0195063792226
100
AcDbArc
 50
340.4997341907647
 51
9.207069741455388
  0
ARC
  5
B3BC2
330
2
100
AcDbEntity
  8
0
100
AcDbCircle
 10
533.9229192384997
 20
333.2748996953279
 30
0.0
 40
3.414032244438244
100
AcDbArc
 50
343.6439494276724
 51
14.8980416319489
  0
ARC
  5
B3BC3
330
2
100
AcDbEntity
  8
0
100
AcDbCircle
 10
534.4307451946669
 20
333.1489393415848
 30
0.0
 40
2.771915840552535
100
AcDbArc
 50
353.3229579514011
 51
41.91418301010928
  0
ARC
  5
B3BC4
330
2
100
AcDbEntity
  8
0
100
AcDbCircle
 10
534.5526977215715
 20
332.9935670995566
 30
0.0
 40
2.538951662783487
100
AcDbArc
 50
356.4720516737457
 51
48.5285292839904
  0
ARC
  5
B3BC5
330
2
100
AcDbEntity
  8
0
100
AcDbCircle
 10
552.9526305506347
 20
331.1567284919881
 30
0.0
 40
16.05311858789361
100
AcDbArc
 50
166.2342028147072
 51
168.7762123656121
  0
ARC
  5
B3BC6
330
2
100
AcDbEntity
  8
0
100
AcDbCircle
 10
538.613675903714
 20
334.5492741726064
 30
0.0
 40
1.44756040205062
100
AcDbArc
 50
160.9908196944498
 51
190.6668644521858
  0
ARC
  5
B3BC7
330
2
100
AcDbEntity
  8
0
100
AcDbCircle
 10
538.624975940697
 20
334.7187547734208
 30
0.0
 40
1.52035294825828
100
AcDbArc
 50
168.1172713256049
 51
197.5915184030104
  0
ARC
  5
B3BC8
330
2
100
AcDbEntity
  8
0
100
AcDbCircle
 10
534.9852216320556
 20
335.5450650560484
 30
0.0
 40
2.584389732410959
100
AcDbArc
 50
329.5977104237943
 51
13.13104432334875
  0
ARC
  5
B3BC9
330
2
100
AcDbEntity
  8
0
100
AcDbCircle
 10
535.4941261646517
 20
335.5076760004843
 30
0.0
 40
1.940563945945705
100
AcDbArc
 50
344.1180125023937
 51
27.68294171701807
  0
ARC
  5
B3BCA
330
2
100
AcDbEntity
  8
0
100
AcDbCircle
 10
538.6747099420047
 20
332.2088369299037
 30
0.0
 40
4.189262125279513
100
AcDbArc
 50
147.9182566494869
 51
157.1922675567274
  0
ARC
  5
B3BCB
330
2
100
AcDbEntity
  8
0
100
AcDbCircle
 10
535.0609482352187
 20
333.6431403567983
 30
0.0
 40
0.896658722025154
100
AcDbArc
 50
176.7098971293199
 51
256.3137662005723
  0
ARC
  5
B3BCC
330
2
100
AcDbEntity
  8
0
100
AcDbCircle
 10
540.2628307508883
 20
333.5010865400537
 30
0.0
 40
6.10013351707989
100
AcDbArc
 50
152.5477416259429
 51
178.1821015800163
  0
ARC
  5
B3BCD
330
2
100
AcDbEntity
  8
0
100
AcDbCircle
 10
535.1219537052054
 20
333.5997502840846
 30
0.0
 40
0.855116503171963
100
AcDbArc
 50
168.8917736588821
 51
249.2878540004038
  0
ARC
  5
B3BCE
330
2
100
AcDbEntity
  8
0
100
AcDbCircle
 10
540.4717658624668
 20
332.9880400193325
 30
0.0
 40
6.237425133414424
100
AcDbArc
 50
147.1947444734431
 51
172.8490432336414
  0
ARC
  5
B3BCF
330
2
100
AcDbEntity
  8
0
100
AcDbCircle
 10
535.2771119802667
 20
333.6169289797461
 30
0.0
 40
0.9194785955497371
100
AcDbArc
 50
167.2140478977189
 51
240.8530988105721
  0
ARC
  5
B3BD0
330
2
100
AcDbEntity
  8
0
100
AcDbCircle
 10
541.179591398077
 20
332.4520125097684
 30
0.0
 40
6.935494774171508
100
AcDbArc
 50
145.7561930657209
 51
168.6206105953139
  0
ARC
  5
B3BD1
330
2
100
AcDbEntity
  8
0
100
AcDbCircle
 10
535.3964303577174
 20
333.5879073188003
 30
0.0
 40
0.925484562119813
100
AcDbArc
 50
161.841146903922
 51
233.7202201045093
  0
ARC
  5
B3BD2
330
2
100
AcDbEntity
  8
0
100
AcDbCircle
 10
540.1801930984945
 20
332.4679489607513
 30
0.0
 40
5.835655625335074
100
AcDbArc
 50
139.2327342346046
 51
166.0342478303523
  0
ARC
  5
B3BD3
330
2
100
AcDbEntity
  8
0
100
AcDbCircle
 10
535.5692581263505
 20
333.5745699162748
 30
0.0
 40
0.9871406779426163
100
AcDbArc
 50
159.6237458355918
 51
225.5573482512314
  0
ARC
  5
B3BD4
330
2
100
AcDbEntity
  8
0
100
AcDbCircle
 10
539.9645147442073
 20
332.2114389317098
 30
0.0
 40
5.587698881786523
100
AcDbArc
 50
135.0226893569033
 51
162.2139584574834
  0
ARC
  5
B3BD5
330
2
100
AcDbEntity
  8
0
100
AcDbCircle
 10
536.1716427208501
 20
335.760480235934
 30
0.0
 40
0.1199390527296942
100
AcDbArc
 50
17.44254797121954
 51
141.7557339078828
  0
ARC
  5
B3BD6
330
2
100
AcDbEntity
  8
0
100
AcDbCircle
 10
545.6262894634205
 20
334.6852932505703
 30
0.0
 40
6.929871658635235
100
AcDbArc
 50
209.3678558895897
 51
213.5149618929328
  0
LINE
  5
B3BD7
330
2
100
AcDbEntity
  8
0
100
AcDbLine
 10
537.3376053235582
 20
332.3589318867135
 30
0.0
 11
538.3219148449263
 21
332.3589318867135
 31
0.0
  0
LINE
  5
B3BD8
330
2
100
AcDbEntity
  8
0
100
AcDbLine
 10
533.9331287423858
 20
332.337958552882
 30
0.0
 11
534.0478307221242
 21
332.5526097363526
 31
0.0
  0
ARC
  5
B3BD9
330
2
100
AcDbEntity
  8
0
100
AcDbCircle
 10
535.411395331952
 20
333.4732931083195
 30
0.0
 40
1.160652200132798
100
AcDbArc
 50
333.9206871229514
 51
40.9130116241126
  0
ARC
  5
B3BDA
330
2
100
AcDbEntity
  8
0
100
AcDbCircle
 10
535.4524613947119
 20
333.3369485817523
 30
0.0
 40
1.0533068307996
100
AcDbArc
 50
334.4179550793059
 51
67.98432618023118
  0
ARC
  5
B3BDB
330
2
100
AcDbEntity
  8
0
100
AcDbCircle
 10
535.3833233212131
 20
333.1759805534569
 30
0.0
 40
1.042263697241942
100
AcDbArc
 50
339.7898486726075
 51
86.46526918192845
  0
ARC
  5
B3BDC
330
2
100
AcDbEntity
  8
0
100
AcDbCircle
 10
535.4504381137132
 20
332.9681648308767
 30
0.0
 40
0.6684848434489238
100
AcDbArc
 50
334.8822490866774
 51
32.45412223642708
  0
ARC
  5
B3BDD
330
2
100
AcDbEntity
  8
0
100
AcDbCircle
 10
535.4589050591831
 20
332.8753506300705
 30
0.0
 40
0.6162390844365643
100
AcDbArc
 50
341.6118867946583
 51
56.56361476877007
  0
ARC
  5
B3BDE
330
2
100
AcDbEntity
  8
0
100
AcDbCircle
 10
535.2758657194432
 20
332.7019645921797
 30
0.0
 40
0.766050342570518
100
AcDbArc
 50
357.6540262712244
 51
63.64301123847354
  0
ARC
  5
B3BDF
330
2
100
AcDbEntity
  8
0
100
AcDbCircle
 10
535.3056221704841
 20
332.5317433702396
 30
0.0
 40
0.7486046720302861
100
AcDbArc
 50
10.49973108501671
 51
40.00281342544531
  0
ARC
  5
B3BE0
330
2
100
AcDbEntity
  8
0
100
AcDbCircle
 10
535.3040204567551
 20
332.6632823276123
 30
0.0
 40
0.6730171784043082
100
AcDbArc
 50
31.30375846043583
 51
80.84799107715637
  0
LINE
  5
B3BE1
330
2
100
AcDbEntity
  8
0
100
AcDbLine
 10
533.4110492571793
 20
331.1241144081861
 30
0.0
 11
533.9331287423858
 21
332.337958552882
 31
0.0
  0
ARC
  5
B3BE2
330
2
100
AcDbEntity
  8
0
100
AcDbCircle
 10
537.7791518420898
 20
335.1216978441604
 30
0.0
 40
0.7755476022112445
100
AcDbArc
 50
32.10951937024864
 51
100.6317251684365
  0
ARC
  5
B3BE3
330
2
100
AcDbEntity
  8
0
100
AcDbCircle
 10
536.4585667357069
 20
334.4039318867136
 30
0.0
 40
2.277587813894346
100
AcDbArc
 50
359.496866680321
 51
29.7448812969406
  0
ARC
  5
B3BE4
330
2
100
AcDbEntity
  8
0
100
AcDbCircle
 10
546.3143425977757
 20
334.9249663694722
 30
0.0
 40
7.597564303982581
100
AcDbArc
 50
184.0835787534979
 51
195.5835491749172
  0
LINE
  5
B3BE5
330
2
100
AcDbEntity
  8
0
100
AcDbLine
 10
539.7135115311974
 20
332.0399882046808
 30
0.0
 11
539.7627988333674
 21
332.2932606049492
 31
0.0
  0
LINE
  5
B3BE6
330
2
100
AcDbEntity
  8
0
100
AcDbLine
 10
539.7627988333674
 20
332.2932606049492
 30
0.0
 11
539.8865633110652
 21
332.069286071651
 31
0.0
  0
ARC
  5
B3BE7
330
2
100
AcDbEntity
  8
0
100
AcDbCircle
 10
536.1902105843165
 20
332.6776501786704
 30
0.0
 40
2.96829535398922
100
AcDbArc
 50
322.213944334834
 51
353.4286756663234
  0
ARC
  5
B3BE8
330
2
100
AcDbEntity
  8
0
100
AcDbCircle
 10
538.5814454093644
 20
331.6801856157511
 30
0.0
 40
1.331203454356022
100
AcDbArc
 50
27.42447826445748
 51
70.38967764007388
  0
ARC
  5
B3BE9
330
2
100
AcDbEntity
  8
0
100
AcDbCircle
 10
539.2122304927839
 20
333.4323149602145
 30
0.0
 40
0.6012815794891889
100
AcDbArc
 50
180.2267186169334
 51
250.9591162652307
  0
ARC
  5
B3BEA
330
2
100
AcDbEntity
  8
0
100
AcDbCircle
 10
539.0160667357069
 20
332.8839318867135
 30
0.0
 40
0.0199999999999987
100
AcDbArc
 50
180.0
 51
0.0000000000162844
  0
ARC
  5
B3BEB
330
2
100
AcDbEntity
  8
0
100
AcDbCircle
 10
551.286066735707
 20
334.8214318867136
 30
0.0
 40
12.40227423701013
100
AcDbArc
 50
181.0972648401333
 51
188.9876372982072
  0
ARC
  5
B3BEC
330
2
100
AcDbEntity
  8
0
100
AcDbCircle
 10
537.0472369484728
 20
334.6525489079902
 30
0.0
 40
1.840109584244389
100
AcDbArc
 50
357.8629656328158
 51
35.99206049547893
  0
ARC
  5
B3BED
330
2
100
AcDbEntity
  8
0
100
AcDbCircle
 10
537.7360667357067
 20
335.0517890295707
 30
0.0
 40
1.051341465724158
100
AcDbArc
 50
40.45351661728439
 51
100.9663909443396
  0
ARC
  5
B3BEE
330
2
100
AcDbEntity
  8
0
100
AcDbCircle
 10
536.363923878564
 20
334.4253604581422
 30
0.0
 40
1.593264682009432
100
AcDbArc
 50
9.33985942237971
 51
32.60712742026331
  0
ARC
  5
B3BEF
330
2
100
AcDbEntity
  8
0
100
AcDbCircle
 10
529.5610667357068
 20
333.7339318867136
 30
0.0
 40
8.428708382664598
100
AcDbArc
 50
358.3003272504146
 51
6.471560810363989
  0
ARC
  5
B3BF0
330
2
100
AcDbEntity
  8
0
100
AcDbCircle
 10
540.1410667357068
 20
333.4469318867136
 30
0.0
 40
2.15531761000554
100
AcDbArc
 50
179.0163640056079
 51
203.6035009424324
  0
ARC
  5
B3BF1
330
2
100
AcDbEntity
  8
0
100
AcDbCircle
 10
538.2710667357068
 20
332.6439318867136
 30
0.0
 40
0.120933866224477
100
AcDbArc
 50
209.7448812969405
 51
330.2551187030593
  0
ARC
  5
B3BF2
330
2
100
AcDbEntity
  8
0
100
AcDbCircle
 10
533.4847771001715
 20
334.4247445700848
 30
0.0
 40
5.226213316920351
100
AcDbArc
 50
339.3764198171592
 51
355.1615541733175
  0
ARC
  5
B3BF3
330
2
100
AcDbEntity
  8
0
100
AcDbCircle
 10
537.2049887130523
 20
334.3488150481886
 30
0.0
 40
1.531480689987185
100
AcDbArc
 50
346.2164192434779
 51
24.50091047490325
  0
ARC
  5
B3BF4
330
2
100
AcDbEntity
  8
0
100
AcDbCircle
 10
537.8295304761649
 20
334.6512505890037
 30
0.0
 40
0.8379102662793226
100
AcDbArc
 50
23.39307122421006
 51
96.40431964459455
  0
ARC
  5
B3BF5
330
2
100
AcDbEntity
  8
0
100
AcDbCircle
 10
538.3845034009523
 20
334.8418813661932
 30
0.0
 40
1.364436256381585
100
AcDbArc
 50
172.7801590579133
 51
206.5418128289533
  0
ARC
  5
B3BF6
330
2
100
AcDbEntity
  8
0
100
AcDbCircle
 10
533.7767810214211
 20
334.8828279906097
 30
0.0
 40
3.162435222101082
100
AcDbArc
 50
2.557314882672354
 51
25.29223155813868
  0
ARC
  5
B3BF7
330
2
100
AcDbEntity
  8
0
100
AcDbCircle
 10
538.8578524499926
 20
334.9039318867136
 30
0.0
 40
1.925528584994965
100
AcDbArc
 50
176.4269801253889
 51
202.2789783748007
  0
ARC
  5
B3BF8
330
2
100
AcDbEntity
  8
0
100
AcDbCircle
 10
537.1396381642782
 20
334.177503315285
 30
0.0
 40
0.063671670565905
100
AcDbArc
 50
183.2154839917478
 51
316.8183029644536
  0
ARC
  5
B3BF9
330
2
100
AcDbEntity
  8
0
100
AcDbCircle
 10
536.9110667357069
 20
334.7089318867136
 30
0.0
 40
0.6373774391990894
100
AcDbArc
 50
295.5599651718231
 51
334.4400348281871
  0
ARC
  5
B3BFA
330
2
100
AcDbEntity
  8
0
100
AcDbCircle
 10
534.6792220755126
 20
335.6569901391408
 30
0.0
 40
3.061739446016085
100
AcDbArc
 50
336.4552523926709
 51
356.7597520998276
  0
ARC
  5
B3BFB
330
2
100
AcDbEntity
  8
0
100
AcDbCircle
 10
536.2042825610685
 20
334.5403965414941
 30
0.0
 40
0.201309738315779
100
AcDbArc
 50
149.6891927083381
 51
181.7331861490652
  0
ARC
  5
B3BFC
330
2
100
AcDbEntity
  8
0
100
AcDbCircle
 10
536.1226954097503
 20
334.6265215022918
 30
0.0
 40
0.0719515403217587
100
AcDbArc
 50
52.93036325415222
 51
114.437110799332
  0
ARC
  5
B3BFD
330
2
100
AcDbEntity
  8
0
100
AcDbCircle
 10
536.1253360530792
 20
334.5876093181125
 30
0.0
 40
0.1093311813743798
100
AcDbArc
 50
107.241954219853
 51
150.1688453349786
  0
ARC
  5
B3BFE
330
2
100
AcDbEntity
  8
0
100
AcDbCircle
 10
536.4270667357068
 20
334.4497318867136
 30
0.0
 40
0.432354761740865
100
AcDbArc
 50
168.7192223974893
 51
199.4479916572252
  0
ARC
  5
B3BFF
330
2
100
AcDbEntity
  8
0
100
AcDbCircle
 10
534.0863407083095
 20
332.6631442154807
 30
0.0
 40
2.899800538181963
100
AcDbArc
 50
0.4107372260028956
 51
44.17652109338386
  0
ARC
  5
B3C00
330
2
100
AcDbEntity
  8
0
100
AcDbCircle
 10
538.4110667357068
 20
332.8389318867136
 30
0.0
 40
1.433405036966205
100
AcDbArc
 50
186.2077672216615
 51
207.1907212463273
  0
ARC
  5
B3C01
330
2
100
AcDbEntity
  8
0
100
AcDbCircle
 10
537.1860667357068
 20
332.2105985533803
 30
0.0
 40
0.0566666666666674
100
AcDbArc
 50
208.0724869358545
 51
331.9275130641455
  0
ARC
  5
B3C02
330
2
100
AcDbEntity
  8
0
100
AcDbCircle
 10
534.0194000690401
 20
334.167265220047
 30
0.0
 40
3.778962232618317
100
AcDbArc
 50
328.3428336984226
 51
349.5821442507346
  0
ARC
  5
B3C03
330
2
100
AcDbEntity
  8
0
100
AcDbCircle
 10
535.2860667357068
 20
334.2339318867136
 30
0.0
 40
2.5622255950638
100
AcDbArc
 50
342.9794743884823
 51
5.599339336519172
  0
ARC
  5
B3C04
330
2
100
AcDbEntity
  8
0
100
AcDbCircle
 10
537.5158286404687
 20
334.549884267666
 30
0.0
 40
0.3269589487917572
100
AcDbArc
 50
348.3627601494927
 51
68.42327869327282
  0
ARC
  5
B3C05
330
2
100
AcDbEntity
  8
0
100
AcDbCircle
 10
536.7713048309449
 20
333.9384556962374
 30
0.0
 40
1.097909397605951
100
AcDbArc
 50
81.36908852759114
 51
125.3513483619436
  0
ARC
  5
B3C06
330
2
100
AcDbEntity
  8
0
100
AcDbCircle
 10
536.3798167357068
 20
334.4339318867136
 30
0.0
 40
0.4684165480637926
100
AcDbArc
 50
121.3570852240106
 51
194.903413080876
  0
ARC
  5
B3C07
330
2
100
AcDbEntity
  8
0
100
AcDbCircle
 10
535.4507513813264
 20
333.7208240129959
 30
0.0
 40
0.4218255860194135
100
AcDbArc
 50
78.33127949379056
 51
120.5933649222567
  0
ARC
  5
B3C08
330
2
100
AcDbEntity
  8
0
100
AcDbCircle
 10
534.8991481310556
 20
332.8368388634578
 30
0.0
 40
1.445031356036846
100
AcDbArc
 50
353.925836554062
 51
63.84732697976277
  0
ARC
  5
B3C09
330
2
100
AcDbEntity
  8
0
100
AcDbCircle
 10
535.1251474531956
 20
333.6171830077898
 30
0.0
 40
1.528817570460096
100
AcDbArc
 50
322.3786884564014
 51
15.81877623754009
  0
ARC
  5
B3C0A
330
2
100
AcDbEntity
  8
0
100
AcDbCircle
 10
535.8873601111012
 20
333.2781116974392
 30
0.0
 40
1.036112560620146
100
AcDbArc
 50
46.84255949568013
 51
128.9464121266056
  0
ARC
  5
B3C0B
330
2
100
AcDbEntity
  8
0
100
AcDbCircle
 10
537.7860667357068
 20
332.7739318867136
 30
0.0
 40
2.866810073932347
100
AcDbArc
 50
152.8092787536726
 51
173.7922327783384
  0
ARC
  5
B3C0C
330
2
100
AcDbEntity
  8
0
100
AcDbCircle
 10
535.3928726203565
 20
333.1097311469783
 30
0.0
 40
0.1314973587251474
100
AcDbArc
 50
70.82351959719311
 51
189.0988723367539
  0
ARC
  5
B3C0D
330
2
100
AcDbEntity
  8
0
100
AcDbCircle
 10
535.2042485538886
 20
332.4180227958045
 30
0.0
 40
0.848202401582068
100
AcDbArc
 50
11.27982434252328
 51
74.13895557220263
  0
ARC
  5
B3C0E
330
2
100
AcDbEntity
  8
0
100
AcDbCircle
 10
535.4994769353386
 20
333.0241414637075
 30
0.0
 40
0.6940555349079672
100
AcDbArc
 50
320.6351011656484
 51
17.59384472503717
  0
ARC
  5
B3C0F
330
2
100
AcDbEntity
  8
0
100
AcDbCircle
 10
535.7119010891787
 20
332.6878229859027
 30
0.0
 40
0.7070959691341733
100
AcDbArc
 50
50.56326175546976
 51
115.1791837009918
  0
ARC
  5
B3C10
330
2
100
AcDbEntity
  8
0
100
AcDbCircle
 10
535.4192487297105
 20
333.1371512101318
 30
0.0
 40
0.1907562300745371
100
AcDbArc
 50
92.45830811352124
 51
196.2000099482515
  0
ARC
  5
B3C11
330
2
100
AcDbEntity
  8
0
100
AcDbCircle
 10
534.1454667357067
 20
332.6071501480985
 30
0.0
 40
0.1118367008711461
100
AcDbArc
 50
191.9822470526694
 51
348.0177529473305
  0
ARC
  5
B3C12
330
2
100
AcDbEntity
  8
0
100
AcDbCircle
 10
559.4451772032876
 20
322.4731494368759
 30
0.0
 40
27.14368551249177
100
AcDbArc
 50
157.2353424115117
 51
158.1306651901948
  0
ARC
  5
B3C13
330
2
100
AcDbEntity
  8
0
100
AcDbCircle
 10
534.93397117458
 20
332.9291122677875
 30
0.0
 40
0.961967710906412
100
AcDbArc
 50
148.4169916343997
 51
201.0282006400024
  0
ARC
  5
B3C14
330
2
100
AcDbEntity
  8
0
100
AcDbCircle
 10
536.4346187457571
 20
334.9240284193769
 30
0.0
 40
2.357206995271365
100
AcDbArc
 50
147.6906717843086
 51
187.6819322038736
  0
ARC
  5
B3C15
330
2
100
AcDbEntity
  8
0
100
AcDbCircle
 10
534.2452528588276
 20
334.9820323383478
 30
0.0
 40
2.197309241877727
100
AcDbArc
 50
0.1032326290494497
 51
21.75478014036863
  0
ARC
  5
B3C16
330
2
100
AcDbEntity
  8
0
100
AcDbCircle
 10
534.736399197542
 20
335.0174020949817
 30
0.0
 40
1.799978750642842
100
AcDbArc
 50
359.7940998711735
 51
32.47742980900179
  0
ARC
  5
B3C17
330
2
100
AcDbEntity
  8
0
100
AcDbCircle
 10
541.5010878562557
 20
331.1237935103661
 30
0.0
 40
7.183924408088929
100
AcDbArc
 50
138.9299202669771
 51
152.5637013773285
  0
ARC
  5
B3C18
330
2
100
AcDbEntity
  8
0
100
AcDbCircle
 10
535.5605455393313
 20
333.4552210853544
 30
0.0
 40
0.8374710907436883
100
AcDbArc
 50
153.2042550011574
 51
222.4259873829734
  0
ARC
  5
B3C19
330
2
100
AcDbEntity
  8
0
100
AcDbCircle
 10
534.8642167357068
 20
332.8120818867136
 30
0.0
 40
0.1105207898994575
100
AcDbArc
 50
225.0
 51
45.0
  0
ARC
  5
B3C1A
330
2
100
AcDbEntity
  8
0
100
AcDbCircle
 10
534.8428656858686
 20
335.9269055630724
 30
0.0
 40
0.3736759507629908
100
AcDbArc
 50
124.7509084316112
 51
171.2218460498334
  0
ARC
  5
B3C1B
330
2
100
AcDbEntity
  8
0
100
AcDbCircle
 10
539.7964834023735
 20
333.7716923033803
 30
0.0
 40
5.764325269651654
100
AcDbArc
 50
157.4319044343172
 51
177.889921009034
  0
ARC
  5
B3C1C
330
2
100
AcDbEntity
  8
0
100
AcDbCircle
 10
535.2791222912624
 20
333.8797652200469
 30
0.0
 40
1.24741244528102
100
AcDbArc
 50
175.2098692776356
 51
246.7176437865142
  0
ARC
  5
B3C1D
330
2
100
AcDbEntity
  8
0
100
AcDbCircle
 10
534.3720779935081
 20
332.9809992294884
 30
0.0
 40
0.5846107111150203
100
AcDbArc
 50
118.548967238728
 51
195.6157731179352
  0
ARC
  5
B3C1E
330
2
100
AcDbEntity
  8
0
100
AcDbCircle
 10
534.7910643252602
 20
332.9753875796185
 30
0.0
 40
1.094464232096474
100
AcDbArc
 50
133.5714115728366
 51
191.1539831242297
  0
LINE
  5
B3C1F
330
2
100
AcDbEntity
  8
0
100
AcDbLine
 10
536.5360667357069
 20
330.8589318867136
 30
0.0
 11
535.6136968215967
 21
330.8589318867136
 31
0.0
  0
LINE
  5
B3C20
330
2
100
AcDbEntity
  8
0
100
AcDbLine
 10
536.2709016927619
 20
332.3589318867135
 30
0.0
 11
534.7502186264874
 21
332.3589318867135
 31
0.0
  0
LINE
  5
B3C21
330
2
100
AcDbEntity
  8
0
100
AcDbLine
 10
536.5360667357069
 20
332.0882724112608
 30
0.0
 11
536.5360667357069
 21
332.5845289599396
 31
0.0
  0
ARC
  5
B3C22
330
2
100
AcDbEntity
  8
0
100
AcDbCircle
 10
537.5397755838187
 20
331.4526818867136
 30
0.0
 40
4.356856422125837
100
AcDbArc
 50
175.7432375202429
 51
187.8326108267921
  0
ARC
  5
B3C23
330
2
100
AcDbEntity
  8
0
100
AcDbCircle
 10
536.8819228870972
 20
332.6776501786704
 30
0.0
 40
2.96829535398922
100
AcDbArc
 50
186.5713243336765
 51
217.7860556651659
  0
ARC
  5
B3C24
330
2
100
AcDbEntity
  8
0
100
AcDbCircle
 10
532.5714663308888
 20
333.5590494653454
 30
0.0
 40
3.314500394326893
100
AcDbArc
 50
338.7719482392574
 51
347.3266484719035
  0
LINE
  5
B3C25
330
2
100
AcDbEntity
  8
0
100
AcDbLine
 10
536.5360667357069
 20
332.1473705845129
 30
0.0
 11
536.5360667357069
 21
332.5897436824735
 31
0.0
  0
LWPOLYLINE
  5
B3C26
330
2
100
AcDbEntity
  8
0
100
AcDbPolyline
 90
        2
 70
     0
 10
536.5360317786517
 20
332.2263668437686
 40
0.0
 41
0.03125
 10
536.5360317786517
 20
332.3589318867135
 40
0.03125
 41
0.03125
  0
LWPOLYLINE
  5
B3C27
330
2
100
AcDbEntity
  8
0
100
AcDbPolyline
 90
        2
 70
     0
 10
536.4067424311507
 20
332.3569944925651
 40
0.0
 41
0.03125
 10
536.5360317786517
 20
332.3589318867135
 40
0.03125
 41
0.03125
  0
LWPOLYLINE
  5
B3C28
330
2
100
AcDbEntity
  8
0
100
AcDbPolyline
 90
        2
 70
     0
 10
536.5360317786517
 20
332.4915318867136
 40
0.0
 41
0.03125
 10
536.5360667357069
 20
332.3589318867135
 40
0.03125
 41
0.03125
  0
LWPOLYLINE
  5
B3C29
330
2
100
AcDbEntity
  8
0
100
AcDbPolyline
 90
        2
 70
     0
 10
536.6686317786518
 20
332.3589318867135
 40
0.0
 41
0.03125
 10
536.5360667357069
 20
332.3589318867135
 40
0.03125
 41
0.03125
  0
LINE
  5
B3C2A
330
2
100
AcDbEntity
  8
0
100
AcDbLine
 10
536.5360317786517
 20
332.4915318867136
 30
0.0
 11
536.5360317786517
 21
332.2263668437686
 31
0.0
  0
LINE
  5
B3C2B
330
2
100
AcDbEntity
  8
0
100
AcDbLine
 10
536.4034667357068
 20
332.3589318867135
 30
0.0
 11
536.6686317786518
 21
332.3589318867135
 31
0.0
  0
LINE
  5
B3C2C
330
2
100
AcDbEntity
  8
0
100
AcDbLine
 10
536.2708842142343
 20
332.3589493652411
 30
0.0
 11
536.5360492571793
 21
332.0937843222961
 31
0.0
  0
LINE
  5
B3C2D
330
2
100
AcDbEntity
  8
0
100
AcDbLine
 10
536.5360492571793
 20
332.6241144081861
 30
0.0
 11
536.2708842142343
 21
332.3589493652411
 31
0.0
  0
LWPOLYLINE
  5
B3C2E
330
2
100
AcDbEntity
  8
0
100
AcDbPolyline
 90
        2
 70
     0
 10
535.3485317786518
 20
330.7263668437686
 40
0.0
 41
0.03125
 10
535.3485317786517
 20
330.8589318867136
 40
0.03125
 41
0.03125
  0
LWPOLYLINE
  5
B3C2F
330
2
100
AcDbEntity
  8
0
100
AcDbPolyline
 90
        2
 70
     0
 10
535.2192424311507
 20
330.8569944925652
 40
0.0
 41
0.03125
 10
535.3485317786518
 20
330.8589318867136
 40
0.03125
 41
0.03125
  0
LWPOLYLINE
  5
B3C30
330
2
100
AcDbEntity
  8
0
100
AcDbPolyline
 90
        2
 70
     0
 10
535.3485317786518
 20
330.9915318867136
 40
0.0
 41
0.03125
 10
535.3485667357069
 20
330.8589318867136
 40
0.03125
 41
0.03125
  0
LWPOLYLINE
  5
B3C31
330
2
100
AcDbEntity
  8
0
100
AcDbPolyline
 90
        2
 70
     0
 10
535.4811317786518
 20
330.8589318867136
 40
0.0
 41
0.03125
 10
535.3485667357069
 20
330.8589318867136
 40
0.03125
 41
0.03125
  0
LINE
  5
B3C32
330
2
100
AcDbEntity
  8
0
100
AcDbLine
 10
535.3485317786518
 20
330.9915318867136
 30
0.0
 11
535.3485317786518
 21
330.7263668437686
 31
0.0
  0
LINE
  5
B3C33
330
2
100
AcDbEntity
  8
0
100
AcDbLine
 10
535.2159667357068
 20
330.8589318867136
 30
0.0
 11
535.4811317786518
 21
330.8589318867136
 31
0.0
  0
LINE
  5
B3C34
330
2
100
AcDbEntity
  8
0
100
AcDbLine
 10
535.3485492571793
 20
330.5937843222961
 30
0.0
 11
535.6137143001242
 21
330.8589493652411
 31
0.0
  0
LINE
  5
B3C35
330
2
100
AcDbEntity
  8
0
100
AcDbLine
 10
535.0833842142343
 20
330.8589493652411
 30
0.0
 11
535.3485492571793
 21
330.5937843222961
 31
0.0
  0
LINE
  5
B3C36
330
2
100
AcDbEntity
  8
0
100
AcDbLine
 10
535.3485492571793
 20
331.1241144081861
 30
0.0
 11
535.0833842142343
 21
330.8589493652411
 31
0.0
  0
LINE
  5
B3C37
330
2
100
AcDbEntity
  8
0
100
AcDbLine
 10
535.6137143001242
 20
330.8589493652411
 30
0.0
 11
535.3485492571793
 21
331.1241144081861
 31
0.0
  0
LWPOLYLINE
  5
B3C38
330
2
100
AcDbEntity
  8
0
100
AcDbPolyline
 90
        2
 70
     0
 10
534.5360317786518
 20
332.2263668437686
 40
0.0
 41
0.03125
 10
534.5360317786517
 20
332.3589318867135
 40
0.03125
 41
0.03125
  0
LWPOLYLINE
  5
B3C39
330
2
100
AcDbEntity
  8
0
100
AcDbPolyline
 90
        2
 70
     0
 10
534.4067424311507
 20
332.3569944925651
 40
0.0
 41
0.03125
 10
534.5360317786518
 20
332.3589318867135
 40
0.03125
 41
0.03125
  0
LWPOLYLINE
  5
B3C3A
330
2
100
AcDbEntity
  8
0
100
AcDbPolyline
 90
        2
 70
     0
 10
534.5360317786518
 20
332.4915318867136
 40
0.0
 41
0.03125
 10
534.5360667357068
 20
332.3589318867135
 40
0.03125
 41
0.03125
  0
LWPOLYLINE
  5
B3C3B
330
2
100
AcDbEntity
  8
0
100
AcDbPolyline
 90
        2
 70
     0
 10
534.6686317786518
 20
332.3589318867135
 40
0.0
 41
0.03125
 10
534.5360667357068
 20
332.3589318867135
 40
0.03125
 41
0.03125
  0
LINE
  5
B3C3C
330
2
100
AcDbEntity
  8
0
100
AcDbLine
 10
534.5360317786518
 20
332.4915318867136
 30
0.0
 11
534.5360317786518
 21
332.2263668437686
 31
0.0
  0
LINE
  5
B3C3D
330
2
100
AcDbEntity
  8
0
100
AcDbLine
 10
534.4034667357068
 20
332.3589318867135
 30
0.0
 11
534.6686317786518
 21
332.3589318867135
 31
0.0
  0
LINE
  5
B3C3E
330
2
100
AcDbEntity
  8
0
100
AcDbLine
 10
534.5360492571793
 20
332.0937843222961
 30
0.0
 11
534.7502327445322
 21
332.3589493652411
 31
0.0
  0
LINE
  5
B3C3F
330
2
100
AcDbEntity
  8
0
100
AcDbLine
 10
534.3048719179623
 20
332.3589493652411
 30
0.0
 11
534.5360492571793
 21
332.0937843222961
 31
0.0
  0
LINE
  5
B3C40
330
2
100
AcDbEntity
  8
0
100
AcDbLine
 10
534.5360492571793
 20
332.6241144081861
 30
0.0
 11
534.3048719179623
 21
332.3589493652411
 31
0.0
  0
LINE
  5
B3C41
330
2
100
AcDbEntity
  8
0
100
AcDbLine
 10
534.7502327445322
 20
332.3589493652411
 30
0.0
 11
534.5360492571793
 21
332.6241144081861
 31
0.0
  0
LINE
  5
B3C42
330
2
100
AcDbEntity
  8
0
100
AcDbLine
 10
533.586398877411
 20
330.8589493652411
 30
0.0
 11
533.4110492571793
 21
331.1241144081861
 31
0.0
  0
LINE
  5
B3C43
330
2
100
AcDbEntity
  8
0
100
AcDbLine
 10
533.4110492571793
 20
331.1241144081861
 30
0.0
 11
533.2613611862941
 21
330.8589493652411
 31
0.0
  0
LINE
  5
B3C44
330
2
100
AcDbEntity
  8
0
100
AcDbLine
 10
533.2613611862941
 20
330.8589493652411
 30
0.0
 11
533.4110492571793
 21
330.5937843222961
 31
0.0
  0
LINE
  5
B3C45
330
2
100
AcDbEntity
  8
0
100
AcDbLine
 10
533.4110492571793
 20
330.5937843222961
 30
0.0
 11
533.586398877411
 21
330.8589493652411
 31
0.0
  0
LINE
  5
B3C46
330
2
100
AcDbEntity
  8
0
100
AcDbLine
 10
533.3939437077666
 20
330.8589318867136
 30
0.0
 11
533.4538163559385
 21
330.8589318867136
 31
0.0
  0
LINE
  5
B3C47
330
2
100
AcDbEntity
  8
0
100
AcDbLine
 10
533.4110317786517
 20
330.9915318867136
 30
0.0
 11
533.4110317786517
 21
330.7263668437686
 31
0.0
  0
LWPOLYLINE
  5
B3C48
330
2
100
AcDbEntity
  8
0
100
AcDbPolyline
 90
        2
 70
     0
 10
533.4538163559385
 20
330.8589318867136
 40
0.0
 41
0.03125
 10
533.4110667357069
 20
330.8589318867136
 40
0.03125
 41
0.03125
  0
LWPOLYLINE
  5
B3C49
330
2
100
AcDbEntity
  8
0
100
AcDbPolyline
 90
        2
 70
     0
 10
533.4110317786517
 20
330.9915318867136
 40
0.0
 41
0.03125
 10
533.4110667357069
 20
330.8589318867136
 40
0.03125
 41
0.03125
  0
LWPOLYLINE
  5
B3C4A
330
2
100
AcDbEntity
  8
0
100
AcDbPolyline
 90
        2
 70
     0
 10
533.3972194032106
 20
330.8569944925652
 40
0.0
 41
0.03125
 10
533.4110317786517
 20
330.8589318867136
 40
0.03125
 41
0.03125
  0
LWPOLYLINE
  5
B3C4B
330
2
100
AcDbEntity
  8
0
100
AcDbPolyline
 90
        2
 70
     0
 10
533.4110317786517
 20
330.7263668437686
 40
0.0
 41
0.03125
 10
533.4110317786517
 20
330.8589318867136
 40
0.03125
 41
0.03125
  0
LINE
  5
B3C4C
330
2
100
AcDbEntity
  8
0
100
AcDbLine
 10
533.3093346380461
 20
332.2932606049492
 30
0.0
 11
533.1855701603483
 21
332.069286071651
 31
0.0
  0
LINE
  5
B3C4D
330
2
100
AcDbEntity
  8
0
100
AcDbLine
 10
533.1948849139382
 20
331.7760786909716
 30
0.0
 11
533.1855701603483
 21
331.9809278098927
 31
0.0
  0
LINE
  5
B3C4E
330
2
100
AcDbEntity
  8
0
100
AcDbLine
 10
533.1855701603483
 20
331.9809278098927
 30
0.0
 11
533.1855701603483
 21
332.069286071651
 31
0.0
  0
LINE
  5
B3C4F
330
2
100
AcDbEntity
  8
0
100
AcDbLine
 10
533.1855701603483
 20
332.0251069407718
 30
0.0
 11
533.299021595151
 21
332.0252710932608
 31
0.0
  0
LINE
  5
B3C50
330
2
100
AcDbEntity
  8
0
100
AcDbLine
 10
533.299021595151
 20
332.0252710932608
 30
0.0
 11
533.1855701603483
 21
332.069286071651
 31
0.0
  0
LINE
  5
B3C51
330
2
100
AcDbEntity
  8
0
100
AcDbLine
 10
533.299021595151
 20
332.0252710932608
 30
0.0
 11
533.1855701603483
 21
331.9809278098927
 31
0.0
  0
LINE
  5
B3C52
330
2
100
AcDbEntity
  8
0
100
AcDbLine
 10
533.299021595151
 20
332.0252710932608
 30
0.0
 11
533.1855701603483
 21
331.9809278098927
 31
0.0
  0
LINE
  5
B3C53
330
2
100
AcDbEntity
  8
0
100
AcDbLine
 10
533.299021595151
 20
332.0252710932608
 30
0.0
 11
533.1855701603483
 21
332.069286071651
 31
0.0
  0
LINE
  5
B3C54
330
2
100
AcDbEntity
  8
0
100
AcDbLine
 10
533.1855701603483
 20
332.0251069407718
 30
0.0
 11
533.299021595151
 21
332.0252710932608
 31
0.0
  0
LINE
  5
B3C55
330
2
100
AcDbEntity
  8
0
100
AcDbLine
 10
533.1855701603483
 20
331.9809278098927
 30
0.0
 11
533.1855701603483
 21
332.069286071651
 31
0.0
  0
LINE
  5
B3C56
330
2
100
AcDbEntity
  8
0
100
AcDbLine
 10
533.1948849139382
 20
331.7760786909716
 30
0.0
 11
533.1855701603483
 21
331.9809278098927
 31
0.0
  0
LINE
  5
B3C57
330
2
100
AcDbEntity
  8
0
100
AcDbLine
 10
533.3093346380461
 20
332.2932606049492
 30
0.0
 11
533.1855701603483
 21
332.069286071651
 31
0.0
  0
ARC
  5
B3C58
330
2
100
AcDbEntity
  8
0
100
AcDbCircle
 10
534.4906880620493
 20
331.6801856157511
 30
0.0
 40
1.331203454356022
100
AcDbArc
 50
112.9191979753374
 51
152.5755217355425
  0
ARC
  5
B3C59
330
2
100
AcDbEntity
  8
0
100
AcDbCircle
 10
534.6082321192361
 20
330.4278609093521
 30
0.0
 40
1.933335406854492
100
AcDbArc
 50
137.0679490300799
 51
158.7278957738872
  0
ARC
  5
B3C5A
330
2
100
AcDbEntity
  8
0
100
AcDbCircle
 10
527.445844007993
 20
334.6852932505703
 30
0.0
 40
6.929871658635235
100
AcDbArc
 50
326.4850381070671
 51
330.3429291327708
  0
LINE
  5
B3C5B
330
2
100
AcDbEntity
  8
0
100
AcDbLine
 10
534.5360667357068
 20
330.8589318867136
 30
0.0
 11
534.5360492571793
 21
332.0937843222961
 31
0.0
  0
LINE
  5
B3C5C
330
2
100
AcDbEntity
  8
0
100
AcDbLine
 10
534.5360492571789
 20
332.6241144081865
 30
0.0
 11
534.6009592123355
 21
332.8328016834219
 31
0.0
  0
LINE
  5
B3C5D
330
2
100
AcDbEntity
  8
0
100
AcDbLine
 10
535.3485492571793
 20
331.1241144081861
 30
0.0
 11
535.6610667357069
 21
332.3589318867135
 31
0.0
  0
LINE
  5
B3C5E
330
2
100
AcDbEntity
  8
0
100
AcDbLine
 10
534.1610492571793
 20
329.7491144081861
 30
0.0
 11
534.5360667357068
 21
330.8589318867136
 31
0.0
  0
LINE
  5
B3C5F
330
2
100
AcDbEntity
  8
0
100
AcDbLine
 10
534.3048871561681
 20
332.3589318867135
 30
0.0
 11
533.9735667357068
 21
332.3589318867135
 31
0.0
  0
LINE
  5
B3C60
330
2
100
AcDbEntity
  8
0
100
AcDbLine
 10
535.0834016927619
 20
330.8589318867136
 30
0.0
 11
533.5863873191259
 21
330.8589318867136
 31
0.0
  0
LINE
  5
B3C61
330
2
100
AcDbEntity
  8
0
100
AcDbLine
 10
533.2613710530814
 20
330.8589318867136
 30
0.0
 11
532.8440157800454
 21
330.8589318867136
 31
0.0
  0
LINE
  5
B3C62
330
2
100
AcDbEntity
  8
0
100
AcDbLine
 10
536.5360667357069
 20
329.7490969296586
 30
0.0
 11
536.5360667357069
 21
332.0938018008237
 31
0.0
  0
LINE
  5
B3C63
330
2
100
AcDbEntity
  8
0
100
AcDbLine
 10
535.4481772397516
 20
329.5202095596998
 30
0.0
 11
535.3485492571793
 21
330.5937843222961
 31
0.0
  0
LINE
  5
B3C64
330
2
100
AcDbEntity
  8
0
100
AcDbLine
 10
533.3586219402162
 20
332.0399882046808
 30
0.0
 11
533.9735667357068
 21
332.3589318867135
 31
0.0
  0
LINE
  5
B3C65
330
2
100
AcDbEntity
  8
0
100
AcDbLine
 10
536.5360130276132
 20
329.7490969298337
 30
0.0
 11
536.5360283199207
 21
332.0938018009489
 31
0.0
  0
LINE
  5
B3C66
330
2
100
AcDbEntity
  8
0
100
AcDbLine
 10
536.2708824848176
 20
332.3589510946693
 30
0.0
 11
536.5360492571793
 21
332.6241144081861
 31
0.0
  0
LINE
  5
B3C67
330
2
100
AcDbEntity
  8
0
100
AcDbLine
 10
536.5360457983342
 20
332.0937843223075
 30
0.0
 11
536.2708824848176
 21
332.3589510946693
 31
0.0
  0
LINE
  5
B3C68
330
2
100
AcDbEntity
  8
0
100
AcDbLine
 10
536.6686300491124
 20
332.3589310220079
 30
0.0
 11
536.4034650061731
 21
332.3589327514305
 31
0.0
  0
LINE
  5
B3C69
330
2
100
AcDbEntity
  8
0
100
AcDbLine
 10
536.5360658709955
 20
332.4915318866024
 30
0.0
 11
536.5360641415731
 21
332.2263668436631
 31
0.0
  0
LINE
  5
B3C6A
330
2
100
AcDbEntity
  8
0
100
AcDbLine
 10
536.5360317786517
 20
332.4915318867136
 30
0.0
 11
536.5360317786517
 21
332.2263668437686
 31
0.0
  0
LINE
  5
B3C6B
330
2
100
AcDbEntity
  8
0
100
AcDbLine
 10
536.5360667357069
 20
329.7490969296586
 30
0.0
 11
536.5360667357069
 21
332.0938018008237
 31
0.0
  0
LINE
  5
B3C6C
330
2
100
AcDbEntity
  8
0
100
AcDbLine
 10
536.5360130276132
 20
329.7490969298337
 30
0.0
 11
536.5360283199207
 21
332.0938018009489
 31
0.0
  0
LINE
  5
B3C6D
330
2
100
AcDbEntity
  8
0
100
AcDbLine
 10
536.5360658709955
 20
332.4915318866024
 30
0.0
 11
536.5360641415731
 21
332.2263668436631
 31
0.0
  0
LWPOLYLINE
  5
B3C6E
330
2
100
AcDbEntity
  8
0
100
AcDbPolyline
 90
        2
 70
     0
 10
536.5360658709955
 20
332.4915318866024
 40
0.0
 41
0.03125
 10
536.5360300491153
 20
332.3589318868332
 40
0.03125
 41
0.03125
  0
LWPOLYLINE
  5
B3C6F
330
2
100
AcDbEntity
  8
0
100
AcDbPolyline
 90
        2
 70
     0
 10
536.6653543410328
 20
332.3569936492239
 40
0.0
 41
0.03125
 10
536.5360650061703
 20
332.3589318866052
 40
0.03125
 41
0.03125
  0
LWPOLYLINE
  5
B3C70
330
2
100
AcDbEntity
  8
0
100
AcDbPolyline
 90
        2
 70
     0
 10
536.5360641415731
 20
332.2263668436631
 40
0.0
 41
0.03125
 10
536.5360650061703
 20
332.3589318866052
 40
0.03125
 41
0.03125
  0
LINE
  5
B3C71
330
2
100
AcDbEntity
  8
0
100
AcDbLine
 10
536.5360286692996
 20
332.147370584637
 30
0.0
 11
536.5360315544839
 21
332.5897436825882
 31
0.0
  0
LINE
  5
B3C72
330
2
100
AcDbEntity
  8
0
100
AcDbLine
 10
536.5360282838577
 20
332.0882724113862
 30
0.0
 11
536.5360315204731
 21
332.5845289600544
 31
0.0
  0
LINE
  5
B3C73
330
2
100
AcDbEntity
  8
0
100
AcDbLine
 10
533.1949337209103
 20
331.7760192791352
 30
0.0
 11
533.3586219402162
 21
332.0399882046808
 31
0.0
  0
LINE
  5
B3C74
330
2
100
AcDbEntity
  8
0
100
AcDbLine
 10
533.3586219402162
 20
332.0399882046808
 30
0.0
 11
533.3093346380461
 21
332.2932606049492
 31
0.0
  0
LINE
  5
B3C75
330
2
100
AcDbEntity
  8
0
100
AcDbLine
 10
532.8440157800454
 20
330.8589318867136
 30
0.0
 11
532.8066187698047
 21
331.129270300897
 31
0.0
  0
LINE
  5
B3C76
330
2
100
AcDbEntity
  8
0
100
AcDbLine
 10
540.2281176913683
 20
330.8589318867136
 30
0.0
 11
540.265514701609
 21
331.129270300897
 31
0.0
  0
LINE
  5
B3C77
330
2
100
AcDbEntity
  8
0
100
AcDbLine
 10
540.3858811213711
 20
330.6370965712439
 30
0.0
 11
540.2281176913683
 21
330.8589318867136
 31
0.0
  0
LINE
  5
B3C78
330
2
100
AcDbEntity
  8
0
100
AcDbLine
 10
539.8771997505033
 20
331.7760192791352
 30
0.0
 11
539.7135115311974
 21
332.0399882046808
 31
0.0
  0
LINE
  5
B3C79
330
2
100
AcDbEntity
  8
0
100
AcDbLine
 10
536.5361051875559
 20
332.0882724113862
 30
0.0
 11
536.5361019509406
 21
332.5845289600544
 31
0.0
  0
LINE
  5
B3C7A
330
2
100
AcDbEntity
  8
0
100
AcDbLine
 10
536.536104802114
 20
332.147370584637
 30
0.0
 11
536.5361019169298
 21
332.5897436825882
 31
0.0
  0
LWPOLYLINE
  5
B3C7B
330
2
100
AcDbEntity
  8
0
100
AcDbPolyline
 90
        2
 70
     0
 10
536.5360693298406
 20
332.2263668436631
 40
0.0
 41
0.03125
 10
536.5360684652432
 20
332.3589318866052
 40
0.03125
 41
0.03125
  0
LWPOLYLINE
  5
B3C7C
330
2
100
AcDbEntity
  8
0
100
AcDbPolyline
 90
        2
 70
     0
 10
536.4067791303808
 20
332.3569936492239
 40
0.0
 41
0.03125
 10
536.5360684652434
 20
332.3589318866052
 40
0.03125
 41
0.03125
  0
LWPOLYLINE
  5
B3C7D
330
2
100
AcDbEntity
  8
0
100
AcDbPolyline
 90
        2
 70
     0
 10
536.5360676004181
 20
332.4915318866024
 40
0.0
 41
0.03125
 10
536.5361034222984
 20
332.3589318868332
 40
0.03125
 41
0.03125
  0
LINE
  5
B3C7E
330
2
100
AcDbEntity
  8
0
100
AcDbLine
 10
536.5360676004181
 20
332.4915318866024
 30
0.0
 11
536.5360693298406
 21
332.2263668436631
 31
0.0
  0
LINE
  5
B3C7F
330
2
100
AcDbEntity
  8
0
100
AcDbLine
 10
536.2709209007175
 20
332.3589476358242
 30
0.0
 11
536.5360876730793
 21
332.0937843223075
 31
0.0
  0
LINE
  5
B3C80
330
2
100
AcDbEntity
  8
0
100
AcDbLine
 10
536.5360842142344
 20
332.6241144081861
 30
0.0
 11
536.2709209007175
 21
332.3589476358242
 31
0.0
  0
LINE
  5
B3C81
330
2
100
AcDbEntity
  8
0
100
AcDbLine
 10
536.5361204438004
 20
329.7490969298337
 30
0.0
 11
536.536105151493
 21
332.0938018009489
 31
0.0
  0
LINE
  5
B3C82
330
2
100
AcDbEntity
  8
0
100
AcDbLine
 10
536.5360667357069
 20
329.7490969296586
 30
0.0
 11
536.5360667357069
 21
332.0938018008237
 31
0.0
  0
LINE
  5
B3C83
330
2
100
AcDbEntity
  8
0
100
AcDbLine
 10
536.2709191712894
 20
332.3589493652411
 30
0.0
 11
536.5360842142344
 21
332.6241144081861
 31
0.0
  0
LINE
  5
B3C84
330
2
100
AcDbEntity
  8
0
100
AcDbLine
 10
536.5360842142344
 20
332.0937843222961
 30
0.0
 11
536.2709191712894
 21
332.3589493652411
 31
0.0
  0
LINE
  5
B3C85
330
2
100
AcDbEntity
  8
0
100
AcDbLine
 10
536.5361016927619
 20
332.4915318867136
 30
0.0
 11
536.5361016927619
 21
332.2263668437686
 31
0.0
  0
LINE
  5
B3C86
330
2
100
AcDbEntity
  8
0
100
AcDbLine
 10
536.5360676004181
 20
332.4915318866024
 30
0.0
 11
536.5360693298406
 21
332.2263668436631
 31
0.0
  0
LINE
  5
B3C87
330
2
100
AcDbEntity
  8
0
100
AcDbLine
 10
536.4035034223012
 20
332.3589310220079
 30
0.0
 11
536.6686684652405
 21
332.3589327514305
 31
0.0
  0
LINE
  5
B3C88
330
2
100
AcDbEntity
  8
0
100
AcDbLine
 10
536.5360876730793
 20
332.0937843223075
 30
0.0
 11
536.8012509865962
 21
332.3589510946693
 31
0.0
  0
LINE
  5
B3C89
330
2
100
AcDbEntity
  8
0
100
AcDbLine
 10
536.2709209007175
 20
332.3589476358242
 30
0.0
 11
536.5360876730793
 21
332.0937843223075
 31
0.0
  0
LINE
  5
B3C8A
330
2
100
AcDbEntity
  8
0
100
AcDbLine
 10
536.8012509865962
 20
332.3589510946693
 30
0.0
 11
536.5360842142344
 21
332.6241144081861
 31
0.0
  0
LINE
  5
B3C8B
330
2
100
AcDbEntity
  8
0
100
AcDbLine
 10
536.5361204438004
 20
329.7490969298337
 30
0.0
 11
536.536105151493
 21
332.0938018009489
 31
0.0
  0
LINE
  5
B3C8C
330
2
100
AcDbEntity
  8
0
100
AcDbLine
 10
539.7135115311974
 20
332.0399882046808
 30
0.0
 11
539.0985667357068
 21
332.3589318867135
 31
0.0
  0
LINE
  5
B3C8D
330
2
100
AcDbEntity
  8
0
100
AcDbLine
 10
537.623956231662
 20
329.5202095596998
 30
0.0
 11
537.7235842142344
 21
330.5937843222961
 31
0.0
  0
LINE
  5
B3C8E
330
2
100
AcDbEntity
  8
0
100
AcDbLine
 10
536.5360667357069
 20
329.7490969296586
 30
0.0
 11
536.5360667357069
 21
332.0938018008237
 31
0.0
  0
LINE
  5
B3C8F
330
2
100
AcDbEntity
  8
0
100
AcDbLine
 10
539.8107624183323
 20
330.8589318867136
 30
0.0
 11
540.2281176913683
 21
330.8589318867136
 31
0.0
  0
LINE
  5
B3C90
330
2
100
AcDbEntity
  8
0
100
AcDbLine
 10
537.9887317786518
 20
330.8589318867136
 30
0.0
 11
539.4857461522876
 21
330.8589318867136
 31
0.0
  0
LINE
  5
B3C91
330
2
100
AcDbEntity
  8
0
100
AcDbLine
 10
538.7672463152455
 20
332.3589318867135
 30
0.0
 11
539.0985667357068
 21
332.3589318867135
 31
0.0
  0
LINE
  5
B3C92
330
2
100
AcDbEntity
  8
0
100
AcDbLine
 10
538.9110842142343
 20
329.7491144081861
 30
0.0
 11
538.5360667357068
 21
330.8589318867136
 31
0.0
  0
LINE
  5
B3C93
330
2
100
AcDbEntity
  8
0
100
AcDbLine
 10
537.7235842142344
 20
331.1241144081861
 30
0.0
 11
537.4110667357069
 21
332.3589318867135
 31
0.0
  0
LINE
  5
B3C94
330
2
100
AcDbEntity
  8
0
100
AcDbLine
 10
538.5360842142347
 20
332.6241144081865
 30
0.0
 11
538.46695163703
 21
332.8463775284131
 31
0.0
  0
LINE
  5
B3C95
330
2
100
AcDbEntity
  8
0
100
AcDbLine
 10
538.5360667357068
 20
330.8589318867136
 30
0.0
 11
538.5360842142343
 21
332.0937843222961
 31
0.0
  0
LINE
  5
B3C96
330
2
100
AcDbEntity
  8
0
100
AcDbLine
 10
539.6610842142344
 20
331.1241144081861
 30
0.0
 11
539.0985667357068
 21
332.3589318867135
 31
0.0
  0
ARC
  5
B3C97
330
2
100
AcDbEntity
  8
0
100
AcDbCircle
 10
545.6262894634205
 20
334.6852932505703
 30
0.0
 40
6.929871658635235
100
AcDbArc
 50
194.8885001118538
 51
199.6151404612205
  0
ARC
  5
B3C98
330
2
100
AcDbEntity
  8
0
100
AcDbCircle
 10
537.8509705818607
 20
329.2391766419584
 30
0.0
 40
2.57176932223189
100
AcDbArc
 50
12.15307427574077
 51
39.03694381887478
  0
ARC
  5
B3C99
330
2
100
AcDbEntity
  8
0
100
AcDbCircle
 10
538.4639013521774
 20
330.4278609093521
 30
0.0
 40
1.933335406854492
100
AcDbArc
 50
21.27210422611279
 51
42.93205096991997
  0
LINE
  5
B3C9A
330
2
100
AcDbEntity
  8
0
100
AcDbLine
 10
540.3651030642962
 20
329.7805963567225
 30
0.0
 11
540.4424609849207
 21
329.5449064802038
 31
0.0
  0
LINE
  5
B3C9B
330
2
100
AcDbEntity
  8
0
100
AcDbLine
 10
540.3651030642962
 20
329.7805963567225
 30
0.0
 11
540.4424609849207
 21
329.5449064802038
 31
0.0
  0
LINE
  5
B3C9C
330
2
100
AcDbEntity
  8
0
100
AcDbLine
 10
539.8772485574754
 20
331.7760786909716
 30
0.0
 11
539.8865633110652
 21
331.9809278098927
 31
0.0
  0
LINE
  5
B3C9D
330
2
100
AcDbEntity
  8
0
100
AcDbLine
 10
539.8865633110652
 20
331.9809278098927
 30
0.0
 11
539.8865633110652
 21
332.069286071651
 31
0.0
  0
LINE
  5
B3C9E
330
2
100
AcDbEntity
  8
0
100
AcDbLine
 10
539.8865633110652
 20
332.0251069407718
 30
0.0
 11
539.7731118762626
 21
332.0252710932608
 31
0.0
  0
LINE
  5
B3C9F
330
2
100
AcDbEntity
  8
0
100
AcDbLine
 10
539.7731118762626
 20
332.0252710932608
 30
0.0
 11
539.8865633110652
 21
332.069286071651
 31
0.0
  0
LINE
  5
B3CA0
330
2
100
AcDbEntity
  8
0
100
AcDbLine
 10
539.7731118762626
 20
332.0252710932608
 30
0.0
 11
539.8865633110652
 21
331.9809278098927
 31
0.0
  0
LINE
  5
B3CA1
330
2
100
AcDbEntity
  8
0
100
AcDbLine
 10
539.7731118762626
 20
332.0252710932608
 30
0.0
 11
539.8865633110652
 21
331.9809278098927
 31
0.0
  0
LINE
  5
B3CA2
330
2
100
AcDbEntity
  8
0
100
AcDbLine
 10
539.7731118762626
 20
332.0252710932608
 30
0.0
 11
539.8865633110652
 21
332.069286071651
 31
0.0
  0
LINE
  5
B3CA3
330
2
100
AcDbEntity
  8
0
100
AcDbLine
 10
539.8865633110652
 20
332.0251069407718
 30
0.0
 11
539.7731118762626
 21
332.0252710932608
 31
0.0
  0
LINE
  5
B3CA4
330
2
100
AcDbEntity
  8
0
100
AcDbLine
 10
539.8865633110652
 20
331.9809278098927
 30
0.0
 11
539.8865633110652
 21
332.069286071651
 31
0.0
  0
LINE
  5
B3CA5
330
2
100
AcDbEntity
  8
0
100
AcDbLine
 10
539.8772485574754
 20
331.7760786909716
 30
0.0
 11
539.8865633110652
 21
331.9809278098927
 31
0.0
  0
LINE
  5
B3CA6
330
2
100
AcDbEntity
  8
0
100
AcDbLine
 10
540.265514701609
 20
331.129270300897
 30
0.0
 11
540.3872185773608
 21
330.9199515993522
 31
0.0
  0
LINE
  5
B3CA7
330
2
100
AcDbEntity
  8
0
100
AcDbLine
 10
540.3858811213711
 20
330.6370965712439
 30
0.0
 11
540.3872185773608
 21
330.8315933375937
 31
0.0
  0
LINE
  5
B3CA8
330
2
100
AcDbEntity
  8
0
100
AcDbLine
 10
540.3872185773608
 20
330.8315933375937
 30
0.0
 11
540.3872185773608
 21
330.9199515993522
 31
0.0
  0
LINE
  5
B3CA9
330
2
100
AcDbEntity
  8
0
100
AcDbLine
 10
540.3872185773608
 20
330.8757724684729
 30
0.0
 11
540.2737671425581
 21
330.8759366209618
 31
0.0
  0
LINE
  5
B3CAA
330
2
100
AcDbEntity
  8
0
100
AcDbLine
 10
540.2737671425581
 20
330.8759366209618
 30
0.0
 11
540.3872185773608
 21
330.9199515993522
 31
0.0
  0
LINE
  5
B3CAB
330
2
100
AcDbEntity
  8
0
100
AcDbLine
 10
540.2737671425581
 20
330.8759366209618
 30
0.0
 11
540.3872185773608
 21
330.8315933375937
 31
0.0
  0
LWPOLYLINE
  5
B3CAC
330
2
100
AcDbEntity
  8
0
100
AcDbPolyline
 90
        2
 70
     0
 10
539.6611016927619
 20
330.7263668437686
 40
0.0
 41
0.03125
 10
539.6611016927619
 20
330.8589318867136
 40
0.03125
 41
0.03125
  0
LWPOLYLINE
  5
B3CAD
330
2
100
AcDbEntity
  8
0
100
AcDbPolyline
 90
        2
 70
     0
 10
539.6749140682031
 20
330.8569944925652
 40
0.0
 41
0.03125
 10
539.6611016927619
 20
330.8589318867136
 40
0.03125
 41
0.03125
  0
LWPOLYLINE
  5
B3CAE
330
2
100
AcDbEntity
  8
0
100
AcDbPolyline
 90
        2
 70
     0
 10
539.6611016927619
 20
330.9915318867136
 40
0.0
 41
0.03125
 10
539.6610667357069
 20
330.8589318867136
 40
0.03125
 41
0.03125
  0
LWPOLYLINE
  5
B3CAF
330
2
100
AcDbEntity
  8
0
100
AcDbPolyline
 90
        2
 70
     0
 10
539.618317115475
 20
330.8589318867136
 40
0.0
 41
0.03125
 10
539.6610667357069
 20
330.8589318867136
 40
0.03125
 41
0.03125
  0
LINE
  5
B3CB0
330
2
100
AcDbEntity
  8
0
100
AcDbLine
 10
539.6611016927619
 20
330.9915318867136
 30
0.0
 11
539.6611016927619
 21
330.7263668437686
 31
0.0
  0
LINE
  5
B3CB1
330
2
100
AcDbEntity
  8
0
100
AcDbLine
 10
539.6781897636469
 20
330.8589318867136
 30
0.0
 11
539.618317115475
 21
330.8589318867136
 31
0.0
  0
LINE
  5
B3CB2
330
2
100
AcDbEntity
  8
0
100
AcDbLine
 10
539.6610842142344
 20
330.5937843222961
 30
0.0
 11
539.4857345940026
 21
330.8589493652411
 31
0.0
  0
LINE
  5
B3CB3
330
2
100
AcDbEntity
  8
0
100
AcDbLine
 10
539.8107722851194
 20
330.8589493652411
 30
0.0
 11
539.6610842142344
 21
330.5937843222961
 31
0.0
  0
LINE
  5
B3CB4
330
2
100
AcDbEntity
  8
0
100
AcDbLine
 10
539.6610842142344
 20
331.1241144081861
 30
0.0
 11
539.8107722851194
 21
330.8589493652411
 31
0.0
  0
LINE
  5
B3CB5
330
2
100
AcDbEntity
  8
0
100
AcDbLine
 10
539.4857345940026
 20
330.8589493652411
 30
0.0
 11
539.6610842142344
 21
331.1241144081861
 31
0.0
  0
LINE
  5
B3CB6
330
2
100
AcDbEntity
  8
0
100
AcDbLine
 10
538.3219007268815
 20
332.3589493652411
 30
0.0
 11
538.5360842142343
 21
332.6241144081861
 31
0.0
  0
LINE
  5
B3CB7
330
2
100
AcDbEntity
  8
0
100
AcDbLine
 10
538.5360842142343
 20
332.6241144081861
 30
0.0
 11
538.7672615534512
 21
332.3589493652411
 31
0.0
  0
LINE
  5
B3CB8
330
2
100
AcDbEntity
  8
0
100
AcDbLine
 10
538.7672615534512
 20
332.3589493652411
 30
0.0
 11
538.5360842142343
 21
332.0937843222961
 31
0.0
  0
LINE
  5
B3CB9
330
2
100
AcDbEntity
  8
0
100
AcDbLine
 10
538.5360842142343
 20
332.0937843222961
 30
0.0
 11
538.3219007268815
 21
332.3589493652411
 31
0.0
  0
LINE
  5
B3CBA
330
2
100
AcDbEntity
  8
0
100
AcDbLine
 10
538.6686667357069
 20
332.3589318867135
 30
0.0
 11
538.4035016927619
 21
332.3589318867135
 31
0.0
  0
LINE
  5
B3CBB
330
2
100
AcDbEntity
  8
0
100
AcDbLine
 10
538.5361016927618
 20
332.4915318867136
 30
0.0
 11
538.5361016927618
 21
332.2263668437686
 31
0.0
  0
LWPOLYLINE
  5
B3CBC
330
2
100
AcDbEntity
  8
0
100
AcDbPolyline
 90
        2
 70
     0
 10
538.4035016927619
 20
332.3589318867135
 40
0.0
 41
0.03125
 10
538.5360667357068
 20
332.3589318867135
 40
0.03125
 41
0.03125
  0
LWPOLYLINE
  5
B3CBD
330
2
100
AcDbEntity
  8
0
100
AcDbPolyline
 90
        2
 70
     0
 10
538.5361016927618
 20
332.4915318867136
 40
0.0
 41
0.03125
 10
538.5360667357068
 20
332.3589318867135
 40
0.03125
 41
0.03125
  0
LWPOLYLINE
  5
B3CBE
330
2
100
AcDbEntity
  8
0
100
AcDbPolyline
 90
        2
 70
     0
 10
538.6653910402629
 20
332.3569944925651
 40
0.0
 41
0.03125
 10
538.5361016927618
 20
332.3589318867135
 40
0.03125
 41
0.03125
  0
LWPOLYLINE
  5
B3CBF
330
2
100
AcDbEntity
  8
0
100
AcDbPolyline
 90
        2
 70
     0
 10
538.5361016927618
 20
332.2263668437686
 40
0.0
 41
0.03125
 10
538.5361016927618
 20
332.3589318867135
 40
0.03125
 41
0.03125
  0
LINE
  5
B3CC0
330
2
100
AcDbEntity
  8
0
100
AcDbLine
 10
537.4584191712894
 20
330.8589493652411
 30
0.0
 11
537.7235842142344
 21
331.1241144081861
 31
0.0
  0
LINE
  5
B3CC1
330
2
100
AcDbEntity
  8
0
100
AcDbLine
 10
537.7235842142344
 20
331.1241144081861
 30
0.0
 11
537.9887492571793
 21
330.8589493652411
 31
0.0
  0
LINE
  5
B3CC2
330
2
100
AcDbEntity
  8
0
100
AcDbLine
 10
537.9887492571793
 20
330.8589493652411
 30
0.0
 11
537.7235842142344
 21
330.5937843222961
 31
0.0
  0
LINE
  5
B3CC3
330
2
100
AcDbEntity
  8
0
100
AcDbLine
 10
537.7235842142344
 20
330.5937843222961
 30
0.0
 11
537.4584191712894
 21
330.8589493652411
 31
0.0
  0
LINE
  5
B3CC4
330
2
100
AcDbEntity
  8
0
100
AcDbLine
 10
537.8561667357068
 20
330.8589318867136
 30
0.0
 11
537.5910016927618
 21
330.8589318867136
 31
0.0
  0
LINE
  5
B3CC5
330
2
100
AcDbEntity
  8
0
100
AcDbLine
 10
537.7236016927619
 20
330.9915318867136
 30
0.0
 11
537.7236016927619
 21
330.7263668437686
 31
0.0
  0
LWPOLYLINE
  5
B3CC6
330
2
100
AcDbEntity
  8
0
100
AcDbPolyline
 90
        2
 70
     0
 10
537.5910016927618
 20
330.8589318867136
 40
0.0
 41
0.03125
 10
537.7235667357068
 20
330.8589318867136
 40
0.03125
 41
0.03125
  0
LWPOLYLINE
  5
B3CC7
330
2
100
AcDbEntity
  8
0
100
AcDbPolyline
 90
        2
 70
     0
 10
537.7236016927619
 20
330.9915318867136
 40
0.0
 41
0.03125
 10
537.7235667357068
 20
330.8589318867136
 40
0.03125
 41
0.03125
  0
LWPOLYLINE
  5
B3CC8
330
2
100
AcDbEntity
  8
0
100
AcDbPolyline
 90
        2
 70
     0
 10
537.8528910402629
 20
330.8569944925652
 40
0.0
 41
0.03125
 10
537.7236016927619
 20
330.8589318867136
 40
0.03125
 41
0.03125
  0
LWPOLYLINE
  5
B3CC9
330
2
100
AcDbEntity
  8
0
100
AcDbPolyline
 90
        2
 70
     0
 10
537.7236016927619
 20
330.7263668437686
 40
0.0
 41
0.03125
 10
537.7236016927619
 20
330.8589318867136
 40
0.03125
 41
0.03125
  0
LINE
  5
B3CCA
330
2
100
AcDbEntity
  8
0
100
AcDbLine
 10
536.2709191712894
 20
332.3589493652411
 30
0.0
 11
536.5360842142344
 21
332.6241144081861
 31
0.0
  0
LINE
  5
B3CCB
330
2
100
AcDbEntity
  8
0
100
AcDbLine
 10
536.5360842142344
 20
332.6241144081861
 30
0.0
 11
536.8012492571792
 21
332.3589493652411
 31
0.0
  0
LINE
  5
B3CCC
330
2
100
AcDbEntity
  8
0
100
AcDbLine
 10
536.8012492571792
 20
332.3589493652411
 30
0.0
 11
536.5360842142344
 21
332.0937843222961
 31
0.0
  0
LINE
  5
B3CCD
330
2
100
AcDbEntity
  8
0
100
AcDbLine
 10
536.5360842142344
 20
332.0937843222961
 30
0.0
 11
536.2709191712894
 21
332.3589493652411
 31
0.0
  0
LINE
  5
B3CCE
330
2
100
AcDbEntity
  8
0
100
AcDbLine
 10
536.6686667357068
 20
332.3589318867135
 30
0.0
 11
536.4035016927618
 21
332.3589318867135
 31
0.0
  0
LINE
  5
B3CCF
330
2
100
AcDbEntity
  8
0
100
AcDbLine
 10
536.5361016927619
 20
332.4915318867136
 30
0.0
 11
536.5361016927619
 21
332.2263668437686
 31
0.0
  0
LWPOLYLINE
  5
B3CD0
330
2
100
AcDbEntity
  8
0
100
AcDbPolyline
 90
        2
 70
     0
 10
536.4035016927618
 20
332.3589318867135
 40
0.0
 41
0.03125
 10
536.5360667357069
 20
332.3589318867135
 40
0.03125
 41
0.03125
  0
LWPOLYLINE
  5
B3CD1
330
2
100
AcDbEntity
  8
0
100
AcDbPolyline
 90
        2
 70
     0
 10
536.5361016927619
 20
332.4915318867136
 40
0.0
 41
0.03125
 10
536.5360667357069
 20
332.3589318867135
 40
0.03125
 41
0.03125
  0
LWPOLYLINE
  5
B3CD2
330
2
100
AcDbEntity
  8
0
100
AcDbPolyline
 90
        2
 70
     0
 10
536.665391040263
 20
332.3569944925651
 40
0.0
 41
0.03125
 10
536.5361016927619
 20
332.3589318867135
 40
0.03125
 41
0.03125
  0
LWPOLYLINE
  5
B3CD3
330
2
100
AcDbEntity
  8
0
100
AcDbPolyline
 90
        2
 70
     0
 10
536.5361016927619
 20
332.2263668437686
 40
0.0
 41
0.03125
 10
536.5361016927619
 20
332.3589318867135
 40
0.03125
 41
0.03125
  0
LINE
  5
B3CD4
330
2
100
AcDbEntity
  8
0
100
AcDbLine
 10
536.5360667357069
 20
332.1473705845129
 30
0.0
 11
536.5360667357069
 21
332.5897436824735
 31
0.0
  0
ARC
  5
B3CD5
330
2
100
AcDbEntity
  8
0
100
AcDbCircle
 10
538.4639013521774
 20
330.4278609093521
 30
0.0
 40
1.933335406854492
100
AcDbArc
 50
344.8629348353823
 51
6.213017731899141
  0
ARC
  5
B3CD6
330
2
100
AcDbEntity
  8
0
100
AcDbCircle
 10
532.5339741475874
 20
334.1986942297832
 30
0.0
 40
5.212557682372943
100
AcDbArc
 50
320.1548662926356
 51
345.8780722464109
  0
ARC
  5
B3CD7
330
2
100
AcDbEntity
  8
0
100
AcDbCircle
 10
535.532357887595
 20
331.4526818867136
 30
0.0
 40
4.356856422125837
100
AcDbArc
 50
352.1673891732078
 51
4.256762479757021
  0
LINE
  5
B3CD8
330
2
100
AcDbEntity
  8
0
100
AcDbLine
 10
536.5360667357069
 20
332.0882724112608
 30
0.0
 11
536.5360667357069
 21
332.5845289599396
 31
0.0
  0
LINE
  5
B3CD9
330
2
100
AcDbEntity
  8
0
100
AcDbLine
 10
536.8012317786517
 20
332.3589318867135
 30
0.0
 11
537.0604187430751
 21
332.3589318867135
 31
0.0
  0
LINE
  5
B3CDA
330
2
100
AcDbEntity
  8
0
100
AcDbLine
 10
536.5360667357069
 20
330.8589318867136
 30
0.0
 11
537.4584366498169
 21
330.8589318867136
 31
0.0
  0
ARC
  5
B3CDB
330
2
100
AcDbEntity
  8
0
100
AcDbCircle
 10
536.4702387102291
 20
335.1960656446754
 30
0.0
 40
1.427530600143268
100
AcDbArc
 50
64.44394544696874
 51
103.53804263805
  0
ARC
  5
B3CDC
330
2
100
AcDbEntity
  8
0
100
AcDbCircle
 10
536.2533584023735
 20
336.2030985533802
 30
0.0
 40
0.3984863395992671
100
AcDbArc
 50
44.80936779563007
 51
45.21176004278436
  0
LWPOLYLINE
  5
B3D3C
330
2
100
AcDbEntity
  8
0
100
AcDbPolyline
 90
        6
 70
     1
 43
0.12
 10
543.4436395832697
 20
320.1133157741866
 10
543.4436395832697
 20
319.1133157741866
 10
529.5686395832698
 20
319.1133157741866
 10
529.5686395832697
 20
320.1133157741866
 42
0.1613863379506307
 10
533.5061395832696
 20
321.6133157741866
 10
539.5061395832698
 20
321.6133157741866
 42
0.1613863379506307
  0
INSERT
  5
B3D3D
330
2
100
AcDbEntity
  8
A1
 62
     7
100
AcDbBlockReference
 66
     1
  2
PROFILE LOGO
 10
529.6163888727297
 20
320.1193449267425
 30
0.0
 41
0.5
 42
0.5
 43
0.5
  0
ATTRIB
  5
B3D3E
330
B3D3D
100
AcDbEntity
  8
A1
 62
    22
100
AcDbText
 10
529.7605838661325
 20
319.2801958022893
 30
0.0
 40
0.10634765625
  1
4201
 72
     1
 11
529.9554540753701
 21
319.2801958022893
 31
0.0
100
AcDbAttribute
  2
XXXX
 70
     0
  0
SEQEND
  5
B3D3F
330
B3D3D
100
AcDbEntity
  8
A1
 62
     7
  0
INSERT
  5
B3D45
330
2
100
AcDbEntity
  8
A1
 62
     7
100
AcDbBlockReference
 66
     1
  2
PROFILE LOGO
 10
535.8986360468573
 20
324.0562335439165
 30
0.0
  0
ATTRIB
  5
B3D46
330
B3D45
100
AcDbEntity
  8
A1
 62
    22
100
AcDbText
 10
536.1896639982048
 20
322.3779352950099
 30
0.0
 40
0.2126953125
  1
4120
 72
     1
 11
536.5767664521382
 21
322.3779352950099
 31
0.0
100
AcDbAttribute
  2
XXXX
 70
     0
  0
SEQEND
  5
B3D47
330
B3D45
100
AcDbEntity
  8
A1
 62
     7
  0
LINE
  5
B3D4B
330
2
100
AcDbEntity
  8
0
 62
     1
100
AcDbLine
 10
555.0663780510219
 20
339.8189575397632
 30
0.0
 11
555.0663780510219
 21
345.2843020551545
 31
0.0
  0
MTEXT
  5
B3D4C
330
2
100
AcDbEntity
  8
0
 62
     1
100
AcDbMText
 10
555.7904643959033
 20
341.1462911447372
 30
0.0
 40
0.8864099999999998
 41
0.0
 71
     1
 72
     1
  1
1-800-789-4841
 73
     1
 44
1.0
1001
ACAD
1000
MTEXTBEGIN
1070
    73
1070
     1
1070
    44
1040
1.0
1070
    74
1070
     0
1000
MTEXTEND
1000
MTEXTBEGIN
1070
    73
1070
     1
1070
    44
1040
1.0
1070
    74
1070
     0
1000
MTEXTEND
1000
MTEXTBEGIN
1070
    73
1070
     1
1070
    44
1040
1.0
1070
    74
1070
     0
1000
MTEXTEND
  0
MTEXT
  5
B3D4D
330
2
100
AcDbEntity
  8
0
 62
     1
100
AcDbMText
 10
555.6971735070852
 20
342.9668832243306
 30
0.0
 40
1.2
 41
0.0
 71
     1
 72
     1
  1
TannerStone
 73
     1
 44
1.0
1001
ACAD
1000
MTEXTBEGIN
1070
    73
1070
     1
1070
    44
1040
1.0
1070
    74
1070
     0
1000
MTEXTEND
1000
MTEXTBEGIN
1070
    73
1070
     1
1070
    44
1040
1.0
1070
    74
1070
     0
1000
MTEXTEND
1000
MTEXTBEGIN
1070
    73
1070
     1
1070
    44
1040
1.0
1070
    74
1070
     0
1000
MTEXTEND
  0
ATTDEF
  5
B3D4E
330
2
100
AcDbEntity
  8
A1
 62
     1
100
AcDbText
 10
555.6505744699152
 20
343.8636134913484
 30
0.0
 40
1.2
  1

100
AcDbAttributeDefinition
  3
ADD LINK NUMBER (WMF)
  2
TSD020
 70
     0
  0
LINE
  5
B3D4F
330
2
100
AcDbEntity
  8
0
 62
     1
100
AcDbLine
 10
546.4938420345117
 20
343.404290601894
 30
0.0
 11
565.995256564607
 21
343.404290601894
 31
0.0
  0
DIMENSION
  5
B3D74
330
2
100
AcDbEntity
  8
PLINE
 62
     7
100
AcDbDimension
  2
*D4
 10
527.5211875106548
 20
336.6233953249994
 30
0.0
 11
527.5211875106548
 21
329.0185788807536
 31
0.0
 70
   160
 71
     5
 42
-1.0
  3
STANDARD
100
AcDbAlignedDimension
 13
534.5073961841442
 23
321.9859656097556
 33
0.0
 14
536.5180905500166
 24
336.6233953249994
 34
0.0
 50
90.0
100
AcDbRotatedDimension
1001
ACAD
1000
DSTYLE
1002
{
1070
   287
1070
     4
1070
   287
1070
     4
1070
    73
1070
     1
1070
    74
1070
     1
1070
    77
1070
     0
1070
   147
1040
0.5
1070
   279
1070
     1
1070
   288
1070
     1
1070
   289
1070
     3
1002
}
  0
DIMENSION
  5
B3D82
330
2
100
AcDbEntity
  8
PLINE
 62
     7
100
AcDbDimension
  2
*D5
 10
543.4436395832697
 20
312.7793994979958
 30
0.0
 11
536.964891180071
 21
312.7793994979958
 31
0.0
 70
   160
  1
%%C<>
 71
     5
 42
-1.0
  3
STANDARD
100
AcDbAlignedDimension
 13
529.5686395832698
 23
319.1133157741866
 33
0.0
 14
543.4436395832697
 24
319.1133157741866
 34
0.0
100
AcDbRotatedDimension
1001
ACAD
1000
DSTYLE
1002
{
1070
   287
1070
     4
1070
   287
1070
     4
1070
    73
1070
     1
1070
    74
1070
     1
1070
    77
1070
     0
1070
   147
1040
0.5
1070
   279
1070
     1
1070
   288
1070
     1
1070
   289
1070
     3
1002
}
  0
DIMENSION
  5
B3D90
330
2
100
AcDbEntity
  8
PLINE
 62
     7
100
AcDbDimension
  2
*D6
 10
539.5061395832698
 20
314.8596255974486
 30
0.0
 11
536.8306214771824
 21
314.8596255974486
 31
0.0
 70
   160
  1
%%C<>
 71
     5
 42
-1.0
  3
STANDARD
100
AcDbAlignedDimension
 13
533.5061395832696
 23
321.6133157741866
 33
0.0
 14
539.5061395832698
 24
321.6133157741866
 34
0.0
100
AcDbRotatedDimension
1001
ACAD
1000
DSTYLE
1002
{
1070
   287
1070
     4
1070
   287
1070
     4
1070
    73
1070
     1
1070
    74
1070
     1
1070
    77
1070
     0
1070
   147
1040
0.5
1070
   279
1070
     1
1070
   288
1070
     1
1070
   289
1070
     3
1002
}
  0
DIMENSION
  5
B3DBD
330
2
100
AcDbEntity
  8
PLINE
 62
     7
100
AcDbDimension
  2
*D7
 10
540.5752175881576
 20
340.3591638987542
 30
0.0
 11
536.7634857079309
 21
340.3591638987542
 31
0.0
 70
   160
  1
%%C8"
 71
     5
 42
-1.0
  3
STANDARD
100
AcDbAlignedDimension
 13
532.4877999912753
 23
328.1374113437836
 33
0.0
 14
540.5752175881576
 24
328.0510498231718
 34
0.0
100
AcDbRotatedDimension
1001
ACAD
1000
DSTYLE
1002
{
1070
   287
1070
     4
1070
   287
1070
     4
1070
    73
1070
     1
1070
    74
1070
     1
1070
    77
1070
     0
1070
   147
1040
0.5
1070
   279
1070
     1
1070
   288
1070
     1
1070
   289
1070
     3
1002
}
  0
SOLID
  5
B3E13
330
2
100
AcDbEntity
  8
PLINE
 62
     1
100
AcDbTrace
 10
543.7235738309571
 20
318.6442510921557
 30
0.0
 11
543.8648390913451
 21
318.7611067181162
 31
0.0
 12
543.4436395832697
 22
319.1264746863002
 32
0.0
 13
543.4436395832697
 23
319.1264746863002
 33
0.0
  0
LINE
  5
B3E14
330
2
100
AcDbEntity
  8
PLINE
 62
     1
100
AcDbLine
 10
543.7942064611511
 20
318.702678905136
 30
0.0
 11
547.2186669421899
 21
314.562892758199
 31
0.0
  0
SOLID
  5
B3E16
330
2
100
AcDbEntity
  8
PLINE
 62
     1
100
AcDbTrace
 10
539.7331035158173
 20
333.1746929560886
 30
0.0
 11
539.580915040775
 21
333.2769171174958
 31
0.0
 12
539.3503367940745
 22
332.7692396116653
 32
0.0
 13
539.3503367940745
 23
332.7692396116653
 33
0.0
  0
LINE
  5
B3E17
330
2
100
AcDbEntity
  8
PLINE
 62
     1
100
AcDbLine
 10
539.6570092782962
 20
333.2258050367922
 30
0.0
 11
540.4533139810235
 21
334.4113212269849
 31
0.0
  0
LINE
  5
B3E1D
330
2
100
AcDbEntity
  8
PLINE
 62
     1
100
AcDbLine
 10
542.0465709922722
 20
336.78331774478
 30
0.0
 11
546.4938420345118
 21
343.4042906018939
 31
0.0
  0
LINE
  5
B3E1E
330
2
100
AcDbEntity
  8
PLINE
 62
     1
100
AcDbLine
 10
540.6849773631946
 20
334.7562151969666
 30
0.0
 11
541.814441318248
 21
336.4377295725172
 31
0.0
  0
LINE
  5
B3EAD
330
2
100
AcDbEntity
  8
PLINE
 62
     7
100
AcDbLine
 10
529.5686395832697
 20
320.1133157741866
 30
0.0
 11
543.4436395832697
 21
320.1133157741866
 31
0.0
  0
DIMENSION
  5
B3FA8
330
2
100
AcDbEntity
  8
PLINE
 62
     7
100
AcDbDimension
  2
*D8
 10
548.4048336923705
 20
336.6191159977008
 30
0.0
 11
548.4048336923705
 21
327.9573883619838
 31
0.0
 70
   160
 71
     5
 42
-1.0
  3
STANDARD
100
AcDbAlignedDimension
 13
543.4436395832697
 23
319.1264746863002
 33
0.0
 14
536.5832489181741
 24
336.6191159977008
 34
0.0
 50
90.0
100
AcDbRotatedDimension
1001
ACAD
1000
DSTYLE
1002
{
1070
   287
1070
     4
1070
   287
1070
     4
1070
    73
1070
     1
1070
    74
1070
     1
1070
    77
1070
     0
1070
   147
1040
0.5
1070
   279
1070
     1
1070
   288
1070
     1
1070
   289
1070
     3
1002
}
  0
INSERT
  5
B402E
330
2
100
AcDbEntity
  8
PLINE
 62
     7
100
AcDbBlockReference
 66
     1
  2
TSFORMB
 10
511.4341339277376
 20
300.6953625895417
 30
0.0
 41
0.6080000000000001
 42
0.6080000000000001
 43
0.6080000000000001
  0
ATTRIB
  5
B402F
330
B402E
100
AcDbEntity
  8
A1
 62
     1
100
AcDbText
 10
531.5884120280368
 20
301.2525849527693
 30
0.0
 40
0.6235584768
  1
FINIAL AND PEDESTAL
 72
     1
 11
536.5203132336272
 21
301.2525849527693
 31
0.0
100
AcDbAttribute
  2
XXXXXX
 70
     0
  0
ATTRIB
  5
B4030
330
B402E
100
AcDbEntity
  8
A1
 62
     1
100
AcDbText
 10
521.6681235850294
 20
301.835373961638
 30
0.0
 40
0.5107200000000002
  1
TSD020
 72
     2
 11
524.5387970931797
 21
301.835373961638
 31
0.0
100
AcDbAttribute
  2
XXXXXX
 70
     0
  0
ATTRIB
  5
B4031
330
B402E
100
AcDbEntity
  8
A1
 62
     1
100
AcDbText
 10
515.5664480046811
 20
302.5910839734448
 30
0.0
 40
3.728256
  1
TSD020
  7
barcoder
 72
     1
 11
519.2481008046812
 21
302.5910839734448
 31
0.0
100
AcDbAttribute
  2
BARCODE
 70
     0
  0
ATTRIB
  5
B4032
330
B402E
100
AcDbEntity
  8
A1
 62
     1
100
AcDbText
 10
568.1970333488148
 20
345.3225725196703
 30
0.0
 40
1.264032
  1
TSD020
 72
     1
 11
571.7494918151508
 21
345.3225725196703
 31
0.0
100
AcDbAttribute
  2
TS00XX
 70
     0
  0
ATTRIB
  5
B4033
330
B402E
100
AcDbEntity
  8
A1
 62
     1
100
AcDbText
 10
571.5707517773047
 20
306.8233972740266
 30
0.0
 40
0.5745600000000002
  1
94.13"
 72
     1
 11
572.9491256965109
 21
306.8233972740266
 31
0.0
100
AcDbAttribute
  2
XXXXX
 70
     0
  0
ATTRIB
  5
B4034
330
B402E
100
AcDbEntity
  8
A1
 62
     1
100
AcDbText
 10
571.7486920737447
 20
305.0848420677742
 30
0.0
 40
0.5745600000000002
  1
84.97
 72
     1
 11
572.9283521162677
 21
305.0848420677742
 31
0.0
100
AcDbAttribute
  2
XXXXX
 70
     0
  0
SEQEND
  5
B4035
330
B402E
100
AcDbEntity
  8
PLINE
 62
     7
  0
LINE
  5
B40B0
330
2
100
AcDbEntity
  8
0
 62
     1
100
AcDbLine
 10
549.2282749579224
 20
333.9891728923735
 30
0.0
 11
554.9448477405803
 21
333.9891728923735
 31
0.0
  0
ATTDEF
  5
B40B1
330
2
100
AcDbEntity
  8
A1
 62
     1
100
AcDbText
 10
555.5290441594736
 20
333.5084900551976
 30
0.0
 40
1.2
  1

100
AcDbAttributeDefinition
  3
ADD LINK NUMBER (WMF)
  2
TS1601
 70
     0
  0
LINE
  5
B40B4
330
2
100
AcDbEntity
  8
0
 62
     1
100
AcDbLine
 10
554.9448477405803
 20
333.0491671657432
 30
0.0
 11
554.9448477405803
 21
334.9291786190038
 31
0.0
  0
ATTDEF
  5
B40B5
330
2
100
AcDbEntity
  8
A1
 62
     1
100
AcDbText
 10
555.7721047803568
 20
314.0822099210232
 30
0.0
 40
1.2
  1

100
AcDbAttributeDefinition
  3
ADD LINK NUMBER (WMF)
  2
TS1572
 70
     0
  0
LINE
  5
B40B8
330
2
100
AcDbEntity
  8
0
 62
     1
100
AcDbLine
 10
547.21866694219
 20
314.5628927581991
 30
0.0
 11
555.1879083614635
 21
314.5628927581991
 31
0.0
  0
LINE
  5
B40B9
330
2
100
AcDbEntity
  8
0
 62
     1
100
AcDbLine
 10
555.1879083614635
 20
313.6228870315688
 30
0.0
 11
555.1879083614635
 21
315.5028984848294
 31
0.0
  0
SOLID
  5
B40BA
330
2
100
AcDbEntity
  8
PLINE
 62
     1
100
AcDbTrace
 10
540.9525976412587
 20
328.558650454814
 30
0.0
 11
540.8263351476588
 21
328.6674418170064
 31
0.0
 12
540.5630923078814
 22
328.2342586551103
 32
0.0
 13
540.5630923078814
 23
328.2342586551103
 33
0.0
  0
LINE
  5
B40BB
330
2
100
AcDbEntity
  8
PLINE
 62
     1
100
AcDbLine
 10
540.8894663944588
 20
328.6130461359102
 30
0.0
 11
545.4947104824516
 21
333.9578601953015
 31
0.0
  0
LINE
  5
B40BC
330
2
100
AcDbEntity
  8
PLINE
 62
     1
100
AcDbLine
 10
545.4947104824516
 20
333.9578601953015
 30
0.0
 11
547.8645522868426
 21
333.9578601953015
 31
0.0
  0
ENDSEC
  0
SECTION
  2
OBJECTS
  0
DICTIONARY
  5
8
330
0
100
AcDbDictionary
281
     1
  3
ACAD_GROUP
350
21
  3
ACAD_LAYOUT
350
C
  3
ACAD_MLINESTYLE
350
22
  3
ACAD_PLOTSETTINGS
350
23
  3
ACAD_PLOTSTYLENAME
350
7
  3
ACAD_VBA
350
B4036
  3
ASE_INDEX_DICTIONARY
350
B11B7
  3
DWGPROPS
350
B4043
  0
DICTIONARY
  5
3
330
2
100
AcDbDictionary
280
     1
281
     1
  3
ACAD_LAYOUTSELFREF
360
B4151
  0
DICTIONARY
  5
B406F
330
D
100
AcDbDictionary
280
     1
281
     1
  3
ACAD_LAYOUTSELFREF
360
B4154
  0
DICTIONARY
  5
21
102
{ACAD_REACTORS
330
8
102
}
330
8
100
AcDbDictionary
281
     1
  0
DICTIONARY
  5
C
102
{ACAD_REACTORS
330
8
102
}
330
8
100
AcDbDictionary
281
     1
  3
Layout1
350
10
  3
Model
350
B
  0
DICTIONARY
  5
22
102
{ACAD_REACTORS
330
8
102
}
330
8
100
AcDbDictionary
281
     1
  3
STANDARD
350
25
  0
DICTIONARY
  5
23
102
{ACAD_REACTORS
330
8
102
}
330
8
100
AcDbDictionary
281
     1
  0
ACDBDICTIONARYWDFLT
  5
7
102
{ACAD_REACTORS
330
8
102
}
330
8
100
AcDbDictionary
281
     1
  3
Normal
350
6
100
AcDbDictionaryWithDefault
340
6
  0
DICTIONARY
  5
B4036
102
{ACAD_REACTORS
330
8
102
}
330
8
100
AcDbDictionary
281
     1
  3
VBAProject
350
B4037
  0
DICTIONARY
  5
B11B7
102
{ACAD_REACTORS
330
8
102
}
330
8
100
AcDbDictionary
281
     1
  3
ASEBlockHierarchyIndexRecord
350
B11B9
1001
DCO15
1040
1363427866.32
  0
XRECORD
  5
B4043
102
{ACAD_REACTORS
330
8
102
}
330
8
100
AcDbXrecord
280
     1
  1
DWGPROPS COOKIE
  2

  3

  4

  6

  7

  8
catalog
  9

300
=
301
=
302
=
303
=
304
=
305
=
306
=
307
=
308
=
309
=
 40
2.572104861111111
 41
2451085.66483831
 42
2451642.66936493
  1

 90
        0
  0
XRECORD
  5
B4151
102
{ACAD_REACTORS
330
3
102
}
330
3
100
AcDbXrecord
280
     1
340
2
  0
XRECORD
  5
B4154
102
{ACAD_REACTORS
330
B406F
102
}
330
B406F
100
AcDbXrecord
280
     1
340
D
  0
LAYOUT
  5
10
102
{ACAD_REACTORS
330
C
102
}
330
C
100
AcDbPlotSettings
  1

  2
None
  4

  6

 40
0.0
 41
0.0
 42
0.0
 43
0.0
 44
0.0
 45
0.0
 46
0.0
 47
0.0
 48
0.0
 49
0.0
140
0.0
141
0.0
142
1.0
143
1.0
 70
   688
 72
     0
 73
     0
 74
     5
  7

 75
    16
147
1.0
148
0.0
149
0.0
100
AcDbLayout
  1
Layout1
 70
     1
 71
     1
 10
0.0
 20
0.0
 11
12.0
 21
9.0
 12
0.0
 22
0.0
 32
0.0
 14
1.000000000000000E+20
 24
1.000000000000000E+20
 34
1.000000000000000E+20
 15
-1.000000000000000E+20
 25
-1.000000000000000E+20
 35
-1.000000000000000E+20
146
0.0
 13
0.0
 23
0.0
 33
0.0
 16
1.0
 26
0.0
 36
0.0
 17
0.0
 27
1.0
 37
0.0
 76
     0
330
D
  0
LAYOUT
  5
B
102
{ACAD_REACTORS
330
C
102
}
330
C
100
AcDbPlotSettings
  1

  2
HP LaserJet 5.pc3
  4
Letter
  6

 40
7.143749713897705
 41
6.381738662719726
 42
7.14373779296875
 43
6.381744384765625
 44
215.8999938964843
 45
279.3999938964843
 46
0.0
 47
0.0
 48
563.5896900919391
 49
263.673202879064
140
642.4531865861029
141
322.339950271064
142
1.0
143
6.368426377779523
 70
 11952
 72
     0
 73
     1
 74
     1
  7

 75
     0
147
0.1570246620875076
148
-12916.14450041072
149
-7630.876008522114
100
AcDbLayout
  1
Model
 70
     1
 71
     0
 10
0.0
 20
0.0
 11
12.0
 21
9.0
 12
0.0
 22
0.0
 32
0.0
 14
0.0
 24
0.0
 34
0.0
 15
0.0
 25
0.0
 35
0.0
146
0.0
 13
0.0
 23
0.0
 33
0.0
 16
1.0
 26
0.0
 36
0.0
 17
0.0
 27
1.0
 37
0.0
 76
     0
330
2
  0
MLINESTYLE
  5
25
102
{ACAD_REACTORS
330
22
102
}
330
22
100
AcDbMlineStyle
  2
STANDARD
 70
     0
  3

 62
   256
 51
90.0
 52
90.0
 71
     2
 49
0.5
 62
   256
  6
BYLAYER
 49
-0.5
 62
   256
  6
BYLAYER
  0
ACDBPLACEHOLDER
  5
6
102
{ACAD_REACTORS
330
7
102
}
330
7
  0
VBA_PROJECT
  5
B4037
102
{ACAD_REACTORS
330
B4036
102
}
330
B4036
100
AcDbVbaProject
 90
     7680
310
D0CF11E0A1B11AE1000000000000000000000000000000003E000300FEFF0900060000000000000000000000010000000100000000000000001000000200000001000000FEFFFFFF0000000000000000FFFFFFFFFFFFFFFFFFFFFFFFFFFFFFFFFFFFFFFFFFFFFFFFFFFFFFFFFFFFFFFFFFFFFFFFFFFFFFFFFFFFFFFFFFFFFF
310
FFFFFFFFFFFFFFFFFFFFFFFFFFFFFFFFFFFFFFFFFFFFFFFFFFFFFFFFFFFFFFFFFFFFFFFFFFFFFFFFFFFFFFFFFFFFFFFFFFFFFFFFFFFFFFFFFFFFFFFFFFFFFFFFFFFFFFFFFFFFFFFFFFFFFFFFFFFFFFFFFFFFFFFFFFFFFFFFFFFFFFFFFFFFFFFFFFFFFFFFFFFFFFFFFFFFFFFFFFFFFFFFFFFFFFFFFFFFFFFFFFFFFFFFFFFFFF
310
FFFFFFFFFFFFFFFFFFFFFFFFFFFFFFFFFFFFFFFFFFFFFFFFFFFFFFFFFFFFFFFFFFFFFFFFFFFFFFFFFFFFFFFFFFFFFFFFFFFFFFFFFFFFFFFFFFFFFFFFFFFFFFFFFFFFFFFFFFFFFFFFFFFFFFFFFFFFFFFFFFFFFFFFFFFFFFFFFFFFFFFFFFFFFFFFFFFFFFFFFFFFFFFFFFFFFFFFFFFFFFFFFFFFFFFFFFFFFFFFFFFFFFFFFFFFFF
310
FFFFFFFFFFFFFFFFFFFFFFFFFFFFFFFFFFFFFFFFFFFFFFFFFFFFFFFFFFFFFFFFFFFFFFFFFFFFFFFFFFFFFFFFFFFFFFFFFFFFFFFFFFFFFFFFFFFFFFFFFFFFFFFFFFFFFFFFFFFFFFFFFFFFFFFFFFFFFFFFFFFFFFFFFFFFFFFFFFFFFFFFFFFFFFFFFFFFFFFFFFFFFFFFFFFFFFFFFFFFFFFFFFFFFFFFFFFFFFFFFFFFFFFFFFFFFF
310
FFFFFFFFFDFFFFFF04000000FEFFFFFF050000000D000000060000000700000008000000090000000A0000000B0000000C000000FEFFFFFFFEFFFFFFFFFFFFFFFFFFFFFFFFFFFFFFFFFFFFFFFFFFFFFFFFFFFFFFFFFFFFFFFFFFFFFFFFFFFFFFFFFFFFFFFFFFFFFFFFFFFFFFFFFFFFFFFFFFFFFFFFFFFFFFFFFFFFFFFFFFFF
310
FFFFFFFFFFFFFFFFFFFFFFFFFFFFFFFFFFFFFFFFFFFFFFFFFFFFFFFFFFFFFFFFFFFFFFFFFFFFFFFFFFFFFFFFFFFFFFFFFFFFFFFFFFFFFFFFFFFFFFFFFFFFFFFFFFFFFFFFFFFFFFFFFFFFFFFFFFFFFFFFFFFFFFFFFFFFFFFFFFFFFFFFFFFFFFFFFFFFFFFFFFFFFFFFFFFFFFFFFFFFFFFFFFFFFFFFFFFFFFFFFFFFFFFFFFFFFF
310
FFFFFFFFFFFFFFFFFFFFFFFFFFFFFFFFFFFFFFFFFFFFFFFFFFFFFFFFFFFFFFFFFFFFFFFFFFFFFFFFFFFFFFFFFFFFFFFFFFFFFFFFFFFFFFFFFFFFFFFFFFFFFFFFFFFFFFFFFFFFFFFFFFFFFFFFFFFFFFFFFFFFFFFFFFFFFFFFFFFFFFFFFFFFFFFFFFFFFFFFFFFFFFFFFFFFFFFFFFFFFFFFFFFFFFFFFFFFFFFFFFFFFFFFFFFFFF
310
FFFFFFFFFFFFFFFFFFFFFFFFFFFFFFFFFFFFFFFFFFFFFFFFFFFFFFFFFFFFFFFFFFFFFFFFFFFFFFFFFFFFFFFFFFFFFFFFFFFFFFFFFFFFFFFFFFFFFFFFFFFFFFFFFFFFFFFFFFFFFFFFFFFFFFFFFFFFFFFFFFFFFFFFFFFFFFFFFFFFFFFFFFFFFFFFFFFFFFFFFFFFFFFFFFFFFFFFFFFFFFFFFFFFFFFFFFFFFFFFFFFFFFFFFFFFFF
310
FFFFFFFFFFFFFFFF52006F006F007400200045006E00740072007900000000000000000000000000000000000000000000000000000000000000000000000000000000000000000016000500FFFFFFFFFFFFFFFF0100000000000000000000000000000000000000000000000000000000000000A08AE767E3AEBF01030000
310
00C0100000000000005600420041005F00500072006F006A0065006300740000000000000000000000000000000000000000000000000000000000000000000000000000000000000018000101FFFFFFFF08000000060000000000000000000000000000000000000000000000A08AE767E3AEBF01A08AE767E3AEBF010000
310
000000000000000000005600420041000000000000000000000000000000000000000000000000000000000000000000000000000000000000000000000000000000000000000000000008000100FFFFFFFFFFFFFFFF040000000000000000000000000000000000000000000000A08AE767E3AEBF01A08AE767E3AEBF0100
310
00000000000000000000006400690072000000000000000000000000000000000000000000000000000000000000000000000000000000000000000000000000000000000000000000000008000200FFFFFFFFFFFFFFFFFFFFFFFF000000000000000000000000000000000000000000000000000000000000000000000000
310
00000000F90100000000000001000000020000000300000004000000050000000600000007000000FEFFFFFF090000000A0000000B0000000C0000000D0000000E0000000F0000001000000011000000120000001300000014000000150000001600000017000000FEFFFFFF190000001A0000001B0000001C0000001D0000
310
001E0000001F000000200000002100000022000000230000002400000025000000260000002700000028000000290000002A0000002B0000002C0000002D0000002E0000002F000000300000003100000032000000330000003400000035000000360000003700000038000000390000003A0000003B000000FEFFFFFF3D00
310
00003E0000003F00000040000000FEFFFFFFFEFFFFFFFEFFFFFFFFFFFFFFFFFFFFFFFFFFFFFFFFFFFFFFFFFFFFFFFFFFFFFFFFFFFFFFFFFFFFFFFFFFFFFFFFFFFFFFFFFFFFFFFFFFFFFFFFFFFFFFFFFFFFFFFFFFFFFFFFFFFFFFFFFFFFFFFFFFFFFFFFFFFFFFFFFFFFFFFFFFFFFFFFFFFFFFFFFFFFFFFFFFFFFFFFFFFFFFFF
310
FFFFFFFFFFFFFFFFFFFFFFFFFFFFFFFFFFFFFFFFFFFFFFFFFFFFFFFFFFFFFFFFFFFFFFFFFFFFFFFFFFFFFFFFFFFFFFFFFFFFFFFFFFFFFFFFFFFFFFFFFFFFFFFFFFFFFFFFFFFFFFFFFFFFFFFFFFFFFFFFFFFFFFFFFFFFFFFFFFFFFFFFFFFFFFFFFFFFFFFFFFFFFFFFFFFFFFFFFFFFFFFFFFFFFFFFFFFFFFFFFFFFFFFFFFFFFF
310
FFFFFFFFFFFFFFFFFFFFFFFFFFFFFFFF01F5B1800100040000000100302A020290090070140648030082020064E40404000B001C004143414450726F6A10656374050038000040D5021406020A3D020A07027401140A080612090212C84DC938282E000C024A3C020A16000101727374646F6C653E0102197300740064006F
310
00006C0065000D00660500255C00032A5C477B3000303032303433302D3B0008040443000A020E011230300034367D23322E3023003023433A5C57494E00444F57535C5359530054454D5C5354444F004C45322E544C4223010008204175746F6D613074696F6E005E00011600020780024D53466F726D10733E000E010600
310
53000246004572006D007300682F007A800970800101463600354238343236302D00344131382D31314400312D384439372D348034343535333534014803174604332E545744234D006963726F736F66748A20023D200060204F6201B000204C69627261727947003900011E50300090001372038001015038393136374580
310
30362D35343239275081804A505C5642455C8528044558A728E12E450D8F00E01A10852E02608C284D0BB481940F828F01002213C201EAF2198291546800697344726177696E44671A0D04320016C030541000680069805D4400721000610077C0026E006744001C4006000048420131C1C2941F0300001E42020105A22C42
310
19E8F22242082B420102104201000000000000005400680069007300440072006100770069006E006700000000000000000000000000000000000000000000000000000000000000000000000000000000000000180002010300000005000000FFFFFFFF000000000000000000000000000000000000000000000000000000
310
00000000000000000008000000D0030000000000005F005600420041005F00500052004F004A00450043005400000000000000000000000000000000000000000000000000000000000000000000000000000000001A000200FFFFFFFFFFFFFFFFFFFFFFFF0000000000000000000000000000000000000000000000000000
310
0000000000000000000018000000EA08000000000000500052004F004A004500430054000000000000000000000000000000000000000000000000000000000000000000000000000000000000000000000000000000100002010200000007000000FFFFFFFF00000000000000000000000000000000000000000000000000
310
00000000000000000000003C0000002201000000000000500052004F004A0045004300540077006D000000000000000000000000000000000000000000000000000000000000000000000000000000000000000000000014000200FFFFFFFFFFFFFFFFFFFFFFFF000000000000000000000000000000000000000000000000
310
0000000000000000000000004100000026000000000000000116010000B600FFFF010100000000FFFFFFFF00000000FFFFFFFFFFFF0000000000000000000000000000000000000000000000000000000000000000000000000000000000000000000000000000000010000000030000000500000007000000FFFFFFFFFFFF
310
FFFF010108000000FFFFFFFF78000000DE000000AF020000F5010000FFFFFFFF0000000001000000EAF2E8F20000FFFF2300000088000000080000000000000000000000000000000000000000000000000000000000000000FFFF0000CB020000D6000000D60000001F0300000000FFFFFFFF00000000DF00FFFF00000000
310
0C00FFFFFFFFFFFFFFFFFFFFFFFFFFFFFFFFFFFFFFFFFFFFFFFFFFFFFFFFFFFFFFFFFFFFFFFFFFFFFFFFFFFFFFFFFFFFFFFFFFFFFFFFFFFFFFFFFFFFFFFFFFFFFFFFFFFFFFFFFFFFFFFFFFFFFFFFFFFFFFFFFFFFFFFFFFFFFFFFFFFFFFFFFFFFFFFFFFFFFFFFFFFFFFFFFFFFFFFFFFFFFFFFFFFFFFFFFFFFFFFFFFFFFFFFFF
310
FFFFFF280000000200534CFFFFFFFF000001005310FFFFFFFF000001005394FFFFFFFF00000000023CFFFFFFFF0000FFFF01010000000001004E0030007B00380045003700350044003900310033002D0033004400320031002D0031003100440032002D0038003500430034002D0030003800300030003000390041003000
310
43003600320036007D00000000000000DF00000000FFFFFFFF0101380000000281FEFFFFFFFFFFFFFFFFFF280000000000FFFF0000000000000000FFFFFFFFFFFFFFFF303034361D00000024000000FFFFFFFF480000000000FFFF00000100000000000000FFFFFFFFFFFFFFFFFFFFFFFF00000000FFFFFFFFFFFFFFFFFFFF
310
FFFFFFFFFFFF00000000FFFFFFFFFFFFFFFFFFFFFFFFFFFFFFFF0000000000000000FFFFFFFFFFFFFFFF00000000FFFFFFFFFFFFFFFFFFFFFFFFFFFFFFFFFFFFFFFFFFFFFFFFFFFFFFFFFFFF4D450000FFFFFFFFFFFF00000000FFFF00000000FFFF0101000000000000000000000000000000000000000000000000000000
310
00000000000000000000000000000000000000000000000000000000000000000000000000FECA01000000FFFFFFFF010108000000FFFFFFFF7800000001ADB000417474726962757400652056425F4E616D0065203D2022546869007344726177696E6788220D0A0A88426173028800307B3845373544390031332D334432
310
312D00313144322D38354300342D303830303039804130433632367D0D7C00437265617461626C41018646616C73650CBC508072656465636C610006444964008A5472750D22452078706F7365141C5465006D706C6174654465187269760224116543757360746F6D697A0488033200000000000000000000000000000000
310
0000000000000000000000000000000000000000000000000000000000000000CC615E00000100FF0904000009040000E4040100000000000000000001000400020016012A005C0047007B00300030003000320030003400450046002D0030003000300030002D0030003000300030002D0043003000300030002D00300030
310
0030003000300030003000300030003000340036007D00230033002E00300023003900230043003A005C00500052004F004700520041004D002000460049004C00450053005C0043004F004D004D004F004E002000460049004C00450053005C004D004900430052004F0053004F0046005400200053004800410052004500
310
44005C005600420041005C005600420041003300330032002E0044004C004C002300560069007300750061006C00200042006100730069006300200046006F00720020004100700070006C00690063006100740069006F006E007300000000000000000000000000CE002A005C0047007B0043003000390034004300310045
310
0032002D0035003700430036002D0031003100440032002D0038003500450033002D003000380030003000300039004100300043003600320036007D00230031002E00310023003000230043003A005C00500072006F006700720061006D002000460069006C00650073005C004D00440054005C0041004300410044002E00
310
54004C00420023004100750074006F00430041004400200032003000300030002000540079007000650020004C00690062007200610072007900000000000000000000000000B8002A005C0047007B00300030003000320030003400330030002D0030003000300030002D0030003000300030002D0043003000300030002D
310
003000300030003000300030003000300030003000340036007D00230032002E00300023003000230043003A005C00570049004E0044004F00570053005C00530059005300540045004D005C005300540044004F004C00450032002E0054004C00420023004F004C00450020004100750074006F006D006100740069006F00
310
6E00000000000000000000000000E0002A005C0047007B00360035004200380034003200360030002D0034004100310038002D0031003100440031002D0038004400390037002D003400340034003500350033003500340030003000300030007D00230032002E00300023003000230043003A005C00570049004E0044004F
310
00570053005C00530059005300540045004D005C004D00530046006F0072006D0073002E0054005700440023004D006900630072006F0073006F0066007400200046006F0072006D007300200032002E00300020004F0062006A0065006300740020004C00690062007200610072007900000000000000000000000100E400
310
2A005C0047007B00380039003100360037004500300036002D0035003400320039002D0031003100440031002D0038004400390037002D003400340034003500350033003500340030003000300030007D00230032002E00300023003000230043003A005C00570049004E0044004F00570053005C00540045004D0050005C
310
005600420045005C004D00530046006F0072006D0073002E0045005800440023004D006900630072006F0073006F0066007400200046006F0072006D007300200032002E00300020004F0062006A0065006300740020004C006900620072006100720079000000000000000000000001000000E12E450D8FE01A10852E0260
310
8C4D0BB400000100020003000402000006020100080200001002FFFFFFFFFFFF00000000FFFF0000C84DC9382E00FFFFFFFFFFFFFFFFFFFFFFFFFFFFFFFFFFFFFFFFFFFFFFFF0000FFFFFFFFFFFFFFFFFFFFFFFFFFFFFFFFFFFFFFFFFFFFFFFFFFFFFFFFFFFFFFFFFFFFFFFFFFFF0100000000000000000000000000000000
310
000000EAF2010016005400680069007300440072006100770069006E0067000A003265333863393464633803002A44011302FFFFE8F200000000000000020000001F030000FFFFFFFFFFFF010120020000FFFFFFFFFFFFFFFFFFFFFFFFFFFFFFFFFFFFFFFFFFFFFFFFFFFFFFFFFFFFFFFFFFFFFFFFFFFFFFFFFFFFFFFFFFFF
310
FFFFFFFFFFFFFFFFFFFFFFFFFFFFFFFFFFFFFFFFFFFFFFFFFFFFFFFFFFFFFFFFFFFFFFFFFFFFFFFFFFFFFFFFFFFFFFFFFFFFFFFFFFFFFFFFFFFFFFFFFFFFFFFFFFFFFFFFFFFFFFFFFFFFFFFFFFFFFFFFFFFFFFFFFFFFFFFFFFFFFFFFFFFFFFFFFFFFFFFFFFFFFFFFFFFFFFFFFFFFFFFFFFFFFFFFFFFFFFFFFFFFFFFFFFFFFF
310
FFFFFFFFFFFFFFFFFFFFFFFFFFFFFFFFFFFFFFFFFFFFFFFFFFFFFFFFFFFFFFFFFFFFFFFFFFFFFFFFFFFFFFFFFFFFFFFFFFFFFFFFFFFFFFFFFFFFFFFFFFFFFFFFFFFFFFFFFFFFFFFFFFFFFFFFFFFFFFFFFFFFFFFFFFFFFFFFFFFFFFFFFFFFFFFFFFFFFFFFFFFFFFFFFFFFFFFFFFFFFFFFFFFFFFFFFFFFFFFFFFFFFFFFFFFFFF
310
FFFFFFFFFFFFFFFFFFFFFFFFFFFFFFFFFFFFFFFFFFFFFFFFFFFFFFFFFFFFFFFFFFFFFFFFFFFFFFFFFFFFFFFFFFFFFFFFFFFFFFFFFFFFFFFFFFFFFFFFFFFFFFFFFFFFFFFFFFFFFFFFFFFFFFFFFFFFFFFFFFFFFFFFFFFFFFFFFFFFFFFFFFFFFFFFFFFFFFFFFFFFFFFFFFFFFFFFFFFFFFFFFFFFFFFFFFFFFFFF00020000FFFFFF
310
FFFFFFFFFFFFFFFFFFFFFFFFFFFFFFFFFFFFFFFFFFFFFFFFFFFFFFFFFFFFFFFFFFFFFFFFFFFFFFFFFFFFFFFFFFFFFFFFFFFFFFFFFFFFFFFFFFFFFFFFFFFFFFFFFFFFFFFFFFFFFFFFFFFFFFFFFFFFFFFFFFFFFFFFFF977ACEB584F6D3118DA400A0C981A35FFFFFFFFF01000000FFFFFFFF600000008000000000000B010C00
310
FF008825000007044175746F43414422F810000304564241F7E21000050457696E3136C17E1000050457696E3332077F100003044D6163B3B21000080450726F6A656374310A17100006047374646F6C659360100007004D53466F726D73430F10000B044143414450726F6A656374A6D410000B045468697344726177696E
310
67B935100009800000FF03FFFF5F4576616C7561746518D910000C0441636164446F63756D656E741B5A100002FFFF0101480000001002FFFFFFFF130200000100FFFFFFFFFFFFFFFFFFFFFFFF00020100FFFF02020000FFFFFFFFFFFFFFFFFFFFFFFFFFFFFFFFFFFFFFFFFFFFFFFFFFFF0C020200FFFF0E020300FFFF0100
310
0C0000000100120000000000000000000000000000000000000000000000000000000000000000000000000000000000000049443D227B42354345374139432D463638342D313144332D384441342D3030413043393831413335467D220D0A446F63756D656E743D5468697344726177696E672F264830303030303030300D
310
0A4E616D653D224143414450726F6A656374220D0A48656C70436F6E7465787449443D2230220D0A434D473D2231393142454631354633313546333135463331354633220D0A4450423D2232383241444532314446323144463231220D0A47433D2233373335433132344446334345463344454633443130220D0A0D0A5B48
310
6F737420457874656E64657220496E666F5D0D0A264830303030303030313D7B33383332443634302D434639302D313143462D384534332D3030413043393131303035417D3B5642453B264830303030303030300D0A0000000000000000000000000000000000000000000000000000000000005468697344726177696E67
310
005400680069007300440072006100770069006E0067000000000000000000000000000000000000000000000000000000000000000F00000000000000000000000000000000000000000000000000000000000000000000000000000000000000000000000000000000000000000000000000000000000000000000000000
310
00000000000000000000000000000000000000000000000000000000000000000000000000000000000000000000000000000000000000000000000000000000000000000000000000000000000000000000000000000000000000000000000000000000000000000000000000000000000000000000000000000000000000
310
00000000000000000000000000000000000000000000000000000000000000000000000000000000000000000000000000000000000000000000000000000000000000000000000000000000000000000000000000000000000000000000000000000000000000000000000000000000000000000000000000000000000000
310
00000000000000000000000000000000000000000000000000000000000000000000000000000000000000000000000000000000000000005600420041005F00500072006F006A006500630074005F00560065007200730069006F006E00000000000000000000000000000000000000000000000000000028000200FFFFFF
310
FFFFFFFFFFFFFFFFFF0000000000000000000000000000000000000000000000000000000000000000000000004200000008000000000000000000000000000000000000000000000000000000000000000000000000000000000000000000000000000000000000000000000000000000000000000000000000000000FFFF
310
FFFFFFFFFFFFFFFFFFFF0000000000000000000000000000000000000000000000000000000000000000000000000000000000000000000000000000000000000000000000000000000000000000000000000000000000000000000000000000000000000000000000000000000000000000000000000000000000000000FF
310
FFFFFFFFFFFFFFFFFFFFFF0000000000000000000000000000000000000000000000000000000000000000000000000000000000000000000000000000000000000000000000000000000000000000000000000000000000000000000000000000000000000000000000000000000000000000000000000000000000000000
310
FFFFFFFFFFFFFFFFFFFFFFFF000000000000000000000000000000000000000000000000000000000000000000000000000000000000000000000000
  0
XRECORD
  5
B11B9
102
{ACAD_REACTORS
330
B11B7
102
}
330
B11B7
100
AcDbXrecord
280
     1
330
92A34
330
92A35
330
92A36
330
92A37
330
92A38
330
92A39
330
92A3A
330
92A3B
330
92A3C
330
92A3D
330
92A57
330
92A58
330
92A72
330
92A8C
330
92A8D
330
92A8E
330
92A8F
330
92A90
330
92A91
330
92A92
330
92A93
330
92A94
330
92A95
330
92A96
330
92A97
330
92A98
330
92A99
330
92A9A
330
92A9B
330
92A9C
330
92A9D
330
92A9E
330
92A9F
330
92AA0
330
92AA1
330
92AA2
330
92AA3
330
92AA4
330
92AA5
330
92AA6
330
92AA7
330
92AA8
330
92AA9
330
92AAA
330
92AAB
330
92AAC
330
92AAD
330
92AAE
330
92AAF
330
92AB0
330
92AB1
330
92AB2
330
92AB3
330
92AB4
330
92AB5
330
92AB6
330
92AB7
330
92AB8
330
92AB9
330
92ABA
330
92ABB
330
92ABC
330
92ABD
330
92ABE
330
92ABF
330
92AC0
330
92AC1
330
92AC2
330
92AC3
330
92AC4
330
92AC5
330
92AC6
330
92AC7
330
92AC8
330
92AC9
330
92ACA
330
92ACB
330
92ACC
330
92ACD
330
92ACE
330
92ACF
330
92AD0
330
92AD1
330
92AD2
330
92AD3
330
92AD4
330
92AD5
330
92AD6
330
92AD7
330
92AD8
330
92AD9
330
92ADA
330
92ADB
330
92ADC
330
92ADD
330
92ADE
330
92ADF
330
92AE0
330
92AE1
330
92AE2
330
92AE3
330
92AE4
330
92AE5
330
92AE6
330
92AE7
330
92AE8
330
92AE9
330
92AEA
330
92AEB
330
92AEC
330
92AED
330
92AEE
330
0
330
B392A
330
B3935
330
B3D3D
330
B3D45
330
0
330
0
  0
ENDSEC
  0
EOF
