  0
SECTION
  2
HEADER
  9
$ACADVER
  1
AC1015
  9
$ACADMAINTVER
 70
     6
  9
$DWGCODEPAGE
  3
ANSI_1252
  9
$INSBASE
 10
0.0
 20
0.0
 30
0.0
  9
$EXTMIN
 10
8.484639874334689
 20
7.816348377208022
 30
0.0
  9
$EXTMAX
 10
85.75320101540063
 20
65.29661946995222
 30
0.0
  9
$LIMMIN
 10
0.0
 20
0.0
  9
$LIMMAX
 10
12.0
 20
9.0
  9
$ORTHOMODE
 70
     0
  9
$REGENMODE
 70
     1
  9
$FILLMODE
 70
     1
  9
$QTEXTMODE
 70
     0
  9
$MIRRTEXT
 70
     0
  9
$LTSCALE
 40
1.0
  9
$ATTMODE
 70
     2
  9
$TEXTSIZE
 40
2.0
  9
$TRACEWID
 40
0.05
  9
$TEXTSTYLE
  7
STANDARD
  9
$CLAYER
  8
A1
  9
$CELTYPE
  6
BYLAYER
  9
$CECOLOR
 62
     7
  9
$CELTSCALE
 40
1.0
  9
$DISPSILH
 70
     0
  9
$DIMSCALE
 40
1.175
  9
$DIMASZ
 40
0.5
  9
$DIMEXO
 40
1.0
  9
$DIMDLI
 40
0.0625
  9
$DIMRND
 40
0.0
  9
$DIMDLE
 40
0.0
  9
$DIMEXE
 40
0.25
  9
$DIMTP
 40
0.0
  9
$DIMTM
 40
0.0
  9
$DIMTXT
 40
1.0
  9
$DIMCEN
 40
0.0
  9
$DIMTSZ
 40
0.0
  9
$DIMTOL
 70
     0
  9
$DIMLIM
 70
     0
  9
$DIMTIH
 70
     1
  9
$DIMTOH
 70
     1
  9
$DIMSE1
 70
     0
  9
$DIMSE2
 70
     0
  9
$DIMTAD
 70
     0
  9
$DIMZIN
 70
     0
  9
$DIMBLK
  1

  9
$DIMASO
 70
     1
  9
$DIMSHO
 70
     1
  9
$DIMPOST
  1
"
  9
$DIMAPOST
  1

  9
$DIMALT
 70
     0
  9
$DIMALTD
 70
     0
  9
$DIMALTF
 40
25.4
  9
$DIMLFAC
 40
1.0
  9
$DIMTOFL
 70
     0
  9
$DIMTVP
 40
0.0
  9
$DIMTIX
 70
     0
  9
$DIMSOXD
 70
     0
  9
$DIMSAH
 70
     0
  9
$DIMBLK1
  1

  9
$DIMBLK2
  1

  9
$DIMSTYLE
  2
STANDARD
  9
$DIMCLRD
 70
     0
  9
$DIMCLRE
 70
     0
  9
$DIMCLRT
 70
     0
  9
$DIMTFAC
 40
0.125
  9
$DIMGAP
 40
0.5
  9
$DIMJUST
 70
     0
  9
$DIMSD1
 70
     0
  9
$DIMSD2
 70
     0
  9
$DIMTOLJ
 70
     1
  9
$DIMTZIN
 70
     0
  9
$DIMALTZ
 70
     2
  9
$DIMALTTZ
 70
     2
  9
$DIMUPT
 70
     1
  9
$DIMDEC
 70
     4
  9
$DIMTDEC
 70
     4
  9
$DIMALTU
 70
     2
  9
$DIMALTTD
 70
     0
  9
$DIMTXSTY
  7
STANDARD
  9
$DIMAUNIT
 70
     0
  9
$DIMADEC
 70
     0
  9
$DIMALTRND
 40
0.0
  9
$DIMAZIN
 70
     0
  9
$DIMDSEP
 70
    46
  9
$DIMATFIT
 70
     1
  9
$DIMFRAC
 70
     2
  9
$DIMLDRBLK
  1

  9
$DIMLUNIT
 70
     5
  9
$DIMLWD
 70
    -2
  9
$DIMLWE
 70
    -2
  9
$DIMTMOVE
 70
     1
  9
$LUNITS
 70
     5
  9
$LUPREC
 70
     4
  9
$SKETCHINC
 40
0.1
  9
$FILLETRAD
 40
0.0
  9
$AUNITS
 70
     0
  9
$AUPREC
 70
     1
  9
$MENU
  1
acad
  9
$ELEVATION
 40
0.0
  9
$PELEVATION
 40
0.0
  9
$THICKNESS
 40
0.0
  9
$LIMCHECK
 70
     0
  9
$CHAMFERA
 40
0.75
  9
$CHAMFERB
 40
0.75
  9
$CHAMFERC
 40
0.0
  9
$CHAMFERD
 40
0.0
  9
$SKPOLY
 70
     0
  9
$TDCREATE
 40
2451085.664838310
  9
$TDUCREATE
 40
2451085.831504977
  9
$TDUPDATE
 40
2451660.594489583
  9
$TDUUPDATE
 40
2451660.761156249
  9
$TDINDWG
 40
2.3136138889
  9
$TDUSRTIMER
 40
2.3136138889
  9
$USRTIMER
 70
     1
  9
$ANGBASE
 50
0.0
  9
$ANGDIR
 70
     0
  9
$PDMODE
 70
     0
  9
$PDSIZE
 40
0.0
  9
$PLINEWID
 40
0.0
  9
$SPLFRAME
 70
     0
  9
$SPLINETYPE
 70
     6
  9
$SPLINESEGS
 70
     8
  9
$HANDSEED
  5
CFF
  9
$SURFTAB1
 70
     6
  9
$SURFTAB2
 70
     6
  9
$SURFTYPE
 70
     6
  9
$SURFU
 70
     6
  9
$SURFV
 70
     6
  9
$UCSBASE
  2

  9
$UCSNAME
  2

  9
$UCSORG
 10
0.0
 20
0.0
 30
0.0
  9
$UCSXDIR
 10
1.0
 20
0.0
 30
0.0
  9
$UCSYDIR
 10
0.0
 20
1.0
 30
0.0
  9
$UCSORTHOREF
  2

  9
$UCSORTHOVIEW
 70
     0
  9
$UCSORGTOP
 10
0.0
 20
0.0
 30
0.0
  9
$UCSORGBOTTOM
 10
0.0
 20
0.0
 30
0.0
  9
$UCSORGLEFT
 10
0.0
 20
0.0
 30
0.0
  9
$UCSORGRIGHT
 10
0.0
 20
0.0
 30
0.0
  9
$UCSORGFRONT
 10
0.0
 20
0.0
 30
0.0
  9
$UCSORGBACK
 10
0.0
 20
0.0
 30
0.0
  9
$PUCSBASE
  2

  9
$PUCSNAME
  2

  9
$PUCSORG
 10
0.0
 20
0.0
 30
0.0
  9
$PUCSXDIR
 10
1.0
 20
0.0
 30
0.0
  9
$PUCSYDIR
 10
0.0
 20
1.0
 30
0.0
  9
$PUCSORTHOREF
  2

  9
$PUCSORTHOVIEW
 70
     0
  9
$PUCSORGTOP
 10
0.0
 20
0.0
 30
0.0
  9
$PUCSORGBOTTOM
 10
0.0
 20
0.0
 30
0.0
  9
$PUCSORGLEFT
 10
0.0
 20
0.0
 30
0.0
  9
$PUCSORGRIGHT
 10
0.0
 20
0.0
 30
0.0
  9
$PUCSORGFRONT
 10
0.0
 20
0.0
 30
0.0
  9
$PUCSORGBACK
 10
0.0
 20
0.0
 30
0.0
  9
$USERI1
 70
     0
  9
$USERI2
 70
     0
  9
$USERI3
 70
     0
  9
$USERI4
 70
     0
  9
$USERI5
 70
     0
  9
$USERR1
 40
0.0
  9
$USERR2
 40
0.0
  9
$USERR3
 40
0.0
  9
$USERR4
 40
0.0
  9
$USERR5
 40
0.0
  9
$WORLDVIEW
 70
     1
  9
$SHADEDGE
 70
     1
  9
$SHADEDIF
 70
    70
  9
$TILEMODE
 70
     1
  9
$MAXACTVP
 70
    16
  9
$PINSBASE
 10
0.0
 20
0.0
 30
0.0
  9
$PLIMCHECK
 70
     0
  9
$PEXTMIN
 10
1.000000000000000E+20
 20
1.000000000000000E+20
 30
1.000000000000000E+20
  9
$PEXTMAX
 10
-1.000000000000000E+20
 20
-1.000000000000000E+20
 30
-1.000000000000000E+20
  9
$PLIMMIN
 10
0.0
 20
0.0
  9
$PLIMMAX
 10
12.0
 20
9.0
  9
$UNITMODE
 70
     0
  9
$VISRETAIN
 70
     0
  9
$PLINEGEN
 70
     0
  9
$PSLTSCALE
 70
     1
  9
$TREEDEPTH
 70
  3020
  9
$CMLSTYLE
  2
STANDARD
  9
$CMLJUST
 70
     0
  9
$CMLSCALE
 40
1.0
  9
$PROXYGRAPHICS
 70
     1
  9
$MEASUREMENT
 70
     0
  9
$CELWEIGHT
370
    -1
  9
$ENDCAPS
280
     0
  9
$JOINSTYLE
280
     0
  9
$LWDISPLAY
290
     0
  9
$INSUNITS
 70
     0
  9
$HYPERLINKBASE
  1

  9
$STYLESHEET
  1

  9
$XEDIT
290
     1
  9
$CEPSNTYPE
380
     0
  9
$PSTYLEMODE
290
     1
  9
$FINGERPRINTGUID
  2
{A6232B84-9B2E-11D3-8DA4-00A0C981A35F}
  9
$VERSIONGUID
  2
{8868A544-19C8-11D4-8DA4-00A0C981A35F}
  9
$EXTNAMES
290
     1
  9
$PSVPSCALE
 40
0.0
  9
$OLESTARTUP
290
     0
  0
ENDSEC
  0
SECTION
  2
CLASSES
  0
CLASS
  1
DICTIONARYVAR
  2
AcDbDictionaryVar
  3
AutoCAD 2000
 90
    32768
280
     0
281
     0
  0
CLASS
  1
LWPOLYLINE
  2
AcDbPolyline
  3
AutoCAD 2000
 90
    32768
280
     0
281
     1
  0
CLASS
  1
RASTERVARIABLES
  2
AcDbRasterVariables
  3
ISM
 90
    32768
280
     0
281
     0
  0
CLASS
  1
ACDBDICTIONARYWDFLT
  2
AcDbDictionaryWithDefault
  3
AutoCAD 2000
 90
        0
280
     0
281
     0
  0
CLASS
  1
ACDBPLACEHOLDER
  2
AcDbPlaceHolder
  3
AutoCAD 2000
 90
        0
280
     0
281
     0
  0
CLASS
  1
LAYOUT
  2
AcDbLayout
  3
AutoCAD 2000
 90
        0
280
     0
281
     0
  0
CLASS
  1
ACME_DOCUMENT
  2
AcMeDbDoc
  3
AcMeServices
 90
    32768
280
     1
281
     0
  0
CLASS
  1
ACMESCOPE
  2
AcMeScope
  3
AcMeServices
 90
    32768
280
     1
281
     0
  0
CLASS
  1
ACMECOMMANDHISTORY
  2
AcMeCommandHistory
  3
AcMeServices
 90
    32768
280
     1
281
     0
  0
CLASS
  1
ACIMSYSVARMAN
  2
AcImSysVarManager
  3
AcMeServices
 90
    32768
280
     1
281
     0
  0
CLASS
  1
ACIMREALSYSVAR
  2
AcImRealSysVar
  3
AcMeServices
 90
    32768
280
     1
281
     0
  0
CLASS
  1
ACIMINTSYSVAR
  2
AcImIntSysVar
  3
AcMeServices
 90
    32768
280
     1
281
     0
  0
CLASS
  1
ACMEDRAWINGMAN
  2
AcMeDrawingMan
  3
AcMeServices
 90
    32768
280
     1
281
     0
  0
CLASS
  1
ACMEVIEW
  2
AcMeView
  3
AcMeServices
 90
    32768
280
     1
281
     0
  0
CLASS
  1
ACDBENTITYCACHE
  2
AcMeEntityCache
  3
AcMeServices
 90
    32768
280
     1
281
     0
  0
CLASS
  1
GSMANAGER
  2
AcMeGSManager
  3
AcMeServices
 90
    32768
280
     1
281
     0
  0
CLASS
  1
AmdtInternalReactor
  2
AmdtInternalReactor
  3
AcMeServices
 90
    32768
280
     1
281
     0
  0
CLASS
  1
ACMESTATEMGR
  2
AcMeStateMgr
  3
AcMeServices
 90
    32768
280
     1
281
     0
  0
CLASS
  1
ACGREFMASTER
  2
AcGrefMaster
  3
AcAttribServices
 90
    32768
280
     1
281
     0
  0
CLASS
  1
AM_DRAWING_MGR
  2
AcDmDwgMgr
  3
AcMechDwgViewMgmt
 90
    32768
280
     1
281
     0
  0
CLASS
  1
AM_DWG_DOCUMENT
  2
AcDmDwgDocument
  3
AcMechDwgViewMgmt
 90
    32768
280
     1
281
     0
  0
CLASS
  1
AM_DWG_SHEET
  2
AcDmSheet
  3
AcMechDwgViewMgmt
 90
    32768
280
     1
281
     0
  0
CLASS
  1
AM_VIEWDIMPARMAP
  2
AcDmViewDimParMap
  3
AcMechDwgViewMgmt
 90
    32768
280
     1
281
     0
  0
CLASS
  1
AM_DWGMGR_NAME
  2
AcDmDwgMgrName
  3
AcMechDwgViewMgmt
 90
    32768
280
     1
281
     0
  0
CLASS
  1
ACME_DATABASE
  2
AcMeDbDatabase
  3
AcMeServices
 90
    32768
280
     1
281
     0
  0
CLASS
  1
ACRFINSADJUSTERMGR
  2
AcRfInsAdjusterMgr
  3
AcMeServices
 90
    32768
280
     1
281
     0
  0
CLASS
  1
ACGREFMASTER
  2
AcGrefacadMaster
  3
AcGrefServices
 90
    32768
280
     1
281
     0
  0
CLASS
  1
AMDTMENUSTATEMGR
  2
AmdtMenuStateMgr
  3
McadcomServices
 90
    32768
280
     1
281
     0
  0
CLASS
  1
AMDTMCOMMENUSTATE
  2
AmdtMcomMenuState
  3
McadcomServices
 90
    32768
280
     1
281
     0
  0
CLASS
  1
ASAPP
  2
AcAsAppObject
  3
AutoSurfServices
 90
    32768
280
     1
281
     0
  0
CLASS
  1
IM_STATIC_MAN
  2
AcImStaticVarManager
  3
AcMeServices
 90
    32768
280
     1
281
     0
  0
CLASS
  1
ACIMSTRSYSVAR
  2
AcImStrSysVar
  3
AcMeServices
 90
    32768
280
     1
281
     0
  0
CLASS
  1
ACIMDBLSTATICVAR
  2
AcImDblStaticVar
  3
AcMeServices
 90
    32768
280
     1
281
     0
  0
CLASS
  1
ACIMSTRSTATICVAR
  2
AcImStrStaticVar
  3
AcMeServices
 90
    32768
280
     1
281
     0
  0
CLASS
  1
ACIMINTSTATICVAR
  2
AcImIntStaticVar
  3
AcMeServices
 90
    32768
280
     1
281
     0
  0
CLASS
  1
ACADGREFMODULE
  2
AcAdGrefModule
  3
AdGrefServices
 90
    32768
280
     1
281
     0
  0
CLASS
  1
AMIMASTER
  2
AmiMaster
  3
AmiServices
 90
    32768
280
     1
281
     0
  0
CLASS
  1
ACASGREFMASTER
  2
AcAsGrefMaster
  3
AutoSurfResolverServices
 90
    32768
280
     1
281
     0
  0
CLASS
  1
MAPIAMMOUDLE
  2
MApiAmModule
  3
MApiAmServices
 90
    32768
280
     1
281
     0
  0
CLASS
  1
AMDTDMMENUSTATE
  2
AmdtDmMenuState
  3
AcMechDwgViewMgmt
 90
    32768
280
     1
281
     0
  0
CLASS
  1
AMDTADMENUSTATE
  2
AmdtAdMenuState
  3
DesignerServices
 90
    32768
280
     1
281
     0
  0
CLASS
  1
ADAPPL
  2
AcAdAppl
  3
DesignerServices
 90
    32768
280
     1
281
     0
  0
CLASS
  1
DEPMGR
  2
AcAdDepMgr
  3
DesignerServices
 90
    32768
280
     1
281
     0
  0
CLASS
  1
PARAMMGR
  2
AcAdParamMgr
  3
DesignerServices
 90
    32768
280
     1
281
     0
  0
CLASS
  1
PARAMSCOPE
  2
AcAdParamScope
  3
DesignerServices
 90
    32768
280
     1
281
     0
  0
CLASS
  1
NAMEDAPPL
  2
AcAdNamedAppl
  3
DesignerServices
 90
    32768
280
     1
281
     0
  0
CLASS
  1
ADHNTMPLT
  2
AdHoleNoteTemplateMgr
  3
DesignerServices
 90
    32768
280
     1
281
     0
  0
CLASS
  1
AM_HNTEMPLATE_MGR_NAME
  2
AdHoleNoteTemplateMgrName
  3
DesignerServices
 90
    32768
280
     1
281
     0
  0
CLASS
  1
AMDTAMMENUSTATE
  2
AmdtAmMenuState
  3
DesignerAssemblies
 90
    32768
280
     1
281
     0
  0
CLASS
  1
ACAMPROJECT
  2
AcAmProject
  3
DesignerAssemblies
 90
    32768
280
     1
281
     0
  0
CLASS
  1
ACAMGRCOMPDEF
  2
AcAmGrCompDef
  3
DesignerAssemblies
 90
    32768
280
     1
281
     0
  0
CLASS
  1
ACCMCONTEXT
  2
AcCmContext
  3
DesignerAssemblies
 90
    32768
280
     1
281
     0
  0
CLASS
  1
ACAMCOMPDEF
  2
AcAmCompDef
  3
DesignerAssemblies
 90
    32768
280
     1
281
     0
  0
CLASS
  1
ACAMCOMPDEFMGR
  2
AcAmCompDefMgr
  3
DesignerAssemblies
 90
    32768
280
     1
281
     0
  0
CLASS
  1
AMCONTEXTMGR
  2
AcAmContextMgr
  3
DesignerAssemblies
 90
    32768
280
     1
281
     0
  0
CLASS
  1
ACAMCONTEXTMODELER
  2
AcAmContextModeler
  3
DesignerAssemblies
 90
    32768
280
     1
281
     0
  0
CLASS
  1
MAPIADMODULE
  2
MApiAdModule
  3
MApiAdServices
 90
    32768
280
     1
281
     0
  0
CLASS
  1
ACMDATADICTIONARY
  2
AcmDataDictionary
  3
"AcmSymBB|Product Description: AutoCAD Mechanical 2000|Company: Autodesk"
 90
    32768
280
     1
281
     0
  0
CLASS
  1
ACMDATAENTRYBLOCK
  2
AcmDataEntryBlock
  3
"AcmSymBB|Product Description: AutoCAD Mechanical 2000|Company: Autodesk"
 90
    32768
280
     1
281
     0
  0
CLASS
  1
AMDTBROWSERDBTAB
  2
AmdtBrowserDbTab
  3
McadcomServices
 90
    32768
280
     1
281
     0
  0
CLASS
  1
CBROWSERAPPOBJECT
  2
CBrowserAppObject
  3
McadcomServices
 90
    32768
280
     1
281
     0
  0
CLASS
  1
DM_PLACEHOLDER
  2
AcDmSelsetPlaceholder
  3
AcMechDwgViewMgmt
 90
    32768
280
     1
281
     0
  0
CLASS
  1
CATALOGSTATE
  2
AcAmCatalogState
  3
DesignerAssemblies
 90
    32768
280
     1
281
     0
  0
CLASS
  1
ACAMGRCOMPDEFSET
  2
AcAmGrCompDefSet
  3
DesignerAssemblies
 90
    32768
280
     1
281
     0
  0
CLASS
  1
AMGOBJPROPCFG
  2
AmgObjPropCfg
  3
"AmgLay|Product Description: AutoCAD Mechanical 2000|Company: Autodesk"
 90
    32769
280
     1
281
     0
  0
CLASS
  1
LAYER_INDEX
  2
AcDbLayerIndex
  3
AutoCAD 2000
 90
    32768
280
     0
281
     0
  0
CLASS
  1
IDBUFFER
  2
AcDbIdBuffer
  3
AutoCAD 2000
 90
    32768
280
     0
281
     0
  0
CLASS
  1
ACRFATTGENMGR
  2
AcRfAttGeneralMgr
  3
AcAttribServices
 90
    32768
280
     1
281
     0
  0
CLASS
  1
PLOTSETTINGS
  2
AcDbPlotSettings
  3
AutoCAD 2000
 90
    32768
280
     0
281
     0
  0
CLASS
  1
LONG_TRANSACTION
  2
AcDbLongTransaction
  3
AutoCAD 2000
 90
    32768
280
     0
281
     0
  0
CLASS
  1
LWPOLYLINE
  2
AcDbPolyline
  3
AutoCAD 2000
 90
    32768
280
     0
281
     1
  0
CLASS
  1
HATCH
  2
AcDbHatch
  3
AutoCAD 2000
 90
    32768
280
     0
281
     1
  0
CLASS
  1
XRECORD
  2
AcDbXrecord
  3
AutoCAD 2000
 90
    32768
280
     0
281
     0
  0
CLASS
  1
LONG_TRANSACTION
  2
AcDbLongTransaction
  3
AutoCAD 2000
 90
    32768
280
     0
281
     0
  0
CLASS
  1
LWPOLYLINE
  2
AcDbPolyline
  3
AutoCAD 2000
 90
    32768
280
     0
281
     1
  0
CLASS
  1
HATCH
  2
AcDbHatch
  3
AutoCAD 2000
 90
    32768
280
     0
281
     1
  0
CLASS
  1
XRECORD
  2
AcDbXrecord
  3
AutoCAD 2000
 90
    32768
280
     0
281
     0
  0
ENDSEC
  0
SECTION
  2
TABLES
  0
TABLE
  2
VPORT
  5
1B
330
0
100
AcDbSymbolTable
 70
     2
  0
VPORT
  5
CFE
330
1B
100
AcDbSymbolTableRecord
100
AcDbViewportTableRecord
  2
*Active
 70
     0
 10
0.0
 20
0.0
 11
1.0
 21
1.0
 12
111.63401177877
 22
4.261182794816592
 13
0.0
 23
0.0
 14
1.0
 24
1.0
 15
0.0
 25
0.0
 16
0.0
 26
0.0
 36
1.0
 17
-64.46234487877643
 27
33.0238264231553
 37
6.148717398612387
 40
59.3780717288856
 41
1.413068844807467
 42
50.0
 43
-6.148717398612387
 44
-6.148717398612387
 50
0.0
 51
0.0
 71
     0
 72
 20000
 73
     1
 74
     1
 75
     0
 76
     0
 77
     0
 78
     2
281
     0
 65
     1
110
0.0
120
0.0
130
0.0
111
1.0
121
0.0
131
0.0
112
0.0
122
1.0
132
0.0
 79
     0
146
0.0
  0
ENDTAB
  0
TABLE
  2
LTYPE
  5
16
330
0
100
AcDbSymbolTable
 70
     2
  0
LTYPE
  5
17
330
16
100
AcDbSymbolTableRecord
100
AcDbLinetypeTableRecord
  2
BYBLOCK
 70
     0
  3

 72
    65
 73
     0
 40
0.0
  0
LTYPE
  5
18
330
16
100
AcDbSymbolTableRecord
100
AcDbLinetypeTableRecord
  2
BYLAYER
 70
     0
  3

 72
    65
 73
     0
 40
0.0
  0
LTYPE
  5
9
330
16
100
AcDbSymbolTableRecord
100
AcDbLinetypeTableRecord
  2
CONTINUOUS
 70
     0
  3
Solid line
 72
    65
 73
     0
 40
0.0
  0
LTYPE
  5
4B7
330
16
100
AcDbSymbolTableRecord
100
AcDbLinetypeTableRecord
  2
DOT
 70
     0
  3
Dot . . . . . . . . . . . . . . . . . . . . . .
 72
    65
 73
     2
 40
0.25
 49
0.0
 74
     0
 49
-0.25
 74
     0
  0
ENDTAB
  0
TABLE
  2
LAYER
  5
11
330
0
100
AcDbSymbolTable
 70
     5
  0
LAYER
  5
5
330
11
100
AcDbSymbolTableRecord
100
AcDbLayerTableRecord
  2
0
 70
     0
 62
     7
  6
CONTINUOUS
370
    -3
390
6
  0
LAYER
  5
24
330
11
100
AcDbSymbolTableRecord
100
AcDbLayerTableRecord
  2
A1
 70
     0
 62
     7
  6
CONTINUOUS
370
    -3
390
6
  0
LAYER
  5
53
330
11
100
AcDbSymbolTableRecord
100
AcDbLayerTableRecord
  2
LINEWORK
 70
     0
 62
    41
  6
CONTINUOUS
370
    -3
390
6
  0
LAYER
  5
98
330
11
100
AcDbSymbolTableRecord
100
AcDbLayerTableRecord
  2
Defpoints
 70
     0
 62
     7
  6
CONTINUOUS
290
     0
370
    -3
390
6
  0
LAYER
  5
4B8
330
11
100
AcDbSymbolTableRecord
100
AcDbLayerTableRecord
  2
TAG
 70
     0
 62
     1
  6
CONTINUOUS
370
    -3
390
6
  0
ENDTAB
  0
TABLE
  2
STYLE
  5
12
330
0
100
AcDbSymbolTable
 70
     3
  0
STYLE
  5
13
330
12
100
AcDbSymbolTableRecord
100
AcDbTextStyleTableRecord
  2
STANDARD
 70
     0
 40
0.0
 41
1.0
 50
0.0
 71
     0
 42
2.0
  3
unvr55w.ttf
  4

1001
ACAD
1000
Univers
1071
       34
  0
STYLE
  5
54
330
12
100
AcDbSymbolTableRecord
100
AcDbTextStyleTableRecord
  2
ROMANC
 70
     0
 40
0.0
 41
1.0
 50
0.0
 71
     0
 42
0.5
  3
TIMESBD.TTF
  4

1001
ACAD
1000
Times New Roman
1071
 33554450
  0
STYLE
  5
55
330
12
100
AcDbSymbolTableRecord
100
AcDbTextStyleTableRecord
  2
barcoder
 70
     0
 40
0.0
 41
1.0
 50
0.0
 71
     0
 42
4.5625
  3
cw_barcd.ttf
  4

1001
ACAD
1000
Barcoder
1071
 33554434
  0
ENDTAB
  0
TABLE
  2
VIEW
  5
19
330
0
100
AcDbSymbolTable
 70
     0
  0
ENDTAB
  0
TABLE
  2
UCS
  5
1A
330
0
100
AcDbSymbolTable
 70
     0
  0
ENDTAB
  0
TABLE
  2
APPID
  5
1D
330
0
100
AcDbSymbolTable
 70
    20
  0
APPID
  5
14
330
1D
100
AcDbSymbolTableRecord
100
AcDbRegAppTableRecord
  2
ACAD
 70
     0
  0
APPID
  5
56
330
1D
100
AcDbSymbolTableRecord
100
AcDbRegAppTableRecord
  2
DCO15
 70
     0
  0
APPID
  5
83E
330
1D
100
AcDbSymbolTableRecord
100
AcDbRegAppTableRecord
  2
GENIUS_GENDIM_13
 70
     0
  0
APPID
  5
83F
330
1D
100
AcDbSymbolTableRecord
100
AcDbRegAppTableRecord
  2
GENIUS_GENDTOL_13
 70
     0
  0
APPID
  5
840
330
1D
100
AcDbSymbolTableRecord
100
AcDbRegAppTableRecord
  2
GENIUS_GE3DTOL_13
 70
     0
  0
APPID
  5
841
330
1D
100
AcDbSymbolTableRecord
100
AcDbRegAppTableRecord
  2
MCAD_NO_VIS
 70
     0
  0
APPID
  5
842
330
1D
100
AcDbSymbolTableRecord
100
AcDbRegAppTableRecord
  2
ACAD_TEMP_GRAPHIC
 70
     0
  0
APPID
  5
843
330
1D
100
AcDbSymbolTableRecord
100
AcDbRegAppTableRecord
  2
AD_DRAW
 70
     0
  0
APPID
  5
844
330
1D
100
AcDbSymbolTableRecord
100
AcDbRegAppTableRecord
  2
ACATTRIBSERVICES
 70
     0
  0
APPID
  5
845
330
1D
100
AcDbSymbolTableRecord
100
AcDbRegAppTableRecord
  2
ASURF_PCURVE_APPNAME
 70
     0
  0
APPID
  5
846
330
1D
100
AcDbSymbolTableRecord
100
AcDbRegAppTableRecord
  2
DESIGNERASSEMBLIES
 70
     0
  0
APPID
  5
847
330
1D
100
AcDbSymbolTableRecord
100
AcDbRegAppTableRecord
  2
ACADM_DIM_EDIT
 70
     0
  0
APPID
  5
848
330
1D
100
AcDbSymbolTableRecord
100
AcDbRegAppTableRecord
  2
AVE_MATERIAL
 70
     0
  0
APPID
  5
849
330
1D
100
AcDbSymbolTableRecord
100
AcDbRegAppTableRecord
  2
ADCADD_ZZ
 70
     0
  0
APPID
  5
84A
330
1D
100
AcDbSymbolTableRecord
100
AcDbRegAppTableRecord
  2
SDSK_PMN
 70
     0
  0
APPID
  5
84B
330
1D
100
AcDbSymbolTableRecord
100
AcDbRegAppTableRecord
  2
AVE_RENDER
 70
     0
  0
APPID
  5
84C
330
1D
100
AcDbSymbolTableRecord
100
AcDbRegAppTableRecord
  2
AVE_FINISH
 70
     0
  0
APPID
  5
84D
330
1D
100
AcDbSymbolTableRecord
100
AcDbRegAppTableRecord
  2
AVE_ENTITY_MATERIAL
 70
     0
  0
APPID
  5
84E
330
1D
100
AcDbSymbolTableRecord
100
AcDbRegAppTableRecord
  2
AVE_GLOBAL
 70
     0
  0
APPID
  5
84F
330
1D
100
AcDbSymbolTableRecord
100
AcDbRegAppTableRecord
  2
RAK
 70
     0
  0
ENDTAB
  0
TABLE
  2
DIMSTYLE
  5
1E
330
0
100
AcDbSymbolTable
 70
     1
100
AcDbDimStyleTable
 71
     0
  0
DIMSTYLE
105
1F
102
{ACAD_REACTORS
330
BDD
330
BB6
330
ADD
330
ACF
330
AC1
102
}
330
1E
100
AcDbSymbolTableRecord
100
AcDbDimStyleTableRecord
  2
STANDARD
 70
     0
  3
"
 41
0.5
 42
1.0
 43
0.0625
 44
0.25
 73
     0
 74
     0
 77
     3
140
1.0
141
0.0
146
0.125
147
0.125
171
     0
274
     0
276
     2
277
     5
285
     2
286
     2
289
     0
340
13
  0
ENDTAB
  0
TABLE
  2
BLOCK_RECORD
  5
1
330
0
100
AcDbSymbolTable
 70
    29
  0
BLOCK_RECORD
  5
2
102
{ACAD_XDICTIONARY
360
3
102
}
330
1
100
AcDbSymbolTableRecord
100
AcDbBlockTableRecord
  2
*MODEL_SPACE
340
B
  0
BLOCK_RECORD
  5
D
102
{ACAD_XDICTIONARY
360
C50
102
}
330
1
100
AcDbSymbolTableRecord
100
AcDbBlockTableRecord
  2
*PAPER_SPACE
340
10
  0
BLOCK_RECORD
  5
2E
330
1
100
AcDbSymbolTableRecord
100
AcDbBlockTableRecord
  2
PROFILE LOGO
340
0
102
{BLKREFS
331
9BE
331
679
331
860
331
95B
331
961
331
99E
331
AAC
102
}
  0
BLOCK_RECORD
  5
50
330
1
100
AcDbSymbolTableRecord
100
AcDbBlockTableRecord
  2
SCF
340
0
102
{BLKREFS
331
58
102
}
  0
BLOCK_RECORD
  5
57
330
1
100
AcDbSymbolTableRecord
100
AcDbBlockTableRecord
  2
tsforma
340
0
102
{BLKREFS
331
67D
331
851
331
996
102
}
  0
BLOCK_RECORD
  5
D1
330
1
100
AcDbSymbolTableRecord
100
AcDbBlockTableRecord
  2
LINK FLAG
340
0
102
{BLKREFS
331
689
331
867
102
}
  0
BLOCK_RECORD
  5
3C3
330
1
100
AcDbSymbolTableRecord
100
AcDbBlockTableRecord
  2
1TAG
340
0
  0
BLOCK_RECORD
  5
63E
330
1
100
AcDbSymbolTableRecord
100
AcDbBlockTableRecord
  2
*D5
340
0
  0
BLOCK_RECORD
  5
64B
330
1
100
AcDbSymbolTableRecord
100
AcDbBlockTableRecord
  2
*D6
340
0
  0
BLOCK_RECORD
  5
658
330
1
100
AcDbSymbolTableRecord
100
AcDbBlockTableRecord
  2
*D7
340
0
  0
BLOCK_RECORD
  5
665
330
1
100
AcDbSymbolTableRecord
100
AcDbBlockTableRecord
  2
*D8
340
0
  0
BLOCK_RECORD
  5
672
330
1
100
AcDbSymbolTableRecord
100
AcDbBlockTableRecord
  2
TS1578
340
0
  0
BLOCK_RECORD
  5
7FB
330
1
100
AcDbSymbolTableRecord
100
AcDbBlockTableRecord
  2
*D10
340
0
  0
BLOCK_RECORD
  5
808
330
1
100
AcDbSymbolTableRecord
100
AcDbBlockTableRecord
  2
*D11
340
0
  0
BLOCK_RECORD
  5
815
330
1
100
AcDbSymbolTableRecord
100
AcDbBlockTableRecord
  2
*D12
340
0
  0
BLOCK_RECORD
  5
822
330
1
100
AcDbSymbolTableRecord
100
AcDbBlockTableRecord
  2
*D13
340
0
  0
BLOCK_RECORD
  5
831
330
1
100
AcDbSymbolTableRecord
100
AcDbBlockTableRecord
  2
*D14
340
0
  0
BLOCK_RECORD
  5
850
330
1
100
AcDbSymbolTableRecord
100
AcDbBlockTableRecord
  2
TS1577
340
0
  0
BLOCK_RECORD
  5
958
330
1
100
AcDbSymbolTableRecord
100
AcDbBlockTableRecord
  2
TS4201
340
0
  0
BLOCK_RECORD
  5
960
330
1
100
AcDbSymbolTableRecord
100
AcDbBlockTableRecord
  2
TS4202
340
0
  0
BLOCK_RECORD
  5
96C
330
1
100
AcDbSymbolTableRecord
100
AcDbBlockTableRecord
  2
*D18
340
0
  0
BLOCK_RECORD
  5
979
330
1
100
AcDbSymbolTableRecord
100
AcDbBlockTableRecord
  2
*D19
340
0
  0
BLOCK_RECORD
  5
986
330
1
100
AcDbSymbolTableRecord
100
AcDbBlockTableRecord
  2
*D20
340
0
  0
BLOCK_RECORD
  5
995
330
1
100
AcDbSymbolTableRecord
100
AcDbBlockTableRecord
  2
TS1574
340
0
  0
BLOCK_RECORD
  5
A62
330
1
100
AcDbSymbolTableRecord
100
AcDbBlockTableRecord
  2
tsformb
340
0
102
{BLKREFS
331
A95
102
}
  0
BLOCK_RECORD
  5
AAA
330
1
100
AcDbSymbolTableRecord
100
AcDbBlockTableRecord
  2
BALL16
340
0
102
{BLKREFS
331
AB1
102
}
  0
BLOCK_RECORD
  5
AC2
330
1
100
AcDbSymbolTableRecord
100
AcDbBlockTableRecord
  2
*D24
340
0
  0
BLOCK_RECORD
  5
AD0
330
1
100
AcDbSymbolTableRecord
100
AcDbBlockTableRecord
  2
*D25
340
0
  0
BLOCK_RECORD
  5
ADE
330
1
100
AcDbSymbolTableRecord
100
AcDbBlockTableRecord
  2
*D26
340
0
  0
BLOCK_RECORD
  5
BB7
330
1
100
AcDbSymbolTableRecord
100
AcDbBlockTableRecord
  2
*D27
340
0
  0
BLOCK_RECORD
  5
BDE
330
1
100
AcDbSymbolTableRecord
100
AcDbBlockTableRecord
  2
*D28
340
0
  0
ENDTAB
  0
ENDSEC
  0
SECTION
  2
BLOCKS
  0
BLOCK
  5
4
330
2
100
AcDbEntity
  8
0
100
AcDbBlockBegin
  2
*MODEL_SPACE
 70
     2
 10
0.0
 20
0.0
 30
0.0
  3
*MODEL_SPACE
  1

  0
ENDBLK
  5
A
330
2
100
AcDbEntity
  8
0
100
AcDbBlockEnd
  0
BLOCK
  5
E
330
D
100
AcDbEntity
 67
     1
  8
0
100
AcDbBlockBegin
  2
*PAPER_SPACE
 70
     0
 10
0.0
 20
0.0
 30
0.0
  3
*PAPER_SPACE
  1

  0
ENDBLK
  5
F
330
D
100
AcDbEntity
 67
     1
  8
0
100
AcDbBlockEnd
  0
BLOCK
  5
47
330
2E
100
AcDbEntity
  8
0
 62
     7
100
AcDbBlockBegin
  2
PROFILE LOGO
 70
     2
 10
0.0
 20
0.0
 30
0.0
  3
PROFILE LOGO
  1

  0
LINE
  5
2F
330
2E
100
AcDbEntity
  8
0
 62
    22
100
AcDbLine
 10
0.7459516636765642
 20
-0.415894330395318
 30
0.0
 11
0.74595166367655
 21
-1.12746688439163
 31
0.0
  0
LINE
  5
30
330
2E
100
AcDbEntity
  8
0
 62
    22
100
AcDbLine
 10
0.5841942848079072
 20
-0.415894330395318
 30
0.0
 11
0.5841942848079072
 21
-1.12746688439163
 31
0.0
  0
HATCH
  5
31
330
2E
100
AcDbEntity
  8
0
 62
    22
100
AcDbHatch
 10
0.0
 20
0.0
 30
0.0
210
0.0
220
0.0
230
1.0
  2
LINE
 70
     0
 71
     0
 91
        1
 92
       33
 93
       38
 72
     1
 10
1.115683196411978
 20
-0.1706330859717084
 11
0.2177636962628071
 21
-0.1706330859717084
 72
     1
 10
0.2177636962628213
 20
-0.1706330859717084
 11
0.2078601968792952
 21
-0.4246889457533243
 72
     1
 10
0.2078601968792952
 20
-0.4246889457533243
 11
0.2375709173007294
 21
-0.4246889457533243
 72
     1
 10
0.2375709173007294
 20
-0.4246889457533243
 11
0.2441732502230991
 21
-0.3817964654080939
 72
     1
 10
0.2441732502230991
 20
-0.3817964654080939
 11
0.254076749606611
 21
-0.3422032805409501
 72
     1
 10
0.2540767496066252
 20
-0.3422032805409501
 11
0.2738837483736916
 21
-0.3092090964125091
 72
     1
 10
0.2738837483736916
 20
-0.3092090964125091
 11
0.2969919136019428
 21
-0.2861130719066693
 72
     1
 10
0.296991913601957
 20
-0.2861130719066764
 11
0.3267026340234338
 21
-0.2663164794731259
 72
     1
 10
0.3267026340234196
 20
-0.2663164794731259
 11
0.356413132174012
 21
-0.2498193191118219
 72
     1
 10
0.356413132174012
 20
-0.2498193191118148
 11
0.3828224638634481
 21
-0.243220591561446
 72
     1
 10
0.3828224638634623
 20
-0.243220591561446
 11
0.4092320178237401
 21
-0.243220591561446
 72
     1
 10
0.4092320178237401
 20
-0.243220591561446
 11
0.4719541805861525
 21
-0.2465198870395469
 72
     1
 10
0.4719541805861525
 20
-0.2465198870395469
 11
0.514869566852326
 21
-0.2729153436176332
 72
     1
 10
0.514869566852326
 20
-0.2729153436176332
 11
0.5742905631535394
 21
-0.3389038484686964
 72
     1
 10
0.5742905631535394
 20
-0.3389038484687106
 11
0.5907966177302626
 21
-0.3916947616248691
 72
     1
 10
0.5907966177302768
 20
-0.3916947616248691
 11
0.5907966177302768
 21
-1.157161773041991
 72
     1
 10
0.5907966177302768
 20
-1.157161773041984
 11
0.5643870637699991
 21
-1.203353685459461
 72
     1
 10
0.5643870637699849
 20
-1.203353685459468
 11
0.4983637345463876
 21
-1.226449709965308
 72
     1
 10
0.4983637345464019
 20
-1.226449709965301
 11
0.4389425159743326
 21
-1.226449709965301
 72
     1
 10
0.4389425159743326
 20
-1.226449709965301
 11
0.4323401830519913
 21
-1.249545734471119
 72
     1
 10
0.4323401830520055
 20
-1.249545734471134
 11
0.8945045989712809
 21
-1.249545734471134
 72
     1
 10
0.8945045989712667
 20
-1.249545734471134
 11
0.8945045989712667
 21
-1.226449709965315
 72
     1
 10
0.8945045989712667
 20
-1.226449709965301
 11
0.8152763816321311
 21
-1.226449709965301
 72
     1
 10
0.8152763816321311
 20
-1.226449709965301
 11
0.7525539965988913
 21
-1.186856661692324
 72
     1
 10
0.7525539965988913
 20
-1.186856661692324
 11
0.7426504972153794
 21
-1.140664612680659
 72
     1
 10
0.7426504972153652
 20
-1.140664612680673
 11
0.7393493307541803
 21
-0.394994193697137
 72
     1
 10
0.7393493307541803
 20
-0.394994193697137
 11
0.7558551630600619
 21
-0.3389038484687106
 72
     1
 10
0.7558551630600761
 20
-0.3389038484687106
 11
0.7987705493262496
 21
-0.2828136398344298
 72
     1
 10
0.7987705493262496
 20
-0.2828136398344227
 11
0.8614929343594894
 21
-0.2498193191118148
 72
     1
 10
0.8614929343594894
 20
-0.2498193191118148
 11
0.9374197629665985
 21
-0.2399211594891923
 72
     1
 10
0.9374197629665985
 20
-0.2399211594891923
 11
1.010045647383407
 21
-0.2663164794731117
 72
     1
 10
1.010045647383407
 20
-0.2663164794731259
 11
1.056262200110722
 21
-0.3092090964125234
 72
     1
 10
1.056262200110722
 20
-0.3092090964125091
 11
1.085972698261343
 21
-0.361999872974522
 72
     1
 10
1.085972698261358
 20
-0.3619998729745291
 11
1.092575031183727
 21
-0.4246889457533243
 72
     1
 10
1.092575031183727
 20
-0.4246889457533243
 11
1.115683196411993
 21
-0.4246889457533243
 72
     1
 10
1.115683196411978
 20
-0.4246889457533243
 11
1.109080863489609
 21
-0.17723195011623
 72
     1
 10
1.109080863489609
 20
-0.17723195011623
 11
1.109080863489609
 21
-0.1739325180439621
 72
     1
 10
1.109080863489609
 20
-0.1739325180439621
 11
1.105779697028424
 21
-0.1739325180439621
 97
        0
 75
     0
 76
     1
 52
0.0
 41
0.078125
 77
     0
 78
     1
 53
0.0
 43
-28.182772630023
 44
-32.9923404580304
 45
0.0
 46
0.009765625
 79
     0
 98
        1
 10
-28.182772630023
 20
-32.9923404580304
  0
LWPOLYLINE
  5
32
330
2E
100
AcDbEntity
  8
0
 62
    22
100
AcDbPolyline
 90
        4
 70
     1
 43
0.0
 10
0.0262955969727301
 20
-0.0287577800528069
 10
1.307151517972869
 20
-0.0287577800528069
 10
1.307151517972869
 20
-1.731261997456265
 10
0.0262955969727301
 20
-1.731261997456265
  0
LINE
  5
33
330
2E
100
AcDbEntity
  8
0
 62
    22
100
AcDbLine
 10
0.0262955969727443
 20
-1.4112176328236
 30
0.0
 11
1.307151517972869
 21
-1.4112176328236
 31
0.0
  0
ATTDEF
  5
34
330
2E
100
AcDbEntity
  8
A1
 62
    22
100
AcDbText
 10
0.6781304052809105
 20
-1.678298248906529
 30
0.0
 40
0.2126953125
  1

 72
     1
 11
0.6781304052809105
 21
-1.678298248906529
 31
0.0
100
AcDbAttributeDefinition
  3
ADD STONE MARKER
  2
XXXX
 70
     0
  0
LINE
  5
35
330
2E
100
AcDbEntity
  8
0
 62
    22
100
AcDbLine
 10
0.7464576960363587
 20
-1.129021462591367
 30
0.0
 11
0.74595166367655
 21
-1.12746688439163
 31
0.0
  0
ARC
  5
36
330
2E
100
AcDbEntity
  8
0
 62
    22
100
AcDbCircle
 10
0.8421255873066684
 20
-1.127299146756172
 30
0.0
 40
0.0956833935014068
100
AcDbArc
 50
181.0313885659746
 51
269.7936990713142
  0
LINE
  5
37
330
2E
100
AcDbEntity
  8
0
 62
    22
100
AcDbLine
 10
0.9011069318936506
 20
-1.22315027789304
 30
0.0
 11
0.841781067510368
 21
-1.22315027789304
 31
0.0
  0
LINE
  5
38
330
2E
100
AcDbEntity
  8
0
 62
    22
100
AcDbLine
 10
0.9011069318936506
 20
-1.256144598615648
 30
0.0
 11
0.9011069318936506
 21
-1.22315027789304
 31
0.0
  0
ARC
  5
39
330
2E
100
AcDbEntity
  8
0
 62
    22
100
AcDbCircle
 10
0.4880203611777887
 20
-1.127299146756172
 30
0.0
 40
0.0956833935014068
100
AcDbArc
 50
270.2063009286848
 51
358.9686114340253
  0
LINE
  5
3A
330
2E
100
AcDbEntity
  8
0
 62
    22
100
AcDbLine
 10
0.4290390165908207
 20
-1.256144598615648
 30
0.0
 11
0.4290390165908207
 21
-1.22315027789304
 31
0.0
  0
LINE
  5
3B
330
2E
100
AcDbEntity
  8
0
 62
    22
100
AcDbLine
 10
0.4290390165908207
 20
-1.22315027789304
 30
0.0
 11
0.4883648809740891
 21
-1.22315027789304
 31
0.0
  0
LINE
  5
3C
330
2E
100
AcDbEntity
  8
0
 62
    22
100
AcDbLine
 10
0.5836882524480984
 20
-1.129021462591367
 30
0.0
 11
0.5841942848079072
 21
-1.12746688439163
 31
0.0
  0
LINE
  5
3D
330
2E
100
AcDbEntity
  8
0
 62
    22
100
AcDbLine
 10
0.4290390165908207
 20
-1.256144598615648
 30
0.0
 11
0.9011069318936506
 21
-1.256144598615648
 31
0.0
  0
LINE
  5
3E
330
2E
100
AcDbEntity
  8
0
 62
    22
100
AcDbLine
 10
1.085512597630156
 20
-0.415894330395318
 30
0.0
 11
1.085512597630156
 21
-0.4280723832374847
 31
0.0
  0
ARC
  5
3F
330
2E
100
AcDbEntity
  8
0
 62
    22
100
AcDbCircle
 10
0.9138550451562537
 20
-0.4147906495365632
 30
0.0
 40
0.1716611005230106
100
AcDbArc
 50
359.6316189828552
 51
90.00081606717127
  0
ARC
  5
40
330
2E
100
AcDbEntity
  8
0
 62
    22
100
AcDbCircle
 10
0.9180888683309831
 20
-0.4147906495365632
 30
0.0
 40
0.1716611005230106
100
AcDbArc
 50
89.99918393282873
 51
180.3683810171443
  0
LINE
  5
41
330
2E
100
AcDbEntity
  8
0
 62
    22
100
AcDbLine
 10
0.2078601968792952
 20
-0.427988377825578
 30
0.0
 11
0.2441732502230991
 21
-0.427988377825578
 31
0.0
  0
LINE
  5
42
330
2E
100
AcDbEntity
  8
0
 62
    22
100
AcDbLine
 10
0.2446333508543006
 20
-0.415894330395318
 30
0.0
 11
0.2446333508543006
 21
-0.4280723832374847
 31
0.0
  0
ARC
  5
43
330
2E
100
AcDbEntity
  8
0
 62
    22
100
AcDbCircle
 10
0.4162909033282176
 20
-0.4147906495365632
 30
0.0
 40
0.1716611005230106
100
AcDbArc
 50
89.99918393282873
 51
180.3683810171443
  0
LINE
  5
44
330
2E
100
AcDbEntity
  8
0
 62
    22
100
AcDbLine
 10
0.2144627520724782
 20
-0.1706330859717156
 30
0.0
 11
0.2078601968792952
 21
-0.427988377825578
 31
0.0
  0
ARC
  5
45
330
2E
100
AcDbEntity
  8
0
 62
    22
100
AcDbCircle
 10
0.4120570801534882
 20
-0.4147906495365632
 30
0.0
 40
0.1716611005230106
100
AcDbArc
 50
359.6316189828552
 51
90.00081606717127
  0
LWPOLYLINE
  5
46
330
2E
100
AcDbEntity
  8
0
 62
    22
100
AcDbPolyline
 90
        4
 70
     0
 43
0.0
 10
0.224366029185191
 20
-0.1706330859717084
 10
1.115683196411978
 20
-0.1706330859717084
 10
1.122285751605161
 20
-0.427988377825578
 10
1.085972698261358
 20
-0.427988377825578
  0
ENDBLK
  5
48
330
2E
100
AcDbEntity
  8
0
 62
     7
100
AcDbBlockEnd
  0
BLOCK
  5
51
330
50
100
AcDbEntity
  8
0
 62
     7
100
AcDbBlockBegin
  2
SCF
 70
     0
 10
0.0
 20
0.0
 30
0.0
  3
SCF
  1

  0
ENDBLK
  5
52
330
50
100
AcDbEntity
  8
0
 62
     7
100
AcDbBlockEnd
  0
BLOCK
  5
8A
330
57
100
AcDbEntity
  8
0
 62
     7
100
AcDbBlockBegin
  2
tsforma
 70
     2
 10
0.0
 20
0.0
 30
0.0
  3
tsforma
  1

  0
INSERT
  5
58
330
57
100
AcDbEntity
  8
A1
 62
     7
100
AcDbBlockReference
  2
SCF
 10
0.0
 20
0.0
 30
0.0
  0
LINE
  5
59
330
57
100
AcDbEntity
  8
0
 62
     7
100
AcDbLine
 10
33.85359849505566
 20
6.139911809868134
 30
0.0
 11
15.45863081043479
 21
6.139911809868134
 31
0.0
  0
LINE
  5
5A
330
57
100
AcDbEntity
  8
0
 62
     7
100
AcDbLine
 10
33.85359849505566
 20
1.705154898157314
 30
0.0
 11
15.45863081043479
 21
1.705154898157314
 31
0.0
  0
LINE
  5
5B
330
57
100
AcDbEntity
  8
0
 62
     7
100
AcDbLine
 10
33.85359849505566
 20
2.829459360019779
 30
0.0
 11
15.45863081043479
 21
2.829459360019779
 31
0.0
  0
LINE
  5
5C
330
57
100
AcDbEntity
  8
0
100
AcDbLine
 10
15.45863081043479
 20
7.419467812060279
 30
0.0
 11
63.0907971953311
 21
7.419467812060275
 31
0.0
  0
LINE
  5
5D
330
57
100
AcDbEntity
  8
0
100
AcDbLine
 10
0.0
 20
0.0
 30
0.0
 11
63.0907971953311
 21
0.0
 31
0.0
  0
LINE
  5
5E
330
57
100
AcDbEntity
  8
0
100
AcDbLine
 10
0.0
 20
46.93339791359997
 30
0.0
 11
0.0
 21
0.0
 31
0.0
  0
ATTDEF
  5
5F
330
57
100
AcDbEntity
  8
A1
 62
     1
100
AcDbText
 10
12.82959661403713
 20
1.116082561967672
 30
0.0
 40
0.5
  1

 72
     2
 11
12.82959661403713
 21
1.116082561967672
 31
0.0
100
AcDbAttributeDefinition
  3
ADD BARCODE TEXT
  2
XXXXXX
 70
     0
  0
ATTDEF
  5
60
330
57
100
AcDbEntity
  8
A1
 62
     1
100
AcDbText
 10
7.602187176088335
 20
1.863125907903508
 30
0.0
 40
4.5625
  1

  7
barcoder
 72
     1
 11
7.602187176088335
 21
1.863125907903508
 31
0.0
100
AcDbAttributeDefinition
  3
ADD BARCODE NUMBER
  2
BARCODE
 70
     0
  0
LINE
  5
61
330
57
100
AcDbEntity
  8
0
 62
     7
100
AcDbLine
 10
15.45863081043479
 20
7.419467812060279
 30
0.0
 11
0.0
 21
7.419467812060279
 31
0.0
  0
TEXT
  5
62
330
57
100
AcDbEntity
  8
0
 62
     7
100
AcDbText
 10
18.19366726416784
 20
4.860691571657334
 30
0.0
 40
0.625
  1
- Finished Side
100
AcDbText
  0
TEXT
  5
63
330
57
100
AcDbEntity
  8
0
 62
     7
100
AcDbText
 10
18.20026126845819
 20
3.503849832636042
 30
0.0
 40
0.625
  1
- Unfinished Side
100
AcDbText
  0
LINE
  5
64
330
57
100
AcDbEntity
  8
0
100
AcDbLine
 10
15.45863081043479
 20
0.0
 30
0.0
 11
15.45863081043479
 21
7.419467812060279
 31
0.0
  0
LINE
  5
65
330
57
100
AcDbEntity
  8
0
 62
     7
100
AcDbLine
 10
15.94519003511693
 20
5.088809590082902
 30
0.0
 11
17.45428617139502
 21
5.088809590082902
 31
0.0
  0
TEXT
  5
66
330
57
100
AcDbEntity
  8
0
 62
     7
100
AcDbText
 10
16.48339397174975
 20
3.663762155695707
 30
0.0
 40
0.00390625
  1
TANNERSTONE 0001 TANNERSTONE 0001 TANNERSTONE 0001 TANNERSTONE 0001 TANNERSTONE 0001 TANNERSTONE 0001 TANNERSTONE 0001
 72
     1
 11
16.69109656521183
 21
3.663762155695707
 31
0.0
100
AcDbText
  0
LINE
  5
67
330
57
100
AcDbEntity
  8
0
 62
     7
100
AcDbLine
 10
15.94519003511693
 20
3.814849102060051
 30
0.0
 11
17.45428617139502
 21
3.814849102060051
 31
0.0
  0
TEXT
  5
68
330
57
100
AcDbEntity
  8
0
 62
     7
100
AcDbText
 10
15.94386684512347
 20
3.663762155695707
 30
0.0
 40
0.00390625
  1
TANNERSTONE 0001 TANNERSTONE 0001 TANNERSTONE 0001 TANNERSTONE 0001 TANNERSTONE 0001 TANNERSTONE 0001 TANNERSTONE 0001
 72
     1
 11
16.15156943858555
 21
3.663762155695707
 31
0.0
100
AcDbText
  0
TEXT
  5
69
330
57
100
AcDbEntity
  8
0
 62
     7
100
AcDbText
 10
17.04152309512345
 20
3.663762155695707
 30
0.0
 40
0.00390625
  1
TANNERSTONE 0001 TANNERSTONE 0001 TANNERSTONE 0001 TANNERSTONE 0001 TANNERSTONE 0001 TANNERSTONE 0001 TANNERSTONE 0001
 72
     1
 11
17.24922568858554
 21
3.663762155695707
 31
0.0
100
AcDbText
  0
ATTDEF
  5
6A
330
57
100
AcDbEntity
  8
A1
 62
     1
100
AcDbText
 10
24.55771846427264
 20
0.6162142197210088
 30
0.0
 40
0.7559999999999999
  1

 72
     1
 11
24.55771846427264
 21
0.6162142197210088
 31
0.0
100
AcDbAttributeDefinition
  3
ADD CATEGORY NAMES
  2
XXXXXX
 70
     0
  0
TEXT
  5
6B
330
57
100
AcDbEntity
  8
0
 62
     7
100
AcDbText
 10
22.72809728616285
 20
2.02499953627948
 30
0.0
 40
0.5
  1
CATEGORY
 72
     1
 11
24.68840912174046
 21
2.02499953627948
 31
0.0
100
AcDbText
  0
TEXT
  5
6C
330
57
100
AcDbEntity
  8
0
 62
     7
100
AcDbText
 10
23.38153703079662
 20
6.531576458849073
 30
0.0
 40
0.4812500000000001
  1
LEGEND
100
AcDbText
  0
LINE
  5
6D
330
57
100
AcDbEntity
  8
0
100
AcDbLine
 10
63.0907971953311
 20
0.0
 30
0.0
 11
63.0907971953311
 21
46.93339791359997
 31
0.0
  0
LINE
  5
6E
330
57
100
AcDbEntity
  8
0
100
AcDbLine
 10
33.85359849505567
 20
3.957609866513919
 30
0.0
 11
63.0907971953311
 21
3.957609866513919
 31
0.0
  0
TEXT
  5
6F
330
57
100
AcDbEntity
  8
0
100
AcDbText
 10
34.42750303318053
 20
2.935195390265757
 30
0.0
 40
0.6616455005868908
  1
ARCHITECTURAL CONCRETE CO., INC.
 41
1.25
 72
     4
 11
45.64904120290566
 21
3.21678158665302
 31
0.0
100
AcDbText
  0
TEXT
  5
70
330
57
100
AcDbEntity
  8
0
100
AcDbText
 10
38.10554018840551
 20
0.4042122027146437
 30
0.0
 40
0.3900256199701639
  1
PHONE: 1-800-789-4841  FAX : 770-463-2635
 41
1.1875
 72
     4
 11
45.67456989459564
 21
0.5986721769520713
 31
0.0
100
AcDbText
  0
TEXT
  5
71
330
57
100
AcDbEntity
  8
0
 62
     7
100
AcDbText
 10
36.45030612377447
 20
4.701996929624826
 30
0.0
 40
2.12625
  1
TannerStone
  7
ROMANC
 72
     1
 11
45.19112937160684
 21
4.701996929624826
 31
0.0
100
AcDbText
  0
TEXT
  5
72
330
57
100
AcDbEntity
  8
0
100
AcDbText
 10
36.65024310726515
 20
1.16937112143105
 30
0.0
 40
0.3900256199701639
  1
http://TannerStone.com ~ Email:Sales@TannerStone.com 
 41
1.1875
 72
     4
 11
45.88298880572835
 21
1.344758262374401
 31
0.0
100
AcDbText
  0
TEXT
  5
73
330
57
100
AcDbEntity
  8
0
100
AcDbText
 10
35.70454469973866
 20
1.940811732856256
 30
0.0
 40
0.4458291441485832
  1
101 JOHNSTON CIRCLE, PALMETTO, GEORGIA 30268
 41
1.1875
 72
     4
 11
45.7449918415723
 21
2.130549791723176
 31
0.0
100
AcDbText
  0
LINE
  5
74
330
57
100
AcDbEntity
  8
0
100
AcDbLine
 10
33.85359849505567
 20
0.0
 30
0.0
 11
33.85359849505567
 21
7.419467812060275
 31
0.0
  0
LINE
  5
75
330
57
100
AcDbEntity
  8
0
 62
     7
100
AcDbLine
 10
45.8804728588951
 20
4.302323642481653
 30
0.0
 11
45.8804728588951
 21
4.302323642481653
 31
0.0
  0
ATTDEF
  5
76
330
57
100
AcDbEntity
  8
A1
 62
     1
100
AcDbText
 10
60.24601051143854
 20
5.923645198888223
 30
0.0
 40
0.703125
  1

 72
     1
 11
60.24601051143854
 21
5.923645198888223
 31
0.0
100
AcDbAttributeDefinition
  3
ADD PROFILE AREA
  2
XXXXX
 70
     0
  0
ATTDEF
  5
77
330
57
100
AcDbEntity
  8
A1
 62
     1
100
AcDbText
 10
60.22058858229524
 20
4.231165867870629
 30
0.0
 40
0.703125
  1

 72
     1
 11
60.22058858229524
 21
4.231165867870629
 31
0.0
100
AcDbAttributeDefinition
  3
ADD #/LF
  2
XXXXX
 70
     0
  0
LINE
  5
78
330
57
100
AcDbEntity
  8
0
 62
     7
100
AcDbLine
 10
57.40487304162906
 20
5.688538839287097
 30
0.0
 11
63.0907971953311
 21
5.688538839287097
 31
0.0
  0
TEXT
  5
79
330
57
100
AcDbEntity
  8
0
 62
     7
100
AcDbText
 10
57.54164024396835
 20
5.24603903326999
 30
0.0
 40
0.322265625
  1
LBS/LINEAR FEET:
100
AcDbText
  0
LINE
  5
7A
330
57
100
AcDbEntity
  8
LINEWORK
 62
     7
100
AcDbLine
 10
57.38685446707747
 20
2.236847700541034
 30
0.0
 11
63.07277862077971
 21
2.236847700541161
 31
0.0
  0
TEXT
  5
7B
330
57
100
AcDbEntity
  8
0
 62
     7
100
AcDbText
 10
58.84125519694314
 20
0.9074523356241925
 30
0.0
 40
0.5035400390625
  1
1-1-2000
100
AcDbText
  0
LINE
  5
7C
330
57
100
AcDbEntity
  8
0
100
AcDbLine
 10
57.40487304162886
 20
0.0
 30
0.0
 11
57.40487304162911
 21
7.419467812060275
 31
0.0
  0
ARC
  5
7D
330
57
100
AcDbEntity
  8
0
 62
     7
100
AcDbCircle
 10
54.77484357037856
 20
4.675407294753147
 30
0.0
 40
0.3475219186225837
100
AcDbArc
 50
304.840880646349
 51
297.5553548372075
  0
TEXT
  5
7E
330
57
100
AcDbEntity
  8
0
 62
     7
100
AcDbText
 10
54.52366531937782
 20
4.457137162968933
 30
0.0
 40
0.46875
  1
R
  7
ROMANC
 72
     1
 11
54.77717642848187
 21
4.457137162968933
 31
0.0
100
AcDbText
  0
ARC
  5
7F
330
57
100
AcDbEntity
  8
0
 62
     7
100
AcDbCircle
 10
54.77484357037857
 20
4.675407294753146
 30
0.0
 40
0.3475219186225785
100
AcDbArc
 50
297.5553548372066
 51
304.8408806463482
  0
TEXT
  5
80
330
57
100
AcDbEntity
  8
0
 62
     7
100
AcDbText
 10
57.55084577252738
 20
3.528313427430639
 30
0.0
 40
0.322265625
  1
SCALE:
100
AcDbText
  0
TEXT
  5
81
330
57
100
AcDbEntity
  8
0
 62
     7
100
AcDbText
 10
57.58427807884865
 20
1.77327934849093
 30
0.0
 40
0.322265625
  1
DATE:
100
AcDbText
  0
LINE
  5
82
330
57
100
AcDbEntity
  8
0
 62
     7
100
AcDbLine
 10
57.404873041629
 20
3.957609866513919
 30
0.0
 11
56.92061203641685
 21
3.957609866513919
 31
0.0
  0
TEXT
  5
83
330
57
100
AcDbEntity
  8
0
 62
     7
100
AcDbText
 10
60.17361351816539
 20
2.848114535947829
 30
0.0
 40
0.5035400390625
  1
1:1
100
AcDbText
  0
TEXT
  5
84
330
57
100
AcDbEntity
  8
0
 62
     7
100
AcDbText
 10
57.55965863864929
 20
6.943562340807453
 30
0.0
 40
0.322265625
  1
PROFILE AREA:
100
AcDbText
  0
ATTDEF
  5
85
330
57
100
AcDbEntity
  8
A1
 62
     1
100
AcDbText
 10
59.04934003701934
 20
43.69048591217159
 30
0.0
 40
1.2375
  1

 72
     1
 11
59.04934003701934
 21
43.69048591217159
 31
0.0
100
AcDbAttributeDefinition
  3
ADD PAGE NUMBER
  2
TS00XX
 70
     0
  0
LINE
  5
86
330
57
100
AcDbEntity
  8
0
100
AcDbLine
 10
63.0907971953311
 20
41.85161907700595
 30
0.0
 11
55.03498980215056
 21
41.85161907700595
 31
0.0
  0
LINE
  5
87
330
57
100
AcDbEntity
  8
0
100
AcDbLine
 10
55.03498980215056
 20
41.85161907700595
 30
0.0
 11
55.03498980215056
 21
46.93339791359997
 31
0.0
  0
LINE
  5
88
330
57
100
AcDbEntity
  8
0
100
AcDbLine
 10
63.0907971953311
 20
46.93339791359997
 30
0.0
 11
63.0907971953311
 21
41.85161907700595
 31
0.0
  0
LINE
  5
89
330
57
100
AcDbEntity
  8
0
100
AcDbLine
 10
63.0907971953311
 20
46.93339791359997
 30
0.0
 11
0.0
 21
46.93339791359997
 31
0.0
  0
ENDBLK
  5
8B
330
57
100
AcDbEntity
  8
0
 62
     7
100
AcDbBlockEnd
  0
BLOCK
  5
D9
330
D1
100
AcDbEntity
  8
0
 62
     7
100
AcDbBlockBegin
  2
LINK FLAG
 70
     2
 10
0.0
 20
0.0
 30
0.0
  3
LINK FLAG
  1

  0
SOLID
  5
D2
330
D1
100
AcDbEntity
  8
A1
 62
     1
100
AcDbTrace
 10
0.408488260029003
 20
0.3001362788183428
 30
0.0
 11
0.2890663177079773
 21
0.4163953751078396
 31
0.0
 12
0.0
 22
0.0
 32
0.0
 13
0.0
 23
0.0
 33
0.0
  0
LINE
  5
D3
330
D1
100
AcDbEntity
  8
A1
 62
     1
100
AcDbLine
 10
0.3487772888684901
 20
0.3582658269630912
 30
0.0
 11
4.449644902191081
 21
4.57069815453687
 31
0.0
  0
ATTDEF
  5
D4
330
D1
100
AcDbEntity
  8
A1
 62
     1
100
AcDbText
 10
10.75853330829194
 20
4.953467229082193
 30
0.0
 40
1.0
  1

100
AcDbAttributeDefinition
  3
ADD LINK NUMBER (WMF)
  2
XXXXXX
 70
     0
  0
MTEXT
  5
D5
330
D1
100
AcDbEntity
  8
0
 62
     1
100
AcDbMText
 10
10.79736583926697
 20
4.206192006567398
 30
0.0
 40
1.0
 41
0.0
 71
     1
 72
     1
  1
TannerStone
 73
     1
 44
1.0
1001
ACAD
1000
MTEXTBEGIN
1070
    73
1070
     1
1070
    44
1040
1.0
1070
    74
1070
     0
1000
MTEXTEND
1000
MTEXTBEGIN
1070
    73
1070
     1
1070
    44
1040
1.0
1070
    74
1070
     0
1000
MTEXTEND
  0
MTEXT
  5
D6
330
D1
100
AcDbEntity
  8
0
 62
     1
100
AcDbMText
 10
10.87510824661537
 20
2.68903194023958
 30
0.0
 40
0.7386749999999999
 41
0.0
 71
     1
 72
     1
  1
1-800-789-4841
 73
     1
 44
1.0
1001
ACAD
1000
MTEXTBEGIN
1070
    73
1070
     1
1070
    44
1040
1.0
1070
    74
1070
     0
1000
MTEXTEND
1000
MTEXTBEGIN
1070
    73
1070
     1
1070
    44
1040
1.0
1070
    74
1070
     0
1000
MTEXTEND
  0
LINE
  5
D7
330
D1
100
AcDbEntity
  8
0
 62
     1
100
AcDbLine
 10
4.449644902191081
 20
4.57069815453687
 30
0.0
 11
19.37910172053511
 21
4.57069815453687
 31
0.0
  0
LINE
  5
D8
330
D1
100
AcDbEntity
  8
0
 62
     1
100
AcDbLine
 10
10.27170295921419
 20
1.582920602761227
 30
0.0
 11
10.27170295921419
 21
6.137374365587334
 31
0.0
  0
ENDBLK
  5
DA
330
D1
100
AcDbEntity
  8
0
 62
     7
100
AcDbBlockEnd
  0
BLOCK
  5
3C7
330
3C3
100
AcDbEntity
  8
0
100
AcDbBlockBegin
  2
1TAG
 70
     2
 10
0.0
 20
0.0
 30
0.0
  3
1TAG
  1

  0
ATTDEF
  5
3C4
330
3C3
100
AcDbEntity
  8
TAG
100
AcDbText
 10
-0.0249711999480675
 20
3.469940758643338
 30
0.0
 40
1.0
  1
#
  7
ROMANC
100
AcDbAttributeDefinition
  3
ENTER:DWG#
  2
#
 70
     0
  0
ATTDEF
  5
3C5
330
3C3
100
AcDbEntity
  8
TAG
100
AcDbText
 10
-0.0249711999480675
 20
2.178164137202304
 30
0.0
 40
1.0
  1
DWG
  7
ROMANC
100
AcDbAttributeDefinition
  3
ENTER:DWGNAME
  2
NAME
 70
     0
  0
ATTDEF
  5
3C6
330
3C3
100
AcDbEntity
  8
TAG
100
AcDbText
 10
-0.0249711999480675
 20
0.8641154829538585
 30
0.0
 40
1.0
  1
AREA
  7
ROMANC
100
AcDbAttributeDefinition
  3
ENTER:AREA
  2
AREA
 70
     0
  0
ENDBLK
  5
3C8
330
3C3
100
AcDbEntity
  8
0
100
AcDbBlockEnd
  0
BLOCK
  5
649
330
63E
100
AcDbEntity
  8
0
 62
     7
100
AcDbBlockBegin
  2
*D5
 70
     1
 10
0.0
 20
0.0
 30
0.0
  3
*D5
  1

  0
LINE
  5
63F
330
63E
100
AcDbEntity
  8
A1
 62
     0
370
    -2
100
AcDbLine
 10
26.07727595380295
 20
21.03843810237374
 30
0.0
 11
26.07727595380295
 21
17.17985151394923
 31
0.0
  0
LINE
  5
640
330
63E
100
AcDbEntity
  8
A1
 62
     0
370
    -2
100
AcDbLine
 10
36.07727595380295
 20
21.03843810237385
 30
0.0
 11
36.07727595380295
 21
17.17985151394923
 31
0.0
  0
LINE
  5
641
330
63E
100
AcDbEntity
  8
A1
 62
     0
370
    -2
100
AcDbLine
 10
26.57727595380295
 20
17.42985151394923
 30
0.0
 11
29.45622922853797
 21
17.42985151394923
 31
0.0
  0
LINE
  5
642
330
63E
100
AcDbEntity
  8
A1
 62
     0
370
    -2
100
AcDbLine
 10
35.57727595380295
 20
17.42985151394923
 30
0.0
 11
32.96154460770169
 21
17.42985151394923
 31
0.0
  0
MTEXT
  5
643
330
63E
100
AcDbEntity
  8
A1
 62
     0
100
AcDbMText
 10
31.20888691811983
 20
17.42985151394923
 30
0.0
 40
1.0
 41
0.0
 71
     5
 72
     1
  1
\A1;10"
 73
     1
 44
1.0
1001
ACAD
1000
MTEXTBEGIN
1070
    73
1070
     1
1070
    44
1040
1.0
1070
    74
1070
     0
1000
MTEXTEND
1000
MTEXTBEGIN
1070
    73
1070
     1
1070
    44
1040
1.0
1070
    74
1070
     0
1000
MTEXTEND
  0
SOLID
  5
644
330
63E
100
AcDbEntity
  8
A1
 62
     0
100
AcDbTrace
 10
26.57727595380295
 20
17.51318484728256
 30
0.0
 11
26.57727595380295
 21
17.34651818061589
 31
0.0
 12
26.07727595380295
 22
17.42985151394923
 32
0.0
 13
26.07727595380295
 23
17.42985151394923
 33
0.0
  0
SOLID
  5
645
330
63E
100
AcDbEntity
  8
A1
 62
     0
100
AcDbTrace
 10
35.57727595380295
 20
17.51318484728256
 30
0.0
 11
35.57727595380295
 21
17.34651818061589
 31
0.0
 12
36.07727595380295
 22
17.42985151394923
 32
0.0
 13
36.07727595380295
 23
17.42985151394923
 33
0.0
  0
POINT
  5
646
330
63E
100
AcDbEntity
  8
Defpoints
 62
     0
100
AcDbPoint
 10
26.07727595380295
 20
22.03843810237374
 30
0.0
  0
POINT
  5
647
330
63E
100
AcDbEntity
  8
Defpoints
 62
     0
100
AcDbPoint
 10
36.07727595380295
 20
22.03843810237386
 30
0.0
  0
POINT
  5
648
330
63E
100
AcDbEntity
  8
Defpoints
 62
     0
100
AcDbPoint
 10
36.07727595380295
 20
17.42985151394923
 30
0.0
  0
ENDBLK
  5
64A
330
63E
100
AcDbEntity
  8
0
 62
     7
100
AcDbBlockEnd
  0
BLOCK
  5
656
330
64B
100
AcDbEntity
  8
0
 62
     7
100
AcDbBlockBegin
  2
*D6
 70
     1
 10
0.0
 20
0.0
 30
0.0
  3
*D6
  1

  0
LINE
  5
64C
330
64B
100
AcDbEntity
  8
A1
 62
     0
370
    -2
100
AcDbLine
 10
34.82527340296722
 20
31.36968650895142
 30
0.0
 11
34.82546022719208
 21
34.58222055866115
 31
0.0
  0
LINE
  5
64D
330
64B
100
AcDbEntity
  8
A1
 62
     0
370
    -2
100
AcDbLine
 10
27.32939072908508
 20
31.37012243039177
 30
0.0
 11
27.32957755330993
 21
34.5826564801015
 31
0.0
  0
LINE
  5
64E
330
64B
100
AcDbEntity
  8
A1
 62
     0
370
    -2
100
AcDbLine
 10
34.32544568934151
 20
34.33224963647603
 30
0.0
 11
34.1063380064617
 21
34.33226237863607
 31
0.0
  0
LINE
  5
64F
330
64B
100
AcDbEntity
  8
A1
 62
     0
370
    -2
100
AcDbLine
 10
27.82956301376837
 20
34.33262740313213
 30
0.0
 11
28.55920831121011
 21
34.33258497076721
 31
0.0
  0
MTEXT
  5
650
330
64B
100
AcDbEntity
  8
A1
 62
     0
100
AcDbMText
 10
31.3327731588359
 20
34.33242367470163
 30
0.0
 40
1.0
 41
0.0
 71
     5
 72
     1
  1
\A1;7 1/2"
 73
     1
 44
1.0
1001
ACAD
1000
MTEXTBEGIN
1070
    73
1070
     1
1070
    44
1040
1.0
1070
    74
1070
     0
1000
MTEXTEND
1000
MTEXTBEGIN
1070
    73
1070
     1
1070
    44
1040
1.0
1070
    74
1070
     0
1000
MTEXTEND
  0
SOLID
  5
651
330
64B
100
AcDbEntity
  8
A1
 62
     0
100
AcDbTrace
 10
34.32545053557353
 20
34.41558296966844
 30
0.0
 11
34.32544084310949
 21
34.2489163032836
 31
0.0
 12
34.82544568849601
 22
34.33222055908391
 32
0.0
 13
34.82544568849601
 23
34.33222055908391
 33
0.0
  0
SOLID
  5
652
330
64B
100
AcDbEntity
  8
A1
 62
     0
100
AcDbTrace
 10
27.82956786000039
 20
34.41596073632455
 30
0.0
 11
27.82955816753635
 21
34.24929406993971
 31
0.0
 12
27.32956301461387
 22
34.33265648052425
 32
0.0
 13
27.32956301461387
 23
34.33265648052425
 33
0.0
  0
POINT
  5
653
330
64B
100
AcDbEntity
  8
Defpoints
 62
     0
100
AcDbPoint
 10
34.82521524818298
 20
30.36968651064241
 30
0.0
  0
POINT
  5
654
330
64B
100
AcDbEntity
  8
Defpoints
 62
     0
100
AcDbPoint
 10
27.32933257430083
 20
30.37012243208276
 30
0.0
  0
POINT
  5
655
330
64B
100
AcDbEntity
  8
Defpoints
 62
     0
100
AcDbPoint
 10
27.32956301461387
 20
34.33265648052425
 30
0.0
  0
ENDBLK
  5
657
330
64B
100
AcDbEntity
  8
0
 62
     7
100
AcDbBlockEnd
  0
BLOCK
  5
663
330
658
100
AcDbEntity
  8
0
 62
     7
100
AcDbBlockBegin
  2
*D7
 70
     1
 10
0.0
 20
0.0
 30
0.0
  3
*D7
  1

  0
LINE
  5
659
330
658
100
AcDbEntity
  8
A1
 62
     0
370
    -2
100
AcDbLine
 10
37.07727595380295
 20
22.03843810237386
 30
0.0
 11
41.80339113316229
 21
22.03843810237385
 31
0.0
  0
LINE
  5
65A
330
658
100
AcDbEntity
  8
A1
 62
     0
370
    -2
100
AcDbLine
 10
35.07727595380295
 20
31.03843810237385
 30
0.0
 11
41.80339113316229
 21
31.03843810237385
 31
0.0
  0
LINE
  5
65B
330
658
100
AcDbEntity
  8
A1
 62
     0
370
    -2
100
AcDbLine
 10
41.55339113316229
 20
22.53843810237385
 30
0.0
 11
41.55339113316229
 21
25.63628388712112
 31
0.0
  0
LINE
  5
65C
330
658
100
AcDbEntity
  8
A1
 62
     0
370
    -2
100
AcDbLine
 10
41.55339113316229
 20
30.53843810237385
 30
0.0
 11
41.55339113316229
 21
27.67384589987803
 31
0.0
  0
MTEXT
  5
65D
330
658
100
AcDbEntity
  8
A1
 62
     0
100
AcDbMText
 10
41.55339113316229
 20
26.65506489349958
 30
0.0
 40
1.0
 41
0.0
 71
     5
 72
     1
  1
\A1;9"
 73
     1
 44
1.0
1001
ACAD
1000
MTEXTBEGIN
1070
    73
1070
     1
1070
    44
1040
1.0
1070
    74
1070
     0
1000
MTEXTEND
1000
MTEXTBEGIN
1070
    73
1070
     1
1070
    44
1040
1.0
1070
    74
1070
     0
1000
MTEXTEND
  0
SOLID
  5
65E
330
658
100
AcDbEntity
  8
A1
 62
     0
100
AcDbTrace
 10
41.47005779982896
 20
22.53843810237385
 30
0.0
 11
41.63672446649562
 21
22.53843810237385
 31
0.0
 12
41.55339113316229
 22
22.03843810237385
 32
0.0
 13
41.55339113316229
 23
22.03843810237385
 33
0.0
  0
SOLID
  5
65F
330
658
100
AcDbEntity
  8
A1
 62
     0
100
AcDbTrace
 10
41.47005779982896
 20
30.53843810237385
 30
0.0
 11
41.63672446649562
 21
30.53843810237385
 31
0.0
 12
41.55339113316229
 22
31.03843810237385
 32
0.0
 13
41.55339113316229
 23
31.03843810237385
 33
0.0
  0
POINT
  5
660
330
658
100
AcDbEntity
  8
Defpoints
 62
     0
100
AcDbPoint
 10
36.07727595380295
 20
22.03843810237386
 30
0.0
  0
POINT
  5
661
330
658
100
AcDbEntity
  8
Defpoints
 62
     0
100
AcDbPoint
 10
34.07727595380295
 20
31.03843810237385
 30
0.0
  0
POINT
  5
662
330
658
100
AcDbEntity
  8
Defpoints
 62
     0
100
AcDbPoint
 10
41.55339113316229
 20
31.03843810237385
 30
0.0
  0
ENDBLK
  5
664
330
658
100
AcDbEntity
  8
0
 62
     7
100
AcDbBlockEnd
  0
BLOCK
  5
670
330
665
100
AcDbEntity
  8
0
 62
     7
100
AcDbBlockBegin
  2
*D8
 70
     1
 10
0.0
 20
0.0
 30
0.0
  3
*D8
  1

  0
LINE
  5
666
330
665
100
AcDbEntity
  8
A1
 62
     0
370
    -2
100
AcDbLine
 10
24.83028843421479
 20
22.3635335465361
 30
0.0
 11
24.83028843421479
 21
14.26988494887132
 31
0.0
  0
LINE
  5
667
330
665
100
AcDbEntity
  8
A1
 62
     0
370
    -2
100
AcDbLine
 10
37.32699592844504
 20
22.31135030724007
 30
0.0
 11
37.32699592844504
 21
14.26988494887132
 31
0.0
  0
LINE
  5
668
330
665
100
AcDbEntity
  8
A1
 62
     0
370
    -2
100
AcDbLine
 10
25.3302884342148
 20
14.51988494887132
 30
0.0
 11
27.81653612343466
 21
14.51988494887132
 31
0.0
  0
LINE
  5
669
330
665
100
AcDbEntity
  8
A1
 62
     0
370
    -2
100
AcDbLine
 10
36.82699592844504
 20
14.51988494887132
 30
0.0
 11
34.10569274994069
 21
14.51988494887132
 31
0.0
  0
MTEXT
  5
66A
330
665
100
AcDbEntity
  8
A1
 62
     0
100
AcDbMText
 10
30.96111443668768
 20
14.51988494887132
 30
0.0
 40
1.0
 41
0.0
 71
     5
 72
     1
  1
\A1;12 1/2"
 73
     1
 44
1.0
1001
ACAD
1000
MTEXTBEGIN
1070
    73
1070
     1
1070
    44
1040
1.0
1070
    74
1070
     0
1000
MTEXTEND
1000
MTEXTBEGIN
1070
    73
1070
     1
1070
    44
1040
1.0
1070
    74
1070
     0
1000
MTEXTEND
  0
SOLID
  5
66B
330
665
100
AcDbEntity
  8
A1
 62
     0
100
AcDbTrace
 10
25.3302884342148
 20
14.60321828220465
 30
0.0
 11
25.3302884342148
 21
14.43655161553798
 31
0.0
 12
24.83028843421479
 22
14.51988494887132
 32
0.0
 13
24.83028843421479
 23
14.51988494887132
 33
0.0
  0
SOLID
  5
66C
330
665
100
AcDbEntity
  8
A1
 62
     0
100
AcDbTrace
 10
36.82699592844504
 20
14.60321828220465
 30
0.0
 11
36.82699592844504
 21
14.43655161553798
 31
0.0
 12
37.32699592844504
 22
14.51988494887132
 32
0.0
 13
37.32699592844504
 23
14.51988494887132
 33
0.0
  0
POINT
  5
66D
330
665
100
AcDbEntity
  8
Defpoints
 62
     0
100
AcDbPoint
 10
24.83028843421479
 20
23.3635335465361
 30
0.0
  0
POINT
  5
66E
330
665
100
AcDbEntity
  8
Defpoints
 62
     0
100
AcDbPoint
 10
37.32699592844504
 20
23.31135030724007
 30
0.0
  0
POINT
  5
66F
330
665
100
AcDbEntity
  8
Defpoints
 62
     0
100
AcDbPoint
 10
37.32699592844504
 20
14.51988494887132
 30
0.0
  0
ENDBLK
  5
671
330
665
100
AcDbEntity
  8
0
 62
     7
100
AcDbBlockEnd
  0
BLOCK
  5
68C
330
672
100
AcDbEntity
  8
0
 62
     7
100
AcDbBlockBegin
  2
TS1578
 70
     0
 10
0.0
 20
0.0
 30
0.0
  3
TS1578
  1

  0
LWPOLYLINE
  5
673
330
672
100
AcDbEntity
  8
A1
 62
     7
100
AcDbPolyline
 90
        2
 70
     0
 43
0.12
 10
34.07727595380295
 20
29.66343810237386
 10
28.07727595380272
 20
29.66343810237374
  0
LWPOLYLINE
  5
674
330
672
100
AcDbEntity
  8
A1
 62
     7
100
AcDbPolyline
 90
        2
 70
     0
 43
0.12
 10
34.07727595380284
 20
29.22593810237385
 10
28.07727595380283
 20
29.22593810237374
  0
LWPOLYLINE
  5
675
330
672
100
AcDbEntity
  8
A1
 62
     7
100
AcDbPolyline
 90
        2
 70
     0
 43
0.12
 10
36.07727595380284
 20
24.97593810237374
 10
26.07727595380295
 20
24.97593810237363
  0
LWPOLYLINE
  5
676
330
672
100
AcDbEntity
  8
A1
 62
     7
100
AcDbPolyline
 90
        2
 70
     0
 43
0.12
 10
36.07727595380295
 20
24.28843810237386
 10
26.07727595380295
 20
24.28843810237374
  0
LWPOLYLINE
  5
677
330
672
100
AcDbEntity
  8
A1
 62
     7
100
AcDbPolyline
 90
        2
 70
     0
 43
0.12
 10
36.07727595380295
 20
22.28843810237385
 10
26.07727595380295
 20
22.28843810237374
  0
LWPOLYLINE
  5
678
330
672
100
AcDbEntity
  8
0
100
AcDbPolyline
 90
       38
 70
     1
 43
0.12
 10
31.07727595380295
 20
22.03843810237397
 10
26.07727595380295
 20
22.03843810237374
 10
26.07727595380295
 20
22.28843810237374
 10
25.61553317229682
 20
22.36289348315308
 42
-0.8516685226452354
 10
25.61553317229693
 20
24.2139827215944
 10
26.07727595380295
 20
24.28843810237374
 10
26.07727595380295
 20
24.97593810237363
 10
27.51919457416461
 20
25.52996160030154
 10
28.35950251630284
 20
26.22166564143624
 10
28.88196345380284
 20
26.90586974299886
 10
29.17590876630283
 20
27.42967345393636
 10
29.26477595380295
 20
27.85093810237386
 10
29.17200251630283
 20
28.22752501643636
 10
28.92102595380284
 20
28.61729552424886
 10
28.07727595380283
 20
29.22593810237374
 10
28.07727595380272
 20
29.66343810237374
 10
27.81987917296119
 20
29.74718243666991
 42
-0.8381635747139435
 10
27.90928395118619
 20
31.02064196317185
 10
28.07727595380272
 20
31.03843810237374
 10
31.07727595380284
 20
31.03843810237385
 10
34.07727595380295
 20
31.03843810237385
 10
34.24526795641948
 20
31.02064196317197
 42
-0.8381635747139435
 10
34.33467273464448
 20
29.74718243667003
 10
34.07727595380295
 20
29.66343810237386
 10
34.07727595380284
 20
29.22593810237385
 10
33.23352595380295
 20
28.61729552424886
 10
32.98254939130295
 20
28.22752501643636
 10
32.88977595380284
 20
27.85093810237386
 10
32.97864314130295
 20
27.42967345393636
 10
33.27258845380295
 20
26.90586974299886
 10
33.79504939130295
 20
26.22166564143636
 10
34.63535733344118
 20
25.52996160030166
 10
36.07727595380284
 20
24.97593810237374
 10
36.07727595380295
 20
24.28843810237386
 10
36.53901873530897
 20
24.21398272159452
 42
-0.8516685226452354
 10
36.53901873530908
 20
22.3628934831532
 10
36.07727595380295
 20
22.28843810237385
 10
36.07727595380295
 20
22.03843810237386
  0
INSERT
  5
679
330
672
100
AcDbEntity
  8
A1
 62
     7
100
AcDbBlockReference
 66
     1
  2
PROFILE LOGO
 10
26.15209840112909
 20
24.15746276286286
 30
0.0
  0
ATTRIB
  5
67A
330
679
100
AcDbEntity
  8
A1
 62
    22
100
AcDbText
 10
26.43423264344939
 20
22.47916451395629
 30
0.0
 40
0.2126953125
  1
1578
 72
     1
 11
26.83022880641006
 21
22.47916451395629
 31
0.0
100
AcDbAttribute
  2
XXXX
 70
     0
  0
SEQEND
  5
67B
330
679
100
AcDbEntity
  8
A1
 62
     7
  0
LINE
  5
67C
330
672
100
AcDbEntity
  8
0
100
AcDbLine
 10
36.07727595380295
 20
22.03843810237386
 30
0.0
 11
36.07727595380295
 21
22.28843810237385
 31
0.0
  0
INSERT
  5
67D
330
672
100
AcDbEntity
  8
A1
 62
     7
100
AcDbBlockReference
 66
     1
  2
tsforma
 10
0.0
 20
0.0
 30
0.0
  0
ATTRIB
  5
67E
330
67D
100
AcDbEntity
  8
A1
 62
     1
100
AcDbText
 10
10.04433793225116
 20
1.116082561967672
 30
0.0
 40
0.5
  1
TS1578
 72
     2
 11
12.82959661403713
 21
1.116082561967672
 31
0.0
100
AcDbAttribute
  2
XXXXXX
 70
     0
  0
ATTRIB
  5
67F
330
67D
100
AcDbEntity
  8
A1
 62
     1
100
AcDbText
 10
3.096718426088335
 20
1.863125907903508
 30
0.0
 40
4.5625
  1
TS1578
  7
barcoder
 72
     1
 11
7.602187176088335
 21
1.863125907903508
 31
0.0
100
AcDbAttribute
  2
BARCODE
 70
     0
  0
ATTRIB
  5
680
330
67D
100
AcDbEntity
  8
A1
 62
     1
100
AcDbText
 10
20.67243568610114
 20
0.6162142197210088
 30
0.0
 40
0.7559999999999999
  1
10" PEDESTAL
 72
     1
 11
24.55771846427264
 21
0.6162142197210088
 31
0.0
100
AcDbAttribute
  2
XXXXXX
 70
     0
  0
ATTRIB
  5
681
330
67D
100
AcDbEntity
  8
A1
 62
     1
100
AcDbText
 10
58.55920815495378
 20
5.923645198888223
 30
0.0
 40
0.703125
  1
68.13"
 72
     1
 11
60.24601051143854
 21
5.923645198888223
 31
0.0
100
AcDbAttribute
  2
XXXXX
 70
     0
  0
ATTRIB
  5
682
330
67D
100
AcDbEntity
  8
A1
 62
     1
100
AcDbText
 10
58.796648336016
 20
4.231165867870629
 30
0.0
 40
0.703125
  1
61.50
 72
     1
 11
60.22058858229524
 21
4.231165867870629
 31
0.0
100
AcDbAttribute
  2
XXXXX
 70
     0
  0
ATTRIB
  5
683
330
67D
100
AcDbEntity
  8
A1
 62
     1
100
AcDbText
 10
55.6025824183092
 20
43.69048591217159
 30
0.0
 40
1.2375
  1
TS1578
 72
     1
 11
59.04934003701934
 21
43.69048591217159
 31
0.0
100
AcDbAttribute
  2
TS00XX
 70
     0
  0
SEQEND
  5
684
330
67D
100
AcDbEntity
  8
A1
 62
     7
  0
DIMENSION
  5
685
330
672
100
AcDbEntity
  8
A1
 62
     7
100
AcDbDimension
  2
*D5
 10
36.07727595380295
 20
17.42985151394923
 30
0.0
 11
31.20888691811983
 21
17.42985151394923
 31
0.0
 70
   161
 71
     5
 42
-1.0
  3
STANDARD
100
AcDbAlignedDimension
 13
26.07727595380295
 23
22.03843810237374
 33
0.0
 14
36.07727595380295
 24
22.03843810237386
 34
0.0
1001
ACAD
1000
DSTYLE
1002
{
1070
   287
1070
     4
1070
    73
1070
     1
1070
    74
1070
     1
1070
    77
1070
     0
1070
   147
1040
0.5
1070
   279
1070
     1
1070
   288
1070
     1
1070
   289
1070
     3
1002
}
  0
DIMENSION
  5
686
330
672
100
AcDbEntity
  8
A1
 62
     7
100
AcDbDimension
  2
*D6
 10
27.32956301461387
 20
34.33265648052425
 30
0.0
 11
31.3327731588359
 21
34.33242367470163
 31
0.0
 70
   161
 71
     5
 42
-1.0
  3
STANDARD
100
AcDbAlignedDimension
 13
34.82521524818298
 23
30.36968651064241
 33
0.0
 14
27.32933257430083
 24
30.37012243208276
 34
0.0
1001
ACAD
1000
DSTYLE
1002
{
1070
   287
1070
     4
1070
    73
1070
     1
1070
    74
1070
     1
1070
    77
1070
     0
1070
   147
1040
0.5
1070
   279
1070
     1
1070
   288
1070
     1
1070
   289
1070
     3
1002
}
  0
DIMENSION
  5
687
330
672
100
AcDbEntity
  8
A1
 62
     7
100
AcDbDimension
  2
*D7
 10
41.55339113316229
 20
31.03843810237385
 30
0.0
 11
41.55339113316229
 21
26.65506489349958
 31
0.0
 70
   160
 71
     5
 42
-1.0
  3
STANDARD
100
AcDbAlignedDimension
 13
36.07727595380295
 23
22.03843810237386
 33
0.0
 14
34.07727595380295
 24
31.03843810237385
 34
0.0
 50
90.0
100
AcDbRotatedDimension
1001
ACAD
1000
DSTYLE
1002
{
1070
   287
1070
     4
1070
    73
1070
     1
1070
    74
1070
     1
1070
    77
1070
     0
1070
   147
1040
0.5
1070
   279
1070
     1
1070
   288
1070
     1
1070
   289
1070
     3
1002
}
  0
DIMENSION
  5
688
330
672
100
AcDbEntity
  8
A1
 62
     7
100
AcDbDimension
  2
*D8
 10
37.32699592844504
 20
14.51988494887132
 30
0.0
 11
30.96111443668768
 21
14.51988494887132
 31
0.0
 70
   160
 71
     5
 42
-1.0
  3
STANDARD
100
AcDbAlignedDimension
 13
24.83028843421479
 23
23.3635335465361
 33
0.0
 14
37.32699592844504
 24
23.31135030724007
 34
0.0
100
AcDbRotatedDimension
1001
ACAD
1000
DSTYLE
1002
{
1070
   287
1070
     4
1070
    73
1070
     1
1070
    74
1070
     1
1070
    77
1070
     0
1070
   147
1040
0.5
1070
   279
1070
     1
1070
   288
1070
     1
1070
   289
1070
     3
1002
}
  0
INSERT
  5
689
330
672
100
AcDbEntity
  8
A1
 62
     7
100
AcDbBlockReference
 66
     1
  2
LINK FLAG
 10
34.58705172110569
 20
30.87806657230257
 30
0.0
  0
ATTRIB
  5
68A
330
689
100
AcDbEntity
  8
A1
 62
     1
100
AcDbText
 10
45.34558502939764
 20
35.83153380138476
 30
0.0
 40
1.0
  1
TS1578
100
AcDbAttribute
  2
XXXXXX
 70
     0
  0
SEQEND
  5
68B
330
689
100
AcDbEntity
  8
A1
 62
     7
  0
ENDBLK
  5
68D
330
672
100
AcDbEntity
  8
0
 62
     7
100
AcDbBlockEnd
  0
BLOCK
  5
806
330
7FB
100
AcDbEntity
  8
0
 62
     7
100
AcDbBlockBegin
  2
*D10
 70
     1
 10
0.0
 20
0.0
 30
0.0
  3
*D10
  1

  0
LINE
  5
7FC
330
7FB
100
AcDbEntity
  8
A1
 62
     0
370
    -2
100
AcDbLine
 10
84.29188357497276
 20
2.497819668087458
 30
0.0
 11
99.02987048138484
 21
2.497819668087454
 31
0.0
  0
LINE
  5
7FD
330
7FB
100
AcDbEntity
  8
A1
 62
     0
370
    -2
100
AcDbLine
 10
82.10438357497286
 20
11.49781966808744
 30
0.0
 11
99.02987048138484
 21
11.49781966808743
 31
0.0
  0
LINE
  5
7FE
330
7FB
100
AcDbEntity
  8
A1
 62
     0
370
    -2
100
AcDbLine
 10
98.74987048138486
 20
3.057819668087454
 30
0.0
 11
98.74987048138486
 21
6.018597350175117
 31
0.0
  0
LINE
  5
7FF
330
7FB
100
AcDbEntity
  8
A1
 62
     0
370
    -2
100
AcDbLine
 10
98.74987048138486
 20
10.93781966808743
 30
0.0
 11
98.74987048138486
 21
8.300666804462856
 31
0.0
  0
MTEXT
  5
800
330
7FB
100
AcDbEntity
  8
A1
 62
     0
100
AcDbMText
 10
98.74987048138486
 20
7.159632077319002
 30
0.0
 40
1.12
 41
0.0
 71
     5
 72
     1
  1
\A1;9"
 73
     1
 44
1.0
1001
ACAD
1000
MTEXTBEGIN
1070
    73
1070
     1
1070
    44
1040
1.0
1070
    74
1070
     0
1000
MTEXTEND
1000
MTEXTBEGIN
1070
    73
1070
     1
1070
    44
1040
1.0
1070
    74
1070
     0
1000
MTEXTEND
  0
SOLID
  5
801
330
7FB
100
AcDbEntity
  8
A1
 62
     0
100
AcDbTrace
 10
98.65653714805151
 20
3.057819668087454
 30
0.0
 11
98.84320381471818
 21
3.057819668087454
 31
0.0
 12
98.74987048138486
 22
2.497819668087454
 32
0.0
 13
98.74987048138486
 23
2.497819668087454
 33
0.0
  0
SOLID
  5
802
330
7FB
100
AcDbEntity
  8
A1
 62
     0
100
AcDbTrace
 10
98.65653714805151
 20
10.93781966808743
 30
0.0
 11
98.84320381471818
 21
10.93781966808743
 31
0.0
 12
98.74987048138486
 22
11.49781966808743
 32
0.0
 13
98.74987048138486
 23
11.49781966808743
 33
0.0
  0
POINT
  5
803
330
7FB
100
AcDbEntity
  8
Defpoints
 62
     0
100
AcDbPoint
 10
83.17188357497276
 20
2.497819668087458
 30
0.0
  0
POINT
  5
804
330
7FB
100
AcDbEntity
  8
Defpoints
 62
     0
100
AcDbPoint
 10
80.98438357497286
 20
11.49781966808744
 30
0.0
  0
POINT
  5
805
330
7FB
100
AcDbEntity
  8
Defpoints
 62
     0
100
AcDbPoint
 10
98.74987048138486
 20
11.49781966808743
 30
0.0
  0
ENDBLK
  5
807
330
7FB
100
AcDbEntity
  8
0
 62
     7
100
AcDbBlockEnd
  0
BLOCK
  5
813
330
808
100
AcDbEntity
  8
0
 62
     7
100
AcDbBlockBegin
  2
*D11
 70
     1
 10
0.0
 20
0.0
 30
0.0
  3
*D11
  1

  0
LINE
  5
809
330
808
100
AcDbEntity
  8
A1
 62
     0
370
    -2
100
AcDbLine
 10
83.17188357497276
 20
1.377819668087458
 30
0.0
 11
83.17188357497276
 21
-1.937695878185279
 31
0.0
  0
LINE
  5
80A
330
808
100
AcDbEntity
  8
A1
 62
     0
370
    -2
100
AcDbLine
 10
72.67188357497298
 20
1.377819668087458
 30
0.0
 11
72.67188357497298
 21
-1.937695878185279
 31
0.0
  0
LINE
  5
80B
330
808
100
AcDbEntity
  8
A1
 62
     0
370
    -2
100
AcDbLine
 10
82.61188357497275
 20
-1.657695878185279
 30
0.0
 11
81.74842124499518
 21
-1.657695878185279
 31
0.0
  0
LINE
  5
80C
330
808
100
AcDbEntity
  8
A1
 62
     0
370
    -2
100
AcDbLine
 10
73.23188357497298
 20
-1.657695878185279
 30
0.0
 11
74.70456582330844
 21
-1.657695878185279
 31
0.0
  0
MTEXT
  5
80D
330
808
100
AcDbEntity
  8
A1
 62
     0
100
AcDbMText
 10
78.22649353415181
 20
-1.657695878185279
 30
0.0
 40
1.12
 41
0.0
 71
     5
 72
     1
  1
\A1;10 1/2"
 73
     1
 44
1.0
1001
ACAD
1000
MTEXTBEGIN
1070
    73
1070
     1
1070
    44
1040
1.0
1070
    74
1070
     0
1000
MTEXTEND
1000
MTEXTBEGIN
1070
    73
1070
     1
1070
    44
1040
1.0
1070
    74
1070
     0
1000
MTEXTEND
  0
SOLID
  5
80E
330
808
100
AcDbEntity
  8
A1
 62
     0
100
AcDbTrace
 10
82.61188357497275
 20
-1.564362544851946
 30
0.0
 11
82.61188357497275
 21
-1.751029211518612
 31
0.0
 12
83.17188357497276
 22
-1.657695878185279
 32
0.0
 13
83.17188357497276
 23
-1.657695878185279
 33
0.0
  0
SOLID
  5
80F
330
808
100
AcDbEntity
  8
A1
 62
     0
100
AcDbTrace
 10
73.23188357497298
 20
-1.564362544851946
 30
0.0
 11
73.23188357497298
 21
-1.751029211518612
 31
0.0
 12
72.67188357497298
 22
-1.657695878185279
 32
0.0
 13
72.67188357497298
 23
-1.657695878185279
 33
0.0
  0
POINT
  5
810
330
808
100
AcDbEntity
  8
Defpoints
 62
     0
100
AcDbPoint
 10
83.17188357497276
 20
2.497819668087458
 30
0.0
  0
POINT
  5
811
330
808
100
AcDbEntity
  8
Defpoints
 62
     0
100
AcDbPoint
 10
72.67188357497298
 20
2.497819668087458
 30
0.0
  0
POINT
  5
812
330
808
100
AcDbEntity
  8
Defpoints
 62
     0
100
AcDbPoint
 10
72.67188357497298
 20
-1.657695878185279
 30
0.0
  0
ENDBLK
  5
814
330
808
100
AcDbEntity
  8
0
 62
     7
100
AcDbBlockEnd
  0
BLOCK
  5
820
330
815
100
AcDbEntity
  8
0
 62
     7
100
AcDbBlockBegin
  2
*D12
 70
     1
 10
0.0
 20
0.0
 30
0.0
  3
*D12
  1

  0
LINE
  5
816
330
815
100
AcDbEntity
  8
A1
 62
     0
370
    -2
100
AcDbLine
 10
71.92412912569856
 20
2.434063266129023
 30
0.0
 11
71.92501615521841
 21
-4.997488699587236
 31
0.0
  0
LINE
  5
817
330
815
100
AcDbEntity
  8
A1
 62
     0
370
    -2
100
AcDbLine
 10
83.91979633586325
 20
2.43549506812338
 30
0.0
 11
83.92068336538311
 21
-4.996056897592876
 31
0.0
  0
LINE
  5
818
330
815
100
AcDbEntity
  8
A1
 62
     0
370
    -2
100
AcDbLine
 10
72.48498273044924
 20
-4.717421860021657
 30
0.0
 11
75.99347242341081
 21
-4.717003086938713
 31
0.0
  0
LINE
  5
819
330
815
100
AcDbEntity
  8
A1
 62
     0
370
    -2
100
AcDbLine
 10
83.36064994859214
 20
-4.716123741147558
 30
0.0
 11
79.91942564807416
 21
-4.716534485437993
 31
0.0
  0
MTEXT
  5
81A
330
815
100
AcDbEntity
  8
A1
 62
     0
100
AcDbMText
 10
77.95644903574249
 20
-4.716768786188369
 30
0.0
 40
1.12
 41
0.0
 71
     5
 72
     1
  1
\A1;12"
 73
     1
 44
1.0
1001
ACAD
1000
MTEXTBEGIN
1070
    73
1070
     1
1070
    44
1040
1.0
1070
    74
1070
     0
1000
MTEXTEND
1000
MTEXTBEGIN
1070
    73
1070
     1
1070
    44
1040
1.0
1070
    74
1070
     0
1000
MTEXTEND
  0
SOLID
  5
81B
330
815
100
AcDbEntity
  8
A1
 62
     0
100
AcDbTrace
 10
72.48497159018921
 20
-4.624088527353173
 30
0.0
 11
72.48499387070928
 21
-4.81075519269014
 31
0.0
 12
71.92498273443835
 22
-4.717488701581787
 32
0.0
 13
71.92498273443835
 23
-4.717488701581787
 33
0.0
  0
SOLID
  5
81C
330
815
100
AcDbEntity
  8
A1
 62
     0
100
AcDbTrace
 10
83.36063880833211
 20
-4.622790408479075
 30
0.0
 11
83.36066108885217
 21
-4.809457073816042
 31
0.0
 12
83.92064994460303
 22
-4.716056899587429
 32
0.0
 13
83.92064994460303
 23
-4.716056899587429
 33
0.0
  0
POINT
  5
81D
330
815
100
AcDbEntity
  8
Defpoints
 62
     0
100
AcDbPoint
 10
71.9239954425783
 20
3.554063258150819
 30
0.0
  0
POINT
  5
81E
330
815
100
AcDbEntity
  8
Defpoints
 62
     0
100
AcDbPoint
 10
83.919662652743
 20
3.555495060145176
 30
0.0
  0
POINT
  5
81F
330
815
100
AcDbEntity
  8
Defpoints
 62
     0
100
AcDbPoint
 10
83.92064994460303
 20
-4.716056899587429
 30
0.0
  0
ENDBLK
  5
821
330
815
100
AcDbEntity
  8
0
 62
     7
100
AcDbBlockEnd
  0
BLOCK
  5
82F
330
822
100
AcDbEntity
  8
0
 62
     7
100
AcDbBlockBegin
  2
*D13
 70
     1
 10
0.0
 20
0.0
 30
0.0
  3
*D13
  1

  0
LINE
  5
823
330
822
100
AcDbEntity
  8
A1
 62
     0
370
    -2
100
AcDbLine
 10
74.85938357497264
 20
12.49781966808745
 30
0.0
 11
74.85938357497264
 21
16.86833265896038
 31
0.0
  0
LINE
  5
824
330
822
100
AcDbEntity
  8
A1
 62
     0
370
    -2
100
AcDbLine
 10
80.98438357497263
 20
12.49781966808745
 30
0.0
 11
80.98438357497263
 21
16.86833265896038
 31
0.0
  0
LINE
  5
825
330
822
100
AcDbEntity
  8
A1
 62
     0
370
    -2
100
AcDbLine
 10
74.35938357497263
 20
16.61833265896038
 30
0.0
 11
73.85938357497264
 21
16.61833265896038
 31
0.0
  0
LINE
  5
826
330
822
100
AcDbEntity
  8
A1
 62
     0
370
    -2
100
AcDbLine
 10
81.48438357497264
 20
16.61833265896038
 30
0.0
 11
81.98438357497265
 21
16.61833265896038
 31
0.0
  0
LINE
  5
827
330
822
100
AcDbEntity
  8
A1
 62
     0
370
    -2
100
AcDbLine
 10
71.17589849002678
 20
16.61833265896038
 30
0.0
 11
74.85938357497264
 21
16.61833265896038
 31
0.0
  0
MTEXT
  5
828
330
822
100
AcDbEntity
  8
A1
 62
     0
100
AcDbMText
 10
68.39595518740452
 20
16.61833265896038
 30
0.0
 40
1.0
 41
0.0
 71
     5
 72
     1
  1
\A1;6 1/8"
 73
     1
 44
1.0
1001
ACAD
1000
MTEXTBEGIN
1070
    73
1070
     1
1070
    44
1040
1.0
1070
    74
1070
     0
1000
MTEXTEND
1000
MTEXTBEGIN
1070
    73
1070
     1
1070
    44
1040
1.0
1070
    74
1070
     0
1000
MTEXTEND
  0
LINE
  5
829
330
822
100
AcDbEntity
  8
A1
 62
     0
370
    -2
100
AcDbLine
 10
74.85938357497264
 20
16.61833265896038
 30
0.0
 11
80.98438357497263
 21
16.61833265896038
 31
0.0
  0
SOLID
  5
82A
330
822
100
AcDbEntity
  8
A1
 62
     0
100
AcDbTrace
 10
74.35938357497263
 20
16.70166599229371
 30
0.0
 11
74.35938357497263
 21
16.53499932562705
 31
0.0
 12
74.85938357497264
 22
16.61833265896038
 32
0.0
 13
74.85938357497264
 23
16.61833265896038
 33
0.0
  0
SOLID
  5
82B
330
822
100
AcDbEntity
  8
A1
 62
     0
100
AcDbTrace
 10
81.48438357497264
 20
16.70166599229371
 30
0.0
 11
81.48438357497264
 21
16.53499932562705
 31
0.0
 12
80.98438357497263
 22
16.61833265896038
 32
0.0
 13
80.98438357497263
 23
16.61833265896038
 33
0.0
  0
POINT
  5
82C
330
822
100
AcDbEntity
  8
Defpoints
 62
     0
100
AcDbPoint
 10
74.85938357497264
 20
11.49781966808745
 30
0.0
  0
POINT
  5
82D
330
822
100
AcDbEntity
  8
Defpoints
 62
     0
100
AcDbPoint
 10
80.98438357497263
 20
11.49781966808745
 30
0.0
  0
POINT
  5
82E
330
822
100
AcDbEntity
  8
Defpoints
 62
     0
100
AcDbPoint
 10
80.98438357497263
 20
16.61833265896038
 30
0.0
  0
ENDBLK
  5
830
330
822
100
AcDbEntity
  8
0
 62
     7
100
AcDbBlockEnd
  0
BLOCK
  5
83C
330
831
100
AcDbEntity
  8
0
 62
     7
100
AcDbBlockBegin
  2
*D14
 70
     1
 10
0.0
 20
0.0
 30
0.0
  3
*D14
  1

  0
LINE
  5
832
330
831
100
AcDbEntity
  8
A1
 62
     0
370
    -2
100
AcDbLine
 10
71.92267197931548
 20
27.43077030579323
 30
0.0
 11
71.92267197931548
 21
19.50040055507614
 31
0.0
  0
LINE
  5
833
330
831
100
AcDbEntity
  8
A1
 62
     0
370
    -2
100
AcDbLine
 10
83.92111271526179
 20
27.43185854555668
 30
0.0
 11
83.92111271526179
 21
19.50040055507614
 31
0.0
  0
LINE
  5
834
330
831
100
AcDbEntity
  8
A1
 62
     0
370
    -2
100
AcDbLine
 10
72.42267197931548
 20
19.75040055507614
 30
0.0
 11
75.93008249033379
 21
19.75040055507614
 31
0.0
  0
LINE
  5
835
330
831
100
AcDbEntity
  8
A1
 62
     0
370
    -2
100
AcDbLine
 10
83.42111271526178
 20
19.75040055507614
 30
0.0
 11
80.56721927275761
 21
19.75040055507614
 31
0.0
  0
MTEXT
  5
836
330
831
100
AcDbEntity
  8
A1
 62
     0
100
AcDbMText
 10
78.2486508815457
 20
19.75040055507614
 30
0.0
 40
1.0
 41
0.0
 71
     5
 72
     1
  1
\A1;%%C12"
 73
     1
 44
1.0
1001
ACAD
1000
MTEXTBEGIN
1070
    73
1070
     1
1070
    44
1040
1.0
1070
    74
1070
     0
1000
MTEXTEND
1000
MTEXTBEGIN
1070
    73
1070
     1
1070
    44
1040
1.0
1070
    74
1070
     0
1000
MTEXTEND
  0
SOLID
  5
837
330
831
100
AcDbEntity
  8
A1
 62
     0
100
AcDbTrace
 10
72.42267197931548
 20
19.83373388840947
 30
0.0
 11
72.42267197931548
 21
19.6670672217428
 31
0.0
 12
71.92267197931548
 22
19.75040055507614
 32
0.0
 13
71.92267197931548
 23
19.75040055507614
 33
0.0
  0
SOLID
  5
838
330
831
100
AcDbEntity
  8
A1
 62
     0
100
AcDbTrace
 10
83.42111271526178
 20
19.83373388840947
 30
0.0
 11
83.42111271526178
 21
19.6670672217428
 31
0.0
 12
83.92111271526179
 22
19.75040055507614
 32
0.0
 13
83.92111271526179
 23
19.75040055507614
 33
0.0
  0
POINT
  5
839
330
831
100
AcDbEntity
  8
Defpoints
 62
     0
100
AcDbPoint
 10
71.92267197931548
 20
28.43077030579323
 30
0.0
  0
POINT
  5
83A
330
831
100
AcDbEntity
  8
Defpoints
 62
     0
100
AcDbPoint
 10
83.92111271526179
 20
28.43185854555668
 30
0.0
  0
POINT
  5
83B
330
831
100
AcDbEntity
  8
Defpoints
 62
     0
100
AcDbPoint
 10
83.92111271526179
 20
19.75040055507614
 30
0.0
  0
ENDBLK
  5
83D
330
831
100
AcDbEntity
  8
0
 62
     7
100
AcDbBlockEnd
  0
BLOCK
  5
86F
330
850
100
AcDbEntity
  8
0
 62
     7
100
AcDbBlockBegin
  2
TS1577
 70
     0
 10
0.0
 20
0.0
 30
0.0
  3
TS1577
  1

  0
INSERT
  5
851
330
850
100
AcDbEntity
  8
A1
 62
     7
100
AcDbBlockReference
 66
     1
  2
tsforma
 10
42.9849669992726
 20
-15.67938989905278
 30
0.0
 41
1.119470624999999
 42
1.119470625
 43
1.119470625
  0
ATTRIB
  5
852
330
851
100
AcDbEntity
  8
A1
 62
     1
100
AcDbText
 10
54.23843222528059
 20
-14.42996825585524
 30
0.0
 40
0.5597353125000001
  1
TS1577
 72
     2
 11
57.34732353928661
 21
-14.42996825585524
 31
0.0
100
AcDbAttribute
  2
XXXXXX
 70
     0
  0
ATTRIB
  5
853
330
851
100
AcDbEntity
  8
A1
 62
     1
100
AcDbText
 10
46.45165231117476
 20
-13.59367517447834
 30
0.0
 40
5.1075847265625
  1
TS1577
  7
barcoder
 72
     1
 11
51.49539222865524
 21
-13.59367517447834
 31
0.0
100
AcDbAttribute
  2
BARCODE
 70
     0
  0
ATTRIB
  5
854
330
851
100
AcDbEntity
  8
A1
 62
     1
100
AcDbText
 10
67.43171956842346
 20
-14.98955618136781
 30
0.0
 40
0.8463197924999997
  1
PEDESTAL
 72
     1
 11
70.47661143704589
 21
-14.98955618136781
 31
0.0
100
AcDbAttribute
  2
XXXXXX
 70
     0
  0
ATTRIB
  5
855
330
851
100
AcDbEntity
  8
A1
 62
     1
100
AcDbText
 10
108.5377700224329
 20
-9.048043105975125
 30
0.0
 40
0.787127783203125
  1
72.19"
 72
     1
 11
110.4286060402691
 21
-9.048043105975125
 31
0.0
100
AcDbAttribute
  2
XXXXX
 70
     0
  0
ATTRIB
  5
856
330
851
100
AcDbEntity
  8
A1
 62
     1
100
AcDbText
 10
108.7795897366502
 20
-10.94272400046897
 30
0.0
 40
0.787127783203125
  1
65.17
 72
     1
 11
110.4001469373625
 21
-10.94272400046897
 31
0.0
100
AcDbAttribute
  2
XXXXX
 70
     0
  0
ATTRIB
  5
857
330
851
100
AcDbEntity
  8
A1
 62
     1
100
AcDbText
 10
105.2417155952696
 20
33.23082567159963
 30
0.0
 40
1.3853448984375
  1
TS1577
 72
     1
 11
109.0889685963521
 21
33.23082567159963
 31
0.0
100
AcDbAttribute
  2
TS00XX
 70
     0
  0
SEQEND
  5
858
330
851
100
AcDbEntity
  8
A1
 62
     7
  0
LWPOLYLINE
  5
859
330
850
100
AcDbEntity
  8
0
100
AcDbPolyline
 90
       12
 70
     1
 43
0.12
 10
77.92188357497287
 20
2.497819668087458
 10
72.67188357497298
 20
2.497819668087458
 10
72.67188357497298
 20
2.747819668087458
 42
-0.9999999999999998
 10
72.67188357497298
 20
4.247819668087458
 10
72.67188357497286
 20
4.622819668087231
 42
0.2575117340842984
 10
74.85938357497286
 20
11.49781966808745
 10
77.92188357497275
 20
11.49781966808745
 10
80.98438357497286
 20
11.49781966808745
 42
0.2575117340842984
 10
83.17188357497286
 20
4.622819668087231
 10
83.17188357497276
 20
4.247819668087458
 42
-0.9999999999999998
 10
83.17188357497276
 20
2.747819668087458
 10
83.17188357497276
 20
2.497819668087458
  0
LWPOLYLINE
  5
85A
330
850
100
AcDbEntity
  8
0
100
AcDbPolyline
 90
        2
 70
     0
 43
0.12
 10
83.17188357497276
 20
2.747819668087458
 10
77.92188357497275
 20
2.747819668087458
  0
LWPOLYLINE
  5
85B
330
850
100
AcDbEntity
  8
0
100
AcDbPolyline
 90
        2
 70
     0
 43
0.12
 10
72.67188357497298
 20
2.747819668087458
 10
77.92188357497298
 20
2.747819668087458
  0
LWPOLYLINE
  5
85C
330
850
100
AcDbEntity
  8
0
100
AcDbPolyline
 90
        2
 70
     0
 43
0.12
 10
77.92188357497275
 20
4.622819668087458
 10
83.17188357497276
 20
4.622819668087458
  0
LWPOLYLINE
  5
85D
330
850
100
AcDbEntity
  8
0
100
AcDbPolyline
 90
        2
 70
     0
 43
0.12
 10
77.92188357497275
 20
4.247819668087458
 10
83.17188357497276
 20
4.247819668087458
  0
LWPOLYLINE
  5
85E
330
850
100
AcDbEntity
  8
0
100
AcDbPolyline
 90
        2
 70
     0
 43
0.12
 10
77.92188357497298
 20
4.247819668087458
 10
72.67188357497298
 20
4.247819668087458
  0
LWPOLYLINE
  5
85F
330
850
100
AcDbEntity
  8
0
100
AcDbPolyline
 90
        2
 70
     0
 43
0.12
 10
77.92188357497298
 20
4.622819668087458
 10
72.67188357497298
 20
4.622819668087458
  0
INSERT
  5
860
330
850
100
AcDbEntity
  8
A1
 62
     7
100
AcDbBlockReference
 66
     1
  2
PROFILE LOGO
 10
75.36092680582294
 20
11.06652842761514
 30
0.0
 41
1.5
 42
1.5
 43
1.5
  0
ATTRIB
  5
861
330
860
100
AcDbEntity
  8
A1
 62
    22
100
AcDbText
 10
75.78672844863759
 20
8.549081054255339
 30
0.0
 40
0.31904296875
  1
1577
 72
     1
 11
76.37812241374433
 21
8.549081054255339
 31
0.0
100
AcDbAttribute
  2
XXXX
 70
     0
  0
SEQEND
  5
862
330
860
100
AcDbEntity
  8
A1
 62
     7
  0
DIMENSION
  5
863
330
850
100
AcDbEntity
  8
A1
 62
     7
100
AcDbDimension
  2
*D10
 10
98.74987048138486
 20
11.49781966808743
 30
0.0
 11
98.74987048138486
 21
7.159632077319002
 31
0.0
 70
   160
 71
     5
 42
-1.0
  3
STANDARD
100
AcDbAlignedDimension
 13
83.17188357497276
 23
2.497819668087458
 33
0.0
 14
80.98438357497286
 24
11.49781966808744
 34
0.0
 50
90.0
100
AcDbRotatedDimension
1001
ACAD
1000
DSTYLE
1002
{
1070
   287
1070
     4
1070
    40
1040
1.12
1070
    73
1070
     1
1070
    74
1070
     1
1070
    77
1070
     0
1070
   147
1040
0.5
1070
   279
1070
     1
1070
   288
1070
     1
1070
   289
1070
     3
1002
}
  0
DIMENSION
  5
864
330
850
100
AcDbEntity
  8
A1
 62
     7
100
AcDbDimension
  2
*D11
 10
72.67188357497298
 20
-1.657695878185279
 30
0.0
 11
78.22649353415181
 21
-1.657695878185279
 31
0.0
 70
   161
 71
     5
 42
-1.0
  3
STANDARD
100
AcDbAlignedDimension
 13
83.17188357497276
 23
2.497819668087458
 33
0.0
 14
72.67188357497298
 24
2.497819668087458
 34
0.0
1001
ACAD
1000
DSTYLE
1002
{
1070
   287
1070
     4
1070
    40
1040
1.12
1070
    73
1070
     1
1070
    74
1070
     1
1070
    77
1070
     0
1070
   147
1040
0.5
1070
   279
1070
     1
1070
   288
1070
     1
1070
   289
1070
     3
1002
}
  0
DIMENSION
  5
865
330
850
100
AcDbEntity
  8
A1
 62
     7
100
AcDbDimension
  2
*D12
 10
83.92064994460303
 20
-4.716056899587429
 30
0.0
 11
77.95644903574249
 21
-4.716768786188369
 31
0.0
 70
   161
 71
     5
 42
-1.0
  3
STANDARD
100
AcDbAlignedDimension
 13
71.9239954425783
 23
3.554063258150819
 33
0.0
 14
83.919662652743
 24
3.555495060145176
 34
0.0
1001
ACAD
1000
DSTYLE
1002
{
1070
   287
1070
     4
1070
    40
1040
1.12
1070
    73
1070
     1
1070
    74
1070
     1
1070
    77
1070
     0
1070
   147
1040
0.5
1070
   279
1070
     1
1070
   288
1070
     1
1070
   289
1070
     3
1002
}
  0
DIMENSION
  5
866
330
850
100
AcDbEntity
  8
A1
 62
     7
100
AcDbDimension
  2
*D13
 10
80.98438357497263
 20
16.61833265896038
 30
0.0
 11
68.39595518740452
 21
16.61833265896038
 31
0.0
 70
   161
 71
     5
 42
-1.0
  3
STANDARD
100
AcDbAlignedDimension
 13
74.85938357497264
 23
11.49781966808745
 33
0.0
 14
80.98438357497263
 24
11.49781966808745
 34
0.0
1001
ACAD
1000
DSTYLE
1002
{
1070
   287
1070
     4
1070
    73
1070
     1
1070
    74
1070
     1
1070
    77
1070
     0
1070
   147
1040
0.5
1070
   279
1070
     1
1070
   288
1070
     1
1070
   289
1070
     3
1002
}
  0
INSERT
  5
867
330
850
100
AcDbEntity
  8
A1
 62
     7
100
AcDbBlockReference
 66
     1
  2
LINK FLAG
 10
80.98438357497286
 20
11.49781966808745
 30
0.0
 41
1.199999999999999
 42
1.199999999999999
 43
1.199999999999999
  0
ATTRIB
  5
868
330
867
100
AcDbEntity
  8
A1
 62
     1
100
AcDbText
 10
93.89462354492321
 20
17.44198034298609
 30
0.0
 40
1.199999999999999
  1
TS1577
100
AcDbAttribute
  2
XXXXXX
 70
     0
  0
SEQEND
  5
869
330
867
100
AcDbEntity
  8
A1
 62
     7
  0
LINE
  5
86A
330
850
100
AcDbEntity
  8
A1
 62
     7
100
AcDbLine
 10
80.98438357497286
 20
11.49781966808745
 30
0.0
 11
74.85938357497286
 21
11.49781966808745
 31
0.0
  0
CIRCLE
  5
86B
330
850
100
AcDbEntity
  8
A1
 62
     7
100
AcDbCircle
 10
77.92188357497287
 20
28.52803402220292
 30
0.0
 40
6.0
  0
CIRCLE
  5
86C
330
850
100
AcDbEntity
  8
A1
 62
     7
100
AcDbCircle
 10
77.92188357497287
 20
28.52803402220292
 30
0.0
 40
3.0625
  0
CIRCLE
  5
86D
330
850
100
AcDbEntity
  8
A1
  6
Continuous
 62
     7
 48
6.0
100
AcDbCircle
 10
77.92188357497287
 20
28.52803402220292
 30
0.0
 40
5.25
  0
DIMENSION
  5
86E
330
850
100
AcDbEntity
  8
A1
 62
     7
100
AcDbDimension
  2
*D14
 10
83.92111271526179
 20
19.75040055507614
 30
0.0
 11
78.2486508815457
 21
19.75040055507614
 31
0.0
 70
   160
  1
%%C12"
 71
     5
 42
-1.0
  3
STANDARD
100
AcDbAlignedDimension
 13
71.92267197931548
 23
28.43077030579323
 33
0.0
 14
83.92111271526179
 24
28.43185854555668
 34
0.0
100
AcDbRotatedDimension
1001
ACAD
1000
DSTYLE
1002
{
1070
   287
1070
     4
1070
    73
1070
     1
1070
    74
1070
     1
1070
    77
1070
     0
1070
   147
1040
0.5
1070
   279
1070
     1
1070
   288
1070
     1
1070
   289
1070
     3
1002
}
  0
ENDBLK
  5
870
330
850
100
AcDbEntity
  8
0
 62
     7
100
AcDbBlockEnd
  0
BLOCK
  5
95E
330
958
100
AcDbEntity
  8
0
 62
     7
100
AcDbBlockBegin
  2
TS4201
 70
     0
 10
0.0
 20
0.0
 30
0.0
  3
TS4201
  1

  0
LINE
  5
959
330
958
100
AcDbEntity
  8
0
 62
     1
100
AcDbLine
 10
0.0
 20
2.875
 30
0.0
 11
3.75
 21
2.875
 31
0.0
  0
LWPOLYLINE
  5
95A
330
958
100
AcDbEntity
  8
0
100
AcDbPolyline
 90
        6
 70
     1
 43
0.12
 10
6.9375
 20
1.0
 10
6.9375
 20
0.0
 10
-6.9375
 20
0.0
 10
-6.937500000000113
 20
1.0
 42
0.1613863379506307
 10
-3.000000000000113
 20
2.5
 10
3.0
 20
2.5
 42
0.1613863379506307
  0
INSERT
  5
95B
330
958
100
AcDbEntity
  8
A1
 62
     7
100
AcDbBlockReference
 66
     1
  2
PROFILE LOGO
 10
-2.936160294184787
 20
2.32914939812781
 30
0.0
  0
ATTRIB
  5
95C
330
95B
100
AcDbEntity
  8
A1
 62
    22
100
AcDbText
 10
-2.653649199787059
 20
0.6508511492212393
 30
0.0
 40
0.2126953125
  1
1572
 72
     1
 11
-2.25802988890382
 21
0.6508511492212393
 31
0.0
100
AcDbAttribute
  2
XXXX
 70
     0
  0
SEQEND
  5
95D
330
95B
100
AcDbEntity
  8
A1
 62
     7
  0
ENDBLK
  5
95F
330
958
100
AcDbEntity
  8
0
 62
     7
100
AcDbBlockEnd
  0
BLOCK
  5
96A
330
960
100
AcDbEntity
  8
0
 62
     7
100
AcDbBlockBegin
  2
TS4202
 70
     0
 10
0.0
 20
0.0
 30
0.0
  3
TS4202
  1

  0
INSERT
  5
961
330
960
100
AcDbEntity
  8
A1
 62
     7
100
AcDbBlockReference
 66
     1
  2
PROFILE LOGO
 10
-7.830638760079636
 20
-0.1400852495569325
 30
0.0
  0
ATTRIB
  5
962
330
961
100
AcDbEntity
  8
A1
 62
    22
100
AcDbText
 10
-7.539610808732049
 20
-1.818383498463504
 30
0.0
 40
0.2126953125
  1
1574
 72
     1
 11
-7.152508354798669
 21
-1.818383498463504
 31
0.0
100
AcDbAttribute
  2
XXXX
 70
     0
  0
SEQEND
  5
963
330
961
100
AcDbEntity
  8
A1
 62
     7
  0
LWPOLYLINE
  5
964
330
960
100
AcDbEntity
  8
0
100
AcDbPolyline
 90
       18
 70
     1
 43
0.12
 10
0.0
 20
-2.0
 10
-8.0
 20
-2.0
 10
-8.0
 20
0.0
 42
0.4333105199635356
 10
-4.282364583996695
 20
4.5
 42
-0.9999999999999998
 10
-4.282364583996695
 20
5.5
 42
0.6718751592707778
 10
-3.05761971260506
 20
8.5
 10
-3.18261971260506
 20
8.5
 42
-0.4142135623730951
 10
-3.33886971260506
 20
8.65625
 10
-3.33886971260506
 20
8.75
 10
0.0
 20
8.75
 10
3.33886971260506
 20
8.75
 10
3.33886971260506
 20
8.65625
 42
-0.4142135623730951
 10
3.18261971260506
 20
8.5
 10
3.05761971260506
 20
8.5
 42
0.6718751592707778
 10
4.282364583996695
 20
5.5
 42
-0.9999999999999998
 10
4.282364583996695
 20
4.5
 42
0.4333105199635356
 10
8.0
 20
0.0
 10
8.0
 20
-2.0
  0
LWPOLYLINE
  5
965
330
960
100
AcDbEntity
  8
A1
 62
     7
100
AcDbPolyline
 90
        2
 70
     0
 43
0.12
 10
4.282364583996695
 20
5.5
 10
-4.282364583996695
 20
5.5
  0
LWPOLYLINE
  5
966
330
960
100
AcDbEntity
  8
A1
 62
     7
100
AcDbPolyline
 90
        2
 70
     0
 43
0.12
 10
4.282364583996695
 20
4.5
 10
-4.282364583996695
 20
4.5
  0
LWPOLYLINE
  5
967
330
960
100
AcDbEntity
  8
A1
 62
     7
100
AcDbPolyline
 90
        2
 70
     0
 43
0.12
 10
8.0
 20
0.0
 10
-8.0
 20
0.0
  0
LWPOLYLINE
  5
968
330
960
100
AcDbEntity
  8
A1
 62
     7
100
AcDbPolyline
 90
        2
 70
     0
 43
0.12
 10
3.05761971260506
 20
8.5
 10
-3.05761971260506
 20
8.5
  0
LINE
  5
969
330
960
100
AcDbEntity
  8
0
 62
     1
100
AcDbLine
 10
0.0
 20
9.125000000000113
 30
0.0
 11
3.75
 21
9.125
 31
0.0
  0
ENDBLK
  5
96B
330
960
100
AcDbEntity
  8
0
 62
     7
100
AcDbBlockEnd
  0
BLOCK
  5
977
330
96C
100
AcDbEntity
  8
0
 62
     7
100
AcDbBlockBegin
  2
*D18
 70
     1
 10
0.0
 20
0.0
 30
0.0
  3
*D18
  1

  0
LINE
  5
96D
330
96C
100
AcDbEntity
  8
A1
 62
     0
370
    -2
100
AcDbLine
 10
14.27434621026506
 20
1.66716881241507
 30
0.0
 11
21.46331957207064
 21
1.667168812415068
 31
0.0
  0
LINE
  5
96E
330
96C
100
AcDbEntity
  8
A1
 62
     0
370
    -2
100
AcDbLine
 10
9.613215922870125
 20
12.41716881241507
 30
0.0
 11
21.46331957207064
 21
12.41716881241506
 31
0.0
  0
LINE
  5
96F
330
96C
100
AcDbEntity
  8
A1
 62
     0
370
    -2
100
AcDbLine
 10
21.21331957207064
 20
2.167168812415068
 30
0.0
 11
21.21331957207064
 21
6.005307134084823
 31
0.0
  0
LINE
  5
970
330
96C
100
AcDbEntity
  8
A1
 62
     0
370
    -2
100
AcDbLine
 10
21.21331957207064
 20
11.91716881241506
 30
0.0
 11
21.21331957207064
 21
8.095314221257041
 31
0.0
  0
MTEXT
  5
971
330
96C
100
AcDbEntity
  8
A1
 62
     0
100
AcDbMText
 10
21.21331957207064
 20
7.050310677670935
 30
0.0
 40
1.0
 41
0.0
 71
     5
 72
     1
  1
\A1;10 3/4"
 73
     1
 44
1.0
1001
ACAD
1000
MTEXTBEGIN
1070
    73
1070
     1
1070
    44
1040
1.0
1070
    74
1070
     0
1000
MTEXTEND
1000
MTEXTBEGIN
1070
    73
1070
     1
1070
    44
1040
1.0
1070
    74
1070
     0
1000
MTEXTEND
  0
SOLID
  5
972
330
96C
100
AcDbEntity
  8
A1
 62
     0
100
AcDbTrace
 10
21.12998623873731
 20
2.167168812415068
 30
0.0
 11
21.29665290540397
 21
2.167168812415068
 31
0.0
 12
21.21331957207064
 22
1.667168812415068
 32
0.0
 13
21.21331957207064
 23
1.667168812415068
 33
0.0
  0
SOLID
  5
973
330
96C
100
AcDbEntity
  8
A1
 62
     0
100
AcDbTrace
 10
21.12998623873731
 20
11.91716881241506
 30
0.0
 11
21.29665290540397
 21
11.91716881241506
 31
0.0
 12
21.21331957207064
 22
12.41716881241506
 32
0.0
 13
21.21331957207064
 23
12.41716881241506
 33
0.0
  0
POINT
  5
974
330
96C
100
AcDbEntity
  8
Defpoints
 62
     0
100
AcDbPoint
 10
13.27434621026506
 20
1.66716881241507
 30
0.0
  0
POINT
  5
975
330
96C
100
AcDbEntity
  8
Defpoints
 62
     0
100
AcDbPoint
 10
8.613215922870125
 20
12.41716881241507
 30
0.0
  0
POINT
  5
976
330
96C
100
AcDbEntity
  8
Defpoints
 62
     0
100
AcDbPoint
 10
21.21331957207064
 20
12.41716881241506
 30
0.0
  0
ENDBLK
  5
978
330
96C
100
AcDbEntity
  8
0
 62
     7
100
AcDbBlockEnd
  0
BLOCK
  5
984
330
979
100
AcDbEntity
  8
0
 62
     7
100
AcDbBlockBegin
  2
*D19
 70
     1
 10
0.0
 20
0.0
 30
0.0
  3
*D19
  1

  0
LINE
  5
97A
330
979
100
AcDbEntity
  8
A1
 62
     0
370
    -2
100
AcDbLine
 10
-2.725653789734934
 20
0.6671688124150706
 30
0.0
 11
-2.725653789734935
 21
-2.549463420741957
 31
0.0
  0
LINE
  5
97B
330
979
100
AcDbEntity
  8
A1
 62
     0
370
    -2
100
AcDbLine
 10
13.27434621026506
 20
0.6671688124150706
 30
0.0
 11
13.27434621026506
 21
-2.549463420741957
 31
0.0
  0
LINE
  5
97C
330
979
100
AcDbEntity
  8
A1
 62
     0
370
    -2
100
AcDbLine
 10
-2.225653789734935
 20
-2.299463420741957
 30
0.0
 11
3.706309773345945
 21
-2.299463420741957
 31
0.0
  0
LINE
  5
97D
330
979
100
AcDbEntity
  8
A1
 62
     0
370
    -2
100
AcDbLine
 10
12.77434621026506
 20
-2.299463420741957
 30
0.0
 11
7.211625152509658
 21
-2.299463420741957
 31
0.0
  0
MTEXT
  5
97E
330
979
100
AcDbEntity
  8
A1
 62
     0
100
AcDbMText
 10
5.458967462927802
 20
-2.299463420741957
 30
0.0
 40
1.0
 41
0.0
 71
     5
 72
     1
  1
\A1;16"
 73
     1
 44
1.0
1001
ACAD
1000
MTEXTBEGIN
1070
    73
1070
     1
1070
    44
1040
1.0
1070
    74
1070
     0
1000
MTEXTEND
1000
MTEXTBEGIN
1070
    73
1070
     1
1070
    44
1040
1.0
1070
    74
1070
     0
1000
MTEXTEND
  0
SOLID
  5
97F
330
979
100
AcDbEntity
  8
A1
 62
     0
100
AcDbTrace
 10
-2.225653789734935
 20
-2.216130087408624
 30
0.0
 11
-2.225653789734935
 21
-2.382796754075291
 31
0.0
 12
-2.725653789734935
 22
-2.299463420741957
 32
0.0
 13
-2.725653789734935
 23
-2.299463420741957
 33
0.0
  0
SOLID
  5
980
330
979
100
AcDbEntity
  8
A1
 62
     0
100
AcDbTrace
 10
12.77434621026506
 20
-2.216130087408624
 30
0.0
 11
12.77434621026506
 21
-2.382796754075291
 31
0.0
 12
13.27434621026506
 22
-2.299463420741957
 32
0.0
 13
13.27434621026506
 23
-2.299463420741957
 33
0.0
  0
POINT
  5
981
330
979
100
AcDbEntity
  8
Defpoints
 62
     0
100
AcDbPoint
 10
-2.725653789734934
 20
1.66716881241507
 30
0.0
  0
POINT
  5
982
330
979
100
AcDbEntity
  8
Defpoints
 62
     0
100
AcDbPoint
 10
13.27434621026506
 20
1.66716881241507
 30
0.0
  0
POINT
  5
983
330
979
100
AcDbEntity
  8
Defpoints
 62
     0
100
AcDbPoint
 10
13.27434621026506
 20
-2.299463420741957
 30
0.0
  0
ENDBLK
  5
985
330
979
100
AcDbEntity
  8
0
 62
     7
100
AcDbBlockEnd
  0
BLOCK
  5
993
330
986
100
AcDbEntity
  8
0
 62
     7
100
AcDbBlockBegin
  2
*D20
 70
     1
 10
0.0
 20
0.0
 30
0.0
  3
*D20
  1

  0
LINE
  5
987
330
986
100
AcDbEntity
  8
A1
 62
     0
370
    -2
100
AcDbLine
 10
1.935476497660005
 20
13.41716881241507
 30
0.0
 11
1.935476497660005
 21
17.94182984990649
 31
0.0
  0
LINE
  5
988
330
986
100
AcDbEntity
  8
A1
 62
     0
370
    -2
100
AcDbLine
 10
8.613215922870125
 20
13.41716881241507
 30
0.0
 11
8.613215922870125
 21
17.94182984990649
 31
0.0
  0
LINE
  5
989
330
986
100
AcDbEntity
  8
A1
 62
     0
370
    -2
100
AcDbLine
 10
1.435476497660005
 20
17.69182984990649
 30
0.0
 11
0.9354764976600053
 21
17.69182984990649
 31
0.0
  0
LINE
  5
98A
330
986
100
AcDbEntity
  8
A1
 62
     0
370
    -2
100
AcDbLine
 10
9.113215922870125
 20
17.69182984990649
 30
0.0
 11
9.613215922870125
 21
17.69182984990649
 31
0.0
  0
LINE
  5
98B
330
986
100
AcDbEntity
  8
A1
 62
     0
370
    -2
100
AcDbLine
 10
0.6563231330562083
 20
17.69182984990649
 30
0.0
 11
1.935476497660005
 21
17.69182984990649
 31
0.0
  0
MTEXT
  5
98C
330
986
100
AcDbEntity
  8
A1
 62
     0
100
AcDbMText
 10
-3.033613082393827
 20
17.69182984990649
 30
0.0
 40
1.0
 41
0.0
 71
     5
 72
     1
  1
\A1;6 11/16"
 73
     1
 44
1.0
1001
ACAD
1000
MTEXTBEGIN
1070
    73
1070
     1
1070
    44
1040
1.0
1070
    74
1070
     0
1000
MTEXTEND
1000
MTEXTBEGIN
1070
    73
1070
     1
1070
    44
1040
1.0
1070
    74
1070
     0
1000
MTEXTEND
  0
LINE
  5
98D
330
986
100
AcDbEntity
  8
A1
 62
     0
370
    -2
100
AcDbLine
 10
1.935476497660005
 20
17.69182984990649
 30
0.0
 11
8.613215922870125
 21
17.69182984990649
 31
0.0
  0
SOLID
  5
98E
330
986
100
AcDbEntity
  8
A1
 62
     0
100
AcDbTrace
 10
1.435476497660005
 20
17.77516318323983
 30
0.0
 11
1.435476497660005
 21
17.60849651657316
 31
0.0
 12
1.935476497660005
 22
17.69182984990649
 32
0.0
 13
1.935476497660005
 23
17.69182984990649
 33
0.0
  0
SOLID
  5
98F
330
986
100
AcDbEntity
  8
A1
 62
     0
100
AcDbTrace
 10
9.113215922870125
 20
17.77516318323983
 30
0.0
 11
9.113215922870125
 21
17.60849651657316
 31
0.0
 12
8.613215922870125
 22
17.69182984990649
 32
0.0
 13
8.613215922870125
 23
17.69182984990649
 33
0.0
  0
POINT
  5
990
330
986
100
AcDbEntity
  8
Defpoints
 62
     0
100
AcDbPoint
 10
1.935476497660005
 20
12.41716881241507
 30
0.0
  0
POINT
  5
991
330
986
100
AcDbEntity
  8
Defpoints
 62
     0
100
AcDbPoint
 10
8.613215922870125
 20
12.41716881241507
 30
0.0
  0
POINT
  5
992
330
986
100
AcDbEntity
  8
Defpoints
 62
     0
100
AcDbPoint
 10
8.613215922870125
 20
17.69182984990649
 30
0.0
  0
ENDBLK
  5
994
330
986
100
AcDbEntity
  8
0
 62
     7
100
AcDbBlockEnd
  0
BLOCK
  5
9B0
330
995
100
AcDbEntity
  8
0
 62
     7
100
AcDbBlockBegin
  2
TS1574
 70
     2
 10
0.0
 20
0.0
 30
0.0
  3
TS1574
  1

  0
INSERT
  5
996
330
995
100
AcDbEntity
  8
A1
 62
     7
100
AcDbBlockReference
 66
     1
  2
tsforma
 10
-31.50581506340575
 20
-20.84538834277208
 30
0.0
 41
1.199999999999999
 42
1.199999999999999
 43
1.199999999999999
  0
ATTRIB
  5
997
330
996
100
AcDbEntity
  8
A1
 62
     1
100
AcDbText
 10
-19.40243236539889
 20
-19.50608926841087
 30
0.0
 40
0.6
  1
TS1574
 72
     2
 11
-16.11029912656119
 21
-19.50608926841087
 31
0.0
100
AcDbAttribute
  2
XXXXXX
 70
     0
  0
ATTRIB
  5
998
330
996
100
AcDbEntity
  8
A1
 62
     1
100
AcDbText
 10
-27.78975295209974
 20
-18.60963725328787
 30
0.0
 40
5.474999999999999
  1
TS1574
  7
barcoder
 72
     1
 11
-22.38319045209974
 21
-18.60963725328787
 31
0.0
100
AcDbAttribute
  2
BARCODE
 70
     0
  0
ATTRIB
  5
999
330
996
100
AcDbEntity
  8
A1
 62
     1
100
AcDbText
 10
-5.300479766661279
 20
-20.10593127910687
 30
0.0
 40
0.9071999999999997
  1
PEDESTAL
 72
     1
 11
-2.036552906278572
 21
-20.10593127910687
 31
0.0
100
AcDbAttribute
  2
XXXXXX
 70
     0
  0
ATTRIB
  5
99A
330
996
100
AcDbEntity
  8
A1
 62
     1
100
AcDbText
 10
39.3222532377762
 20
-13.73701410410621
 30
0.0
 40
0.84375
  1
105"
 72
     1
 11
40.7893975503205
 21
-13.73701410410621
 31
0.0
100
AcDbAttribute
  2
XXXXX
 70
     0
  0
ATTRIB
  5
99B
330
996
100
AcDbEntity
  8
A1
 62
     1
100
AcDbText
 10
39.01577908084817
 20
-15.76798930132732
 30
0.0
 40
0.84375
  1
94.79
 72
     1
 11
40.75889123534852
 21
-15.76798930132732
 31
0.0
100
AcDbAttribute
  2
XXXXX
 70
     0
  0
ATTRIB
  5
99C
330
996
100
AcDbEntity
  8
A1
 62
     1
100
AcDbText
 10
35.2793780979558
 20
31.58319475183382
 30
0.0
 40
1.485
  1
TS1574
 72
     1
 11
39.35339298101746
 21
31.58319475183382
 31
0.0
100
AcDbAttribute
  2
TS00XX
 70
     0
  0
SEQEND
  5
99D
330
996
100
AcDbEntity
  8
A1
 62
     7
  0
INSERT
  5
99E
330
995
100
AcDbEntity
  8
A1
 62
     7
100
AcDbBlockReference
 66
     1
  2
PROFILE LOGO
 10
-2.556292549814571
 20
3.527083562858138
 30
0.0
  0
ATTRIB
  5
99F
330
99E
100
AcDbEntity
  8
A1
 62
    22
100
AcDbText
 10
-2.265264598466985
 20
1.848785313951566
 30
0.0
 40
0.2126953125
  1
1574
 72
     1
 11
-1.878162144533604
 21
1.848785313951566
 31
0.0
100
AcDbAttribute
  2
XXXX
 70
     0
  0
SEQEND
  5
9A0
330
99E
100
AcDbEntity
  8
A1
 62
     7
  0
LWPOLYLINE
  5
9A1
330
995
100
AcDbEntity
  8
0
100
AcDbPolyline
 90
       18
 70
     1
 43
0.12
 10
5.274346210265065
 20
1.66716881241507
 10
-2.725653789734934
 20
1.66716881241507
 10
-2.725653789734934
 20
3.66716881241507
 42
0.4333105199635356
 10
0.9919816262683696
 20
8.16716881241507
 42
-0.9999999999999998
 10
0.9919816262683696
 20
9.16716881241507
 42
0.6718751592707778
 10
2.216726497660005
 20
12.16716881241507
 10
2.091726497660005
 20
12.16716881241507
 42
-0.4142135623730951
 10
1.935476497660005
 20
12.32341881241507
 10
1.935476497660005
 20
12.41716881241507
 10
5.274346210265065
 20
12.41716881241507
 10
8.613215922870125
 20
12.41716881241507
 10
8.613215922870125
 20
12.32341881241507
 42
-0.4142135623730951
 10
8.456965922870125
 20
12.16716881241507
 10
8.331965922870125
 20
12.16716881241507
 42
0.6718751592707778
 10
9.556710794261761
 20
9.16716881241507
 42
-0.9999999999999998
 10
9.556710794261761
 20
8.16716881241507
 42
0.4333105199635356
 10
13.27434621026506
 20
3.66716881241507
 10
13.27434621026506
 20
1.66716881241507
  0
LWPOLYLINE
  5
9A2
330
995
100
AcDbEntity
  8
A1
 62
     7
100
AcDbPolyline
 90
        2
 70
     0
 43
0.12
 10
9.556710794261761
 20
9.16716881241507
 10
0.9919816262683696
 20
9.16716881241507
  0
LWPOLYLINE
  5
9A3
330
995
100
AcDbEntity
  8
A1
 62
     7
100
AcDbPolyline
 90
        2
 70
     0
 43
0.12
 10
9.556710794261761
 20
8.16716881241507
 10
0.9919816262683696
 20
8.16716881241507
  0
LWPOLYLINE
  5
9A4
330
995
100
AcDbEntity
  8
A1
 62
     7
100
AcDbPolyline
 90
        2
 70
     0
 43
0.12
 10
13.27434621026506
 20
3.66716881241507
 10
-2.725653789734934
 20
3.66716881241507
  0
LWPOLYLINE
  5
9A5
330
995
100
AcDbEntity
  8
A1
 62
     7
100
AcDbPolyline
 90
        2
 70
     0
 43
0.12
 10
8.331965922870125
 20
12.16716881241507
 10
2.216726497660005
 20
12.16716881241507
  0
DIMENSION
  5
9A6
330
995
100
AcDbEntity
  8
A1
 62
     7
100
AcDbDimension
  2
*D18
 10
21.21331957207064
 20
12.41716881241506
 30
0.0
 11
21.21331957207064
 21
7.050310677670935
 31
0.0
 70
   160
 71
     5
 42
-1.0
  3
STANDARD
100
AcDbAlignedDimension
 13
13.27434621026506
 23
1.66716881241507
 33
0.0
 14
8.613215922870125
 24
12.41716881241507
 34
0.0
 50
90.0
100
AcDbRotatedDimension
1001
ACAD
1000
DSTYLE
1002
{
1070
   287
1070
     4
1070
    73
1070
     1
1070
    74
1070
     1
1070
    77
1070
     0
1070
   147
1040
0.5
1070
   279
1070
     1
1070
   288
1070
     1
1070
   289
1070
     3
1002
}
  0
DIMENSION
  5
9A7
330
995
100
AcDbEntity
  8
A1
 62
     7
100
AcDbDimension
  2
*D19
 10
13.27434621026506
 20
-2.299463420741957
 30
0.0
 11
5.458967462927802
 21
-2.299463420741957
 31
0.0
 70
   160
 71
     5
 42
-1.0
  3
STANDARD
100
AcDbAlignedDimension
 13
-2.725653789734934
 23
1.66716881241507
 33
0.0
 14
13.27434621026506
 24
1.66716881241507
 34
0.0
100
AcDbRotatedDimension
1001
ACAD
1000
DSTYLE
1002
{
1070
   287
1070
     4
1070
    73
1070
     1
1070
    74
1070
     1
1070
    77
1070
     0
1070
   147
1040
0.5
1070
   279
1070
     1
1070
   288
1070
     1
1070
   289
1070
     3
1002
}
  0
DIMENSION
  5
9A8
330
995
100
AcDbEntity
  8
A1
 62
     7
100
AcDbDimension
  2
*D20
 10
8.613215922870125
 20
17.69182984990649
 30
0.0
 11
-3.033613082393827
 21
17.69182984990649
 31
0.0
 70
   160
 71
     5
 42
-1.0
  3
STANDARD
100
AcDbAlignedDimension
 13
1.935476497660005
 23
12.41716881241507
 33
0.0
 14
8.613215922870125
 24
12.41716881241507
 34
0.0
100
AcDbRotatedDimension
1001
ACAD
1000
DSTYLE
1002
{
1070
   287
1070
     4
1070
    73
1070
     1
1070
    74
1070
     1
1070
    77
1070
     0
1070
   147
1040
0.5
1070
   279
1070
     1
1070
   288
1070
     1
1070
   289
1070
     3
1002
}
  0
SOLID
  5
9A9
330
995
100
AcDbEntity
  8
A1
 62
     1
100
AcDbTrace
 10
9.021704182899128
 20
12.71730509123341
 30
0.0
 11
8.902282240578102
 21
12.83356418752291
 31
0.0
 12
8.613215922870125
 22
12.41716881241507
 32
0.0
 13
8.613215922870125
 23
12.41716881241507
 33
0.0
  0
LINE
  5
9AA
330
995
100
AcDbEntity
  8
A1
 62
     1
100
AcDbLine
 10
8.961993211738615
 20
12.77543463937816
 30
0.0
 11
16.47616656580775
 21
20.4940321987928
 31
0.0
  0
ATTDEF
  5
9AB
330
995
100
AcDbEntity
  8
A1
 62
     1
100
AcDbText
 10
21.9937537540627
 20
20.92273356228357
 30
0.0
 40
1.12
  1

100
AcDbAttributeDefinition
  3
ADD LINK NUMBER (WMF)
  2
TS1574
 70
     0
  0
MTEXT
  5
9AC
330
995
100
AcDbEntity
  8
0
 62
     1
100
AcDbMText
 10
22.03724618875474
 20
20.085785313067
 30
0.0
 40
1.12
 41
0.0
 71
     1
 72
     1
  1
TannerStone
 73
     1
 44
1.0
1001
ACAD
1000
MTEXTBEGIN
1070
    73
1070
     1
1070
    44
1040
1.0
1070
    74
1070
     0
1000
MTEXTEND
1000
MTEXTBEGIN
1070
    73
1070
     1
1070
    44
1040
1.0
1070
    74
1070
     0
1000
MTEXTEND
  0
MTEXT
  5
9AD
330
995
100
AcDbEntity
  8
0
 62
     1
100
AcDbMText
 10
22.12431768498494
 20
18.38656603877984
 30
0.0
 40
0.8273159999999998
 41
0.0
 71
     1
 72
     1
  1
1-800-789-4841
 73
     1
 44
1.0
1001
ACAD
1000
MTEXTBEGIN
1070
    73
1070
     1
1070
    44
1040
1.0
1070
    74
1070
     0
1000
MTEXTEND
1000
MTEXTBEGIN
1070
    73
1070
     1
1070
    44
1040
1.0
1070
    74
1070
     0
1000
MTEXTEND
  0
LINE
  5
9AE
330
995
100
AcDbEntity
  8
0
 62
     1
100
AcDbLine
 10
16.47616656580775
 20
20.4940321987928
 30
0.0
 11
31.64879037577506
 21
20.4940321987928
 31
0.0
  0
LINE
  5
9AF
330
995
100
AcDbEntity
  8
0
 62
     1
100
AcDbLine
 10
21.44850376309562
 20
17.14772134080408
 30
0.0
 11
21.44850376309562
 21
22.24870955516932
 31
0.0
  0
ENDBLK
  5
9B1
330
995
100
AcDbEntity
  8
0
 62
     7
100
AcDbBlockEnd
  0
BLOCK
  5
A93
330
A62
100
AcDbEntity
  8
0
 62
     7
100
AcDbBlockBegin
  2
tsformb
 70
     2
 10
0.0
 20
0.0
 30
0.0
  3
tsformb
  1

  0
LINE
  5
A63
330
A62
100
AcDbEntity
  8
0
100
AcDbLine
 10
25.97049976153047
 20
12.46470592426126
 30
0.0
 11
105.9925392881562
 21
12.46470592426126
 31
0.0
  0
ATTDEF
  5
A64
330
A62
100
AcDbEntity
  8
A1
 62
     1
100
AcDbText
 10
101.1418062311347
 20
7.219538615513812
 30
0.0
 40
0.9450000000000002
  1

 72
     1
 11
101.1418062311347
 21
7.219538615513812
 31
0.0
100
AcDbAttributeDefinition
  3
ADD #/LF
  2
XXXXX
 70
     0
  0
ATTDEF
  5
A65
330
A62
100
AcDbEntity
  8
A1
 62
     1
100
AcDbText
 10
101.1759733039033
 20
10.0790044152711
 30
0.0
 40
0.9450000000000002
  1

 72
     1
 11
101.1759733039033
 21
10.0790044152711
 31
0.0
100
AcDbAttributeDefinition
  3
ADD PROFILE AREA
  2
XXXXX
 70
     0
  0
TEXT
  5
A66
330
A62
100
AcDbEntity
  8
0
 62
     7
100
AcDbText
 10
96.70022651293081
 20
11.66518473255652
 30
0.0
 40
0.5414062500000001
  1
PROFILE AREA:
100
AcDbText
  0
TEXT
  5
A67
330
A62
100
AcDbEntity
  8
0
 62
     7
100
AcDbText
 10
96.74158717246573
 20
2.97910930546476
 30
0.0
 40
0.5414062500000001
  1
DATE:
100
AcDbText
  0
TEXT
  5
A68
330
A62
100
AcDbEntity
  8
0
 62
     7
100
AcDbText
 10
96.68542089784601
 20
5.927566558083469
 30
0.0
 40
0.5414062500000001
  1
SCALE:
100
AcDbText
  0
TEXT
  5
A69
330
A62
100
AcDbEntity
  8
0
 62
     7
100
AcDbText
 10
98.85330873086449
 20
1.524519923848657
 30
0.0
 40
0.8459472656250001
  1
1-1-2000
100
AcDbText
  0
LINE
  5
A6A
330
A62
100
AcDbEntity
  8
LINEWORK
 62
     7
100
AcDbLine
 10
96.40991550469019
 20
3.757904136908933
 30
0.0
 11
105.9622680829099
 21
3.757904136909161
 31
0.0
  0
TEXT
  5
A6B
330
A62
100
AcDbEntity
  8
0
 62
     7
100
AcDbText
 10
96.66995560986684
 20
8.813345575893578
 30
0.0
 40
0.5414062500000001
  1
LBS/LINEAR FEET:
100
AcDbText
  0
LINE
  5
A6C
330
A62
100
AcDbEntity
  8
0
 62
     7
100
AcDbLine
 10
96.44018670993686
 20
9.556745250002336
 30
0.0
 11
105.9925392881562
 21
9.556745250002336
 31
0.0
  0
LINE
  5
A6D
330
A62
100
AcDbEntity
  8
0
100
AcDbLine
 10
56.87404547169356
 20
6.648784575743377
 30
0.0
 11
105.9925392881562
 21
6.648784575743377
 31
0.0
  0
TEXT
  5
A6E
330
A62
100
AcDbEntity
  8
0
100
AcDbText
 10
59.98363509556092
 20
3.260563711198523
 30
0.0
 40
0.74899296216962
  1
101 JOHNSTON CIRCLE, PALMETTO, GEORGIA 30268
 41
1.1875
 72
     4
 11
76.85158629384145
 21
3.579323650094949
 31
0.0
100
AcDbText
  0
TEXT
  5
A6F
330
A62
100
AcDbEntity
  8
0
100
AcDbText
 10
61.57240842020549
 20
1.964543484004154
 30
0.0
 40
0.6552430415498756
  1
http://TannerStone.com ~ Email:Sales@TannerStone.com 
 41
1.1875
 72
     4
 11
77.08342119362365
 21
2.259193880788984
 31
0.0
100
AcDbText
  0
TEXT
  5
A70
330
A62
100
AcDbEntity
  8
0
 62
     7
100
AcDbText
 10
61.23651428794111
 20
7.899354841769707
 30
0.0
 40
3.572100000000002
  1
TannerStone
  7
ROMANC
 72
     1
 11
75.92109734429951
 21
7.899354841769707
 31
0.0
100
AcDbText
  0
TEXT
  5
A71
330
A62
100
AcDbEntity
  8
0
100
AcDbText
 10
64.01730751652127
 20
0.6790765005605895
 30
0.0
 40
0.6552430415498756
  1
PHONE: 1-800-789-4841  FAX : 770-463-2635
 41
1.1875
 72
     4
 11
76.73327742292068
 21
1.005769257279467
 31
0.0
100
AcDbText
  0
TEXT
  5
A72
330
A62
100
AcDbEntity
  8
0
100
AcDbText
 10
57.83820509574332
 20
4.931128255646459
 30
0.0
 40
1.111564440985976
  1
ARCHITECTURAL CONCRETE CO., INC.
 41
1.25
 72
     4
 11
76.69038922088154
 21
5.404193065577061
 31
0.0
100
AcDbText
  0
LINE
  5
A73
330
A62
100
AcDbEntity
  8
0
100
AcDbLine
 10
96.44018670993652
 20
0.0
 30
0.0
 11
96.44018670993691
 21
12.46470592426126
 31
0.0
  0
TEXT
  5
A74
330
A62
100
AcDbEntity
  8
0
 62
     7
100
AcDbText
 10
91.59975773655476
 20
7.487990433787814
 30
0.0
 40
0.7875000000000002
  1
R
  7
ROMANC
 72
     1
 11
92.02565639984957
 21
7.487990433787814
 31
0.0
100
AcDbText
  0
ARC
  5
A75
330
A62
100
AcDbEntity
  8
0
 62
     7
100
AcDbCircle
 10
92.02173719823603
 20
7.854684255185276
 30
0.0
 40
0.5838368232859408
100
AcDbArc
 50
304.8408806463489
 51
297.555354837207
  0
LINE
  5
A76
330
A62
100
AcDbEntity
  8
0
 62
     7
100
AcDbLine
 10
96.44018670993673
 20
6.648784575743377
 30
0.0
 11
95.62662822118031
 21
6.648784575743377
 31
0.0
  0
ARC
  5
A77
330
A62
100
AcDbEntity
  8
0
 62
     7
100
AcDbCircle
 10
92.02173719823603
 20
7.854684255185276
 30
0.0
 40
0.5838368232859321
100
AcDbArc
 50
297.555354837207
 51
304.8408806463489
  0
TEXT
  5
A78
330
A62
100
AcDbEntity
  8
0
 62
     7
100
AcDbText
 10
101.0916707105179
 20
4.784832420392348
 30
0.0
 40
0.8459472656250001
  1
1:1
100
AcDbText
  0
LINE
  5
A79
330
A62
100
AcDbEntity
  8
0
100
AcDbLine
 10
105.9925392881562
 20
78.84810849484799
 30
0.0
 11
0.0
 21
78.84810849484799
 31
0.0
  0
LINE
  5
A7A
330
A62
100
AcDbEntity
  8
0
100
AcDbLine
 10
105.9925392881562
 20
70.31072004937001
 30
0.0
 11
92.45878286761294
 21
70.31072004937001
 31
0.0
  0
ATTDEF
  5
A7B
330
A62
100
AcDbEntity
  8
A1
 62
     1
100
AcDbText
 10
99.20289126219254
 20
73.4000163324483
 30
0.0
 40
2.079
  1

 72
     1
 11
99.20289126219254
 21
73.4000163324483
 31
0.0
100
AcDbAttributeDefinition
  3
ADD PAGE NUMBER
  2
TS00XX
 70
     0
  0
LINE
  5
A7C
330
A62
100
AcDbEntity
  8
0
100
AcDbLine
 10
92.45878286761294
 20
70.31072004937001
 30
0.0
 11
92.45878286761294
 21
78.84810849484799
 31
0.0
  0
LINE
  5
A7D
330
A62
100
AcDbEntity
  8
0
 62
     7
100
AcDbLine
 10
56.87404547169354
 20
4.753491724833224
 30
0.0
 11
25.97049976153047
 21
4.753491724833224
 31
0.0
  0
LINE
  5
A7E
330
A62
100
AcDbEntity
  8
0
 62
     7
100
AcDbLine
 10
56.87404547169354
 20
2.864660228904284
 30
0.0
 11
25.97049976153047
 21
2.864660228904284
 31
0.0
  0
LINE
  5
A7F
330
A62
100
AcDbEntity
  8
0
 62
     7
100
AcDbLine
 10
56.87404547169354
 20
10.31505184057846
 30
0.0
 11
25.97049976153047
 21
10.31505184057846
 31
0.0
  0
ATTDEF
  5
A80
330
A62
100
AcDbEntity
  8
A1
 62
     1
100
AcDbText
 10
12.85191920549937
 20
3.11796280247222
 30
0.0
 40
6.132000000000001
  1

  7
barcoder
 72
     1
 11
12.85191920549937
 21
3.11796280247222
 31
0.0
100
AcDbAttributeDefinition
  3
ADD BARCODE NUMBER
  2
BARCODE
 70
     0
  0
LINE
  5
A81
330
A62
100
AcDbEntity
  8
0
 62
     7
100
AcDbLine
 10
25.97049976153047
 20
12.46470592426126
 30
0.0
 11
0.0
 21
12.46470592426126
 31
0.0
  0
ATTDEF
  5
A82
330
A62
100
AcDbEntity
  8
A1
 62
     1
100
AcDbText
 10
21.55372231158239
 20
1.875018704105684
 30
0.0
 40
0.8400000000000002
  1

 72
     2
 11
21.55372231158239
 21
1.875018704105684
 31
0.0
100
AcDbAttributeDefinition
  3
ADD BARCODE TEXT
  2
XXXXXX
 70
     0
  0
ATTDEF
  5
A83
330
A62
100
AcDbEntity
  8
A1
 62
     1
100
AcDbText
 10
41.26016333205515
 20
0.916484150045278
 30
0.0
 40
1.025589599999999
  1

 72
     1
 11
41.26016333205515
 21
0.916484150045278
 31
0.0
100
AcDbAttributeDefinition
  3
ADD CATEGORY NAMES
  2
XXXXXX
 70
     0
  0
LINE
  5
A84
330
A62
100
AcDbEntity
  8
0
100
AcDbLine
 10
25.97049976153047
 20
0.0
 30
0.0
 11
25.97049976153047
 21
12.46470592426126
 31
0.0
  0
TEXT
  5
A85
330
A62
100
AcDbEntity
  8
0
 62
     7
100
AcDbText
 10
30.57643893100979
 20
5.886467718828555
 30
0.0
 40
1.05
  1
- Unfinished Side
100
AcDbText
  0
TEXT
  5
A86
330
A62
100
AcDbEntity
  8
0
 62
     7
100
AcDbText
 10
30.56536100380199
 20
8.165961840384312
 30
0.0
 40
1.05
  1
- Finished Side
100
AcDbText
  0
TEXT
  5
A87
330
A62
100
AcDbEntity
  8
0
 62
     7
100
AcDbText
 10
28.62975879980742
 20
6.155120421568796
 30
0.0
 40
0.0065625
  1
TANNERSTONE 0001 TANNERSTONE 0001 TANNERSTONE 0001 TANNERSTONE 0001 TANNERSTONE 0001 TANNERSTONE 0001 TANNERSTONE 0001
 72
     1
 11
28.97869915682372
 21
6.155120421568796
 31
0.0
100
AcDbText
  0
TEXT
  5
A88
330
A62
100
AcDbEntity
  8
0
 62
     7
100
AcDbText
 10
26.78569629980744
 20
6.155120421568796
 30
0.0
 40
0.0065625
  1
TANNERSTONE 0001 TANNERSTONE 0001 TANNERSTONE 0001 TANNERSTONE 0001 TANNERSTONE 0001 TANNERSTONE 0001 TANNERSTONE 0001
 72
     1
 11
27.13463665682374
 21
6.155120421568796
 31
0.0
100
AcDbText
  0
LINE
  5
A89
330
A62
100
AcDbEntity
  8
0
 62
     7
100
AcDbLine
 10
26.78791925899645
 20
6.408946491460881
 30
0.0
 11
29.32320076794366
 21
6.408946491460881
 31
0.0
  0
TEXT
  5
A8A
330
A62
100
AcDbEntity
  8
0
 62
     7
100
AcDbText
 10
27.6921018725396
 20
6.155120421568796
 30
0.0
 40
0.0065625
  1
TANNERSTONE 0001 TANNERSTONE 0001 TANNERSTONE 0001 TANNERSTONE 0001 TANNERSTONE 0001 TANNERSTONE 0001 TANNERSTONE 0001
 72
     1
 11
28.0410422295559
 21
6.155120421568796
 31
0.0
100
AcDbText
  0
LINE
  5
A8B
330
A62
100
AcDbEntity
  8
0
 62
     7
100
AcDbLine
 10
26.78791925899645
 20
8.549200111339274
 30
0.0
 11
29.32320076794366
 21
8.549200111339274
 31
0.0
  0
TEXT
  5
A8C
330
A62
100
AcDbEntity
  8
0
 62
     7
100
AcDbText
 10
38.18320344075359
 20
3.401999220949534
 30
0.0
 40
0.8400000000000002
  1
CATEGORY
 72
     1
 11
41.47652732452397
 21
3.401999220949534
 31
0.0
100
AcDbText
  0
TEXT
  5
A8D
330
A62
100
AcDbEntity
  8
0
 62
     7
100
AcDbText
 10
39.28098221173835
 20
10.97304845086645
 30
0.0
 40
0.8085000000000002
  1
LEGEND
100
AcDbText
  0
LINE
  5
A8E
330
A62
100
AcDbEntity
  8
0
100
AcDbLine
 10
56.87404547169356
 20
0.0
 30
0.0
 11
56.87404547169356
 21
12.46470592426126
 31
0.0
  0
LINE
  5
A8F
330
A62
100
AcDbEntity
  8
0
100
AcDbLine
 10
0.0
 20
78.84810849484799
 30
0.0
 11
0.0
 21
0.0
 31
0.0
  0
LINE
  5
A90
330
A62
100
AcDbEntity
  8
0
100
AcDbLine
 10
0.0
 20
0.0
 30
0.0
 11
105.9925392881562
 21
0.0
 31
0.0
  0
LINE
  5
A91
330
A62
100
AcDbEntity
  8
0
100
AcDbLine
 10
105.9925392881562
 20
0.0
 30
0.0
 11
105.9925392881562
 21
78.84810849484799
 31
0.0
  0
LINE
  5
A92
330
A62
100
AcDbEntity
  8
0
100
AcDbLine
 10
105.9925392881562
 20
78.84810849484799
 30
0.0
 11
105.9925392881562
 21
70.31072004937001
 31
0.0
  0
ENDBLK
  5
A94
330
A62
100
AcDbEntity
  8
0
 62
     7
100
AcDbBlockEnd
  0
BLOCK
  5
AAF
330
AAA
100
AcDbEntity
  8
0
 62
     7
100
AcDbBlockBegin
  2
BALL16
 70
     0
 10
0.0
 20
0.0
 30
0.0
  3
BALL16
  1

  0
LWPOLYLINE
  5
AAB
330
AAA
100
AcDbEntity
  8
A1
 62
     7
100
AcDbPolyline
 90
        2
 70
     1
 43
0.12
 10
-3.249999999999879
 20
0.4351799258994476
 42
-4.697908552707798
 10
3.250000000000113
 20
0.4351799258994476
  0
INSERT
  5
AAC
330
AAA
100
AcDbEntity
  8
A1
 62
     7
100
AcDbBlockReference
 66
     1
  2
PROFILE LOGO
 10
-7.306887377767679
 20
9.232012174532769
 30
0.0
 41
1.596000000000003
 42
1.596000000000003
 43
1.596
  0
ATTRIB
  5
AAD
330
AAC
100
AcDbEntity
  8
A1
 62
    22
100
AcDbText
 10
-6.852751809164833
 20
6.553448169277942
 30
0.0
 40
0.33946171875
  1
1535
 72
     1
 11
-6.224591250939283
 21
6.553448169277942
 31
0.0
100
AcDbAttribute
  2
XXXX
 70
     0
  0
SEQEND
  5
AAE
330
AAC
100
AcDbEntity
  8
A1
 62
     7
  0
ENDBLK
  5
AB0
330
AAA
100
AcDbEntity
  8
0
 62
     7
100
AcDbBlockEnd
  0
BLOCK
  5
ACD
330
AC2
100
AcDbEntity
  8
0
 62
     7
100
AcDbBlockBegin
  2
*D24
 70
     1
 10
0.0
 20
0.0
 30
0.0
  3
*D24
  1

  0
LINE
  5
CC7
330
AC2
100
AcDbEntity
  8
A1
 62
     0
100
AcDbLine
 10
56.11277159105508
 20
24.91135028572363
 30
0.0
 11
62.67937811598248
 21
24.91135028572363
 31
0.0
  0
LINE
  5
CC8
330
AC2
100
AcDbEntity
  8
A1
 62
     0
100
AcDbLine
 10
47.96814811845456
 20
51.36342237718531
 30
0.0
 11
62.67937811598248
 21
51.36342237718531
 31
0.0
  0
LINE
  5
CC9
330
AC2
100
AcDbEntity
  8
A1
 62
     0
100
AcDbLine
 10
62.38562811598247
 20
25.49885028572363
 30
0.0
 11
62.38562811598247
 21
37.11258873504513
 31
0.0
  0
LINE
  5
CCA
330
AC2
100
AcDbEntity
  8
A1
 62
     0
100
AcDbLine
 10
62.38562811598248
 20
50.77592237718531
 30
0.0
 11
62.38562811598247
 21
39.56834706247249
 31
0.0
  0
MTEXT
  5
CCB
330
AC2
100
AcDbEntity
  8
A1
 62
     0
100
AcDbMText
 10
62.38562811598247
 20
38.34046789875882
 30
0.0
 40
1.175
 41
0.0
 71
     5
 72
     1
  1
\A1;26 7/16"
 73
     1
 44
1.0
  0
SOLID
  5
CCC
330
AC2
100
AcDbEntity
  8
A1
 62
     0
100
AcDbTrace
 10
62.2877114493158
 20
25.49885028572363
 30
0.0
 11
62.48354478264914
 21
25.49885028572363
 31
0.0
 12
62.38562811598247
 22
24.91135028572363
 32
0.0
 13
62.38562811598247
 23
24.91135028572363
 33
0.0
  0
SOLID
  5
CCD
330
AC2
100
AcDbEntity
  8
A1
 62
     0
100
AcDbTrace
 10
62.28771144931581
 20
50.77592237718531
 30
0.0
 11
62.48354478264914
 21
50.77592237718531
 31
0.0
 12
62.38562811598248
 22
51.36342237718531
 32
0.0
 13
62.38562811598248
 23
51.36342237718531
 33
0.0
  0
POINT
  5
CCE
330
AC2
100
AcDbEntity
  8
Defpoints
 62
     0
100
AcDbPoint
 10
54.93777159105508
 20
24.91135028572363
 30
0.0
  0
POINT
  5
CCF
330
AC2
100
AcDbEntity
  8
Defpoints
 62
     0
100
AcDbPoint
 10
46.79314811845457
 20
51.36342237718531
 30
0.0
  0
POINT
  5
CD0
330
AC2
100
AcDbEntity
  8
Defpoints
 62
     0
100
AcDbPoint
 10
62.38562811598248
 20
51.36342237718531
 30
0.0
  0
ENDBLK
  5
ACE
330
AC2
100
AcDbEntity
  8
0
 62
     7
100
AcDbBlockEnd
  0
BLOCK
  5
ADB
330
AD0
100
AcDbEntity
  8
0
 62
     7
100
AcDbBlockBegin
  2
*D25
 70
     1
 10
0.0
 20
0.0
 30
0.0
  3
*D25
  1

  0
LINE
  5
CD1
330
AD0
100
AcDbEntity
  8
A1
 62
     0
100
AcDbLine
 10
37.76277159105508
 20
24.91135028572363
 30
0.0
 11
31.04773721572406
 21
24.91135028572363
 31
0.0
  0
LINE
  5
CD2
330
AD0
100
AcDbEntity
  8
A1
 62
     0
100
AcDbLine
 10
42.70027159105509
 20
35.66135028572363
 30
0.0
 11
31.04773721572406
 21
35.66135028572363
 31
0.0
  0
LINE
  5
CD3
330
AD0
100
AcDbEntity
  8
A1
 62
     0
100
AcDbLine
 10
31.34148721572405
 20
25.49885028572363
 30
0.0
 11
31.34148721572405
 21
29.03291307990603
 31
0.0
  0
LINE
  5
CD4
330
AD0
100
AcDbEntity
  8
A1
 62
     0
100
AcDbLine
 10
31.34148721572405
 20
35.07385028572363
 30
0.0
 11
31.34148721572405
 21
31.48867140733338
 31
0.0
  0
MTEXT
  5
CD5
330
AD0
100
AcDbEntity
  8
A1
 62
     0
100
AcDbMText
 10
31.34148721572405
 20
30.26079224361971
 30
0.0
 40
1.175
 41
0.0
 71
     5
 72
     1
  1
\A1;10 3/4"
 73
     1
 44
1.0
  0
SOLID
  5
CD6
330
AD0
100
AcDbEntity
  8
A1
 62
     0
100
AcDbTrace
 10
31.24357054905739
 20
25.49885028572363
 30
0.0
 11
31.43940388239072
 21
25.49885028572363
 31
0.0
 12
31.34148721572405
 22
24.91135028572363
 32
0.0
 13
31.34148721572405
 23
24.91135028572363
 33
0.0
  0
SOLID
  5
CD7
330
AD0
100
AcDbEntity
  8
A1
 62
     0
100
AcDbTrace
 10
31.24357054905739
 20
35.07385028572363
 30
0.0
 11
31.43940388239072
 21
35.07385028572363
 31
0.0
 12
31.34148721572405
 22
35.66135028572363
 32
0.0
 13
31.34148721572405
 23
35.66135028572363
 33
0.0
  0
POINT
  5
CD8
330
AD0
100
AcDbEntity
  8
Defpoints
 62
     0
100
AcDbPoint
 10
38.93777159105508
 20
24.91135028572363
 30
0.0
  0
POINT
  5
CD9
330
AD0
100
AcDbEntity
  8
Defpoints
 62
     0
100
AcDbPoint
 10
43.87527159105508
 20
35.66135028572363
 30
0.0
  0
POINT
  5
CDA
330
AD0
100
AcDbEntity
  8
Defpoints
 62
     0
100
AcDbPoint
 10
31.34148721572405
 20
35.66135028572363
 30
0.0
  0
ENDBLK
  5
ADC
330
AD0
100
AcDbEntity
  8
0
 62
     7
100
AcDbBlockEnd
  0
BLOCK
  5
AE9
330
ADE
100
AcDbEntity
  8
0
 62
     7
100
AcDbBlockBegin
  2
*D26
 70
     1
 10
0.0
 20
0.0
 30
0.0
  3
*D26
  1

  0
LINE
  5
CDB
330
ADE
100
AcDbEntity
  8
A1
 62
     0
100
AcDbLine
 10
42.51277159105519
 20
36.09653021162308
 30
0.0
 11
31.04773721572406
 21
36.09653021162308
 31
0.0
  0
LINE
  5
CDC
330
ADE
100
AcDbEntity
  8
A1
 62
     0
100
AcDbLine
 10
45.61814811845457
 20
51.36342237718531
 30
0.0
 11
31.04773721572406
 21
51.36342237718531
 31
0.0
  0
LINE
  5
CDD
330
ADE
100
AcDbEntity
  8
A1
 62
     0
100
AcDbLine
 10
31.34148721572406
 20
36.68403021162308
 30
0.0
 11
31.34148721572406
 21
42.55545059474892
 31
0.0
  0
LINE
  5
CDE
330
ADE
100
AcDbEntity
  8
A1
 62
     0
100
AcDbLine
 10
31.34148721572406
 20
50.77592237718532
 30
0.0
 11
31.34148721572406
 21
44.99372132472766
 31
0.0
  0
MTEXT
  5
CDF
330
ADE
100
AcDbEntity
  8
A1
 62
     0
100
AcDbMText
 10
31.34148721572405
 20
43.7745859597383
 30
0.0
 40
1.175
 41
0.0
 71
     5
 72
     1
  1
\A1;15 1/4"
 73
     1
 44
1.0
  0
SOLID
  5
CE0
330
ADE
100
AcDbEntity
  8
A1
 62
     0
100
AcDbTrace
 10
31.24357054905739
 20
36.68403021162308
 30
0.0
 11
31.43940388239073
 21
36.68403021162308
 31
0.0
 12
31.34148721572406
 22
36.09653021162308
 32
0.0
 13
31.34148721572406
 23
36.09653021162308
 33
0.0
  0
SOLID
  5
CE1
330
ADE
100
AcDbEntity
  8
A1
 62
     0
100
AcDbTrace
 10
31.2435705490574
 20
50.77592237718532
 30
0.0
 11
31.43940388239073
 21
50.77592237718532
 31
0.0
 12
31.34148721572406
 22
51.36342237718531
 32
0.0
 13
31.34148721572406
 23
51.36342237718531
 33
0.0
  0
POINT
  5
CE2
330
ADE
100
AcDbEntity
  8
Defpoints
 62
     0
100
AcDbPoint
 10
43.68777159105519
 20
36.09653021162308
 30
0.0
  0
POINT
  5
CE3
330
ADE
100
AcDbEntity
  8
Defpoints
 62
     0
100
AcDbPoint
 10
46.79314811845457
 20
51.36342237718531
 30
0.0
  0
POINT
  5
CE4
330
ADE
100
AcDbEntity
  8
Defpoints
 62
     0
100
AcDbPoint
 10
31.34148721572406
 20
51.36342237718531
 30
0.0
  0
ENDBLK
  5
AEA
330
ADE
100
AcDbEntity
  8
0
 62
     7
100
AcDbBlockEnd
  0
BLOCK
  5
BC2
330
BB7
100
AcDbEntity
  8
0
 62
     7
100
AcDbBlockBegin
  2
*D27
 70
     1
 10
0.0
 20
0.0
 30
0.0
  3
*D27
  1

  0
LINE
  5
CE5
330
BB7
100
AcDbEntity
  8
A1
 62
     0
100
AcDbLine
 10
38.9577715910552
 20
44.55973300792341
 30
0.0
 11
38.9577715910552
 21
59.19432031245593
 31
0.0
  0
LINE
  5
CE6
330
BB7
100
AcDbEntity
  8
A1
 62
     0
100
AcDbLine
 10
54.91745378495588
 20
44.6309515753366
 30
0.0
 11
54.91745378495588
 21
59.19432031245593
 31
0.0
  0
LINE
  5
CE7
330
BB7
100
AcDbEntity
  8
A1
 62
     0
100
AcDbLine
 10
39.5452715910552
 20
58.90057031245593
 30
0.0
 11
44.35651451232414
 21
58.90057031245593
 31
0.0
  0
LINE
  5
CE8
330
BB7
100
AcDbEntity
  8
A1
 62
     0
100
AcDbLine
 10
54.32995378495588
 20
58.90057031245593
 30
0.0
 11
49.80515023167211
 21
58.90057031245593
 31
0.0
  0
MTEXT
  5
CE9
330
BB7
100
AcDbEntity
  8
A1
 62
     0
100
AcDbMText
 10
47.08083237199812
 20
58.90057031245593
 30
0.0
 40
1.175
 41
0.0
 71
     5
 72
     1
  1
\A1;%%C16"
 73
     1
 44
1.0
  0
SOLID
  5
CEA
330
BB7
100
AcDbEntity
  8
A1
 62
     0
100
AcDbTrace
 10
39.5452715910552
 20
58.99848697912259
 30
0.0
 11
39.5452715910552
 21
58.80265364578925
 31
0.0
 12
38.9577715910552
 22
58.90057031245593
 32
0.0
 13
38.9577715910552
 23
58.90057031245593
 33
0.0
  0
SOLID
  5
CEB
330
BB7
100
AcDbEntity
  8
A1
 62
     0
100
AcDbTrace
 10
54.32995378495588
 20
58.99848697912259
 30
0.0
 11
54.32995378495588
 21
58.80265364578925
 31
0.0
 12
54.91745378495588
 22
58.90057031245593
 32
0.0
 13
54.91745378495588
 23
58.90057031245593
 33
0.0
  0
POINT
  5
CEC
330
BB7
100
AcDbEntity
  8
Defpoints
 62
     0
100
AcDbPoint
 10
38.9577715910552
 20
43.38473300792341
 30
0.0
  0
POINT
  5
CED
330
BB7
100
AcDbEntity
  8
Defpoints
 62
     0
100
AcDbPoint
 10
54.91745378495588
 20
43.45595157533661
 30
0.0
  0
POINT
  5
CEE
330
BB7
100
AcDbEntity
  8
Defpoints
 62
     0
100
AcDbPoint
 10
54.91745378495588
 20
58.90057031245593
 30
0.0
  0
ENDBLK
  5
BC3
330
BB7
100
AcDbEntity
  8
0
 62
     7
100
AcDbBlockEnd
  0
BLOCK
  5
BE9
330
BDE
100
AcDbEntity
  8
0
 62
     7
100
AcDbBlockBegin
  2
*D28
 70
     1
 10
0.0
 20
0.0
 30
0.0
  3
*D28
  1

  0
LINE
  5
CEF
330
BDE
100
AcDbEntity
  8
A1
 62
     0
100
AcDbLine
 10
38.93777159105508
 20
23.73635028572363
 30
0.0
 11
38.93777159105508
 21
20.49649177503535
 31
0.0
  0
LINE
  5
CF0
330
BDE
100
AcDbEntity
  8
A1
 62
     0
100
AcDbLine
 10
54.93777159105508
 20
23.73635028572363
 30
0.0
 11
54.93777159105508
 21
20.49649177503535
 31
0.0
  0
LINE
  5
CF1
330
BDE
100
AcDbEntity
  8
A1
 62
     0
100
AcDbLine
 10
39.52527159105508
 20
20.79024177503535
 30
0.0
 11
44.57110518410527
 21
20.79024177503535
 31
0.0
  0
LINE
  5
CF2
330
BDE
100
AcDbEntity
  8
A1
 62
     0
100
AcDbLine
 10
54.35027159105509
 20
20.79024177503535
 30
0.0
 11
50.01974090345325
 21
20.79024177503535
 31
0.0
  0
MTEXT
  5
CF3
330
BDE
100
AcDbEntity
  8
A1
 62
     0
100
AcDbMText
 10
47.29542304377926
 20
20.79024177503535
 30
0.0
 40
1.175
 41
0.0
 71
     5
 72
     1
  1
\A1;%%C16"
 73
     1
 44
1.0
  0
SOLID
  5
CF4
330
BDE
100
AcDbEntity
  8
A1
 62
     0
100
AcDbTrace
 10
39.52527159105508
 20
20.88815844170202
 30
0.0
 11
39.52527159105508
 21
20.69232510836868
 31
0.0
 12
38.93777159105508
 22
20.79024177503535
 32
0.0
 13
38.93777159105508
 23
20.79024177503535
 33
0.0
  0
SOLID
  5
CF5
330
BDE
100
AcDbEntity
  8
A1
 62
     0
100
AcDbTrace
 10
54.35027159105509
 20
20.88815844170202
 30
0.0
 11
54.35027159105509
 21
20.69232510836868
 31
0.0
 12
54.93777159105508
 22
20.79024177503535
 32
0.0
 13
54.93777159105508
 23
20.79024177503535
 33
0.0
  0
POINT
  5
CF6
330
BDE
100
AcDbEntity
  8
Defpoints
 62
     0
100
AcDbPoint
 10
38.93777159105508
 20
24.91135028572363
 30
0.0
  0
POINT
  5
CF7
330
BDE
100
AcDbEntity
  8
Defpoints
 62
     0
100
AcDbPoint
 10
54.93777159105508
 20
24.91135028572363
 30
0.0
  0
POINT
  5
CF8
330
BDE
100
AcDbEntity
  8
Defpoints
 62
     0
100
AcDbPoint
 10
54.93777159105508
 20
20.79024177503535
 30
0.0
  0
ENDBLK
  5
BEA
330
BDE
100
AcDbEntity
  8
0
 62
     7
100
AcDbBlockEnd
  0
ENDSEC
  0
SECTION
  2
ENTITIES
  0
ATTDEF
  5
7EF
330
2
100
AcDbEntity
  8
A1
 62
     1
100
AcDbText
 10
64.49727141930939
 20
57.16556821171957
 30
0.0
 40
1.199999999999993
  1

100
AcDbAttributeDefinition
  3
ADD LINK NUMBER (WMF)
  2
TSD009
 70
     0
  0
MTEXT
  5
7F0
330
2
100
AcDbEntity
  8
0
 62
     1
100
AcDbMText
 10
64.54387045647941
 20
56.26883794470182
 30
0.0
 40
1.199999999999993
 41
0.0
 71
     1
 72
     1
  1
TannerStone
 73
     1
 44
1.0
1001
ACAD
1000
MTEXTBEGIN
1070
    73
1070
     1
1070
    44
1040
1.0
1070
    74
1070
     0
1000
MTEXTEND
1000
MTEXTBEGIN
1070
    73
1070
     1
1070
    44
1040
1.0
1070
    74
1070
     0
1000
MTEXTEND
  0
MTEXT
  5
7F1
330
2
100
AcDbEntity
  8
0
 62
     1
100
AcDbMText
 10
64.63716134529748
 20
54.44824586510844
 30
0.0
 40
0.8864099999999954
 41
0.0
 71
     1
 72
     1
  1
1-800-789-4841
 73
     1
 44
1.0
1001
ACAD
1000
MTEXTBEGIN
1070
    73
1070
     1
1070
    44
1040
1.0
1070
    74
1070
     0
1000
MTEXTEND
1000
MTEXTBEGIN
1070
    73
1070
     1
1070
    44
1040
1.0
1070
    74
1070
     0
1000
MTEXTEND
  0
LINE
  5
7F3
330
2
100
AcDbEntity
  8
0
 62
     1
100
AcDbLine
 10
63.91307500041609
 20
53.12091226013443
 30
0.0
 11
63.91307500041609
 21
58.58625677552574
 31
0.0
  0
LINE
  5
88B
330
2
100
AcDbEntity
  8
A1
 62
     7
100
AcDbLine
 10
50.00027159105508
 20
35.66135028572363
 30
0.0
 11
43.87527159105508
 21
35.66135028572363
 31
0.0
  0
INSERT
  5
9BE
330
2
100
AcDbEntity
  8
A1
 62
     7
100
AcDbBlockReference
 66
     1
  2
PROFILE LOGO
 10
39.10713283097544
 20
26.7712650361667
 30
0.0
  0
ATTRIB
  5
9BF
330
9BE
100
AcDbEntity
  8
A1
 62
    22
100
AcDbText
 10
39.39816078232303
 20
25.09296678726013
 30
0.0
 40
0.2126953125
  1
1574
 72
     1
 11
39.78526323625641
 21
25.09296678726013
 31
0.0
100
AcDbAttribute
  2
XXXX
 70
     0
  0
SEQEND
  5
9C0
330
9BE
100
AcDbEntity
  8
A1
 62
     7
  0
LWPOLYLINE
  5
9C1
330
2
100
AcDbEntity
  8
0
100
AcDbPolyline
 90
       18
 70
     1
 43
0.12
 10
46.93777159105508
 20
24.91135028572363
 10
38.93777159105508
 20
24.91135028572363
 10
38.93777159105508
 20
26.91135028572363
 42
0.4333105199635356
 10
42.65540700705838
 20
31.41135028572363
 42
-0.9999999999999998
 10
42.65540700705838
 20
32.41135028572363
 42
0.6718751592707778
 10
43.88015187845001
 20
35.41135028572363
 10
43.75515187845002
 20
35.41135028572363
 42
-0.4142135623730951
 10
43.59890187845002
 20
35.56760028572363
 10
43.59890187845002
 20
35.66135028572363
 10
46.93777159105508
 20
35.66135028572363
 10
50.27664130366014
 20
35.66135028572363
 10
50.27664130366014
 20
35.56760028572363
 42
-0.4142135623730951
 10
50.12039130366014
 20
35.41135028572363
 10
49.99539130366014
 20
35.41135028572363
 42
0.6718751592707778
 10
51.22013617505178
 20
32.41135028572363
 42
-0.9999999999999998
 10
51.22013617505178
 20
31.41135028572363
 42
0.4333105199635356
 10
54.93777159105508
 20
26.91135028572363
 10
54.93777159105508
 20
24.91135028572363
  0
LWPOLYLINE
  5
9C2
330
2
100
AcDbEntity
  8
A1
 62
     7
100
AcDbPolyline
 90
        2
 70
     0
 43
0.12
 10
51.22013617505178
 20
32.41135028572363
 10
42.65540700705838
 20
32.41135028572363
  0
LWPOLYLINE
  5
9C3
330
2
100
AcDbEntity
  8
A1
 62
     7
100
AcDbPolyline
 90
        2
 70
     0
 43
0.12
 10
51.22013617505178
 20
31.41135028572363
 10
42.65540700705838
 20
31.41135028572363
  0
LWPOLYLINE
  5
9C4
330
2
100
AcDbEntity
  8
A1
 62
     7
100
AcDbPolyline
 90
        2
 70
     0
 43
0.12
 10
54.93777159105508
 20
26.91135028572363
 10
38.93777159105508
 20
26.91135028572363
  0
LWPOLYLINE
  5
9C5
330
2
100
AcDbEntity
  8
A1
 62
     7
100
AcDbPolyline
 90
        2
 70
     0
 43
0.12
 10
49.99539130366014
 20
35.41135028572363
 10
43.88015187845001
 20
35.41135028572363
  0
INSERT
  5
A95
330
2
100
AcDbEntity
  8
A1
 62
     7
100
AcDbBlockReference
 66
     1
  2
tsformb
 10
8.484639874334689
 20
7.816348377208022
 30
0.0
 41
0.7290000000000001
 42
0.7290000000000001
 43
0.7290000000000001
  0
ATTRIB
  5
A96
330
A95
100
AcDbEntity
  8
A1
 62
     1
100
AcDbText
 10
80.47717751867462
 20
13.07939202791759
 30
0.0
 40
0.6889050000000003
  1
272.69
 72
     1
 11
82.21701661683196
 21
13.07939202791759
 31
0.0
100
AcDbAttribute
  2
XXXXX
 70
     0
  0
ATTRIB
  5
A97
330
A95
100
AcDbEntity
  8
A1
 62
     1
100
AcDbText
 10
80.27896016589227
 20
15.16394259594066
 30
0.0
 40
0.6889050000000003
  1
302.06"
 72
     1
 11
82.24192441288023
 21
15.16394259594066
 31
0.0
100
AcDbAttribute
  2
XXXXX
 70
     0
  0
ATTRIB
  5
A98
330
A95
100
AcDbEntity
  8
A1
 62
     1
100
AcDbText
 10
76.4823409474922
 20
61.32496028356285
 30
0.0
 40
1.515591
  1
TSD009
 72
     1
 11
80.80354760447306
 21
61.32496028356285
 31
0.0
100
AcDbAttribute
  2
TS00XX
 70
     0
  0
ATTRIB
  5
A99
330
A95
100
AcDbEntity
  8
A1
 62
     1
100
AcDbText
 10
13.43933882514373
 20
10.08934326021027
 30
0.0
 40
4.470228000000001
  1
TSD009
  7
barcoder
 72
     1
 11
17.85368897514373
 21
10.08934326021027
 31
0.0
100
AcDbAttribute
  2
BARCODE
 70
     0
  0
ATTRIB
  5
A9A
330
A95
100
AcDbEntity
  8
A1
 62
     1
100
AcDbText
 10
20.70541927222098
 20
9.18323701250107
 30
0.0
 40
0.6123600000000003
  1
TSD009
 72
     2
 11
24.19730343947825
 21
9.18323701250107
 31
0.0
100
AcDbAttribute
  2
XXXXXX
 70
     0
  0
ATTRIB
  5
A9B
330
A95
100
AcDbEntity
  8
A1
 62
     1
100
AcDbText
 10
33.01020007959567
 20
8.484465322591034
 30
0.0
 40
0.7476548184000001
  1
BALL AND PEDESTAL
 72
     1
 11
38.56329894340289
 21
8.484465322591034
 31
0.0
100
AcDbAttribute
  2
XXXXXX
 70
     0
  0
SEQEND
  5
A9C
330
A95
100
AcDbEntity
  8
A1
 62
     7
  0
LINE
  5
AA2
330
2
100
AcDbEntity
  8
0
 62
     1
100
AcDbLine
 10
55.50850701017236
 20
56.70624532226519
 30
0.0
 11
74.84195351400114
 21
56.70624532226518
 31
0.0
  0
INSERT
  5
AB1
330
2
100
AcDbEntity
  8
A1
 62
     7
100
AcDbBlockReference
  2
BALL16
 10
46.93777159105508
 20
35.66135028572363
 30
0.0
  0
LINE
  5
AB4
330
2
100
AcDbEntity
  8
0
 62
     1
100
AcDbLine
 10
61.3616042940474
 20
22.24249583609419
 30
0.0
 11
65.05755944927961
 21
22.24249583609419
 31
0.0
  0
LINE
  5
AB5
330
2
100
AcDbEntity
  8
0
 62
     1
100
AcDbLine
 10
65.05755944927961
 20
21.30249010946392
 30
0.0
 11
65.05755944927961
 21
23.18250156272446
 31
0.0
  0
ATTDEF
  5
AB6
330
2
100
AcDbEntity
  8
A1
 62
     1
100
AcDbText
 10
65.64175586817291
 20
21.7618129989183
 30
0.0
 40
1.199999999999993
  1

100
AcDbAttributeDefinition
  3
ADD LINK NUMBER (WMF)
  2
TS1574
 70
     0
  0
SOLID
  5
ABB
330
2
100
AcDbEntity
  8
A1
 62
     1
100
AcDbTrace
 10
47.15614333529316
 20
51.71722870414505
 30
0.0
 11
47.02177397428791
 21
51.81583221625705
 31
0.0
 12
46.79314811845457
 22
51.36342237718531
 32
0.0
 13
46.79314811845457
 23
51.36342237718531
 33
0.0
  0
LINE
  5
ABC
330
2
100
AcDbEntity
  8
A1
 62
     1
100
AcDbLine
 10
47.08895865479054
 20
51.76653046020105
 30
0.0
 11
50.72272024301415
 21
56.71834416538078
 31
0.0
  0
LINE
  5
ABD
330
2
100
AcDbEntity
  8
A1
 62
     1
100
AcDbLine
 10
50.72272024301414
 20
56.71834416538079
 30
0.0
 11
54.24659548207396
 21
56.7062453222652
 31
0.0
  0
DIMENSION
  5
AC1
330
2
100
AcDbEntity
  8
A1
 62
     7
100
AcDbDimension
  2
*D24
 10
62.38562811598248
 20
51.36342237718531
 30
0.0
 11
62.38562811598247
 21
38.34046789875882
 31
0.0
 70
   160
 71
     5
 42
-1.0
  3
STANDARD
100
AcDbAlignedDimension
 13
54.93777159105508
 23
24.91135028572363
 33
0.0
 14
46.79314811845457
 24
51.36342237718531
 34
0.0
 50
90.0
100
AcDbRotatedDimension
1001
ACAD
1000
DSTYLE
1002
{
1070
   287
1070
     4
1070
    40
1040
1.175
1070
    73
1070
     1
1070
    74
1070
     1
1070
    77
1070
     0
1070
   147
1040
0.5
1070
   279
1070
     1
1070
   288
1070
     1
1070
   289
1070
     3
1002
}
  0
DIMENSION
  5
ACF
330
2
100
AcDbEntity
  8
A1
 62
     7
100
AcDbDimension
  2
*D25
 10
31.34148721572405
 20
35.66135028572363
 30
0.0
 11
31.34148721572405
 21
30.26079224361971
 31
0.0
 70
   160
 71
     5
 42
-1.0
  3
STANDARD
100
AcDbAlignedDimension
 13
38.93777159105508
 23
24.91135028572363
 33
0.0
 14
43.87527159105508
 24
35.66135028572363
 34
0.0
 50
90.0
100
AcDbRotatedDimension
1001
ACAD
1000
DSTYLE
1002
{
1070
   287
1070
     4
1070
    40
1040
1.175
1070
    73
1070
     1
1070
    74
1070
     1
1070
    77
1070
     0
1070
   147
1040
0.5
1070
   279
1070
     1
1070
   288
1070
     1
1070
   289
1070
     3
1002
}
  0
DIMENSION
  5
ADD
330
2
100
AcDbEntity
  8
A1
 62
     7
100
AcDbDimension
  2
*D26
 10
31.34148721572406
 20
51.36342237718531
 30
0.0
 11
31.34148721572405
 21
43.7745859597383
 31
0.0
 70
   160
 71
     5
 42
-1.0
  3
STANDARD
100
AcDbAlignedDimension
 13
43.68777159105519
 23
36.09653021162308
 33
0.0
 14
46.79314811845457
 24
51.36342237718531
 34
0.0
 50
90.0
100
AcDbRotatedDimension
1001
ACAD
1000
DSTYLE
1002
{
1070
   287
1070
     4
1070
    40
1040
1.175
1070
    73
1070
     1
1070
    74
1070
     1
1070
    77
1070
     0
1070
   147
1040
0.5
1070
   279
1070
     1
1070
   288
1070
     1
1070
   289
1070
     3
1002
}
  0
SOLID
  5
B1E
330
2
100
AcDbEntity
  8
A1
 62
     1
100
AcDbTrace
 10
55.36753515755528
 20
24.64256092329744
 30
0.0
 11
55.43147962285566
 21
24.79647285634758
 31
0.0
 12
54.93777159105508
 22
24.91135028572363
 32
0.0
 13
54.93777159105508
 23
24.91135028572363
 33
0.0
  0
LINE
  5
B1F
330
2
100
AcDbEntity
  8
A1
 62
     1
100
AcDbLine
 10
55.39950739020547
 20
24.71951688982251
 30
0.0
 11
61.3616042940474
 21
22.24249583609419
 31
0.0
  0
DIMENSION
  5
BB6
330
2
100
AcDbEntity
  8
A1
 62
     7
100
AcDbDimension
  2
*D27
 10
54.91745378495588
 20
58.90057031245593
 30
0.0
 11
47.08083237199812
 21
58.90057031245593
 31
0.0
 70
   160
  1
%%C16"
 71
     5
 42
-1.0
  3
STANDARD
100
AcDbAlignedDimension
 13
38.9577715910552
 23
43.38473300792341
 33
0.0
 14
54.91745378495588
 24
43.45595157533661
 34
0.0
100
AcDbRotatedDimension
1001
ACAD
1000
DSTYLE
1002
{
1070
   287
1070
     4
1070
    40
1040
1.175
1070
    73
1070
     1
1070
    74
1070
     1
1070
    77
1070
     0
1070
   147
1040
0.5
1070
   279
1070
     1
1070
   288
1070
     1
1070
   289
1070
     3
1002
}
  0
DIMENSION
  5
BDD
330
2
100
AcDbEntity
  8
A1
 62
     7
100
AcDbDimension
  2
*D28
 10
54.93777159105508
 20
20.79024177503535
 30
0.0
 11
47.29542304377926
 21
20.79024177503535
 31
0.0
 70
   161
  1
%%C16"
 71
     5
 42
-1.0
  3
STANDARD
100
AcDbAlignedDimension
 13
38.93777159105508
 23
24.91135028572363
 33
0.0
 14
54.93777159105508
 24
24.91135028572363
 34
0.0
1001
ACAD
1000
DSTYLE
1002
{
1070
   287
1070
     4
1070
    40
1040
1.175
1070
    73
1070
     1
1070
    74
1070
     1
1070
    77
1070
     0
1070
   147
1040
0.5
1070
   279
1070
     1
1070
   288
1070
     1
1070
   289
1070
     3
1002
}
  0
ATTDEF
  5
C8B
330
2
100
AcDbEntity
  8
A1
 62
     1
100
AcDbText
 10
67.16467410059268
 20
42.45199520485839
 30
0.0
 40
1.199999999999993
  1

100
AcDbAttributeDefinition
  3
ADD LINK NUMBER (WMF)
  2
TS1535
 70
     0
  0
LINE
  5
C8C
330
2
100
AcDbEntity
  8
0
 62
     1
100
AcDbLine
 10
66.58047768169938
 20
41.992672315404
 30
0.0
 11
66.58047768169938
 21
43.87268376866455
 31
0.0
  0
LINE
  5
C8D
330
2
100
AcDbEntity
  8
0
 62
     1
100
AcDbLine
 10
62.88452252646717
 20
42.93267804203428
 30
0.0
 11
66.58047768169938
 21
42.93267804203428
 31
0.0
  0
SOLID
  5
C8E
330
2
100
AcDbEntity
  8
A1
 62
     1
100
AcDbTrace
 10
55.37270384278735
 20
41.90991490835806
 30
0.0
 11
55.33538642834738
 21
42.10215981732566
 31
0.0
 12
54.77731040866458
 22
41.89408511952193
 32
0.0
 13
54.77731040866458
 23
41.89408511952193
 33
0.0
  0
LINE
  5
C8F
330
2
100
AcDbEntity
  8
A1
 62
     1
100
AcDbLine
 10
55.35404513556737
 20
42.00603736284185
 30
0.0
 11
60.08185795380406
 21
42.92377168038626
 31
0.0
  0
LINE
  5
C90
330
2
100
AcDbEntity
  8
A1
 62
     1
100
AcDbLine
 10
60.08185795380406
 20
42.92377168038626
 30
0.0
 11
61.81244663236096
 21
42.92377168038626
 31
0.0
  0
ENDSEC
  0
SECTION
  2
OBJECTS
  0
DICTIONARY
  5
8
330
0
100
AcDbDictionary
281
     1
  3
ACAD_GROUP
350
21
  3
ACAD_LAYOUT
350
C
  3
ACAD_MLINESTYLE
350
22
  3
ACAD_PLOTSETTINGS
350
23
  3
ACAD_PLOTSTYLENAME
350
7
  3
DWGPROPS
350
C1C
  0
DICTIONARY
  5
3
330
2
100
AcDbDictionary
280
     1
281
     1
  3
ACAD_LAYOUTSELFREF
360
CC1
  0
DICTIONARY
  5
C50
330
D
100
AcDbDictionary
280
     1
281
     1
  3
ACAD_LAYOUTSELFREF
360
CC4
  0
DICTIONARY
  5
21
102
{ACAD_REACTORS
330
8
102
}
330
8
100
AcDbDictionary
281
     1
  0
DICTIONARY
  5
C
102
{ACAD_REACTORS
330
8
102
}
330
8
100
AcDbDictionary
281
     1
  3
Layout1
350
10
  3
Model
350
B
  0
DICTIONARY
  5
22
102
{ACAD_REACTORS
330
8
102
}
330
8
100
AcDbDictionary
281
     1
  3
STANDARD
350
25
  0
DICTIONARY
  5
23
102
{ACAD_REACTORS
330
8
102
}
330
8
100
AcDbDictionary
281
     1
  0
ACDBDICTIONARYWDFLT
  5
7
102
{ACAD_REACTORS
330
8
102
}
330
8
100
AcDbDictionary
281
     1
  3
Normal
350
6
100
AcDbDictionaryWithDefault
340
6
  0
XRECORD
  5
C1C
102
{ACAD_REACTORS
330
8
102
}
330
8
100
AcDbXrecord
280
     1
  1
DWGPROPS COOKIE
  2

  3

  4

  6

  7

  8
catalog
  9

300
=
301
=
302
=
303
=
304
=
305
=
306
=
307
=
308
=
309
=
 40
2.309163310185185
 41
2451085.66483831
 42
2451642.663552661
  1

 90
        0
  0
XRECORD
  5
CC1
102
{ACAD_REACTORS
330
3
102
}
330
3
100
AcDbXrecord
280
     1
340
2
  0
XRECORD
  5
CC4
102
{ACAD_REACTORS
330
C50
102
}
330
C50
100
AcDbXrecord
280
     1
340
D
  0
LAYOUT
  5
10
102
{ACAD_REACTORS
330
C
102
}
330
C
100
AcDbPlotSettings
  1

  2
None
  4

  6

 40
0.0
 41
0.0
 42
0.0
 43
0.0
 44
0.0
 45
0.0
 46
0.0
 47
0.0
 48
0.0
 49
0.0
140
0.0
141
0.0
142
1.0
143
1.0
 70
   688
 72
     0
 73
     0
 74
     5
  7

 75
    16
147
1.0
148
0.0
149
0.0
100
AcDbLayout
  1
Layout1
 70
     1
 71
     1
 10
0.0
 20
0.0
 11
12.0
 21
9.0
 12
0.0
 22
0.0
 32
0.0
 14
1.000000000000000E+20
 24
1.000000000000000E+20
 34
1.000000000000000E+20
 15
-1.000000000000000E+20
 25
-1.000000000000000E+20
 35
-1.000000000000000E+20
146
0.0
 13
0.0
 23
0.0
 33
0.0
 16
1.0
 26
0.0
 36
0.0
 17
0.0
 27
1.0
 37
0.0
 76
     0
330
D
  0
LAYOUT
  5
B
102
{ACAD_REACTORS
330
C
102
}
330
C
100
AcDbPlotSettings
  1

  2
HP LaserJet 5.pc3
  4
Letter
  6

 40
7.143749713897705
 41
6.381738662719726
 42
7.14373779296875
 43
6.381744384765625
 44
215.8999938964843
 45
279.3999938964843
 46
0.0
 47
0.0
 48
621.3757168041145
 49
474.7940657922356
140
776.0405273297699
141
524.8962291405273
142
1.0
143
7.36123678619385
 70
 11952
 72
     0
 73
     1
 74
     1
  7

 75
     0
147
0.1358467373139688
148
-215.4714647175262
149
-198.4994972968245
100
AcDbLayout
  1
Model
 70
     1
 71
     0
 10
0.0
 20
0.0
 11
12.0
 21
9.0
 12
0.0
 22
0.0
 32
0.0
 14
0.0
 24
0.0
 34
0.0
 15
0.0
 25
0.0
 35
0.0
146
0.0
 13
0.0
 23
0.0
 33
0.0
 16
1.0
 26
0.0
 36
0.0
 17
0.0
 27
1.0
 37
0.0
 76
     0
330
2
  0
MLINESTYLE
  5
25
102
{ACAD_REACTORS
330
22
102
}
330
22
100
AcDbMlineStyle
  2
STANDARD
 70
     0
  3

 62
   256
 51
90.0
 52
90.0
 71
     2
 49
0.5
 62
   256
  6
BYLAYER
 49
-0.5
 62
   256
  6
BYLAYER
  0
ACDBPLACEHOLDER
  5
6
102
{ACAD_REACTORS
330
7
102
}
330
7
  0
ENDSEC
  0
EOF
