  0
SECTION
  2
HEADER
  9
$ACADVER
  1
AC1015
  9
$ACADMAINTVER
 70
     6
  9
$DWGCODEPAGE
  3
ANSI_1252
  9
$INSBASE
 10
0.0
 20
0.0
 30
0.0
  9
$EXTMIN
 10
14.17159259214952
 20
10.45955886408465
 30
0.0
  9
$EXTMAX
 10
86.67048946524841
 20
64.39166507456068
 30
0.0
  9
$LIMMIN
 10
0.0
 20
0.0
  9
$LIMMAX
 10
12.0
 20
9.0
  9
$ORTHOMODE
 70
     0
  9
$REGENMODE
 70
     1
  9
$FILLMODE
 70
     1
  9
$QTEXTMODE
 70
     0
  9
$MIRRTEXT
 70
     0
  9
$LTSCALE
 40
1.0
  9
$ATTMODE
 70
     2
  9
$TEXTSIZE
 40
2.0
  9
$TRACEWID
 40
0.05
  9
$TEXTSTYLE
  7
STANDARD
  9
$CLAYER
  8
A1
  9
$CELTYPE
  6
BYLAYER
  9
$CECOLOR
 62
     7
  9
$CELTSCALE
 40
1.0
  9
$DISPSILH
 70
     0
  9
$DIMSCALE
 40
1.0
  9
$DIMASZ
 40
0.5
  9
$DIMEXO
 40
1.0
  9
$DIMDLI
 40
0.0625
  9
$DIMRND
 40
0.0
  9
$DIMDLE
 40
0.0
  9
$DIMEXE
 40
0.25
  9
$DIMTP
 40
0.0
  9
$DIMTM
 40
0.0
  9
$DIMTXT
 40
1.0
  9
$DIMCEN
 40
0.0
  9
$DIMTSZ
 40
0.0
  9
$DIMTOL
 70
     0
  9
$DIMLIM
 70
     0
  9
$DIMTIH
 70
     1
  9
$DIMTOH
 70
     1
  9
$DIMSE1
 70
     0
  9
$DIMSE2
 70
     0
  9
$DIMTAD
 70
     0
  9
$DIMZIN
 70
     0
  9
$DIMBLK
  1

  9
$DIMASO
 70
     1
  9
$DIMSHO
 70
     1
  9
$DIMPOST
  1
"
  9
$DIMAPOST
  1

  9
$DIMALT
 70
     0
  9
$DIMALTD
 70
     0
  9
$DIMALTF
 40
25.4
  9
$DIMLFAC
 40
1.0
  9
$DIMTOFL
 70
     0
  9
$DIMTVP
 40
0.0
  9
$DIMTIX
 70
     0
  9
$DIMSOXD
 70
     0
  9
$DIMSAH
 70
     0
  9
$DIMBLK1
  1

  9
$DIMBLK2
  1

  9
$DIMSTYLE
  2
STANDARD
  9
$DIMCLRD
 70
     0
  9
$DIMCLRE
 70
     0
  9
$DIMCLRT
 70
     0
  9
$DIMTFAC
 40
0.125
  9
$DIMGAP
 40
0.5
  9
$DIMJUST
 70
     0
  9
$DIMSD1
 70
     0
  9
$DIMSD2
 70
     0
  9
$DIMTOLJ
 70
     1
  9
$DIMTZIN
 70
     0
  9
$DIMALTZ
 70
     2
  9
$DIMALTTZ
 70
     2
  9
$DIMUPT
 70
     1
  9
$DIMDEC
 70
     4
  9
$DIMTDEC
 70
     4
  9
$DIMALTU
 70
     2
  9
$DIMALTTD
 70
     0
  9
$DIMTXSTY
  7
STANDARD
  9
$DIMAUNIT
 70
     0
  9
$DIMADEC
 70
     0
  9
$DIMALTRND
 40
0.0
  9
$DIMAZIN
 70
     0
  9
$DIMDSEP
 70
    46
  9
$DIMATFIT
 70
     1
  9
$DIMFRAC
 70
     2
  9
$DIMLDRBLK
  1

  9
$DIMLUNIT
 70
     5
  9
$DIMLWD
 70
    -2
  9
$DIMLWE
 70
    -2
  9
$DIMTMOVE
 70
     1
  9
$LUNITS
 70
     5
  9
$LUPREC
 70
     4
  9
$SKETCHINC
 40
0.1
  9
$FILLETRAD
 40
0.0
  9
$AUNITS
 70
     0
  9
$AUPREC
 70
     1
  9
$MENU
  1
acad
  9
$ELEVATION
 40
0.0
  9
$PELEVATION
 40
0.0
  9
$THICKNESS
 40
0.0
  9
$LIMCHECK
 70
     0
  9
$CHAMFERA
 40
0.75
  9
$CHAMFERB
 40
0.75
  9
$CHAMFERC
 40
0.0
  9
$CHAMFERD
 40
0.0
  9
$SKPOLY
 70
     0
  9
$TDCREATE
 40
2451085.664838310
  9
$TDUCREATE
 40
2451085.831504977
  9
$TDUPDATE
 40
2451660.594741319
  9
$TDUUPDATE
 40
2451660.761407986
  9
$TDINDWG
 40
2.3250128472
  9
$TDUSRTIMER
 40
2.3250128472
  9
$USRTIMER
 70
     1
  9
$ANGBASE
 50
0.0
  9
$ANGDIR
 70
     0
  9
$PDMODE
 70
     0
  9
$PDSIZE
 40
0.0
  9
$PLINEWID
 40
0.0
  9
$SPLFRAME
 70
     0
  9
$SPLINETYPE
 70
     6
  9
$SPLINESEGS
 70
     8
  9
$HANDSEED
  5
EC6
  9
$SURFTAB1
 70
     6
  9
$SURFTAB2
 70
     6
  9
$SURFTYPE
 70
     6
  9
$SURFU
 70
     6
  9
$SURFV
 70
     6
  9
$UCSBASE
  2

  9
$UCSNAME
  2

  9
$UCSORG
 10
0.0
 20
0.0
 30
0.0
  9
$UCSXDIR
 10
1.0
 20
0.0
 30
0.0
  9
$UCSYDIR
 10
0.0
 20
1.0
 30
0.0
  9
$UCSORTHOREF
  2

  9
$UCSORTHOVIEW
 70
     0
  9
$UCSORGTOP
 10
0.0
 20
0.0
 30
0.0
  9
$UCSORGBOTTOM
 10
0.0
 20
0.0
 30
0.0
  9
$UCSORGLEFT
 10
0.0
 20
0.0
 30
0.0
  9
$UCSORGRIGHT
 10
0.0
 20
0.0
 30
0.0
  9
$UCSORGFRONT
 10
0.0
 20
0.0
 30
0.0
  9
$UCSORGBACK
 10
0.0
 20
0.0
 30
0.0
  9
$PUCSBASE
  2

  9
$PUCSNAME
  2

  9
$PUCSORG
 10
0.0
 20
0.0
 30
0.0
  9
$PUCSXDIR
 10
1.0
 20
0.0
 30
0.0
  9
$PUCSYDIR
 10
0.0
 20
1.0
 30
0.0
  9
$PUCSORTHOREF
  2

  9
$PUCSORTHOVIEW
 70
     0
  9
$PUCSORGTOP
 10
0.0
 20
0.0
 30
0.0
  9
$PUCSORGBOTTOM
 10
0.0
 20
0.0
 30
0.0
  9
$PUCSORGLEFT
 10
0.0
 20
0.0
 30
0.0
  9
$PUCSORGRIGHT
 10
0.0
 20
0.0
 30
0.0
  9
$PUCSORGFRONT
 10
0.0
 20
0.0
 30
0.0
  9
$PUCSORGBACK
 10
0.0
 20
0.0
 30
0.0
  9
$USERI1
 70
     0
  9
$USERI2
 70
     0
  9
$USERI3
 70
     0
  9
$USERI4
 70
     0
  9
$USERI5
 70
     0
  9
$USERR1
 40
0.0
  9
$USERR2
 40
0.0
  9
$USERR3
 40
0.0
  9
$USERR4
 40
0.0
  9
$USERR5
 40
0.0
  9
$WORLDVIEW
 70
     1
  9
$SHADEDGE
 70
     1
  9
$SHADEDIF
 70
    70
  9
$TILEMODE
 70
     1
  9
$MAXACTVP
 70
    16
  9
$PINSBASE
 10
0.0
 20
0.0
 30
0.0
  9
$PLIMCHECK
 70
     0
  9
$PEXTMIN
 10
1.000000000000000E+20
 20
1.000000000000000E+20
 30
1.000000000000000E+20
  9
$PEXTMAX
 10
-1.000000000000000E+20
 20
-1.000000000000000E+20
 30
-1.000000000000000E+20
  9
$PLIMMIN
 10
0.0
 20
0.0
  9
$PLIMMAX
 10
12.0
 20
9.0
  9
$UNITMODE
 70
     0
  9
$VISRETAIN
 70
     0
  9
$PLINEGEN
 70
     0
  9
$PSLTSCALE
 70
     1
  9
$TREEDEPTH
 70
  3020
  9
$CMLSTYLE
  2
STANDARD
  9
$CMLJUST
 70
     0
  9
$CMLSCALE
 40
1.0
  9
$PROXYGRAPHICS
 70
     1
  9
$MEASUREMENT
 70
     0
  9
$CELWEIGHT
370
    -1
  9
$ENDCAPS
280
     0
  9
$JOINSTYLE
280
     0
  9
$LWDISPLAY
290
     0
  9
$INSUNITS
 70
     0
  9
$HYPERLINKBASE
  1

  9
$STYLESHEET
  1

  9
$XEDIT
290
     1
  9
$CEPSNTYPE
380
     0
  9
$PSTYLEMODE
290
     1
  9
$FINGERPRINTGUID
  2
{A6232B84-9B2E-11D3-8DA4-00A0C981A35F}
  9
$VERSIONGUID
  2
{8868A547-19C8-11D4-8DA4-00A0C981A35F}
  9
$EXTNAMES
290
     1
  9
$PSVPSCALE
 40
0.0
  9
$OLESTARTUP
290
     0
  0
ENDSEC
  0
SECTION
  2
CLASSES
  0
CLASS
  1
DICTIONARYVAR
  2
AcDbDictionaryVar
  3
AutoCAD 2000
 90
    32768
280
     0
281
     0
  0
CLASS
  1
LWPOLYLINE
  2
AcDbPolyline
  3
AutoCAD 2000
 90
    32768
280
     0
281
     1
  0
CLASS
  1
RASTERVARIABLES
  2
AcDbRasterVariables
  3
ISM
 90
    32768
280
     0
281
     0
  0
CLASS
  1
ACDBDICTIONARYWDFLT
  2
AcDbDictionaryWithDefault
  3
AutoCAD 2000
 90
        0
280
     0
281
     0
  0
CLASS
  1
ACDBPLACEHOLDER
  2
AcDbPlaceHolder
  3
AutoCAD 2000
 90
        0
280
     0
281
     0
  0
CLASS
  1
LAYOUT
  2
AcDbLayout
  3
AutoCAD 2000
 90
        0
280
     0
281
     0
  0
CLASS
  1
ACME_DOCUMENT
  2
AcMeDbDoc
  3
AcMeServices
 90
    32768
280
     1
281
     0
  0
CLASS
  1
ACMESCOPE
  2
AcMeScope
  3
AcMeServices
 90
    32768
280
     1
281
     0
  0
CLASS
  1
ACMECOMMANDHISTORY
  2
AcMeCommandHistory
  3
AcMeServices
 90
    32768
280
     1
281
     0
  0
CLASS
  1
ACIMSYSVARMAN
  2
AcImSysVarManager
  3
AcMeServices
 90
    32768
280
     1
281
     0
  0
CLASS
  1
ACIMREALSYSVAR
  2
AcImRealSysVar
  3
AcMeServices
 90
    32768
280
     1
281
     0
  0
CLASS
  1
ACIMINTSYSVAR
  2
AcImIntSysVar
  3
AcMeServices
 90
    32768
280
     1
281
     0
  0
CLASS
  1
ACMEDRAWINGMAN
  2
AcMeDrawingMan
  3
AcMeServices
 90
    32768
280
     1
281
     0
  0
CLASS
  1
ACMEVIEW
  2
AcMeView
  3
AcMeServices
 90
    32768
280
     1
281
     0
  0
CLASS
  1
ACDBENTITYCACHE
  2
AcMeEntityCache
  3
AcMeServices
 90
    32768
280
     1
281
     0
  0
CLASS
  1
GSMANAGER
  2
AcMeGSManager
  3
AcMeServices
 90
    32768
280
     1
281
     0
  0
CLASS
  1
AmdtInternalReactor
  2
AmdtInternalReactor
  3
AcMeServices
 90
    32768
280
     1
281
     0
  0
CLASS
  1
ACMESTATEMGR
  2
AcMeStateMgr
  3
AcMeServices
 90
    32768
280
     1
281
     0
  0
CLASS
  1
ACGREFMASTER
  2
AcGrefMaster
  3
AcAttribServices
 90
    32768
280
     1
281
     0
  0
CLASS
  1
AM_DRAWING_MGR
  2
AcDmDwgMgr
  3
AcMechDwgViewMgmt
 90
    32768
280
     1
281
     0
  0
CLASS
  1
AM_DWG_DOCUMENT
  2
AcDmDwgDocument
  3
AcMechDwgViewMgmt
 90
    32768
280
     1
281
     0
  0
CLASS
  1
AM_DWG_SHEET
  2
AcDmSheet
  3
AcMechDwgViewMgmt
 90
    32768
280
     1
281
     0
  0
CLASS
  1
AM_VIEWDIMPARMAP
  2
AcDmViewDimParMap
  3
AcMechDwgViewMgmt
 90
    32768
280
     1
281
     0
  0
CLASS
  1
AM_DWGMGR_NAME
  2
AcDmDwgMgrName
  3
AcMechDwgViewMgmt
 90
    32768
280
     1
281
     0
  0
CLASS
  1
ACME_DATABASE
  2
AcMeDbDatabase
  3
AcMeServices
 90
    32768
280
     1
281
     0
  0
CLASS
  1
ACRFINSADJUSTERMGR
  2
AcRfInsAdjusterMgr
  3
AcMeServices
 90
    32768
280
     1
281
     0
  0
CLASS
  1
ACGREFMASTER
  2
AcGrefacadMaster
  3
AcGrefServices
 90
    32768
280
     1
281
     0
  0
CLASS
  1
AMDTMENUSTATEMGR
  2
AmdtMenuStateMgr
  3
McadcomServices
 90
    32768
280
     1
281
     0
  0
CLASS
  1
AMDTMCOMMENUSTATE
  2
AmdtMcomMenuState
  3
McadcomServices
 90
    32768
280
     1
281
     0
  0
CLASS
  1
ASAPP
  2
AcAsAppObject
  3
AutoSurfServices
 90
    32768
280
     1
281
     0
  0
CLASS
  1
IM_STATIC_MAN
  2
AcImStaticVarManager
  3
AcMeServices
 90
    32768
280
     1
281
     0
  0
CLASS
  1
ACIMSTRSYSVAR
  2
AcImStrSysVar
  3
AcMeServices
 90
    32768
280
     1
281
     0
  0
CLASS
  1
ACIMDBLSTATICVAR
  2
AcImDblStaticVar
  3
AcMeServices
 90
    32768
280
     1
281
     0
  0
CLASS
  1
ACIMSTRSTATICVAR
  2
AcImStrStaticVar
  3
AcMeServices
 90
    32768
280
     1
281
     0
  0
CLASS
  1
ACIMINTSTATICVAR
  2
AcImIntStaticVar
  3
AcMeServices
 90
    32768
280
     1
281
     0
  0
CLASS
  1
ACADGREFMODULE
  2
AcAdGrefModule
  3
AdGrefServices
 90
    32768
280
     1
281
     0
  0
CLASS
  1
AMIMASTER
  2
AmiMaster
  3
AmiServices
 90
    32768
280
     1
281
     0
  0
CLASS
  1
ACASGREFMASTER
  2
AcAsGrefMaster
  3
AutoSurfResolverServices
 90
    32768
280
     1
281
     0
  0
CLASS
  1
MAPIAMMOUDLE
  2
MApiAmModule
  3
MApiAmServices
 90
    32768
280
     1
281
     0
  0
CLASS
  1
AMDTDMMENUSTATE
  2
AmdtDmMenuState
  3
AcMechDwgViewMgmt
 90
    32768
280
     1
281
     0
  0
CLASS
  1
AMDTADMENUSTATE
  2
AmdtAdMenuState
  3
DesignerServices
 90
    32768
280
     1
281
     0
  0
CLASS
  1
ADAPPL
  2
AcAdAppl
  3
DesignerServices
 90
    32768
280
     1
281
     0
  0
CLASS
  1
DEPMGR
  2
AcAdDepMgr
  3
DesignerServices
 90
    32768
280
     1
281
     0
  0
CLASS
  1
PARAMMGR
  2
AcAdParamMgr
  3
DesignerServices
 90
    32768
280
     1
281
     0
  0
CLASS
  1
PARAMSCOPE
  2
AcAdParamScope
  3
DesignerServices
 90
    32768
280
     1
281
     0
  0
CLASS
  1
NAMEDAPPL
  2
AcAdNamedAppl
  3
DesignerServices
 90
    32768
280
     1
281
     0
  0
CLASS
  1
ADHNTMPLT
  2
AdHoleNoteTemplateMgr
  3
DesignerServices
 90
    32768
280
     1
281
     0
  0
CLASS
  1
AM_HNTEMPLATE_MGR_NAME
  2
AdHoleNoteTemplateMgrName
  3
DesignerServices
 90
    32768
280
     1
281
     0
  0
CLASS
  1
AMDTAMMENUSTATE
  2
AmdtAmMenuState
  3
DesignerAssemblies
 90
    32768
280
     1
281
     0
  0
CLASS
  1
ACAMPROJECT
  2
AcAmProject
  3
DesignerAssemblies
 90
    32768
280
     1
281
     0
  0
CLASS
  1
ACAMGRCOMPDEF
  2
AcAmGrCompDef
  3
DesignerAssemblies
 90
    32768
280
     1
281
     0
  0
CLASS
  1
ACCMCONTEXT
  2
AcCmContext
  3
DesignerAssemblies
 90
    32768
280
     1
281
     0
  0
CLASS
  1
ACAMCOMPDEF
  2
AcAmCompDef
  3
DesignerAssemblies
 90
    32768
280
     1
281
     0
  0
CLASS
  1
ACAMCOMPDEFMGR
  2
AcAmCompDefMgr
  3
DesignerAssemblies
 90
    32768
280
     1
281
     0
  0
CLASS
  1
AMCONTEXTMGR
  2
AcAmContextMgr
  3
DesignerAssemblies
 90
    32768
280
     1
281
     0
  0
CLASS
  1
ACAMCONTEXTMODELER
  2
AcAmContextModeler
  3
DesignerAssemblies
 90
    32768
280
     1
281
     0
  0
CLASS
  1
MAPIADMODULE
  2
MApiAdModule
  3
MApiAdServices
 90
    32768
280
     1
281
     0
  0
CLASS
  1
ACMDATADICTIONARY
  2
AcmDataDictionary
  3
"AcmSymBB|Product Description: AutoCAD Mechanical 2000|Company: Autodesk"
 90
    32768
280
     1
281
     0
  0
CLASS
  1
ACMDATAENTRYBLOCK
  2
AcmDataEntryBlock
  3
"AcmSymBB|Product Description: AutoCAD Mechanical 2000|Company: Autodesk"
 90
    32768
280
     1
281
     0
  0
CLASS
  1
AMDTBROWSERDBTAB
  2
AmdtBrowserDbTab
  3
McadcomServices
 90
    32768
280
     1
281
     0
  0
CLASS
  1
CBROWSERAPPOBJECT
  2
CBrowserAppObject
  3
McadcomServices
 90
    32768
280
     1
281
     0
  0
CLASS
  1
DM_PLACEHOLDER
  2
AcDmSelsetPlaceholder
  3
AcMechDwgViewMgmt
 90
    32768
280
     1
281
     0
  0
CLASS
  1
CATALOGSTATE
  2
AcAmCatalogState
  3
DesignerAssemblies
 90
    32768
280
     1
281
     0
  0
CLASS
  1
ACAMGRCOMPDEFSET
  2
AcAmGrCompDefSet
  3
DesignerAssemblies
 90
    32768
280
     1
281
     0
  0
CLASS
  1
AMGOBJPROPCFG
  2
AmgObjPropCfg
  3
"AmgLay|Product Description: AutoCAD Mechanical 2000|Company: Autodesk"
 90
    32769
280
     1
281
     0
  0
CLASS
  1
LAYER_INDEX
  2
AcDbLayerIndex
  3
AutoCAD 2000
 90
    32768
280
     0
281
     0
  0
CLASS
  1
IDBUFFER
  2
AcDbIdBuffer
  3
AutoCAD 2000
 90
    32768
280
     0
281
     0
  0
CLASS
  1
ACRFATTGENMGR
  2
AcRfAttGeneralMgr
  3
AcAttribServices
 90
    32768
280
     1
281
     0
  0
CLASS
  1
PLOTSETTINGS
  2
AcDbPlotSettings
  3
AutoCAD 2000
 90
    32768
280
     0
281
     0
  0
CLASS
  1
LONG_TRANSACTION
  2
AcDbLongTransaction
  3
AutoCAD 2000
 90
    32768
280
     0
281
     0
  0
CLASS
  1
LWPOLYLINE
  2
AcDbPolyline
  3
AutoCAD 2000
 90
    32768
280
     0
281
     1
  0
CLASS
  1
HATCH
  2
AcDbHatch
  3
AutoCAD 2000
 90
    32768
280
     0
281
     1
  0
CLASS
  1
XRECORD
  2
AcDbXrecord
  3
AutoCAD 2000
 90
    32768
280
     0
281
     0
  0
CLASS
  1
LONG_TRANSACTION
  2
AcDbLongTransaction
  3
AutoCAD 2000
 90
    32768
280
     0
281
     0
  0
CLASS
  1
LWPOLYLINE
  2
AcDbPolyline
  3
AutoCAD 2000
 90
    32768
280
     0
281
     1
  0
CLASS
  1
HATCH
  2
AcDbHatch
  3
AutoCAD 2000
 90
    32768
280
     0
281
     1
  0
CLASS
  1
XRECORD
  2
AcDbXrecord
  3
AutoCAD 2000
 90
    32768
280
     0
281
     0
  0
ENDSEC
  0
SECTION
  2
TABLES
  0
TABLE
  2
VPORT
  5
1B
330
0
100
AcDbSymbolTable
 70
     2
  0
VPORT
  5
EC5
330
1B
100
AcDbSymbolTableRecord
100
AcDbViewportTableRecord
  2
*Active
 70
     0
 10
0.0
 20
0.0
 11
1.0
 21
1.0
 12
114.8828124061316
 22
5.083857091484075
 13
0.0
 23
0.0
 14
1.0
 24
1.0
 15
0.0
 25
0.0
 16
0.0
 26
0.0
 36
1.0
 17
-64.46234487877643
 27
33.0238264231553
 37
6.148717398612387
 40
55.68950708318912
 41
1.413068844807467
 42
50.0
 43
-6.148717398612387
 44
-6.148717398612387
 50
0.0
 51
0.0
 71
     0
 72
 20000
 73
     1
 74
     1
 75
     0
 76
     0
 77
     0
 78
     2
281
     0
 65
     1
110
0.0
120
0.0
130
0.0
111
1.0
121
0.0
131
0.0
112
0.0
122
1.0
132
0.0
 79
     0
146
0.0
  0
ENDTAB
  0
TABLE
  2
LTYPE
  5
16
330
0
100
AcDbSymbolTable
 70
     2
  0
LTYPE
  5
17
330
16
100
AcDbSymbolTableRecord
100
AcDbLinetypeTableRecord
  2
BYBLOCK
 70
     0
  3

 72
    65
 73
     0
 40
0.0
  0
LTYPE
  5
18
330
16
100
AcDbSymbolTableRecord
100
AcDbLinetypeTableRecord
  2
BYLAYER
 70
     0
  3

 72
    65
 73
     0
 40
0.0
  0
LTYPE
  5
9
330
16
100
AcDbSymbolTableRecord
100
AcDbLinetypeTableRecord
  2
CONTINUOUS
 70
     0
  3
Solid line
 72
    65
 73
     0
 40
0.0
  0
LTYPE
  5
4B7
330
16
100
AcDbSymbolTableRecord
100
AcDbLinetypeTableRecord
  2
DOT
 70
     0
  3
Dot . . . . . . . . . . . . . . . . . . . . . .
 72
    65
 73
     2
 40
0.25
 49
0.0
 74
     0
 49
-0.25
 74
     0
  0
ENDTAB
  0
TABLE
  2
LAYER
  5
11
330
0
100
AcDbSymbolTable
 70
     6
  0
LAYER
  5
5
330
11
100
AcDbSymbolTableRecord
100
AcDbLayerTableRecord
  2
0
 70
     0
 62
     7
  6
CONTINUOUS
370
    -3
390
6
  0
LAYER
  5
24
330
11
100
AcDbSymbolTableRecord
100
AcDbLayerTableRecord
  2
A1
 70
     0
 62
     7
  6
CONTINUOUS
370
    -3
390
6
  0
LAYER
  5
53
330
11
100
AcDbSymbolTableRecord
100
AcDbLayerTableRecord
  2
LINEWORK
 70
     0
 62
    41
  6
CONTINUOUS
370
    -3
390
6
  0
LAYER
  5
98
330
11
100
AcDbSymbolTableRecord
100
AcDbLayerTableRecord
  2
Defpoints
 70
     0
 62
     7
  6
CONTINUOUS
290
     0
370
    -3
390
6
  0
LAYER
  5
4B8
330
11
100
AcDbSymbolTableRecord
100
AcDbLayerTableRecord
  2
TAG
 70
     0
 62
     1
  6
CONTINUOUS
370
    -3
390
6
  0
LAYER
  5
D43
330
11
100
AcDbSymbolTableRecord
100
AcDbLayerTableRecord
  2
L0
 70
     0
 62
     7
  6
CONTINUOUS
370
    -3
390
6
  0
ENDTAB
  0
TABLE
  2
STYLE
  5
12
330
0
100
AcDbSymbolTable
 70
     3
  0
STYLE
  5
13
330
12
100
AcDbSymbolTableRecord
100
AcDbTextStyleTableRecord
  2
STANDARD
 70
     0
 40
0.0
 41
1.0
 50
0.0
 71
     0
 42
2.0
  3
unvr55w.ttf
  4

1001
ACAD
1000
Univers
1071
       34
  0
STYLE
  5
54
330
12
100
AcDbSymbolTableRecord
100
AcDbTextStyleTableRecord
  2
ROMANC
 70
     0
 40
0.0
 41
1.0
 50
0.0
 71
     0
 42
0.5
  3
TIMESBD.TTF
  4

1001
ACAD
1000
Times New Roman
1071
 33554450
  0
STYLE
  5
55
330
12
100
AcDbSymbolTableRecord
100
AcDbTextStyleTableRecord
  2
barcoder
 70
     0
 40
0.0
 41
1.0
 50
0.0
 71
     0
 42
4.5625
  3
cw_barcd.ttf
  4

1001
ACAD
1000
Barcoder
1071
 33554434
  0
ENDTAB
  0
TABLE
  2
VIEW
  5
19
330
0
100
AcDbSymbolTable
 70
     0
  0
ENDTAB
  0
TABLE
  2
UCS
  5
1A
330
0
100
AcDbSymbolTable
 70
     0
  0
ENDTAB
  0
TABLE
  2
APPID
  5
1D
330
0
100
AcDbSymbolTable
 70
    20
  0
APPID
  5
14
330
1D
100
AcDbSymbolTableRecord
100
AcDbRegAppTableRecord
  2
ACAD
 70
     0
  0
APPID
  5
56
330
1D
100
AcDbSymbolTableRecord
100
AcDbRegAppTableRecord
  2
DCO15
 70
     0
  0
APPID
  5
83E
330
1D
100
AcDbSymbolTableRecord
100
AcDbRegAppTableRecord
  2
GENIUS_GENDIM_13
 70
     0
  0
APPID
  5
83F
330
1D
100
AcDbSymbolTableRecord
100
AcDbRegAppTableRecord
  2
GENIUS_GENDTOL_13
 70
     0
  0
APPID
  5
840
330
1D
100
AcDbSymbolTableRecord
100
AcDbRegAppTableRecord
  2
GENIUS_GE3DTOL_13
 70
     0
  0
APPID
  5
841
330
1D
100
AcDbSymbolTableRecord
100
AcDbRegAppTableRecord
  2
MCAD_NO_VIS
 70
     0
  0
APPID
  5
842
330
1D
100
AcDbSymbolTableRecord
100
AcDbRegAppTableRecord
  2
ACAD_TEMP_GRAPHIC
 70
     0
  0
APPID
  5
843
330
1D
100
AcDbSymbolTableRecord
100
AcDbRegAppTableRecord
  2
AD_DRAW
 70
     0
  0
APPID
  5
844
330
1D
100
AcDbSymbolTableRecord
100
AcDbRegAppTableRecord
  2
ACATTRIBSERVICES
 70
     0
  0
APPID
  5
845
330
1D
100
AcDbSymbolTableRecord
100
AcDbRegAppTableRecord
  2
ASURF_PCURVE_APPNAME
 70
     0
  0
APPID
  5
846
330
1D
100
AcDbSymbolTableRecord
100
AcDbRegAppTableRecord
  2
DESIGNERASSEMBLIES
 70
     0
  0
APPID
  5
847
330
1D
100
AcDbSymbolTableRecord
100
AcDbRegAppTableRecord
  2
ACADM_DIM_EDIT
 70
     0
  0
APPID
  5
848
330
1D
100
AcDbSymbolTableRecord
100
AcDbRegAppTableRecord
  2
AVE_MATERIAL
 70
     0
  0
APPID
  5
849
330
1D
100
AcDbSymbolTableRecord
100
AcDbRegAppTableRecord
  2
ADCADD_ZZ
 70
     0
  0
APPID
  5
84A
330
1D
100
AcDbSymbolTableRecord
100
AcDbRegAppTableRecord
  2
SDSK_PMN
 70
     0
  0
APPID
  5
84B
330
1D
100
AcDbSymbolTableRecord
100
AcDbRegAppTableRecord
  2
AVE_RENDER
 70
     0
  0
APPID
  5
84C
330
1D
100
AcDbSymbolTableRecord
100
AcDbRegAppTableRecord
  2
AVE_FINISH
 70
     0
  0
APPID
  5
84D
330
1D
100
AcDbSymbolTableRecord
100
AcDbRegAppTableRecord
  2
AVE_ENTITY_MATERIAL
 70
     0
  0
APPID
  5
84E
330
1D
100
AcDbSymbolTableRecord
100
AcDbRegAppTableRecord
  2
AVE_GLOBAL
 70
     0
  0
APPID
  5
84F
330
1D
100
AcDbSymbolTableRecord
100
AcDbRegAppTableRecord
  2
RAK
 70
     0
  0
ENDTAB
  0
TABLE
  2
DIMSTYLE
  5
1E
330
0
100
AcDbSymbolTable
 70
     1
100
AcDbDimStyleTable
 71
     0
  0
DIMSTYLE
105
1F
102
{ACAD_REACTORS
330
746
330
D4F
330
D5D
330
DDB
102
}
330
1E
100
AcDbSymbolTableRecord
100
AcDbDimStyleTableRecord
  2
STANDARD
 70
     0
  3
"
 41
0.5
 42
1.0
 43
0.0625
 44
0.25
 73
     0
 74
     0
 77
     3
140
1.0
141
0.0
146
0.125
147
0.125
171
     0
274
     0
276
     2
277
     5
285
     2
286
     2
289
     0
340
13
  0
ENDTAB
  0
TABLE
  2
BLOCK_RECORD
  5
1
330
0
100
AcDbSymbolTable
 70
    12
  0
BLOCK_RECORD
  5
2
102
{ACAD_XDICTIONARY
360
3
102
}
330
1
100
AcDbSymbolTableRecord
100
AcDbBlockTableRecord
  2
*MODEL_SPACE
340
B
  0
BLOCK_RECORD
  5
D
102
{ACAD_XDICTIONARY
360
E2A
102
}
330
1
100
AcDbSymbolTableRecord
100
AcDbBlockTableRecord
  2
*PAPER_SPACE
340
10
  0
BLOCK_RECORD
  5
2E
330
1
100
AcDbSymbolTableRecord
100
AcDbBlockTableRecord
  2
PROFILE LOGO
340
0
102
{BLKREFS
331
DA8
331
DEE
331
D47
331
DD5
102
}
  0
BLOCK_RECORD
  5
50
330
1
100
AcDbSymbolTableRecord
100
AcDbBlockTableRecord
  2
SCF
340
0
102
{BLKREFS
331
58
102
}
  0
BLOCK_RECORD
  5
57
330
1
100
AcDbSymbolTableRecord
100
AcDbBlockTableRecord
  2
tsforma
340
0
  0
BLOCK_RECORD
  5
D1
330
1
100
AcDbSymbolTableRecord
100
AcDbBlockTableRecord
  2
LINK FLAG
340
0
  0
BLOCK_RECORD
  5
3C3
330
1
100
AcDbSymbolTableRecord
100
AcDbBlockTableRecord
  2
1TAG
340
0
  0
BLOCK_RECORD
  5
747
330
1
100
AcDbSymbolTableRecord
100
AcDbBlockTableRecord
  2
*D5
340
0
  0
BLOCK_RECORD
  5
D01
330
1
100
AcDbSymbolTableRecord
100
AcDbBlockTableRecord
  2
TSFORMB
340
0
102
{BLKREFS
331
D34
102
}
  0
BLOCK_RECORD
  5
D44
330
1
100
AcDbSymbolTableRecord
100
AcDbBlockTableRecord
  2
1573
340
0
  0
BLOCK_RECORD
  5
D50
330
1
100
AcDbSymbolTableRecord
100
AcDbBlockTableRecord
  2
*D8
340
0
  0
BLOCK_RECORD
  5
D5E
330
1
100
AcDbSymbolTableRecord
100
AcDbBlockTableRecord
  2
*D9
340
0
  0
BLOCK_RECORD
  5
DD3
330
1
100
AcDbSymbolTableRecord
100
AcDbBlockTableRecord
  2
BALL16
340
0
  0
BLOCK_RECORD
  5
DDC
330
1
100
AcDbSymbolTableRecord
100
AcDbBlockTableRecord
  2
*D11
340
0
  0
ENDTAB
  0
ENDSEC
  0
SECTION
  2
BLOCKS
  0
BLOCK
  5
4
330
2
100
AcDbEntity
  8
0
100
AcDbBlockBegin
  2
*MODEL_SPACE
 70
     2
 10
0.0
 20
0.0
 30
0.0
  3
*MODEL_SPACE
  1

  0
ENDBLK
  5
A
330
2
100
AcDbEntity
  8
0
100
AcDbBlockEnd
  0
BLOCK
  5
E
330
D
100
AcDbEntity
 67
     1
  8
0
100
AcDbBlockBegin
  2
*PAPER_SPACE
 70
     0
 10
0.0
 20
0.0
 30
0.0
  3
*PAPER_SPACE
  1

  0
ENDBLK
  5
F
330
D
100
AcDbEntity
 67
     1
  8
0
100
AcDbBlockEnd
  0
BLOCK
  5
47
330
2E
100
AcDbEntity
  8
0
 62
     7
100
AcDbBlockBegin
  2
PROFILE LOGO
 70
     2
 10
0.0
 20
0.0
 30
0.0
  3
PROFILE LOGO
  1

  0
LINE
  5
2F
330
2E
100
AcDbEntity
  8
0
 62
    22
100
AcDbLine
 10
0.7459516636765642
 20
-0.415894330395318
 30
0.0
 11
0.74595166367655
 21
-1.12746688439163
 31
0.0
  0
LINE
  5
30
330
2E
100
AcDbEntity
  8
0
 62
    22
100
AcDbLine
 10
0.5841942848079072
 20
-0.415894330395318
 30
0.0
 11
0.5841942848079072
 21
-1.12746688439163
 31
0.0
  0
HATCH
  5
31
330
2E
100
AcDbEntity
  8
0
 62
    22
100
AcDbHatch
 10
0.0
 20
0.0
 30
0.0
210
0.0
220
0.0
230
1.0
  2
LINE
 70
     0
 71
     0
 91
        1
 92
       33
 93
       38
 72
     1
 10
1.115683196411978
 20
-0.1706330859717084
 11
0.2177636962628071
 21
-0.1706330859717084
 72
     1
 10
0.2177636962628213
 20
-0.1706330859717084
 11
0.2078601968792952
 21
-0.4246889457533243
 72
     1
 10
0.2078601968792952
 20
-0.4246889457533243
 11
0.2375709173007294
 21
-0.4246889457533243
 72
     1
 10
0.2375709173007294
 20
-0.4246889457533243
 11
0.2441732502230991
 21
-0.3817964654080939
 72
     1
 10
0.2441732502230991
 20
-0.3817964654080939
 11
0.254076749606611
 21
-0.3422032805409501
 72
     1
 10
0.2540767496066252
 20
-0.3422032805409501
 11
0.2738837483736916
 21
-0.3092090964125091
 72
     1
 10
0.2738837483736916
 20
-0.3092090964125091
 11
0.2969919136019428
 21
-0.2861130719066693
 72
     1
 10
0.296991913601957
 20
-0.2861130719066764
 11
0.3267026340234338
 21
-0.2663164794731259
 72
     1
 10
0.3267026340234196
 20
-0.2663164794731259
 11
0.356413132174012
 21
-0.2498193191118219
 72
     1
 10
0.356413132174012
 20
-0.2498193191118148
 11
0.3828224638634481
 21
-0.243220591561446
 72
     1
 10
0.3828224638634623
 20
-0.243220591561446
 11
0.4092320178237401
 21
-0.243220591561446
 72
     1
 10
0.4092320178237401
 20
-0.243220591561446
 11
0.4719541805861525
 21
-0.2465198870395469
 72
     1
 10
0.4719541805861525
 20
-0.2465198870395469
 11
0.514869566852326
 21
-0.2729153436176332
 72
     1
 10
0.514869566852326
 20
-0.2729153436176332
 11
0.5742905631535394
 21
-0.3389038484686964
 72
     1
 10
0.5742905631535394
 20
-0.3389038484687106
 11
0.5907966177302626
 21
-0.3916947616248691
 72
     1
 10
0.5907966177302768
 20
-0.3916947616248691
 11
0.5907966177302768
 21
-1.157161773041991
 72
     1
 10
0.5907966177302768
 20
-1.157161773041984
 11
0.5643870637699991
 21
-1.203353685459461
 72
     1
 10
0.5643870637699849
 20
-1.203353685459468
 11
0.4983637345463876
 21
-1.226449709965308
 72
     1
 10
0.4983637345464019
 20
-1.226449709965301
 11
0.4389425159743326
 21
-1.226449709965301
 72
     1
 10
0.4389425159743326
 20
-1.226449709965301
 11
0.4323401830519913
 21
-1.249545734471119
 72
     1
 10
0.4323401830520055
 20
-1.249545734471134
 11
0.8945045989712809
 21
-1.249545734471134
 72
     1
 10
0.8945045989712667
 20
-1.249545734471134
 11
0.8945045989712667
 21
-1.226449709965315
 72
     1
 10
0.8945045989712667
 20
-1.226449709965301
 11
0.8152763816321311
 21
-1.226449709965301
 72
     1
 10
0.8152763816321311
 20
-1.226449709965301
 11
0.7525539965988913
 21
-1.186856661692324
 72
     1
 10
0.7525539965988913
 20
-1.186856661692324
 11
0.7426504972153794
 21
-1.140664612680659
 72
     1
 10
0.7426504972153652
 20
-1.140664612680673
 11
0.7393493307541803
 21
-0.394994193697137
 72
     1
 10
0.7393493307541803
 20
-0.394994193697137
 11
0.7558551630600619
 21
-0.3389038484687106
 72
     1
 10
0.7558551630600761
 20
-0.3389038484687106
 11
0.7987705493262496
 21
-0.2828136398344298
 72
     1
 10
0.7987705493262496
 20
-0.2828136398344227
 11
0.8614929343594894
 21
-0.2498193191118148
 72
     1
 10
0.8614929343594894
 20
-0.2498193191118148
 11
0.9374197629665985
 21
-0.2399211594891923
 72
     1
 10
0.9374197629665985
 20
-0.2399211594891923
 11
1.010045647383407
 21
-0.2663164794731117
 72
     1
 10
1.010045647383407
 20
-0.2663164794731259
 11
1.056262200110722
 21
-0.3092090964125234
 72
     1
 10
1.056262200110722
 20
-0.3092090964125091
 11
1.085972698261343
 21
-0.361999872974522
 72
     1
 10
1.085972698261358
 20
-0.3619998729745291
 11
1.092575031183727
 21
-0.4246889457533243
 72
     1
 10
1.092575031183727
 20
-0.4246889457533243
 11
1.115683196411993
 21
-0.4246889457533243
 72
     1
 10
1.115683196411978
 20
-0.4246889457533243
 11
1.109080863489609
 21
-0.17723195011623
 72
     1
 10
1.109080863489609
 20
-0.17723195011623
 11
1.109080863489609
 21
-0.1739325180439621
 72
     1
 10
1.109080863489609
 20
-0.1739325180439621
 11
1.105779697028424
 21
-0.1739325180439621
 97
        0
 75
     0
 76
     1
 52
0.0
 41
0.078125
 77
     0
 78
     1
 53
0.0
 43
-28.182772630023
 44
-32.9923404580304
 45
0.0
 46
0.009765625
 79
     0
 98
        1
 10
-28.182772630023
 20
-32.9923404580304
  0
LWPOLYLINE
  5
32
330
2E
100
AcDbEntity
  8
0
 62
    22
100
AcDbPolyline
 90
        4
 70
     1
 43
0.0
 10
0.0262955969727301
 20
-0.0287577800528069
 10
1.307151517972869
 20
-0.0287577800528069
 10
1.307151517972869
 20
-1.731261997456265
 10
0.0262955969727301
 20
-1.731261997456265
  0
LINE
  5
33
330
2E
100
AcDbEntity
  8
0
 62
    22
100
AcDbLine
 10
0.0262955969727443
 20
-1.4112176328236
 30
0.0
 11
1.307151517972869
 21
-1.4112176328236
 31
0.0
  0
ATTDEF
  5
34
330
2E
100
AcDbEntity
  8
A1
 62
    22
100
AcDbText
 10
0.6781304052809105
 20
-1.678298248906529
 30
0.0
 40
0.2126953125
  1

 72
     1
 11
0.6781304052809105
 21
-1.678298248906529
 31
0.0
100
AcDbAttributeDefinition
  3
ADD STONE MARKER
  2
XXXX
 70
     0
  0
LINE
  5
35
330
2E
100
AcDbEntity
  8
0
 62
    22
100
AcDbLine
 10
0.7464576960363587
 20
-1.129021462591367
 30
0.0
 11
0.74595166367655
 21
-1.12746688439163
 31
0.0
  0
ARC
  5
36
330
2E
100
AcDbEntity
  8
0
 62
    22
100
AcDbCircle
 10
0.8421255873066684
 20
-1.127299146756172
 30
0.0
 40
0.0956833935014068
100
AcDbArc
 50
181.0313885659746
 51
269.7936990713142
  0
LINE
  5
37
330
2E
100
AcDbEntity
  8
0
 62
    22
100
AcDbLine
 10
0.9011069318936506
 20
-1.22315027789304
 30
0.0
 11
0.841781067510368
 21
-1.22315027789304
 31
0.0
  0
LINE
  5
38
330
2E
100
AcDbEntity
  8
0
 62
    22
100
AcDbLine
 10
0.9011069318936506
 20
-1.256144598615648
 30
0.0
 11
0.9011069318936506
 21
-1.22315027789304
 31
0.0
  0
ARC
  5
39
330
2E
100
AcDbEntity
  8
0
 62
    22
100
AcDbCircle
 10
0.4880203611777887
 20
-1.127299146756172
 30
0.0
 40
0.0956833935014068
100
AcDbArc
 50
270.2063009286848
 51
358.9686114340253
  0
LINE
  5
3A
330
2E
100
AcDbEntity
  8
0
 62
    22
100
AcDbLine
 10
0.4290390165908207
 20
-1.256144598615648
 30
0.0
 11
0.4290390165908207
 21
-1.22315027789304
 31
0.0
  0
LINE
  5
3B
330
2E
100
AcDbEntity
  8
0
 62
    22
100
AcDbLine
 10
0.4290390165908207
 20
-1.22315027789304
 30
0.0
 11
0.4883648809740891
 21
-1.22315027789304
 31
0.0
  0
LINE
  5
3C
330
2E
100
AcDbEntity
  8
0
 62
    22
100
AcDbLine
 10
0.5836882524480984
 20
-1.129021462591367
 30
0.0
 11
0.5841942848079072
 21
-1.12746688439163
 31
0.0
  0
LINE
  5
3D
330
2E
100
AcDbEntity
  8
0
 62
    22
100
AcDbLine
 10
0.4290390165908207
 20
-1.256144598615648
 30
0.0
 11
0.9011069318936506
 21
-1.256144598615648
 31
0.0
  0
LINE
  5
3E
330
2E
100
AcDbEntity
  8
0
 62
    22
100
AcDbLine
 10
1.085512597630156
 20
-0.415894330395318
 30
0.0
 11
1.085512597630156
 21
-0.4280723832374847
 31
0.0
  0
ARC
  5
3F
330
2E
100
AcDbEntity
  8
0
 62
    22
100
AcDbCircle
 10
0.9138550451562537
 20
-0.4147906495365632
 30
0.0
 40
0.1716611005230106
100
AcDbArc
 50
359.6316189828552
 51
90.00081606717127
  0
ARC
  5
40
330
2E
100
AcDbEntity
  8
0
 62
    22
100
AcDbCircle
 10
0.9180888683309831
 20
-0.4147906495365632
 30
0.0
 40
0.1716611005230106
100
AcDbArc
 50
89.99918393282873
 51
180.3683810171443
  0
LINE
  5
41
330
2E
100
AcDbEntity
  8
0
 62
    22
100
AcDbLine
 10
0.2078601968792952
 20
-0.427988377825578
 30
0.0
 11
0.2441732502230991
 21
-0.427988377825578
 31
0.0
  0
LINE
  5
42
330
2E
100
AcDbEntity
  8
0
 62
    22
100
AcDbLine
 10
0.2446333508543006
 20
-0.415894330395318
 30
0.0
 11
0.2446333508543006
 21
-0.4280723832374847
 31
0.0
  0
ARC
  5
43
330
2E
100
AcDbEntity
  8
0
 62
    22
100
AcDbCircle
 10
0.4162909033282176
 20
-0.4147906495365632
 30
0.0
 40
0.1716611005230106
100
AcDbArc
 50
89.99918393282873
 51
180.3683810171443
  0
LINE
  5
44
330
2E
100
AcDbEntity
  8
0
 62
    22
100
AcDbLine
 10
0.2144627520724782
 20
-0.1706330859717156
 30
0.0
 11
0.2078601968792952
 21
-0.427988377825578
 31
0.0
  0
ARC
  5
45
330
2E
100
AcDbEntity
  8
0
 62
    22
100
AcDbCircle
 10
0.4120570801534882
 20
-0.4147906495365632
 30
0.0
 40
0.1716611005230106
100
AcDbArc
 50
359.6316189828552
 51
90.00081606717127
  0
LWPOLYLINE
  5
46
330
2E
100
AcDbEntity
  8
0
 62
    22
100
AcDbPolyline
 90
        4
 70
     0
 43
0.0
 10
0.224366029185191
 20
-0.1706330859717084
 10
1.115683196411978
 20
-0.1706330859717084
 10
1.122285751605161
 20
-0.427988377825578
 10
1.085972698261358
 20
-0.427988377825578
  0
ENDBLK
  5
48
330
2E
100
AcDbEntity
  8
0
 62
     7
100
AcDbBlockEnd
  0
BLOCK
  5
51
330
50
100
AcDbEntity
  8
0
 62
     7
100
AcDbBlockBegin
  2
SCF
 70
     0
 10
0.0
 20
0.0
 30
0.0
  3
SCF
  1

  0
ENDBLK
  5
52
330
50
100
AcDbEntity
  8
0
 62
     7
100
AcDbBlockEnd
  0
BLOCK
  5
8A
330
57
100
AcDbEntity
  8
0
 62
     7
100
AcDbBlockBegin
  2
tsforma
 70
     2
 10
0.0
 20
0.0
 30
0.0
  3
tsforma
  1

  0
INSERT
  5
58
330
57
100
AcDbEntity
  8
A1
 62
     7
100
AcDbBlockReference
  2
SCF
 10
0.0
 20
0.0
 30
0.0
  0
LINE
  5
59
330
57
100
AcDbEntity
  8
0
 62
     7
100
AcDbLine
 10
33.85359849505566
 20
6.139911809868134
 30
0.0
 11
15.45863081043479
 21
6.139911809868134
 31
0.0
  0
LINE
  5
5A
330
57
100
AcDbEntity
  8
0
 62
     7
100
AcDbLine
 10
33.85359849505566
 20
1.705154898157314
 30
0.0
 11
15.45863081043479
 21
1.705154898157314
 31
0.0
  0
LINE
  5
5B
330
57
100
AcDbEntity
  8
0
 62
     7
100
AcDbLine
 10
33.85359849505566
 20
2.829459360019779
 30
0.0
 11
15.45863081043479
 21
2.829459360019779
 31
0.0
  0
LINE
  5
5C
330
57
100
AcDbEntity
  8
0
100
AcDbLine
 10
15.45863081043479
 20
7.419467812060279
 30
0.0
 11
63.0907971953311
 21
7.419467812060275
 31
0.0
  0
LINE
  5
5D
330
57
100
AcDbEntity
  8
0
100
AcDbLine
 10
0.0
 20
0.0
 30
0.0
 11
63.0907971953311
 21
0.0
 31
0.0
  0
LINE
  5
5E
330
57
100
AcDbEntity
  8
0
100
AcDbLine
 10
0.0
 20
46.93339791359997
 30
0.0
 11
0.0
 21
0.0
 31
0.0
  0
ATTDEF
  5
5F
330
57
100
AcDbEntity
  8
A1
 62
     1
100
AcDbText
 10
12.82959661403713
 20
1.116082561967672
 30
0.0
 40
0.5
  1

 72
     2
 11
12.82959661403713
 21
1.116082561967672
 31
0.0
100
AcDbAttributeDefinition
  3
ADD BARCODE TEXT
  2
XXXXXX
 70
     0
  0
ATTDEF
  5
60
330
57
100
AcDbEntity
  8
A1
 62
     1
100
AcDbText
 10
7.602187176088335
 20
1.863125907903508
 30
0.0
 40
4.5625
  1

  7
barcoder
 72
     1
 11
7.602187176088335
 21
1.863125907903508
 31
0.0
100
AcDbAttributeDefinition
  3
ADD BARCODE NUMBER
  2
BARCODE
 70
     0
  0
LINE
  5
61
330
57
100
AcDbEntity
  8
0
 62
     7
100
AcDbLine
 10
15.45863081043479
 20
7.419467812060279
 30
0.0
 11
0.0
 21
7.419467812060279
 31
0.0
  0
TEXT
  5
62
330
57
100
AcDbEntity
  8
0
 62
     7
100
AcDbText
 10
18.19366726416784
 20
4.860691571657334
 30
0.0
 40
0.625
  1
- Finished Side
100
AcDbText
  0
TEXT
  5
63
330
57
100
AcDbEntity
  8
0
 62
     7
100
AcDbText
 10
18.20026126845819
 20
3.503849832636042
 30
0.0
 40
0.625
  1
- Unfinished Side
100
AcDbText
  0
LINE
  5
64
330
57
100
AcDbEntity
  8
0
100
AcDbLine
 10
15.45863081043479
 20
0.0
 30
0.0
 11
15.45863081043479
 21
7.419467812060279
 31
0.0
  0
LINE
  5
65
330
57
100
AcDbEntity
  8
0
 62
     7
100
AcDbLine
 10
15.94519003511693
 20
5.088809590082902
 30
0.0
 11
17.45428617139502
 21
5.088809590082902
 31
0.0
  0
TEXT
  5
66
330
57
100
AcDbEntity
  8
0
 62
     7
100
AcDbText
 10
16.48339397174975
 20
3.663762155695707
 30
0.0
 40
0.00390625
  1
TANNERSTONE 0001 TANNERSTONE 0001 TANNERSTONE 0001 TANNERSTONE 0001 TANNERSTONE 0001 TANNERSTONE 0001 TANNERSTONE 0001
 72
     1
 11
16.69109656521183
 21
3.663762155695707
 31
0.0
100
AcDbText
  0
LINE
  5
67
330
57
100
AcDbEntity
  8
0
 62
     7
100
AcDbLine
 10
15.94519003511693
 20
3.814849102060051
 30
0.0
 11
17.45428617139502
 21
3.814849102060051
 31
0.0
  0
TEXT
  5
68
330
57
100
AcDbEntity
  8
0
 62
     7
100
AcDbText
 10
15.94386684512347
 20
3.663762155695707
 30
0.0
 40
0.00390625
  1
TANNERSTONE 0001 TANNERSTONE 0001 TANNERSTONE 0001 TANNERSTONE 0001 TANNERSTONE 0001 TANNERSTONE 0001 TANNERSTONE 0001
 72
     1
 11
16.15156943858555
 21
3.663762155695707
 31
0.0
100
AcDbText
  0
TEXT
  5
69
330
57
100
AcDbEntity
  8
0
 62
     7
100
AcDbText
 10
17.04152309512345
 20
3.663762155695707
 30
0.0
 40
0.00390625
  1
TANNERSTONE 0001 TANNERSTONE 0001 TANNERSTONE 0001 TANNERSTONE 0001 TANNERSTONE 0001 TANNERSTONE 0001 TANNERSTONE 0001
 72
     1
 11
17.24922568858554
 21
3.663762155695707
 31
0.0
100
AcDbText
  0
ATTDEF
  5
6A
330
57
100
AcDbEntity
  8
A1
 62
     1
100
AcDbText
 10
24.55771846427264
 20
0.6162142197210088
 30
0.0
 40
0.7559999999999999
  1

 72
     1
 11
24.55771846427264
 21
0.6162142197210088
 31
0.0
100
AcDbAttributeDefinition
  3
ADD CATEGORY NAMES
  2
XXXXXX
 70
     0
  0
TEXT
  5
6B
330
57
100
AcDbEntity
  8
0
 62
     7
100
AcDbText
 10
22.72809728616285
 20
2.02499953627948
 30
0.0
 40
0.5
  1
CATEGORY
 72
     1
 11
24.68840912174046
 21
2.02499953627948
 31
0.0
100
AcDbText
  0
TEXT
  5
6C
330
57
100
AcDbEntity
  8
0
 62
     7
100
AcDbText
 10
23.38153703079662
 20
6.531576458849073
 30
0.0
 40
0.4812500000000001
  1
LEGEND
100
AcDbText
  0
LINE
  5
6D
330
57
100
AcDbEntity
  8
0
100
AcDbLine
 10
63.0907971953311
 20
0.0
 30
0.0
 11
63.0907971953311
 21
46.93339791359997
 31
0.0
  0
LINE
  5
6E
330
57
100
AcDbEntity
  8
0
100
AcDbLine
 10
33.85359849505567
 20
3.957609866513919
 30
0.0
 11
63.0907971953311
 21
3.957609866513919
 31
0.0
  0
TEXT
  5
6F
330
57
100
AcDbEntity
  8
0
100
AcDbText
 10
34.42750303318053
 20
2.935195390265757
 30
0.0
 40
0.6616455005868908
  1
ARCHITECTURAL CONCRETE CO., INC.
 41
1.25
 72
     4
 11
45.64904120290566
 21
3.21678158665302
 31
0.0
100
AcDbText
  0
TEXT
  5
70
330
57
100
AcDbEntity
  8
0
100
AcDbText
 10
38.10554018840551
 20
0.4042122027146437
 30
0.0
 40
0.3900256199701639
  1
PHONE: 1-800-789-4841  FAX : 770-463-2635
 41
1.1875
 72
     4
 11
45.67456989459564
 21
0.5986721769520713
 31
0.0
100
AcDbText
  0
TEXT
  5
71
330
57
100
AcDbEntity
  8
0
 62
     7
100
AcDbText
 10
36.45030612377447
 20
4.701996929624826
 30
0.0
 40
2.12625
  1
TannerStone
  7
ROMANC
 72
     1
 11
45.19112937160684
 21
4.701996929624826
 31
0.0
100
AcDbText
  0
TEXT
  5
72
330
57
100
AcDbEntity
  8
0
100
AcDbText
 10
36.65024310726515
 20
1.16937112143105
 30
0.0
 40
0.3900256199701639
  1
http://TannerStone.com ~ Email:Sales@TannerStone.com 
 41
1.1875
 72
     4
 11
45.88298880572835
 21
1.344758262374401
 31
0.0
100
AcDbText
  0
TEXT
  5
73
330
57
100
AcDbEntity
  8
0
100
AcDbText
 10
35.70454469973866
 20
1.940811732856256
 30
0.0
 40
0.4458291441485832
  1
101 JOHNSTON CIRCLE, PALMETTO, GEORGIA 30268
 41
1.1875
 72
     4
 11
45.7449918415723
 21
2.130549791723176
 31
0.0
100
AcDbText
  0
LINE
  5
74
330
57
100
AcDbEntity
  8
0
100
AcDbLine
 10
33.85359849505567
 20
0.0
 30
0.0
 11
33.85359849505567
 21
7.419467812060275
 31
0.0
  0
LINE
  5
75
330
57
100
AcDbEntity
  8
0
 62
     7
100
AcDbLine
 10
45.8804728588951
 20
4.302323642481653
 30
0.0
 11
45.8804728588951
 21
4.302323642481653
 31
0.0
  0
ATTDEF
  5
76
330
57
100
AcDbEntity
  8
A1
 62
     1
100
AcDbText
 10
60.24601051143854
 20
5.923645198888223
 30
0.0
 40
0.703125
  1

 72
     1
 11
60.24601051143854
 21
5.923645198888223
 31
0.0
100
AcDbAttributeDefinition
  3
ADD PROFILE AREA
  2
XXXXX
 70
     0
  0
ATTDEF
  5
77
330
57
100
AcDbEntity
  8
A1
 62
     1
100
AcDbText
 10
60.22058858229524
 20
4.231165867870629
 30
0.0
 40
0.703125
  1

 72
     1
 11
60.22058858229524
 21
4.231165867870629
 31
0.0
100
AcDbAttributeDefinition
  3
ADD #/LF
  2
XXXXX
 70
     0
  0
LINE
  5
78
330
57
100
AcDbEntity
  8
0
 62
     7
100
AcDbLine
 10
57.40487304162906
 20
5.688538839287097
 30
0.0
 11
63.0907971953311
 21
5.688538839287097
 31
0.0
  0
TEXT
  5
79
330
57
100
AcDbEntity
  8
0
 62
     7
100
AcDbText
 10
57.54164024396835
 20
5.24603903326999
 30
0.0
 40
0.322265625
  1
LBS/LINEAR FEET:
100
AcDbText
  0
LINE
  5
7A
330
57
100
AcDbEntity
  8
LINEWORK
 62
     7
100
AcDbLine
 10
57.38685446707747
 20
2.236847700541034
 30
0.0
 11
63.07277862077971
 21
2.236847700541161
 31
0.0
  0
TEXT
  5
7B
330
57
100
AcDbEntity
  8
0
 62
     7
100
AcDbText
 10
58.84125519694314
 20
0.9074523356241925
 30
0.0
 40
0.5035400390625
  1
1-1-2000
100
AcDbText
  0
LINE
  5
7C
330
57
100
AcDbEntity
  8
0
100
AcDbLine
 10
57.40487304162886
 20
0.0
 30
0.0
 11
57.40487304162911
 21
7.419467812060275
 31
0.0
  0
ARC
  5
7D
330
57
100
AcDbEntity
  8
0
 62
     7
100
AcDbCircle
 10
54.77484357037856
 20
4.675407294753147
 30
0.0
 40
0.3475219186225837
100
AcDbArc
 50
304.840880646349
 51
297.5553548372075
  0
TEXT
  5
7E
330
57
100
AcDbEntity
  8
0
 62
     7
100
AcDbText
 10
54.52366531937782
 20
4.457137162968933
 30
0.0
 40
0.46875
  1
R
  7
ROMANC
 72
     1
 11
54.77717642848187
 21
4.457137162968933
 31
0.0
100
AcDbText
  0
ARC
  5
7F
330
57
100
AcDbEntity
  8
0
 62
     7
100
AcDbCircle
 10
54.77484357037857
 20
4.675407294753146
 30
0.0
 40
0.3475219186225785
100
AcDbArc
 50
297.5553548372066
 51
304.8408806463482
  0
TEXT
  5
80
330
57
100
AcDbEntity
  8
0
 62
     7
100
AcDbText
 10
57.55084577252738
 20
3.528313427430639
 30
0.0
 40
0.322265625
  1
SCALE:
100
AcDbText
  0
TEXT
  5
81
330
57
100
AcDbEntity
  8
0
 62
     7
100
AcDbText
 10
57.58427807884865
 20
1.77327934849093
 30
0.0
 40
0.322265625
  1
DATE:
100
AcDbText
  0
LINE
  5
82
330
57
100
AcDbEntity
  8
0
 62
     7
100
AcDbLine
 10
57.404873041629
 20
3.957609866513919
 30
0.0
 11
56.92061203641685
 21
3.957609866513919
 31
0.0
  0
TEXT
  5
83
330
57
100
AcDbEntity
  8
0
 62
     7
100
AcDbText
 10
60.17361351816539
 20
2.848114535947829
 30
0.0
 40
0.5035400390625
  1
1:1
100
AcDbText
  0
TEXT
  5
84
330
57
100
AcDbEntity
  8
0
 62
     7
100
AcDbText
 10
57.55965863864929
 20
6.943562340807453
 30
0.0
 40
0.322265625
  1
PROFILE AREA:
100
AcDbText
  0
ATTDEF
  5
85
330
57
100
AcDbEntity
  8
A1
 62
     1
100
AcDbText
 10
59.04934003701934
 20
43.69048591217159
 30
0.0
 40
1.2375
  1

 72
     1
 11
59.04934003701934
 21
43.69048591217159
 31
0.0
100
AcDbAttributeDefinition
  3
ADD PAGE NUMBER
  2
TS00XX
 70
     0
  0
LINE
  5
86
330
57
100
AcDbEntity
  8
0
100
AcDbLine
 10
63.0907971953311
 20
41.85161907700595
 30
0.0
 11
55.03498980215056
 21
41.85161907700595
 31
0.0
  0
LINE
  5
87
330
57
100
AcDbEntity
  8
0
100
AcDbLine
 10
55.03498980215056
 20
41.85161907700595
 30
0.0
 11
55.03498980215056
 21
46.93339791359997
 31
0.0
  0
LINE
  5
88
330
57
100
AcDbEntity
  8
0
100
AcDbLine
 10
63.0907971953311
 20
46.93339791359997
 30
0.0
 11
63.0907971953311
 21
41.85161907700595
 31
0.0
  0
LINE
  5
89
330
57
100
AcDbEntity
  8
0
100
AcDbLine
 10
63.0907971953311
 20
46.93339791359997
 30
0.0
 11
0.0
 21
46.93339791359997
 31
0.0
  0
ENDBLK
  5
8B
330
57
100
AcDbEntity
  8
0
 62
     7
100
AcDbBlockEnd
  0
BLOCK
  5
D9
330
D1
100
AcDbEntity
  8
0
 62
     7
100
AcDbBlockBegin
  2
LINK FLAG
 70
     2
 10
0.0
 20
0.0
 30
0.0
  3
LINK FLAG
  1

  0
SOLID
  5
D2
330
D1
100
AcDbEntity
  8
A1
 62
     1
100
AcDbTrace
 10
0.408488260029003
 20
0.3001362788183428
 30
0.0
 11
0.2890663177079773
 21
0.4163953751078396
 31
0.0
 12
0.0
 22
0.0
 32
0.0
 13
0.0
 23
0.0
 33
0.0
  0
LINE
  5
D3
330
D1
100
AcDbEntity
  8
A1
 62
     1
100
AcDbLine
 10
0.3487772888684901
 20
0.3582658269630912
 30
0.0
 11
4.449644902191081
 21
4.57069815453687
 31
0.0
  0
ATTDEF
  5
D4
330
D1
100
AcDbEntity
  8
A1
 62
     1
100
AcDbText
 10
10.75853330829194
 20
4.953467229082193
 30
0.0
 40
1.0
  1

100
AcDbAttributeDefinition
  3
ADD LINK NUMBER (WMF)
  2
XXXXXX
 70
     0
  0
MTEXT
  5
D5
330
D1
100
AcDbEntity
  8
0
 62
     1
100
AcDbMText
 10
10.79736583926697
 20
4.206192006567398
 30
0.0
 40
1.0
 41
0.0
 71
     1
 72
     1
  1
TannerStone
 73
     1
 44
1.0
1001
ACAD
1000
MTEXTBEGIN
1070
    73
1070
     1
1070
    44
1040
1.0
1070
    74
1070
     0
1000
MTEXTEND
1000
MTEXTBEGIN
1070
    73
1070
     1
1070
    44
1040
1.0
1070
    74
1070
     0
1000
MTEXTEND
  0
MTEXT
  5
D6
330
D1
100
AcDbEntity
  8
0
 62
     1
100
AcDbMText
 10
10.87510824661537
 20
2.68903194023958
 30
0.0
 40
0.7386749999999999
 41
0.0
 71
     1
 72
     1
  1
1-800-789-4841
 73
     1
 44
1.0
1001
ACAD
1000
MTEXTBEGIN
1070
    73
1070
     1
1070
    44
1040
1.0
1070
    74
1070
     0
1000
MTEXTEND
1000
MTEXTBEGIN
1070
    73
1070
     1
1070
    44
1040
1.0
1070
    74
1070
     0
1000
MTEXTEND
  0
LINE
  5
D7
330
D1
100
AcDbEntity
  8
0
 62
     1
100
AcDbLine
 10
4.449644902191081
 20
4.57069815453687
 30
0.0
 11
19.37910172053511
 21
4.57069815453687
 31
0.0
  0
LINE
  5
D8
330
D1
100
AcDbEntity
  8
0
 62
     1
100
AcDbLine
 10
10.27170295921419
 20
1.582920602761227
 30
0.0
 11
10.27170295921419
 21
6.137374365587334
 31
0.0
  0
ENDBLK
  5
DA
330
D1
100
AcDbEntity
  8
0
 62
     7
100
AcDbBlockEnd
  0
BLOCK
  5
3C7
330
3C3
100
AcDbEntity
  8
0
100
AcDbBlockBegin
  2
1TAG
 70
     2
 10
0.0
 20
0.0
 30
0.0
  3
1TAG
  1

  0
ATTDEF
  5
3C4
330
3C3
100
AcDbEntity
  8
TAG
100
AcDbText
 10
-0.0249711999480675
 20
3.469940758643338
 30
0.0
 40
1.0
  1
#
  7
ROMANC
100
AcDbAttributeDefinition
  3
ENTER:DWG#
  2
#
 70
     0
  0
ATTDEF
  5
3C5
330
3C3
100
AcDbEntity
  8
TAG
100
AcDbText
 10
-0.0249711999480675
 20
2.178164137202304
 30
0.0
 40
1.0
  1
DWG
  7
ROMANC
100
AcDbAttributeDefinition
  3
ENTER:DWGNAME
  2
NAME
 70
     0
  0
ATTDEF
  5
3C6
330
3C3
100
AcDbEntity
  8
TAG
100
AcDbText
 10
-0.0249711999480675
 20
0.8641154829538585
 30
0.0
 40
1.0
  1
AREA
  7
ROMANC
100
AcDbAttributeDefinition
  3
ENTER:AREA
  2
AREA
 70
     0
  0
ENDBLK
  5
3C8
330
3C3
100
AcDbEntity
  8
0
100
AcDbBlockEnd
  0
BLOCK
  5
752
330
747
100
AcDbEntity
  8
0
 62
     7
100
AcDbBlockBegin
  2
*D5
 70
     1
 10
0.0
 20
0.0
 30
0.0
  3
*D5
  1

  0
LINE
  5
E98
330
747
100
AcDbEntity
  8
A1
 62
     0
100
AcDbLine
 10
39.67651614248378
 20
44.05387838677263
 30
0.0
 11
39.67651614248378
 21
60.43138162280778
 31
0.0
  0
LINE
  5
E99
330
747
100
AcDbEntity
  8
A1
 62
     0
100
AcDbLine
 10
55.6356896184799
 20
44.13079857865381
 30
0.0
 11
55.6356896184799
 21
60.43138162280778
 31
0.0
  0
LINE
  5
E9A
330
747
100
AcDbEntity
  8
A1
 62
     0
100
AcDbLine
 10
40.17651614248378
 20
60.18138162280777
 30
0.0
 11
45.52346533945605
 21
60.18138162280777
 31
0.0
  0
LINE
  5
E9B
330
747
100
AcDbEntity
  8
A1
 62
     0
100
AcDbLine
 10
55.1356896184799
 20
60.18138162280777
 30
0.0
 11
50.16060212187985
 21
60.18138162280777
 31
0.0
  0
MTEXT
  5
E9C
330
747
100
AcDbEntity
  8
A1
 62
     0
100
AcDbMText
 10
47.84203373066794
 20
60.18138162280777
 30
0.0
 40
1.0
 41
0.0
 71
     5
 72
     1
  1
\A1;%%C16"
 73
     1
 44
1.0
  0
SOLID
  5
E9D
330
747
100
AcDbEntity
  8
A1
 62
     0
100
AcDbTrace
 10
40.17651614248378
 20
60.26471495614111
 30
0.0
 11
40.17651614248378
 21
60.09804828947444
 31
0.0
 12
39.67651614248378
 22
60.18138162280777
 32
0.0
 13
39.67651614248378
 23
60.18138162280777
 33
0.0
  0
SOLID
  5
E9E
330
747
100
AcDbEntity
  8
A1
 62
     0
100
AcDbTrace
 10
55.1356896184799
 20
60.26471495614111
 30
0.0
 11
55.1356896184799
 21
60.09804828947444
 31
0.0
 12
55.6356896184799
 22
60.18138162280777
 32
0.0
 13
55.6356896184799
 23
60.18138162280777
 33
0.0
  0
POINT
  5
E9F
330
747
100
AcDbEntity
  8
Defpoints
 62
     0
100
AcDbPoint
 10
39.67651614248378
 20
43.05387838677264
 30
0.0
  0
POINT
  5
EA0
330
747
100
AcDbEntity
  8
Defpoints
 62
     0
100
AcDbPoint
 10
55.6356896184799
 20
43.13079857865381
 30
0.0
  0
POINT
  5
EA1
330
747
100
AcDbEntity
  8
Defpoints
 62
     0
100
AcDbPoint
 10
55.6356896184799
 20
60.18138162280777
 30
0.0
  0
ENDBLK
  5
753
330
747
100
AcDbEntity
  8
0
 62
     7
100
AcDbBlockEnd
  0
BLOCK
  5
D32
330
D01
100
AcDbEntity
  8
0
 62
     7
100
AcDbBlockBegin
  2
TSFORMB
 70
     2
 10
0.0
 20
0.0
 30
0.0
  3
TSFORMB
  1

  0
LINE
  5
D02
330
D01
100
AcDbEntity
  8
0
100
AcDbLine
 10
25.97049976153047
 20
12.46470592426126
 30
0.0
 11
105.9925392881562
 21
12.46470592426126
 31
0.0
  0
ATTDEF
  5
D03
330
D01
100
AcDbEntity
  8
A1
 62
     1
100
AcDbText
 10
101.1418062311347
 20
7.219538615513812
 30
0.0
 40
0.9450000000000002
  1

 72
     1
 11
101.1418062311347
 21
7.219538615513812
 31
0.0
100
AcDbAttributeDefinition
  3
ADD #/LF
  2
XXXXX
 70
     0
  0
ATTDEF
  5
D04
330
D01
100
AcDbEntity
  8
A1
 62
     1
100
AcDbText
 10
101.1759733039033
 20
10.0790044152711
 30
0.0
 40
0.9450000000000002
  1

 72
     1
 11
101.1759733039033
 21
10.0790044152711
 31
0.0
100
AcDbAttributeDefinition
  3
ADD PROFILE AREA
  2
XXXXX
 70
     0
  0
TEXT
  5
D05
330
D01
100
AcDbEntity
  8
0
 62
     7
100
AcDbText
 10
96.70022651293081
 20
11.66518473255652
 30
0.0
 40
0.5414062500000001
  1
PROFILE AREA:
100
AcDbText
  0
TEXT
  5
D06
330
D01
100
AcDbEntity
  8
0
 62
     7
100
AcDbText
 10
96.74158717246573
 20
2.97910930546476
 30
0.0
 40
0.5414062500000001
  1
DATE:
100
AcDbText
  0
TEXT
  5
D07
330
D01
100
AcDbEntity
  8
0
 62
     7
100
AcDbText
 10
96.68542089784601
 20
5.927566558083469
 30
0.0
 40
0.5414062500000001
  1
SCALE:
100
AcDbText
  0
TEXT
  5
D08
330
D01
100
AcDbEntity
  8
0
 62
     7
100
AcDbText
 10
98.85330873086449
 20
1.524519923848657
 30
0.0
 40
0.8459472656250001
  1
1-1-2000
100
AcDbText
  0
LINE
  5
D09
330
D01
100
AcDbEntity
  8
LINEWORK
 62
     7
100
AcDbLine
 10
96.40991550469019
 20
3.757904136908933
 30
0.0
 11
105.9622680829099
 21
3.757904136909161
 31
0.0
  0
TEXT
  5
D0A
330
D01
100
AcDbEntity
  8
0
 62
     7
100
AcDbText
 10
96.66995560986684
 20
8.813345575893578
 30
0.0
 40
0.5414062500000001
  1
LBS/LINEAR FEET:
100
AcDbText
  0
LINE
  5
D0B
330
D01
100
AcDbEntity
  8
0
 62
     7
100
AcDbLine
 10
96.44018670993686
 20
9.556745250002336
 30
0.0
 11
105.9925392881562
 21
9.556745250002336
 31
0.0
  0
LINE
  5
D0C
330
D01
100
AcDbEntity
  8
0
100
AcDbLine
 10
56.87404547169356
 20
6.648784575743377
 30
0.0
 11
105.9925392881562
 21
6.648784575743377
 31
0.0
  0
TEXT
  5
D0D
330
D01
100
AcDbEntity
  8
0
100
AcDbText
 10
59.98363509556092
 20
3.260563711198523
 30
0.0
 40
0.74899296216962
  1
101 JOHNSTON CIRCLE, PALMETTO, GEORGIA 30268
 41
1.1875
 72
     4
 11
76.85158629384145
 21
3.579323650094949
 31
0.0
100
AcDbText
  0
TEXT
  5
D0E
330
D01
100
AcDbEntity
  8
0
100
AcDbText
 10
61.57240842020549
 20
1.964543484004154
 30
0.0
 40
0.6552430415498756
  1
http://TannerStone.com ~ Email:Sales@TannerStone.com 
 41
1.1875
 72
     4
 11
77.08342119362365
 21
2.259193880788984
 31
0.0
100
AcDbText
  0
TEXT
  5
D0F
330
D01
100
AcDbEntity
  8
0
 62
     7
100
AcDbText
 10
61.23651428794111
 20
7.899354841769707
 30
0.0
 40
3.572100000000002
  1
TannerStone
  7
ROMANC
 72
     1
 11
75.92109734429951
 21
7.899354841769707
 31
0.0
100
AcDbText
  0
TEXT
  5
D10
330
D01
100
AcDbEntity
  8
0
100
AcDbText
 10
64.01730751652127
 20
0.6790765005605895
 30
0.0
 40
0.6552430415498756
  1
PHONE: 1-800-789-4841  FAX : 770-463-2635
 41
1.1875
 72
     4
 11
76.73327742292068
 21
1.005769257279467
 31
0.0
100
AcDbText
  0
TEXT
  5
D11
330
D01
100
AcDbEntity
  8
0
100
AcDbText
 10
57.83820509574332
 20
4.931128255646459
 30
0.0
 40
1.111564440985976
  1
ARCHITECTURAL CONCRETE CO., INC.
 41
1.25
 72
     4
 11
76.69038922088154
 21
5.404193065577061
 31
0.0
100
AcDbText
  0
LINE
  5
D12
330
D01
100
AcDbEntity
  8
0
100
AcDbLine
 10
96.44018670993652
 20
0.0
 30
0.0
 11
96.44018670993691
 21
12.46470592426126
 31
0.0
  0
TEXT
  5
D13
330
D01
100
AcDbEntity
  8
0
 62
     7
100
AcDbText
 10
91.59975773655476
 20
7.487990433787814
 30
0.0
 40
0.7875000000000002
  1
R
  7
ROMANC
 72
     1
 11
92.02565639984957
 21
7.487990433787814
 31
0.0
100
AcDbText
  0
ARC
  5
D14
330
D01
100
AcDbEntity
  8
0
 62
     7
100
AcDbCircle
 10
92.02173719823603
 20
7.854684255185276
 30
0.0
 40
0.5838368232859408
100
AcDbArc
 50
304.8408806463489
 51
297.555354837207
  0
LINE
  5
D15
330
D01
100
AcDbEntity
  8
0
 62
     7
100
AcDbLine
 10
96.44018670993673
 20
6.648784575743377
 30
0.0
 11
95.62662822118031
 21
6.648784575743377
 31
0.0
  0
ARC
  5
D16
330
D01
100
AcDbEntity
  8
0
 62
     7
100
AcDbCircle
 10
92.02173719823603
 20
7.854684255185276
 30
0.0
 40
0.5838368232859321
100
AcDbArc
 50
297.555354837207
 51
304.8408806463489
  0
TEXT
  5
D17
330
D01
100
AcDbEntity
  8
0
 62
     7
100
AcDbText
 10
101.0916707105179
 20
4.784832420392348
 30
0.0
 40
0.8459472656250001
  1
1:1
100
AcDbText
  0
LINE
  5
D18
330
D01
100
AcDbEntity
  8
0
100
AcDbLine
 10
105.9925392881562
 20
78.84810849484799
 30
0.0
 11
0.0
 21
78.84810849484799
 31
0.0
  0
LINE
  5
D19
330
D01
100
AcDbEntity
  8
0
100
AcDbLine
 10
105.9925392881562
 20
70.31072004937001
 30
0.0
 11
92.45878286761294
 21
70.31072004937001
 31
0.0
  0
ATTDEF
  5
D1A
330
D01
100
AcDbEntity
  8
A1
 62
     1
100
AcDbText
 10
99.20289126219254
 20
73.4000163324483
 30
0.0
 40
2.079
  1

 72
     1
 11
99.20289126219254
 21
73.4000163324483
 31
0.0
100
AcDbAttributeDefinition
  3
ADD PAGE NUMBER
  2
TS00XX
 70
     0
  0
LINE
  5
D1B
330
D01
100
AcDbEntity
  8
0
100
AcDbLine
 10
92.45878286761294
 20
70.31072004937001
 30
0.0
 11
92.45878286761294
 21
78.84810849484799
 31
0.0
  0
LINE
  5
D1C
330
D01
100
AcDbEntity
  8
0
 62
     7
100
AcDbLine
 10
56.87404547169354
 20
4.753491724833224
 30
0.0
 11
25.97049976153047
 21
4.753491724833224
 31
0.0
  0
LINE
  5
D1D
330
D01
100
AcDbEntity
  8
0
 62
     7
100
AcDbLine
 10
56.87404547169354
 20
2.864660228904284
 30
0.0
 11
25.97049976153047
 21
2.864660228904284
 31
0.0
  0
LINE
  5
D1E
330
D01
100
AcDbEntity
  8
0
 62
     7
100
AcDbLine
 10
56.87404547169354
 20
10.31505184057846
 30
0.0
 11
25.97049976153047
 21
10.31505184057846
 31
0.0
  0
ATTDEF
  5
D1F
330
D01
100
AcDbEntity
  8
A1
 62
     1
100
AcDbText
 10
12.85191920549937
 20
3.11796280247222
 30
0.0
 40
6.132000000000001
  1

  7
barcoder
 72
     1
 11
12.85191920549937
 21
3.11796280247222
 31
0.0
100
AcDbAttributeDefinition
  3
ADD BARCODE NUMBER
  2
BARCODE
 70
     0
  0
LINE
  5
D20
330
D01
100
AcDbEntity
  8
0
 62
     7
100
AcDbLine
 10
25.97049976153047
 20
12.46470592426126
 30
0.0
 11
0.0
 21
12.46470592426126
 31
0.0
  0
ATTDEF
  5
D21
330
D01
100
AcDbEntity
  8
A1
 62
     1
100
AcDbText
 10
21.55372231158239
 20
1.875018704105684
 30
0.0
 40
0.8400000000000002
  1

 72
     2
 11
21.55372231158239
 21
1.875018704105684
 31
0.0
100
AcDbAttributeDefinition
  3
ADD BARCODE TEXT
  2
XXXXXX
 70
     0
  0
ATTDEF
  5
D22
330
D01
100
AcDbEntity
  8
A1
 62
     1
100
AcDbText
 10
41.26016333205515
 20
0.916484150045278
 30
0.0
 40
1.025589599999999
  1

 72
     1
 11
41.26016333205515
 21
0.916484150045278
 31
0.0
100
AcDbAttributeDefinition
  3
ADD CATEGORY NAMES
  2
XXXXXX
 70
     0
  0
LINE
  5
D23
330
D01
100
AcDbEntity
  8
0
100
AcDbLine
 10
25.97049976153047
 20
0.0
 30
0.0
 11
25.97049976153047
 21
12.46470592426126
 31
0.0
  0
TEXT
  5
D24
330
D01
100
AcDbEntity
  8
0
 62
     7
100
AcDbText
 10
30.57643893100979
 20
5.886467718828555
 30
0.0
 40
1.05
  1
- Unfinished Side
100
AcDbText
  0
TEXT
  5
D25
330
D01
100
AcDbEntity
  8
0
 62
     7
100
AcDbText
 10
30.56536100380199
 20
8.165961840384312
 30
0.0
 40
1.05
  1
- Finished Side
100
AcDbText
  0
TEXT
  5
D26
330
D01
100
AcDbEntity
  8
0
 62
     7
100
AcDbText
 10
28.62975879980742
 20
6.155120421568796
 30
0.0
 40
0.0065625
  1
TANNERSTONE 0001 TANNERSTONE 0001 TANNERSTONE 0001 TANNERSTONE 0001 TANNERSTONE 0001 TANNERSTONE 0001 TANNERSTONE 0001
 72
     1
 11
28.97869915682372
 21
6.155120421568796
 31
0.0
100
AcDbText
  0
TEXT
  5
D27
330
D01
100
AcDbEntity
  8
0
 62
     7
100
AcDbText
 10
26.78569629980744
 20
6.155120421568796
 30
0.0
 40
0.0065625
  1
TANNERSTONE 0001 TANNERSTONE 0001 TANNERSTONE 0001 TANNERSTONE 0001 TANNERSTONE 0001 TANNERSTONE 0001 TANNERSTONE 0001
 72
     1
 11
27.13463665682374
 21
6.155120421568796
 31
0.0
100
AcDbText
  0
LINE
  5
D28
330
D01
100
AcDbEntity
  8
0
 62
     7
100
AcDbLine
 10
26.78791925899645
 20
6.408946491460881
 30
0.0
 11
29.32320076794366
 21
6.408946491460881
 31
0.0
  0
TEXT
  5
D29
330
D01
100
AcDbEntity
  8
0
 62
     7
100
AcDbText
 10
27.6921018725396
 20
6.155120421568796
 30
0.0
 40
0.0065625
  1
TANNERSTONE 0001 TANNERSTONE 0001 TANNERSTONE 0001 TANNERSTONE 0001 TANNERSTONE 0001 TANNERSTONE 0001 TANNERSTONE 0001
 72
     1
 11
28.0410422295559
 21
6.155120421568796
 31
0.0
100
AcDbText
  0
LINE
  5
D2A
330
D01
100
AcDbEntity
  8
0
 62
     7
100
AcDbLine
 10
26.78791925899645
 20
8.549200111339274
 30
0.0
 11
29.32320076794366
 21
8.549200111339274
 31
0.0
  0
TEXT
  5
D2B
330
D01
100
AcDbEntity
  8
0
 62
     7
100
AcDbText
 10
38.18320344075359
 20
3.401999220949534
 30
0.0
 40
0.8400000000000002
  1
CATEGORY
 72
     1
 11
41.47652732452397
 21
3.401999220949534
 31
0.0
100
AcDbText
  0
TEXT
  5
D2C
330
D01
100
AcDbEntity
  8
0
 62
     7
100
AcDbText
 10
39.28098221173835
 20
10.97304845086645
 30
0.0
 40
0.8085000000000002
  1
LEGEND
100
AcDbText
  0
LINE
  5
D2D
330
D01
100
AcDbEntity
  8
0
100
AcDbLine
 10
56.87404547169356
 20
0.0
 30
0.0
 11
56.87404547169356
 21
12.46470592426126
 31
0.0
  0
LINE
  5
D2E
330
D01
100
AcDbEntity
  8
0
100
AcDbLine
 10
0.0
 20
78.84810849484799
 30
0.0
 11
0.0
 21
0.0
 31
0.0
  0
LINE
  5
D2F
330
D01
100
AcDbEntity
  8
0
100
AcDbLine
 10
0.0
 20
0.0
 30
0.0
 11
105.9925392881562
 21
0.0
 31
0.0
  0
LINE
  5
D30
330
D01
100
AcDbEntity
  8
0
100
AcDbLine
 10
105.9925392881562
 20
0.0
 30
0.0
 11
105.9925392881562
 21
78.84810849484799
 31
0.0
  0
LINE
  5
D31
330
D01
100
AcDbEntity
  8
0
100
AcDbLine
 10
105.9925392881562
 20
78.84810849484799
 30
0.0
 11
105.9925392881562
 21
70.31072004937001
 31
0.0
  0
ENDBLK
  5
D33
330
D01
100
AcDbEntity
  8
0
 62
     7
100
AcDbBlockEnd
  0
BLOCK
  5
D4C
330
D44
100
AcDbEntity
  8
0
 62
     7
100
AcDbBlockBegin
  2
1573
 70
     0
 10
0.0
 20
0.0
 30
0.0
  3
1573
  1

  0
LWPOLYLINE
  5
D45
330
D44
100
AcDbEntity
  8
L0
  6
Continuous
 62
     7
100
AcDbPolyline
 90
        2
 70
     0
 43
0.12
 10
5.004616000000169
 20
0.0000000000001137
 10
-5.004616000000055
 20
-0.0000000000001137
  0
LWPOLYLINE
  5
D46
330
D44
100
AcDbEntity
  8
L0
  6
Continuous
 62
     7
100
AcDbPolyline
 90
       14
 70
     1
 43
0.12
 10
0.0000000000002274
 20
5.555378000000018
 10
-3.036501620345688
 20
5.555378000000132
 42
0.8707702205552291
 10
-3.036508823923668
 20
4.745213000000035
 42
-0.5617763468238671
 10
-2.561073298318547
 20
1.794168524706378
 10
-3.394469252272187
 20
1.100364363983771
 10
-5.004615999999714
 20
0.0000000000001137
 10
-5.004615999999714
 20
-0.7522960000001149
 10
0.0000000000002274
 20
-0.7522960000000012
 10
5.004616000000169
 20
-0.7522960000001149
 10
5.004616000000169
 20
0.0000000000001137
 10
3.394469252272642
 20
1.100364363983771
 10
2.561073298319001
 20
1.794168524706378
 42
-0.5617763468238671
 10
3.036508823924123
 20
4.745213000000035
 42
0.8707702205552291
 10
3.036501620346143
 20
5.555378000000132
  0
INSERT
  5
D47
330
D44
100
AcDbEntity
  8
A1
 62
     7
100
AcDbBlockReference
 66
     1
  2
PROFILE LOGO
 10
-2.096033717602608
 20
2.029470084559193
 30
0.0
  0
ATTRIB
  5
D48
330
D47
100
AcDbEntity
  8
A1
 62
    22
100
AcDbText
 10
-1.813673364035851
 20
0.3511718356526217
 30
0.0
 40
0.2126953125
  1
1573
 72
     1
 11
-1.417903312321641
 21
0.3511718356526217
 31
0.0
100
AcDbAttribute
  2
XXXX
 70
     0
  0
SEQEND
  5
D49
330
D47
100
AcDbEntity
  8
A1
 62
     7
  0
LINE
  5
D4A
330
D44
100
AcDbEntity
  8
0
 62
     1
100
AcDbLine
 10
0.0000000000001137
 20
5.930378000000018
 30
0.0
 11
3.249999999978854
 21
5.930378000000018
 31
0.0
  0
LWPOLYLINE
  5
D4B
330
D44
100
AcDbEntity
  8
L0
  6
Continuous
 62
     7
100
AcDbPolyline
 90
        2
 70
     0
 43
0.12
 10
-3.036508823922531
 20
4.745213000000035
 10
2.980271000000129
 20
4.745213000000035
  0
ENDBLK
  5
D4D
330
D44
100
AcDbEntity
  8
0
 62
     7
100
AcDbBlockEnd
  0
BLOCK
  5
D5B
330
D50
100
AcDbEntity
  8
0
 62
     7
100
AcDbBlockBegin
  2
*D8
 70
     1
 10
0.0
 20
0.0
 30
0.0
  3
*D8
  1

  0
LINE
  5
EA2
330
D50
100
AcDbEntity
  8
A1
 62
     0
100
AcDbLine
 10
42.65114213116045
 20
27.32030932816293
 30
0.0
 11
42.65114213116045
 21
24.11272397621874
 31
0.0
  0
LINE
  5
EA3
330
D50
100
AcDbEntity
  8
A1
 62
     0
100
AcDbLine
 10
52.66037413116034
 20
27.32030932816293
 30
0.0
 11
52.66037413116034
 21
24.11272397621874
 31
0.0
  0
LINE
  5
EA4
330
D50
100
AcDbEntity
  8
A1
 62
     0
100
AcDbLine
 10
43.15114213116046
 20
24.36272397621874
 30
0.0
 11
45.55176990211061
 21
24.36272397621874
 31
0.0
  0
LINE
  5
EA5
330
D50
100
AcDbEntity
  8
A1
 62
     0
100
AcDbLine
 10
52.16037413116033
 20
24.36272397621874
 30
0.0
 11
50.18890668453442
 21
24.36272397621874
 31
0.0
  0
MTEXT
  5
EA6
330
D50
100
AcDbEntity
  8
A1
 62
     0
100
AcDbMText
 10
47.87033829332251
 20
24.36272397621874
 30
0.0
 40
1.0
 41
0.0
 71
     5
 72
     1
  1
\A1;%%C10"
 73
     1
 44
1.0
  0
SOLID
  5
EA7
330
D50
100
AcDbEntity
  8
A1
 62
     0
100
AcDbTrace
 10
43.15114213116046
 20
24.44605730955208
 30
0.0
 11
43.15114213116046
 21
24.27939064288541
 31
0.0
 12
42.65114213116045
 22
24.36272397621874
 32
0.0
 13
42.65114213116045
 23
24.36272397621874
 33
0.0
  0
SOLID
  5
EA8
330
D50
100
AcDbEntity
  8
A1
 62
     0
100
AcDbTrace
 10
52.16037413116033
 20
24.44605730955208
 30
0.0
 11
52.16037413116033
 21
24.27939064288541
 31
0.0
 12
52.66037413116034
 22
24.36272397621874
 32
0.0
 13
52.66037413116034
 23
24.36272397621874
 33
0.0
  0
POINT
  5
EA9
330
D50
100
AcDbEntity
  8
Defpoints
 62
     0
100
AcDbPoint
 10
42.65114213116045
 20
28.32030932816293
 30
0.0
  0
POINT
  5
EAA
330
D50
100
AcDbEntity
  8
Defpoints
 62
     0
100
AcDbPoint
 10
52.66037413116034
 20
28.32030932816293
 30
0.0
  0
POINT
  5
EAB
330
D50
100
AcDbEntity
  8
Defpoints
 62
     0
100
AcDbPoint
 10
52.66037413116034
 20
24.36272397621874
 30
0.0
  0
ENDBLK
  5
D5C
330
D50
100
AcDbEntity
  8
0
 62
     7
100
AcDbBlockEnd
  0
BLOCK
  5
D69
330
D5E
100
AcDbEntity
  8
0
 62
     7
100
AcDbBlockBegin
  2
*D9
 70
     1
 10
0.0
 20
0.0
 30
0.0
  3
*D9
  1

  0
LINE
  5
EAC
330
D5E
100
AcDbEntity
  8
A1
 62
     0
100
AcDbLine
 10
41.65114213116022
 20
28.32030932816293
 30
0.0
 11
28.97472192161508
 21
28.32030932816294
 31
0.0
  0
LINE
  5
EAD
330
D5E
100
AcDbEntity
  8
A1
 62
     0
100
AcDbLine
 10
43.61925651081428
 20
34.62798332816318
 30
0.0
 11
28.97472192161508
 21
34.62798332816318
 31
0.0
  0
LINE
  5
EAE
330
D5E
100
AcDbEntity
  8
A1
 62
     0
100
AcDbLine
 10
29.22472192161508
 20
28.82030932816293
 30
0.0
 11
29.22472192161508
 21
30.46009889905253
 31
0.0
  0
LINE
  5
EAF
330
D5E
100
AcDbEntity
  8
A1
 62
     0
100
AcDbLine
 10
29.22472192161508
 20
34.12798332816318
 30
0.0
 11
29.22472192161508
 21
32.55010598622475
 31
0.0
  0
MTEXT
  5
EB0
330
D5E
100
AcDbEntity
  8
A1
 62
     0
100
AcDbMText
 10
29.2247219216151
 20
31.50510244263864
 30
0.0
 40
1.0
 41
0.0
 71
     5
 72
     1
  1
\A1;6 5/16"
 73
     1
 44
1.0
  0
SOLID
  5
EB1
330
D5E
100
AcDbEntity
  8
A1
 62
     0
100
AcDbTrace
 10
29.14138858828175
 20
28.82030932816293
 30
0.0
 11
29.30805525494841
 21
28.82030932816293
 31
0.0
 12
29.22472192161508
 22
28.32030932816294
 32
0.0
 13
29.22472192161508
 23
28.32030932816294
 33
0.0
  0
SOLID
  5
EB2
330
D5E
100
AcDbEntity
  8
A1
 62
     0
100
AcDbTrace
 10
29.14138858828175
 20
34.12798332816318
 30
0.0
 11
29.30805525494841
 21
34.12798332816318
 31
0.0
 12
29.22472192161508
 22
34.62798332816318
 32
0.0
 13
29.22472192161508
 23
34.62798332816318
 33
0.0
  0
POINT
  5
EB3
330
D5E
100
AcDbEntity
  8
Defpoints
 62
     0
100
AcDbPoint
 10
42.65114213116023
 20
28.32030932816293
 30
0.0
  0
POINT
  5
EB4
330
D5E
100
AcDbEntity
  8
Defpoints
 62
     0
100
AcDbPoint
 10
44.61925651081428
 20
34.62798332816318
 30
0.0
  0
POINT
  5
EB5
330
D5E
100
AcDbEntity
  8
Defpoints
 62
     0
100
AcDbPoint
 10
29.22472192161508
 20
34.62798332816318
 30
0.0
  0
ENDBLK
  5
D6A
330
D5E
100
AcDbEntity
  8
0
 62
     7
100
AcDbBlockEnd
  0
BLOCK
  5
DD8
330
DD3
100
AcDbEntity
  8
0
 62
     7
100
AcDbBlockBegin
  2
BALL16
 70
     0
 10
0.0
 20
0.0
 30
0.0
  3
BALL16
  1

  0
LWPOLYLINE
  5
DD4
330
DD3
100
AcDbEntity
  8
A1
 62
     7
100
AcDbPolyline
 90
        2
 70
     1
 43
0.12
 10
-3.249999999999879
 20
0.4351799258994476
 42
-4.697908552707798
 10
3.250000000000113
 20
0.4351799258994476
  0
INSERT
  5
DD5
330
DD3
100
AcDbEntity
  8
A1
 62
     7
100
AcDbBlockReference
 66
     1
  2
PROFILE LOGO
 10
-7.306887377767679
 20
9.232012174532769
 30
0.0
 41
1.596000000000003
 42
1.596000000000003
 43
1.596
  0
ATTRIB
  5
DD6
330
DD5
100
AcDbEntity
  8
A1
 62
    22
100
AcDbText
 10
-6.852751809164833
 20
6.553448169277942
 30
0.0
 40
0.33946171875
  1
1535
 72
     1
 11
-6.224591250939283
 21
6.553448169277942
 31
0.0
100
AcDbAttribute
  2
XXXX
 70
     0
  0
SEQEND
  5
DD7
330
DD5
100
AcDbEntity
  8
A1
 62
     7
  0
ENDBLK
  5
DD9
330
DD3
100
AcDbEntity
  8
0
 62
     7
100
AcDbBlockEnd
  0
BLOCK
  5
DE7
330
DDC
100
AcDbEntity
  8
0
 62
     7
100
AcDbBlockBegin
  2
*D11
 70
     1
 10
0.0
 20
0.0
 30
0.0
  3
*D11
  1

  0
LINE
  5
EB6
330
DDC
100
AcDbEntity
  8
A1
 62
     0
100
AcDbLine
 10
53.66037413116034
 20
28.32030932816293
 30
0.0
 11
62.99136785357347
 21
28.32030932816293
 31
0.0
  0
LINE
  5
EB7
330
DDC
100
AcDbEntity
  8
A1
 62
     0
100
AcDbLine
 10
48.55276371882386
 20
50.33070137048991
 30
0.0
 11
62.99136785357347
 21
50.33070137048991
 31
0.0
  0
LINE
  5
EB8
330
DDC
100
AcDbEntity
  8
A1
 62
     0
100
AcDbLine
 10
62.74136785357346
 20
28.82030932816293
 30
0.0
 11
62.74136785357346
 21
38.39176940526373
 31
0.0
  0
LINE
  5
EB9
330
DDC
100
AcDbEntity
  8
A1
 62
     0
100
AcDbLine
 10
62.74136785357347
 20
49.83070137048991
 30
0.0
 11
62.74136785357346
 21
40.40665246692213
 31
0.0
  0
MTEXT
  5
EBA
330
DDC
100
AcDbEntity
  8
A1
 62
     0
100
AcDbMText
 10
62.74136785357346
 20
39.39921093609294
 30
0.0
 40
1.0
 41
0.0
 71
     5
 72
     1
  1
\A1;22"
 73
     1
 44
1.0
  0
SOLID
  5
EBB
330
DDC
100
AcDbEntity
  8
A1
 62
     0
100
AcDbTrace
 10
62.65803452024012
 20
28.82030932816293
 30
0.0
 11
62.8247011869068
 21
28.82030932816293
 31
0.0
 12
62.74136785357346
 22
28.32030932816293
 32
0.0
 13
62.74136785357346
 23
28.32030932816293
 33
0.0
  0
SOLID
  5
EBC
330
DDC
100
AcDbEntity
  8
A1
 62
     0
100
AcDbTrace
 10
62.65803452024013
 20
49.83070137048991
 30
0.0
 11
62.82470118690681
 21
49.83070137048991
 31
0.0
 12
62.74136785357347
 22
50.33070137048991
 32
0.0
 13
62.74136785357347
 23
50.33070137048991
 33
0.0
  0
POINT
  5
EBD
330
DDC
100
AcDbEntity
  8
Defpoints
 62
     0
100
AcDbPoint
 10
52.66037413116034
 20
28.32030932816293
 30
0.0
  0
POINT
  5
EBE
330
DDC
100
AcDbEntity
  8
Defpoints
 62
     0
100
AcDbPoint
 10
47.55276371882386
 20
50.33070137048992
 30
0.0
  0
POINT
  5
EBF
330
DDC
100
AcDbEntity
  8
Defpoints
 62
     0
100
AcDbPoint
 10
62.74136785357347
 20
50.33070137048991
 30
0.0
  0
ENDBLK
  5
DE8
330
DDC
100
AcDbEntity
  8
0
 62
     7
100
AcDbBlockEnd
  0
ENDSEC
  0
SECTION
  2
ENTITIES
  0
DIMENSION
  5
746
330
2
100
AcDbEntity
  8
A1
 62
     7
100
AcDbDimension
  2
*D5
 10
55.6356896184799
 20
60.18138162280777
 30
0.0
 11
47.84203373066794
 21
60.18138162280777
 31
0.0
 70
   160
  1
%%C16"
 71
     5
 42
-1.0
  3
STANDARD
100
AcDbAlignedDimension
 13
39.67651614248378
 23
43.05387838677264
 33
0.0
 14
55.6356896184799
 24
43.13079857865381
 34
0.0
100
AcDbRotatedDimension
1001
ACAD
1000
DSTYLE
1002
{
1070
   287
1070
     4
1070
    73
1070
     1
1070
    74
1070
     1
1070
    77
1070
     0
1070
   147
1040
0.5
1070
   279
1070
     1
1070
   288
1070
     1
1070
   289
1070
     3
1002
}
  0
ATTDEF
  5
7EF
330
2
100
AcDbEntity
  8
A1
 62
     1
100
AcDbText
 10
66.32896027642392
 20
56.94508208486769
 30
0.0
 40
1.199999999999993
  1

100
AcDbAttributeDefinition
  3
ADD LINK NUMBER (WMF)
  2
TSD006
 70
     0
  0
MTEXT
  5
7F0
330
2
100
AcDbEntity
  8
0
 62
     1
100
AcDbMText
 10
66.37555931359395
 20
56.04835181784993
 30
0.0
 40
1.199999999999993
 41
0.0
 71
     1
 72
     1
  1
TannerStone
 73
     1
 44
1.0
1001
ACAD
1000
MTEXTBEGIN
1070
    73
1070
     1
1070
    44
1040
1.0
1070
    74
1070
     0
1000
MTEXTEND
1000
MTEXTBEGIN
1070
    73
1070
     1
1070
    44
1040
1.0
1070
    74
1070
     0
1000
MTEXTEND
  0
MTEXT
  5
7F1
330
2
100
AcDbEntity
  8
0
 62
     1
100
AcDbMText
 10
66.46885020241203
 20
54.22775973825656
 30
0.0
 40
0.8864099999999954
 41
0.0
 71
     1
 72
     1
  1
1-800-789-4841
 73
     1
 44
1.0
1001
ACAD
1000
MTEXTBEGIN
1070
    73
1070
     1
1070
    44
1040
1.0
1070
    74
1070
     0
1000
MTEXTEND
1000
MTEXTBEGIN
1070
    73
1070
     1
1070
    44
1040
1.0
1070
    74
1070
     0
1000
MTEXTEND
  0
LINE
  5
7F2
330
2
100
AcDbEntity
  8
0
 62
     1
100
AcDbLine
 10
56.50745110276975
 20
56.48575919541329
 30
0.0
 11
76.65769268836476
 21
56.48575919541329
 31
0.0
  0
LINE
  5
7F3
330
2
100
AcDbEntity
  8
0
 62
     1
100
AcDbLine
 10
65.74476385753062
 20
52.90042613328254
 30
0.0
 11
65.74476385753062
 21
58.36577064867384
 31
0.0
  0
INSERT
  5
D34
330
2
100
AcDbEntity
  8
A1
 62
     7
100
AcDbBlockReference
 66
     1
  2
TSFORMB
 10
14.17159259214952
 20
10.45955886408465
 30
0.0
 41
0.6840000000000001
 42
0.6840000000000001
 43
0.6840000000000001
  0
ATTRIB
  5
D35
330
D34
100
AcDbEntity
  8
A1
 62
     1
100
AcDbText
 10
81.7201464312833
 20
15.3977232770961
 30
0.0
 40
0.6463800000000002
  1
213.33
 72
     1
 11
83.35258805424572
 21
15.3977232770961
 31
0.0
100
AcDbAttribute
  2
XXXXX
 70
     0
  0
ATTRIB
  5
D36
330
D34
100
AcDbEntity
  8
A1
 62
     1
100
AcDbText
 10
81.52820940926956
 20
17.35359788413008
 30
0.0
 40
0.6463800000000002
  1
236.31"
 72
     1
 11
83.37595833201939
 21
17.35359788413008
 31
0.0
100
AcDbAttribute
  2
XXXXX
 70
     0
  0
ATTRIB
  5
D37
330
D34
100
AcDbEntity
  8
A1
 62
     1
100
AcDbText
 10
78.0298544408613
 20
60.6651700354793
 30
0.0
 40
1.422036
  1
TSD006
 72
     1
 11
82.02637021548921
 21
60.6651700354793
 31
0.0
100
AcDbAttribute
  2
TS00XX
 70
     0
  0
ATTRIB
  5
D38
330
D34
100
AcDbEntity
  8
A1
 62
     1
100
AcDbText
 10
18.82044592871109
 20
12.59224542097565
 30
0.0
 40
4.194288000000001
  1
TSD006
  7
barcoder
 72
     1
 11
22.96230532871109
 21
12.59224542097565
 31
0.0
100
AcDbAttribute
  2
BARCODE
 70
     0
  0
ATTRIB
  5
D39
330
D34
100
AcDbEntity
  8
A1
 62
     1
100
AcDbText
 10
25.68483095660285
 20
11.74207165769294
 30
0.0
 40
0.5745600000000001
  1
TSD006
 72
     2
 11
28.91433865327187
 21
11.74207165769294
 31
0.0
100
AcDbAttribute
  2
XXXXXX
 70
     0
  0
ATTRIB
  5
D3A
330
D34
100
AcDbEntity
  8
A1
 62
     1
100
AcDbText
 10
37.18322932794995
 20
11.08643402271562
 30
0.0
 40
0.7015032864000001
  1
BALL AND PEDESTAL
 72
     1
 11
42.39354431127526
 21
11.08643402271562
 31
0.0
100
AcDbAttribute
  2
XXXXXX
 70
     0
  0
SEQEND
  5
D3B
330
D34
100
AcDbEntity
  8
A1
 62
     7
  0
DIMENSION
  5
D4F
330
2
100
AcDbEntity
  8
A1
 62
     7
100
AcDbDimension
  2
*D8
 10
52.66037413116034
 20
24.36272397621874
 30
0.0
 11
47.87033829332251
 21
24.36272397621874
 31
0.0
 70
   161
  1
%%C10"
 71
     5
 42
-1.0
  3
STANDARD
100
AcDbAlignedDimension
 13
42.65114213116045
 23
28.32030932816293
 33
0.0
 14
52.66037413116034
 24
28.32030932816293
 34
0.0
1001
ACAD
1000
DSTYLE
1002
{
1070
   287
1070
     4
1070
    73
1070
     1
1070
    74
1070
     1
1070
    77
1070
     0
1070
   147
1040
0.5
1070
   279
1070
     1
1070
   288
1070
     1
1070
   289
1070
     3
1002
}
  0
DIMENSION
  5
D5D
330
2
100
AcDbEntity
  8
A1
 62
     7
100
AcDbDimension
  2
*D9
 10
29.22472192161508
 20
34.62798332816318
 30
0.0
 11
29.2247219216151
 21
31.50510244263864
 31
0.0
 70
   160
 71
     5
 42
-1.0
  3
STANDARD
100
AcDbAlignedDimension
 13
42.65114213116023
 23
28.32030932816293
 33
0.0
 14
44.61925651081428
 24
34.62798332816318
 34
0.0
 50
90.0
100
AcDbRotatedDimension
1001
ACAD
1000
DSTYLE
1002
{
1070
   287
1070
     4
1070
    73
1070
     1
1070
    74
1070
     1
1070
    77
1070
     0
1070
   147
1040
0.5
1070
   279
1070
     1
1070
   288
1070
     1
1070
   289
1070
     3
1002
}
  0
LINE
  5
D7A
330
2
100
AcDbEntity
  8
0
 62
     1
100
AcDbLine
 10
65.27364853362579
 20
23.88346058722486
 30
0.0
 11
65.27364853362579
 21
25.76347204048541
 31
0.0
  0
LINE
  5
D7D
330
2
100
AcDbEntity
  8
0
 62
     1
100
AcDbLine
 10
60.33577502909663
 20
24.82346631385513
 30
0.0
 11
65.27364853362579
 21
24.82346631385513
 31
0.0
  0
ATTDEF
  5
D7E
330
2
100
AcDbEntity
  8
A1
 62
     1
100
AcDbText
 10
65.85784495251909
 20
24.34278347667925
 30
0.0
 40
1.199999999999993
  1

100
AcDbAttributeDefinition
  3
ADD LINK NUMBER (WMF)
  2
TS1573
 70
     0
  0
LINE
  5
D82
330
2
100
AcDbEntity
  8
A1
 62
     1
100
AcDbLine
 10
54.85854768842408
 20
56.48575919541329
 30
0.0
 11
52.62877211812217
 21
56.48575919541329
 31
0.0
  0
SOLID
  5
D85
330
2
100
AcDbEntity
  8
A1
 62
     1
100
AcDbTrace
 10
53.08046946849637
 20
28.0371872452661
 30
0.0
 11
53.14956529722689
 21
28.1888564386767
 31
0.0
 12
52.66000980262983
 22
28.32030932816293
 32
0.0
 13
52.66000980262983
 23
28.32030932816293
 33
0.0
  0
LINE
  5
D86
330
2
100
AcDbEntity
  8
A1
 62
     1
100
AcDbLine
 10
53.11501738286163
 20
28.1130218419714
 30
0.0
 11
60.33577502909663
 21
24.82346631385513
 31
0.0
  0
LWPOLYLINE
  5
DA6
330
2
100
AcDbEntity
  8
L0
  6
Continuous
 62
     7
100
AcDbPolyline
 90
        2
 70
     0
 43
0.12
 10
52.66037413116034
 20
29.07260532816316
 10
42.65114213116011
 20
29.07260532816293
  0
LWPOLYLINE
  5
DA7
330
2
100
AcDbEntity
  8
L0
  6
Continuous
 62
     7
100
AcDbPolyline
 90
       14
 70
     1
 43
0.12
 10
47.65575813116039
 20
34.62798332816307
 10
44.61925651081448
 20
34.62798332816318
 42
0.8707702205552291
 10
44.61924930723649
 20
33.81781832816308
 42
-0.5617763468238671
 10
45.09468483284162
 20
30.86677385286943
 10
44.26128887888798
 20
30.17296969214682
 10
42.65114213116045
 20
29.07260532816316
 10
42.65114213116045
 20
28.32030932816293
 10
47.65575813116039
 20
28.32030932816305
 10
52.66037413116034
 20
28.32030932816293
 10
52.66037413116034
 20
29.07260532816316
 10
51.05022738343281
 20
30.17296969214682
 10
50.21683142947917
 20
30.86677385286943
 42
-0.5617763468238671
 10
50.69226695508429
 20
33.81781832816308
 42
0.8707702205552291
 10
50.69225975150631
 20
34.62798332816318
  0
INSERT
  5
DA8
330
2
100
AcDbEntity
  8
A1
 62
     7
100
AcDbBlockReference
 66
     1
  2
PROFILE LOGO
 10
45.55972441355756
 20
31.10207541272224
 30
0.0
  0
ATTRIB
  5
DA9
330
DA8
100
AcDbEntity
  8
A1
 62
    22
100
AcDbText
 10
45.84208476712432
 20
29.42377716381567
 30
0.0
 40
0.2126953125
  1
1573
 72
     1
 11
46.23785481883852
 21
29.42377716381567
 31
0.0
100
AcDbAttribute
  2
XXXX
 70
     0
  0
SEQEND
  5
DAA
330
DA8
100
AcDbEntity
  8
A1
 62
     7
  0
LINE
  5
DAB
330
2
100
AcDbEntity
  8
0
 62
     1
100
AcDbLine
 10
47.65575813116028
 20
35.00298332816306
 30
0.0
 11
50.90575813113902
 21
35.00298332816306
 31
0.0
  0
LWPOLYLINE
  5
DAC
330
2
100
AcDbEntity
  8
L0
  6
Continuous
 62
     7
100
AcDbPolyline
 90
        2
 70
     0
 43
0.12
 10
44.61924930723763
 20
33.81781832816308
 10
50.6360291311603
 20
33.81781832816308
  0
DIMENSION
  5
DDB
330
2
100
AcDbEntity
  8
A1
 62
     7
100
AcDbDimension
  2
*D11
 10
62.74136785357347
 20
50.33070137048991
 30
0.0
 11
62.74136785357346
 21
39.39921093609294
 31
0.0
 70
   160
 71
     5
 42
-1.0
  3
STANDARD
100
AcDbAlignedDimension
 13
52.66037413116034
 23
28.32030932816293
 33
0.0
 14
47.55276371882386
 24
50.33070137048992
 34
0.0
 50
90.0
100
AcDbRotatedDimension
1001
ACAD
1000
DSTYLE
1002
{
1070
   287
1070
     4
1070
    73
1070
     1
1070
    74
1070
     1
1070
    77
1070
     0
1070
   147
1040
0.5
1070
   279
1070
     1
1070
   288
1070
     1
1070
   289
1070
     3
1002
}
  0
SOLID
  5
DE9
330
2
100
AcDbEntity
  8
A1
 62
     1
100
AcDbTrace
 10
47.93692087754558
 20
50.66351595419829
 30
0.0
 11
47.80832073585734
 21
50.7695337891863
 31
0.0
 12
47.55456730173745
 22
50.33072444662759
 32
0.0
 13
47.55456730173745
 23
50.33072444662759
 33
0.0
  0
LINE
  5
DEA
330
2
100
AcDbEntity
  8
A1
 62
     1
100
AcDbLine
 10
47.87262080670146
 20
50.71652487169229
 30
0.0
 11
52.62877211812217
 21
56.48575919541329
 31
0.0
  0
LWPOLYLINE
  5
DED
330
2
100
AcDbEntity
  8
A1
 62
     7
100
AcDbPolyline
 90
        2
 70
     1
 43
0.12
 10
44.40575813116051
 20
35.06316325406251
 42
-4.697908552707798
 10
50.90575813116051
 20
35.06316325406251
  0
INSERT
  5
DEE
330
2
100
AcDbEntity
  8
A1
 62
     7
100
AcDbBlockReference
 66
     1
  2
PROFILE LOGO
 10
40.34887075339272
 20
43.85999550269583
 30
0.0
 41
1.596000000000003
 42
1.596000000000003
 43
1.596
  0
ATTRIB
  5
DEF
330
DEE
100
AcDbEntity
  8
A1
 62
    22
100
AcDbText
 10
40.80300632199556
 20
41.18143149744101
 30
0.0
 40
0.33946171875
  1
1535
 72
     1
 11
41.43116688022111
 21
41.18143149744101
 31
0.0
100
AcDbAttribute
  2
XXXX
 70
     0
  0
SEQEND
  5
DF0
330
DEE
100
AcDbEntity
  8
A1
 62
     7
  0
LINE
  5
E5B
330
2
100
AcDbEntity
  8
0
 62
     1
100
AcDbLine
 10
63.17846270930883
 20
43.57022865424059
 30
0.0
 11
65.74476385753062
 21
43.57022865424059
 31
0.0
  0
ATTDEF
  5
E5E
330
2
100
AcDbEntity
  8
A1
 62
     1
100
AcDbText
 10
66.32896027642392
 20
43.08954581706471
 30
0.0
 40
1.199999999999993
  1

100
AcDbAttributeDefinition
  3
ADD LINK NUMBER (WMF)
  2
TS1535
 70
     0
  0
LINE
  5
E5F
330
2
100
AcDbEntity
  8
0
 62
     1
100
AcDbLine
 10
65.74476385753062
 20
42.6302229276103
 30
0.0
 11
65.74476385753062
 21
44.51023438087086
 31
0.0
  0
SOLID
  5
E61
330
2
100
AcDbEntity
  8
A1
 62
     1
100
AcDbTrace
 10
56.0586094832811
 20
41.4991134538466
 30
0.0
 11
55.98510587795289
 21
41.64869619944759
 31
0.0
 12
55.57310944381402
 22
41.35339401066246
 32
0.0
 13
55.57310944381402
 23
41.35339401066246
 33
0.0
  0
LINE
  5
E62
330
2
100
AcDbEntity
  8
A1
 62
     1
100
AcDbLine
 10
56.021857680617
 20
41.5739048266471
 30
0.0
 11
60.12693192166267
 21
43.59110109914837
 31
0.0
  0
LINE
  5
E63
330
2
100
AcDbEntity
  8
A1
 62
     1
100
AcDbLine
 10
60.12693192166267
 20
43.59110109914837
 30
0.0
 11
62.13964362061793
 21
43.59110109914837
 31
0.0
  0
ENDSEC
  0
SECTION
  2
OBJECTS
  0
DICTIONARY
  5
8
330
0
100
AcDbDictionary
281
     1
  3
ACAD_GROUP
350
21
  3
ACAD_LAYOUT
350
C
  3
ACAD_MLINESTYLE
350
22
  3
ACAD_PLOTSETTINGS
350
23
  3
ACAD_PLOTSTYLENAME
350
7
  3
DWGPROPS
350
DF8
  0
DICTIONARY
  5
3
330
2
100
AcDbDictionary
280
     1
281
     1
  3
ACAD_LAYOUTSELFREF
360
E92
  0
DICTIONARY
  5
E2A
330
D
100
AcDbDictionary
280
     1
281
     1
  3
ACAD_LAYOUTSELFREF
360
E95
  0
DICTIONARY
  5
21
102
{ACAD_REACTORS
330
8
102
}
330
8
100
AcDbDictionary
281
     1
  0
DICTIONARY
  5
C
102
{ACAD_REACTORS
330
8
102
}
330
8
100
AcDbDictionary
281
     1
  3
Layout1
350
10
  3
Model
350
B
  0
DICTIONARY
  5
22
102
{ACAD_REACTORS
330
8
102
}
330
8
100
AcDbDictionary
281
     1
  3
STANDARD
350
25
  0
DICTIONARY
  5
23
102
{ACAD_REACTORS
330
8
102
}
330
8
100
AcDbDictionary
281
     1
  0
ACDBDICTIONARYWDFLT
  5
7
102
{ACAD_REACTORS
330
8
102
}
330
8
100
AcDbDictionary
281
     1
  3
Normal
350
6
100
AcDbDictionaryWithDefault
340
6
  0
XRECORD
  5
DF8
102
{ACAD_REACTORS
330
8
102
}
330
8
100
AcDbXrecord
280
     1
  1
DWGPROPS COOKIE
  2

  3

  4

  6

  7

  8
catalog
  9

300
=
301
=
302
=
303
=
304
=
305
=
306
=
307
=
308
=
309
=
 40
2.313818634259259
 41
2451085.66483831
 42
2451642.664034491
  1

 90
        0
  0
XRECORD
  5
E92
102
{ACAD_REACTORS
330
3
102
}
330
3
100
AcDbXrecord
280
     1
340
2
  0
XRECORD
  5
E95
102
{ACAD_REACTORS
330
E2A
102
}
330
E2A
100
AcDbXrecord
280
     1
340
D
  0
LAYOUT
  5
10
102
{ACAD_REACTORS
330
C
102
}
330
C
100
AcDbPlotSettings
  1

  2
None
  4

  6

 40
0.0
 41
0.0
 42
0.0
 43
0.0
 44
0.0
 45
0.0
 46
0.0
 47
0.0
 48
0.0
 49
0.0
140
0.0
141
0.0
142
1.0
143
1.0
 70
   688
 72
     0
 73
     0
 74
     5
  7

 75
    16
147
1.0
148
0.0
149
0.0
100
AcDbLayout
  1
Layout1
 70
     1
 71
     1
 10
0.0
 20
0.0
 11
12.0
 21
9.0
 12
0.0
 22
0.0
 32
0.0
 14
1.000000000000000E+20
 24
1.000000000000000E+20
 34
1.000000000000000E+20
 15
-1.000000000000000E+20
 25
-1.000000000000000E+20
 35
-1.000000000000000E+20
146
0.0
 13
0.0
 23
0.0
 33
0.0
 16
1.0
 26
0.0
 36
0.0
 17
0.0
 27
1.0
 37
0.0
 76
     0
330
D
  0
LAYOUT
  5
B
102
{ACAD_REACTORS
330
C
102
}
330
C
100
AcDbPlotSettings
  1

  2
HP LaserJet 5.pc3
  4
Letter
  6

 40
7.143749713897705
 41
6.381738662719726
 42
7.14373779296875
 43
6.381744384765625
 44
215.8999938964843
 45
279.3999938964843
 46
0.0
 47
0.0
 48
621.3757168041145
 49
474.7940657922356
140
776.0405273297699
141
524.8962291405273
142
1.0
143
6.907141262166522
 70
 11952
 72
     0
 73
     1
 74
     1
  7

 75
     0
147
0.1447776963064942
148
-359.8187295797623
149
-265.6466324835606
100
AcDbLayout
  1
Model
 70
     1
 71
     0
 10
0.0
 20
0.0
 11
12.0
 21
9.0
 12
0.0
 22
0.0
 32
0.0
 14
0.0
 24
0.0
 34
0.0
 15
0.0
 25
0.0
 35
0.0
146
0.0
 13
0.0
 23
0.0
 33
0.0
 16
1.0
 26
0.0
 36
0.0
 17
0.0
 27
1.0
 37
0.0
 76
     0
330
2
  0
MLINESTYLE
  5
25
102
{ACAD_REACTORS
330
22
102
}
330
22
100
AcDbMlineStyle
  2
STANDARD
 70
     0
  3

 62
   256
 51
90.0
 52
90.0
 71
     2
 49
0.5
 62
   256
  6
BYLAYER
 49
-0.5
 62
   256
  6
BYLAYER
  0
ACDBPLACEHOLDER
  5
6
102
{ACAD_REACTORS
330
7
102
}
330
7
  0
ENDSEC
  0
EOF
