  0
SECTION
  2
HEADER
  9
$ACADVER
  1
AC1015
  9
$ACADMAINTVER
 70
     6
  9
$DWGCODEPAGE
  3
ANSI_1252
  9
$INSBASE
 10
0.0
 20
0.0
 30
0.0
  9
$EXTMIN
 10
469.6776045268619
 20
64.88017229999119
 30
0.0
  9
$EXTMAX
 10
549.8079642287081
 20
124.4893423220962
 30
0.0
  9
$LIMMIN
 10
0.0
 20
0.0
  9
$LIMMAX
 10
12.0
 20
9.0
  9
$ORTHOMODE
 70
     0
  9
$REGENMODE
 70
     1
  9
$FILLMODE
 70
     1
  9
$QTEXTMODE
 70
     0
  9
$MIRRTEXT
 70
     0
  9
$LTSCALE
 40
1.0
  9
$ATTMODE
 70
     2
  9
$TEXTSIZE
 40
2.0
  9
$TRACEWID
 40
0.05
  9
$TEXTSTYLE
  7
STANDARD
  9
$CLAYER
  8
A1
  9
$CELTYPE
  6
BYLAYER
  9
$CECOLOR
 62
     7
  9
$CELTSCALE
 40
1.0
  9
$DISPSILH
 70
     0
  9
$DIMSCALE
 40
1.12
  9
$DIMASZ
 40
0.5
  9
$DIMEXO
 40
1.0
  9
$DIMDLI
 40
0.0625
  9
$DIMRND
 40
0.0
  9
$DIMDLE
 40
0.0
  9
$DIMEXE
 40
0.25
  9
$DIMTP
 40
0.0
  9
$DIMTM
 40
0.0
  9
$DIMTXT
 40
1.0
  9
$DIMCEN
 40
0.0
  9
$DIMTSZ
 40
0.0
  9
$DIMTOL
 70
     0
  9
$DIMLIM
 70
     0
  9
$DIMTIH
 70
     1
  9
$DIMTOH
 70
     1
  9
$DIMSE1
 70
     0
  9
$DIMSE2
 70
     0
  9
$DIMTAD
 70
     0
  9
$DIMZIN
 70
     0
  9
$DIMBLK
  1

  9
$DIMASO
 70
     1
  9
$DIMSHO
 70
     1
  9
$DIMPOST
  1
"
  9
$DIMAPOST
  1

  9
$DIMALT
 70
     0
  9
$DIMALTD
 70
     0
  9
$DIMALTF
 40
25.4
  9
$DIMLFAC
 40
1.0
  9
$DIMTOFL
 70
     0
  9
$DIMTVP
 40
0.0
  9
$DIMTIX
 70
     0
  9
$DIMSOXD
 70
     0
  9
$DIMSAH
 70
     0
  9
$DIMBLK1
  1

  9
$DIMBLK2
  1

  9
$DIMSTYLE
  2
STANDARD
  9
$DIMCLRD
 70
     0
  9
$DIMCLRE
 70
     0
  9
$DIMCLRT
 70
     0
  9
$DIMTFAC
 40
0.125
  9
$DIMGAP
 40
0.5
  9
$DIMJUST
 70
     0
  9
$DIMSD1
 70
     0
  9
$DIMSD2
 70
     0
  9
$DIMTOLJ
 70
     1
  9
$DIMTZIN
 70
     0
  9
$DIMALTZ
 70
     2
  9
$DIMALTTZ
 70
     2
  9
$DIMUPT
 70
     1
  9
$DIMDEC
 70
     4
  9
$DIMTDEC
 70
     4
  9
$DIMALTU
 70
     2
  9
$DIMALTTD
 70
     0
  9
$DIMTXSTY
  7
STANDARD
  9
$DIMAUNIT
 70
     0
  9
$DIMADEC
 70
     0
  9
$DIMALTRND
 40
0.0
  9
$DIMAZIN
 70
     0
  9
$DIMDSEP
 70
    46
  9
$DIMATFIT
 70
     1
  9
$DIMFRAC
 70
     2
  9
$DIMLDRBLK
  1

  9
$DIMLUNIT
 70
     5
  9
$DIMLWD
 70
    -2
  9
$DIMLWE
 70
    -2
  9
$DIMTMOVE
 70
     1
  9
$LUNITS
 70
     5
  9
$LUPREC
 70
     4
  9
$SKETCHINC
 40
0.1
  9
$FILLETRAD
 40
0.0
  9
$AUNITS
 70
     0
  9
$AUPREC
 70
     1
  9
$MENU
  1
acad
  9
$ELEVATION
 40
0.0
  9
$PELEVATION
 40
0.0
  9
$THICKNESS
 40
0.0
  9
$LIMCHECK
 70
     0
  9
$CHAMFERA
 40
0.75
  9
$CHAMFERB
 40
0.75
  9
$CHAMFERC
 40
0.0
  9
$CHAMFERD
 40
0.0
  9
$SKPOLY
 70
     0
  9
$TDCREATE
 40
2451085.664838310
  9
$TDUCREATE
 40
2451085.831504977
  9
$TDUPDATE
 40
2451660.595061111
  9
$TDUUPDATE
 40
2451660.761727778
  9
$TDINDWG
 40
2.4474099537
  9
$TDUSRTIMER
 40
2.4474099537
  9
$USRTIMER
 70
     1
  9
$ANGBASE
 50
0.0
  9
$ANGDIR
 70
     0
  9
$PDMODE
 70
     0
  9
$PDSIZE
 40
0.0
  9
$PLINEWID
 40
0.0
  9
$SPLFRAME
 70
     0
  9
$SPLINETYPE
 70
     6
  9
$SPLINESEGS
 70
     8
  9
$HANDSEED
  5
CD3
  9
$SURFTAB1
 70
     6
  9
$SURFTAB2
 70
     6
  9
$SURFTYPE
 70
     6
  9
$SURFU
 70
     6
  9
$SURFV
 70
     6
  9
$UCSBASE
  2

  9
$UCSNAME
  2

  9
$UCSORG
 10
0.0
 20
0.0
 30
0.0
  9
$UCSXDIR
 10
1.0
 20
0.0
 30
0.0
  9
$UCSYDIR
 10
0.0
 20
1.0
 30
0.0
  9
$UCSORTHOREF
  2

  9
$UCSORTHOVIEW
 70
     0
  9
$UCSORGTOP
 10
0.0
 20
0.0
 30
0.0
  9
$UCSORGBOTTOM
 10
0.0
 20
0.0
 30
0.0
  9
$UCSORGLEFT
 10
0.0
 20
0.0
 30
0.0
  9
$UCSORGRIGHT
 10
0.0
 20
0.0
 30
0.0
  9
$UCSORGFRONT
 10
0.0
 20
0.0
 30
0.0
  9
$UCSORGBACK
 10
0.0
 20
0.0
 30
0.0
  9
$PUCSBASE
  2

  9
$PUCSNAME
  2

  9
$PUCSORG
 10
0.0
 20
0.0
 30
0.0
  9
$PUCSXDIR
 10
1.0
 20
0.0
 30
0.0
  9
$PUCSYDIR
 10
0.0
 20
1.0
 30
0.0
  9
$PUCSORTHOREF
  2

  9
$PUCSORTHOVIEW
 70
     0
  9
$PUCSORGTOP
 10
0.0
 20
0.0
 30
0.0
  9
$PUCSORGBOTTOM
 10
0.0
 20
0.0
 30
0.0
  9
$PUCSORGLEFT
 10
0.0
 20
0.0
 30
0.0
  9
$PUCSORGRIGHT
 10
0.0
 20
0.0
 30
0.0
  9
$PUCSORGFRONT
 10
0.0
 20
0.0
 30
0.0
  9
$PUCSORGBACK
 10
0.0
 20
0.0
 30
0.0
  9
$USERI1
 70
     0
  9
$USERI2
 70
     0
  9
$USERI3
 70
     0
  9
$USERI4
 70
     0
  9
$USERI5
 70
     0
  9
$USERR1
 40
0.0
  9
$USERR2
 40
0.0
  9
$USERR3
 40
0.0
  9
$USERR4
 40
0.0
  9
$USERR5
 40
0.0
  9
$WORLDVIEW
 70
     1
  9
$SHADEDGE
 70
     1
  9
$SHADEDIF
 70
    70
  9
$TILEMODE
 70
     1
  9
$MAXACTVP
 70
    16
  9
$PINSBASE
 10
0.0
 20
0.0
 30
0.0
  9
$PLIMCHECK
 70
     0
  9
$PEXTMIN
 10
1.000000000000000E+20
 20
1.000000000000000E+20
 30
1.000000000000000E+20
  9
$PEXTMAX
 10
-1.000000000000000E+20
 20
-1.000000000000000E+20
 30
-1.000000000000000E+20
  9
$PLIMMIN
 10
0.0
 20
0.0
  9
$PLIMMAX
 10
12.0
 20
9.0
  9
$UNITMODE
 70
     0
  9
$VISRETAIN
 70
     0
  9
$PLINEGEN
 70
     0
  9
$PSLTSCALE
 70
     1
  9
$TREEDEPTH
 70
  3020
  9
$CMLSTYLE
  2
STANDARD
  9
$CMLJUST
 70
     0
  9
$CMLSCALE
 40
1.0
  9
$PROXYGRAPHICS
 70
     1
  9
$MEASUREMENT
 70
     0
  9
$CELWEIGHT
370
    -1
  9
$ENDCAPS
280
     0
  9
$JOINSTYLE
280
     0
  9
$LWDISPLAY
290
     0
  9
$INSUNITS
 70
     0
  9
$HYPERLINKBASE
  1

  9
$STYLESHEET
  1

  9
$XEDIT
290
     1
  9
$CEPSNTYPE
380
     0
  9
$PSTYLEMODE
290
     1
  9
$FINGERPRINTGUID
  2
{A6232B84-9B2E-11D3-8DA4-00A0C981A35F}
  9
$VERSIONGUID
  2
{8868A52E-19C8-11D4-8DA4-00A0C981A35F}
  9
$EXTNAMES
290
     1
  9
$PSVPSCALE
 40
0.0
  9
$OLESTARTUP
290
     0
  0
ENDSEC
  0
SECTION
  2
CLASSES
  0
CLASS
  1
DICTIONARYVAR
  2
AcDbDictionaryVar
  3
AutoCAD 2000
 90
    32768
280
     0
281
     0
  0
CLASS
  1
LWPOLYLINE
  2
AcDbPolyline
  3
AutoCAD 2000
 90
    32768
280
     0
281
     1
  0
CLASS
  1
RASTERVARIABLES
  2
AcDbRasterVariables
  3
ISM
 90
    32768
280
     0
281
     0
  0
CLASS
  1
ACDBDICTIONARYWDFLT
  2
AcDbDictionaryWithDefault
  3
AutoCAD 2000
 90
        0
280
     0
281
     0
  0
CLASS
  1
ACDBPLACEHOLDER
  2
AcDbPlaceHolder
  3
AutoCAD 2000
 90
        0
280
     0
281
     0
  0
CLASS
  1
LAYOUT
  2
AcDbLayout
  3
AutoCAD 2000
 90
        0
280
     0
281
     0
  0
CLASS
  1
ACME_DOCUMENT
  2
AcMeDbDoc
  3
AcMeServices
 90
    32768
280
     1
281
     0
  0
CLASS
  1
ACMESCOPE
  2
AcMeScope
  3
AcMeServices
 90
    32768
280
     1
281
     0
  0
CLASS
  1
ACMECOMMANDHISTORY
  2
AcMeCommandHistory
  3
AcMeServices
 90
    32768
280
     1
281
     0
  0
CLASS
  1
ACIMSYSVARMAN
  2
AcImSysVarManager
  3
AcMeServices
 90
    32768
280
     1
281
     0
  0
CLASS
  1
ACIMREALSYSVAR
  2
AcImRealSysVar
  3
AcMeServices
 90
    32768
280
     1
281
     0
  0
CLASS
  1
ACIMINTSYSVAR
  2
AcImIntSysVar
  3
AcMeServices
 90
    32768
280
     1
281
     0
  0
CLASS
  1
ACMEDRAWINGMAN
  2
AcMeDrawingMan
  3
AcMeServices
 90
    32768
280
     1
281
     0
  0
CLASS
  1
ACMEVIEW
  2
AcMeView
  3
AcMeServices
 90
    32768
280
     1
281
     0
  0
CLASS
  1
ACDBENTITYCACHE
  2
AcMeEntityCache
  3
AcMeServices
 90
    32768
280
     1
281
     0
  0
CLASS
  1
GSMANAGER
  2
AcMeGSManager
  3
AcMeServices
 90
    32768
280
     1
281
     0
  0
CLASS
  1
AmdtInternalReactor
  2
AmdtInternalReactor
  3
AcMeServices
 90
    32768
280
     1
281
     0
  0
CLASS
  1
ACMESTATEMGR
  2
AcMeStateMgr
  3
AcMeServices
 90
    32768
280
     1
281
     0
  0
CLASS
  1
ACGREFMASTER
  2
AcGrefMaster
  3
AcAttribServices
 90
    32768
280
     1
281
     0
  0
CLASS
  1
AM_DRAWING_MGR
  2
AcDmDwgMgr
  3
AcMechDwgViewMgmt
 90
    32768
280
     1
281
     0
  0
CLASS
  1
AM_DWG_DOCUMENT
  2
AcDmDwgDocument
  3
AcMechDwgViewMgmt
 90
    32768
280
     1
281
     0
  0
CLASS
  1
AM_DWG_SHEET
  2
AcDmSheet
  3
AcMechDwgViewMgmt
 90
    32768
280
     1
281
     0
  0
CLASS
  1
AM_VIEWDIMPARMAP
  2
AcDmViewDimParMap
  3
AcMechDwgViewMgmt
 90
    32768
280
     1
281
     0
  0
CLASS
  1
AM_DWGMGR_NAME
  2
AcDmDwgMgrName
  3
AcMechDwgViewMgmt
 90
    32768
280
     1
281
     0
  0
CLASS
  1
ACME_DATABASE
  2
AcMeDbDatabase
  3
AcMeServices
 90
    32768
280
     1
281
     0
  0
CLASS
  1
ACRFINSADJUSTERMGR
  2
AcRfInsAdjusterMgr
  3
AcMeServices
 90
    32768
280
     1
281
     0
  0
CLASS
  1
ACGREFMASTER
  2
AcGrefacadMaster
  3
AcGrefServices
 90
    32768
280
     1
281
     0
  0
CLASS
  1
AMDTMENUSTATEMGR
  2
AmdtMenuStateMgr
  3
McadcomServices
 90
    32768
280
     1
281
     0
  0
CLASS
  1
AMDTMCOMMENUSTATE
  2
AmdtMcomMenuState
  3
McadcomServices
 90
    32768
280
     1
281
     0
  0
CLASS
  1
ASAPP
  2
AcAsAppObject
  3
AutoSurfServices
 90
    32768
280
     1
281
     0
  0
CLASS
  1
IM_STATIC_MAN
  2
AcImStaticVarManager
  3
AcMeServices
 90
    32768
280
     1
281
     0
  0
CLASS
  1
ACIMSTRSYSVAR
  2
AcImStrSysVar
  3
AcMeServices
 90
    32768
280
     1
281
     0
  0
CLASS
  1
ACIMDBLSTATICVAR
  2
AcImDblStaticVar
  3
AcMeServices
 90
    32768
280
     1
281
     0
  0
CLASS
  1
ACIMSTRSTATICVAR
  2
AcImStrStaticVar
  3
AcMeServices
 90
    32768
280
     1
281
     0
  0
CLASS
  1
ACIMINTSTATICVAR
  2
AcImIntStaticVar
  3
AcMeServices
 90
    32768
280
     1
281
     0
  0
CLASS
  1
ACADGREFMODULE
  2
AcAdGrefModule
  3
AdGrefServices
 90
    32768
280
     1
281
     0
  0
CLASS
  1
AMIMASTER
  2
AmiMaster
  3
AmiServices
 90
    32768
280
     1
281
     0
  0
CLASS
  1
ACASGREFMASTER
  2
AcAsGrefMaster
  3
AutoSurfResolverServices
 90
    32768
280
     1
281
     0
  0
CLASS
  1
MAPIAMMOUDLE
  2
MApiAmModule
  3
MApiAmServices
 90
    32768
280
     1
281
     0
  0
CLASS
  1
AMDTDMMENUSTATE
  2
AmdtDmMenuState
  3
AcMechDwgViewMgmt
 90
    32768
280
     1
281
     0
  0
CLASS
  1
AMDTADMENUSTATE
  2
AmdtAdMenuState
  3
DesignerServices
 90
    32768
280
     1
281
     0
  0
CLASS
  1
ADAPPL
  2
AcAdAppl
  3
DesignerServices
 90
    32768
280
     1
281
     0
  0
CLASS
  1
DEPMGR
  2
AcAdDepMgr
  3
DesignerServices
 90
    32768
280
     1
281
     0
  0
CLASS
  1
PARAMMGR
  2
AcAdParamMgr
  3
DesignerServices
 90
    32768
280
     1
281
     0
  0
CLASS
  1
PARAMSCOPE
  2
AcAdParamScope
  3
DesignerServices
 90
    32768
280
     1
281
     0
  0
CLASS
  1
NAMEDAPPL
  2
AcAdNamedAppl
  3
DesignerServices
 90
    32768
280
     1
281
     0
  0
CLASS
  1
ADHNTMPLT
  2
AdHoleNoteTemplateMgr
  3
DesignerServices
 90
    32768
280
     1
281
     0
  0
CLASS
  1
AM_HNTEMPLATE_MGR_NAME
  2
AdHoleNoteTemplateMgrName
  3
DesignerServices
 90
    32768
280
     1
281
     0
  0
CLASS
  1
AMDTAMMENUSTATE
  2
AmdtAmMenuState
  3
DesignerAssemblies
 90
    32768
280
     1
281
     0
  0
CLASS
  1
ACAMPROJECT
  2
AcAmProject
  3
DesignerAssemblies
 90
    32768
280
     1
281
     0
  0
CLASS
  1
ACAMGRCOMPDEF
  2
AcAmGrCompDef
  3
DesignerAssemblies
 90
    32768
280
     1
281
     0
  0
CLASS
  1
ACCMCONTEXT
  2
AcCmContext
  3
DesignerAssemblies
 90
    32768
280
     1
281
     0
  0
CLASS
  1
ACAMCOMPDEF
  2
AcAmCompDef
  3
DesignerAssemblies
 90
    32768
280
     1
281
     0
  0
CLASS
  1
ACAMCOMPDEFMGR
  2
AcAmCompDefMgr
  3
DesignerAssemblies
 90
    32768
280
     1
281
     0
  0
CLASS
  1
AMCONTEXTMGR
  2
AcAmContextMgr
  3
DesignerAssemblies
 90
    32768
280
     1
281
     0
  0
CLASS
  1
ACAMCONTEXTMODELER
  2
AcAmContextModeler
  3
DesignerAssemblies
 90
    32768
280
     1
281
     0
  0
CLASS
  1
MAPIADMODULE
  2
MApiAdModule
  3
MApiAdServices
 90
    32768
280
     1
281
     0
  0
CLASS
  1
ACMDATADICTIONARY
  2
AcmDataDictionary
  3
"AcmSymBB|Product Description: AutoCAD Mechanical 2000|Company: Autodesk"
 90
    32768
280
     1
281
     0
  0
CLASS
  1
ACMDATAENTRYBLOCK
  2
AcmDataEntryBlock
  3
"AcmSymBB|Product Description: AutoCAD Mechanical 2000|Company: Autodesk"
 90
    32768
280
     1
281
     0
  0
CLASS
  1
AMDTBROWSERDBTAB
  2
AmdtBrowserDbTab
  3
McadcomServices
 90
    32768
280
     1
281
     0
  0
CLASS
  1
CBROWSERAPPOBJECT
  2
CBrowserAppObject
  3
McadcomServices
 90
    32768
280
     1
281
     0
  0
CLASS
  1
DM_PLACEHOLDER
  2
AcDmSelsetPlaceholder
  3
AcMechDwgViewMgmt
 90
    32768
280
     1
281
     0
  0
CLASS
  1
CATALOGSTATE
  2
AcAmCatalogState
  3
DesignerAssemblies
 90
    32768
280
     1
281
     0
  0
CLASS
  1
ACAMGRCOMPDEFSET
  2
AcAmGrCompDefSet
  3
DesignerAssemblies
 90
    32768
280
     1
281
     0
  0
CLASS
  1
AMGOBJPROPCFG
  2
AmgObjPropCfg
  3
"AmgLay|Product Description: AutoCAD Mechanical 2000|Company: Autodesk"
 90
    32769
280
     1
281
     0
  0
CLASS
  1
LAYER_INDEX
  2
AcDbLayerIndex
  3
AutoCAD 2000
 90
    32768
280
     0
281
     0
  0
CLASS
  1
IDBUFFER
  2
AcDbIdBuffer
  3
AutoCAD 2000
 90
    32768
280
     0
281
     0
  0
CLASS
  1
ACRFATTGENMGR
  2
AcRfAttGeneralMgr
  3
AcAttribServices
 90
    32768
280
     1
281
     0
  0
CLASS
  1
PLOTSETTINGS
  2
AcDbPlotSettings
  3
AutoCAD 2000
 90
    32768
280
     0
281
     0
  0
CLASS
  1
LONG_TRANSACTION
  2
AcDbLongTransaction
  3
AutoCAD 2000
 90
    32768
280
     0
281
     0
  0
CLASS
  1
LWPOLYLINE
  2
AcDbPolyline
  3
AutoCAD 2000
 90
    32768
280
     0
281
     1
  0
CLASS
  1
HATCH
  2
AcDbHatch
  3
AutoCAD 2000
 90
    32768
280
     0
281
     1
  0
CLASS
  1
XRECORD
  2
AcDbXrecord
  3
AutoCAD 2000
 90
    32768
280
     0
281
     0
  0
CLASS
  1
LONG_TRANSACTION
  2
AcDbLongTransaction
  3
AutoCAD 2000
 90
    32768
280
     0
281
     0
  0
CLASS
  1
LWPOLYLINE
  2
AcDbPolyline
  3
AutoCAD 2000
 90
    32768
280
     0
281
     1
  0
CLASS
  1
HATCH
  2
AcDbHatch
  3
AutoCAD 2000
 90
    32768
280
     0
281
     1
  0
CLASS
  1
XRECORD
  2
AcDbXrecord
  3
AutoCAD 2000
 90
    32768
280
     0
281
     0
  0
ENDSEC
  0
SECTION
  2
TABLES
  0
TABLE
  2
VPORT
  5
1B
330
0
100
AcDbSymbolTable
 70
     2
  0
VPORT
  5
CD2
330
1B
100
AcDbSymbolTableRecord
100
AcDbViewportTableRecord
  2
*Active
 70
     0
 10
0.0
 20
0.0
 11
1.0
 21
1.0
 12
574.2067130478644
 22
62.41467624475332
 13
0.0
 23
0.0
 14
1.0
 24
1.0
 15
0.0
 25
0.0
 16
0.0
 26
0.0
 36
1.0
 17
-64.46234487877643
 27
33.0238264231553
 37
6.148717398612387
 40
61.57395473547888
 41
1.413068844807467
 42
50.0
 43
-6.148717398612387
 44
-6.148717398612387
 50
0.0
 51
0.0
 71
     0
 72
 20000
 73
     1
 74
     1
 75
     0
 76
     0
 77
     0
 78
     0
281
     0
 65
     1
110
0.0
120
0.0
130
0.0
111
1.0
121
0.0
131
0.0
112
0.0
122
1.0
132
0.0
 79
     0
146
0.0
  0
ENDTAB
  0
TABLE
  2
LTYPE
  5
16
330
0
100
AcDbSymbolTable
 70
     1
  0
LTYPE
  5
17
330
16
100
AcDbSymbolTableRecord
100
AcDbLinetypeTableRecord
  2
BYBLOCK
 70
     0
  3

 72
    65
 73
     0
 40
0.0
  0
LTYPE
  5
18
330
16
100
AcDbSymbolTableRecord
100
AcDbLinetypeTableRecord
  2
BYLAYER
 70
     0
  3

 72
    65
 73
     0
 40
0.0
  0
LTYPE
  5
9
330
16
100
AcDbSymbolTableRecord
100
AcDbLinetypeTableRecord
  2
CONTINUOUS
 70
     0
  3
Solid line
 72
    65
 73
     0
 40
0.0
  0
ENDTAB
  0
TABLE
  2
LAYER
  5
11
330
0
100
AcDbSymbolTable
 70
     4
  0
LAYER
  5
5
330
11
100
AcDbSymbolTableRecord
100
AcDbLayerTableRecord
  2
0
 70
     0
 62
     7
  6
CONTINUOUS
370
    -3
390
6
  0
LAYER
  5
24
330
11
100
AcDbSymbolTableRecord
100
AcDbLayerTableRecord
  2
A1
 70
     0
 62
     7
  6
CONTINUOUS
370
    -3
390
6
  0
LAYER
  5
59D
330
11
100
AcDbSymbolTableRecord
100
AcDbLayerTableRecord
  2
LINEWORK
 70
     0
 62
    41
  6
CONTINUOUS
370
    -3
390
6
  0
LAYER
  5
59E
330
11
100
AcDbSymbolTableRecord
100
AcDbLayerTableRecord
  2
DEFPOINTS
 70
     0
 62
     7
  6
CONTINUOUS
290
     0
370
    -3
390
6
  0
ENDTAB
  0
TABLE
  2
STYLE
  5
12
330
0
100
AcDbSymbolTable
 70
     3
  0
STYLE
  5
13
330
12
100
AcDbSymbolTableRecord
100
AcDbTextStyleTableRecord
  2
STANDARD
 70
     0
 40
0.0
 41
1.0
 50
0.0
 71
     0
 42
2.0
  3
unvr55w.ttf
  4

1001
ACAD
1000
Univers
1071
       34
  0
STYLE
  5
5A0
330
12
100
AcDbSymbolTableRecord
100
AcDbTextStyleTableRecord
  2
ROMANC
 70
     0
 40
0.0
 41
1.0
 50
0.0
 71
     0
 42
0.5
  3
TIMESBD.TTF
  4

1001
ACAD
1000
Times New Roman
1071
 33554450
  0
STYLE
  5
5A1
330
12
100
AcDbSymbolTableRecord
100
AcDbTextStyleTableRecord
  2
barcoder
 70
     0
 40
0.0
 41
1.0
 50
0.0
 71
     0
 42
4.5625
  3
cw_barcd.ttf
  4

1001
ACAD
1000
Barcoder
1071
 33554434
  0
ENDTAB
  0
TABLE
  2
VIEW
  5
19
330
0
100
AcDbSymbolTable
 70
     0
  0
ENDTAB
  0
TABLE
  2
UCS
  5
1A
330
0
100
AcDbSymbolTable
 70
     0
  0
ENDTAB
  0
TABLE
  2
APPID
  5
1D
330
0
100
AcDbSymbolTable
 70
     2
  0
APPID
  5
14
330
1D
100
AcDbSymbolTableRecord
100
AcDbRegAppTableRecord
  2
ACAD
 70
     0
  0
APPID
  5
5E3
330
1D
100
AcDbSymbolTableRecord
100
AcDbRegAppTableRecord
  2
DCO15
 70
     0
  0
ENDTAB
  0
TABLE
  2
DIMSTYLE
  5
1E
330
0
100
AcDbSymbolTable
 70
     1
100
AcDbDimStyleTable
 71
     0
  0
DIMSTYLE
105
1F
102
{ACAD_REACTORS
330
A9C
330
AAA
330
AEB
330
B97
330
BA5
330
BB3
102
}
330
1E
100
AcDbSymbolTableRecord
100
AcDbDimStyleTableRecord
  2
STANDARD
 70
     0
  3
"
 41
0.5
 42
1.0
 43
0.0625
 44
0.25
 73
     0
 74
     0
 77
     3
140
1.0
141
0.0
146
0.125
147
0.125
171
     0
274
     0
276
     2
277
     5
285
     2
286
     2
289
     0
340
13
  0
ENDTAB
  0
TABLE
  2
BLOCK_RECORD
  5
1
330
0
100
AcDbSymbolTable
 70
    11
  0
BLOCK_RECORD
  5
2
102
{ACAD_XDICTIONARY
360
3
102
}
330
1
100
AcDbSymbolTableRecord
100
AcDbBlockTableRecord
  2
*MODEL_SPACE
340
B
  0
BLOCK_RECORD
  5
D
102
{ACAD_XDICTIONARY
360
C0B
102
}
330
1
100
AcDbSymbolTableRecord
100
AcDbBlockTableRecord
  2
*PAPER_SPACE
340
10
  0
BLOCK_RECORD
  5
29
330
1
100
AcDbSymbolTableRecord
100
AcDbBlockTableRecord
  2
PROFILE LOGO
340
0
102
{BLKREFS
331
27
331
A89
331
A7B
102
}
  0
BLOCK_RECORD
  5
313
330
1
100
AcDbSymbolTableRecord
100
AcDbBlockTableRecord
  2
SCF
340
0
102
{BLKREFS
331
5A3
102
}
  0
BLOCK_RECORD
  5
5A2
330
1
100
AcDbSymbolTableRecord
100
AcDbBlockTableRecord
  2
TSFORMA
340
0
  0
BLOCK_RECORD
  5
A74
330
1
100
AcDbSymbolTableRecord
100
AcDbBlockTableRecord
  2
TS4203
340
0
  0
BLOCK_RECORD
  5
A9D
330
1
100
AcDbSymbolTableRecord
100
AcDbBlockTableRecord
  2
*D4
340
0
  0
BLOCK_RECORD
  5
AAB
330
1
100
AcDbSymbolTableRecord
100
AcDbBlockTableRecord
  2
*D5
340
0
  0
BLOCK_RECORD
  5
AEC
330
1
100
AcDbSymbolTableRecord
100
AcDbBlockTableRecord
  2
*D6
340
0
  0
BLOCK_RECORD
  5
AFE
330
1
100
AcDbSymbolTableRecord
100
AcDbBlockTableRecord
  2
TSFORMB
340
0
102
{BLKREFS
331
B31
102
}
  0
BLOCK_RECORD
  5
B98
330
1
100
AcDbSymbolTableRecord
100
AcDbBlockTableRecord
  2
*D8
340
0
  0
BLOCK_RECORD
  5
BA6
330
1
100
AcDbSymbolTableRecord
100
AcDbBlockTableRecord
  2
*D9
340
0
  0
BLOCK_RECORD
  5
BB4
330
1
100
AcDbSymbolTableRecord
100
AcDbBlockTableRecord
  2
*D10
340
0
  0
ENDTAB
  0
ENDSEC
  0
SECTION
  2
BLOCKS
  0
BLOCK
  5
4
330
2
100
AcDbEntity
  8
0
100
AcDbBlockBegin
  2
*MODEL_SPACE
 70
     2
 10
0.0
 20
0.0
 30
0.0
  3
*MODEL_SPACE
  1

  0
ENDBLK
  5
A
330
2
100
AcDbEntity
  8
0
100
AcDbBlockEnd
  0
BLOCK
  5
E
330
D
100
AcDbEntity
 67
     1
  8
0
100
AcDbBlockBegin
  2
*PAPER_SPACE
 70
     0
 10
0.0
 20
0.0
 30
0.0
  3
*PAPER_SPACE
  1

  0
ENDBLK
  5
F
330
D
100
AcDbEntity
 67
     1
  8
0
100
AcDbBlockEnd
  0
BLOCK
  5
42
330
29
100
AcDbEntity
  8
0
 62
     7
100
AcDbBlockBegin
  2
PROFILE LOGO
 70
     2
 10
0.0
 20
0.0
 30
0.0
  3
PROFILE LOGO
  1

  0
LINE
  5
2A
330
29
100
AcDbEntity
  8
0
 62
    22
100
AcDbLine
 10
0.7459516636765642
 20
-0.415894330395318
 30
0.0
 11
0.74595166367655
 21
-1.12746688439163
 31
0.0
  0
LINE
  5
2B
330
29
100
AcDbEntity
  8
0
 62
    22
100
AcDbLine
 10
0.5841942848079072
 20
-0.415894330395318
 30
0.0
 11
0.5841942848079072
 21
-1.12746688439163
 31
0.0
  0
HATCH
  5
2C
330
29
100
AcDbEntity
  8
0
 62
    22
100
AcDbHatch
 10
0.0
 20
0.0
 30
0.0
210
0.0
220
0.0
230
1.0
  2
LINE
 70
     0
 71
     0
 91
        1
 92
       33
 93
       38
 72
     1
 10
1.115683196411978
 20
-0.1706330859717084
 11
0.2177636962628071
 21
-0.1706330859717084
 72
     1
 10
0.2177636962628213
 20
-0.1706330859717084
 11
0.2078601968792952
 21
-0.4246889457533243
 72
     1
 10
0.2078601968792952
 20
-0.4246889457533243
 11
0.2375709173007294
 21
-0.4246889457533243
 72
     1
 10
0.2375709173007294
 20
-0.4246889457533243
 11
0.2441732502230991
 21
-0.3817964654080939
 72
     1
 10
0.2441732502230991
 20
-0.3817964654080939
 11
0.254076749606611
 21
-0.3422032805409501
 72
     1
 10
0.2540767496066252
 20
-0.3422032805409501
 11
0.2738837483736916
 21
-0.3092090964125091
 72
     1
 10
0.2738837483736916
 20
-0.3092090964125091
 11
0.2969919136019428
 21
-0.2861130719066693
 72
     1
 10
0.296991913601957
 20
-0.2861130719066764
 11
0.3267026340234338
 21
-0.2663164794731259
 72
     1
 10
0.3267026340234196
 20
-0.2663164794731259
 11
0.356413132174012
 21
-0.2498193191118219
 72
     1
 10
0.356413132174012
 20
-0.2498193191118148
 11
0.3828224638634481
 21
-0.243220591561446
 72
     1
 10
0.3828224638634623
 20
-0.243220591561446
 11
0.4092320178237401
 21
-0.243220591561446
 72
     1
 10
0.4092320178237401
 20
-0.243220591561446
 11
0.4719541805861525
 21
-0.2465198870395469
 72
     1
 10
0.4719541805861525
 20
-0.2465198870395469
 11
0.514869566852326
 21
-0.2729153436176332
 72
     1
 10
0.514869566852326
 20
-0.2729153436176332
 11
0.5742905631535394
 21
-0.3389038484686964
 72
     1
 10
0.5742905631535394
 20
-0.3389038484687106
 11
0.5907966177302626
 21
-0.3916947616248691
 72
     1
 10
0.5907966177302768
 20
-0.3916947616248691
 11
0.5907966177302768
 21
-1.157161773041991
 72
     1
 10
0.5907966177302768
 20
-1.157161773041984
 11
0.5643870637699991
 21
-1.203353685459461
 72
     1
 10
0.5643870637699849
 20
-1.203353685459468
 11
0.4983637345463876
 21
-1.226449709965308
 72
     1
 10
0.4983637345464019
 20
-1.226449709965301
 11
0.4389425159743326
 21
-1.226449709965301
 72
     1
 10
0.4389425159743326
 20
-1.226449709965301
 11
0.4323401830519913
 21
-1.249545734471119
 72
     1
 10
0.4323401830520055
 20
-1.249545734471134
 11
0.8945045989712809
 21
-1.249545734471134
 72
     1
 10
0.8945045989712667
 20
-1.249545734471134
 11
0.8945045989712667
 21
-1.226449709965315
 72
     1
 10
0.8945045989712667
 20
-1.226449709965301
 11
0.8152763816321311
 21
-1.226449709965301
 72
     1
 10
0.8152763816321311
 20
-1.226449709965301
 11
0.7525539965988913
 21
-1.186856661692324
 72
     1
 10
0.7525539965988913
 20
-1.186856661692324
 11
0.7426504972153794
 21
-1.140664612680659
 72
     1
 10
0.7426504972153652
 20
-1.140664612680673
 11
0.7393493307541803
 21
-0.394994193697137
 72
     1
 10
0.7393493307541803
 20
-0.394994193697137
 11
0.7558551630600619
 21
-0.3389038484687106
 72
     1
 10
0.7558551630600761
 20
-0.3389038484687106
 11
0.7987705493262496
 21
-0.2828136398344298
 72
     1
 10
0.7987705493262496
 20
-0.2828136398344227
 11
0.8614929343594894
 21
-0.2498193191118148
 72
     1
 10
0.8614929343594894
 20
-0.2498193191118148
 11
0.9374197629665985
 21
-0.2399211594891923
 72
     1
 10
0.9374197629665985
 20
-0.2399211594891923
 11
1.010045647383407
 21
-0.2663164794731117
 72
     1
 10
1.010045647383407
 20
-0.2663164794731259
 11
1.056262200110722
 21
-0.3092090964125234
 72
     1
 10
1.056262200110722
 20
-0.3092090964125091
 11
1.085972698261343
 21
-0.361999872974522
 72
     1
 10
1.085972698261358
 20
-0.3619998729745291
 11
1.092575031183727
 21
-0.4246889457533243
 72
     1
 10
1.092575031183727
 20
-0.4246889457533243
 11
1.115683196411993
 21
-0.4246889457533243
 72
     1
 10
1.115683196411978
 20
-0.4246889457533243
 11
1.109080863489609
 21
-0.17723195011623
 72
     1
 10
1.109080863489609
 20
-0.17723195011623
 11
1.109080863489609
 21
-0.1739325180439621
 72
     1
 10
1.109080863489609
 20
-0.1739325180439621
 11
1.105779697028424
 21
-0.1739325180439621
 97
        0
 75
     0
 76
     1
 52
0.0
 41
0.078125
 77
     0
 78
     1
 53
0.0
 43
-28.182772630023
 44
-32.9923404580304
 45
0.0
 46
0.009765625
 79
     0
 98
        1
 10
-28.182772630023
 20
-32.9923404580304
  0
LWPOLYLINE
  5
2D
330
29
100
AcDbEntity
  8
0
 62
    22
100
AcDbPolyline
 90
        4
 70
     1
 43
0.0
 10
0.0262955969727301
 20
-0.0287577800528069
 10
1.307151517972869
 20
-0.0287577800528069
 10
1.307151517972869
 20
-1.731261997456265
 10
0.0262955969727301
 20
-1.731261997456265
  0
LINE
  5
2E
330
29
100
AcDbEntity
  8
0
 62
    22
100
AcDbLine
 10
0.0262955969727443
 20
-1.4112176328236
 30
0.0
 11
1.307151517972869
 21
-1.4112176328236
 31
0.0
  0
ATTDEF
  5
2F
330
29
100
AcDbEntity
  8
A1
 62
    22
100
AcDbText
 10
0.6781304052809105
 20
-1.678298248906529
 30
0.0
 40
0.2126953125
  1

 72
     1
 11
0.6781304052809105
 21
-1.678298248906529
 31
0.0
100
AcDbAttributeDefinition
  3
ADD STONE MARKER
  2
XXXX
 70
     0
  0
LINE
  5
30
330
29
100
AcDbEntity
  8
0
 62
    22
100
AcDbLine
 10
0.7464576960363587
 20
-1.129021462591367
 30
0.0
 11
0.74595166367655
 21
-1.12746688439163
 31
0.0
  0
ARC
  5
31
330
29
100
AcDbEntity
  8
0
 62
    22
100
AcDbCircle
 10
0.8421255873066684
 20
-1.127299146756172
 30
0.0
 40
0.0956833935014068
100
AcDbArc
 50
181.0313885659746
 51
269.7936990713142
  0
LINE
  5
32
330
29
100
AcDbEntity
  8
0
 62
    22
100
AcDbLine
 10
0.9011069318936506
 20
-1.22315027789304
 30
0.0
 11
0.841781067510368
 21
-1.22315027789304
 31
0.0
  0
LINE
  5
33
330
29
100
AcDbEntity
  8
0
 62
    22
100
AcDbLine
 10
0.9011069318936506
 20
-1.256144598615648
 30
0.0
 11
0.9011069318936506
 21
-1.22315027789304
 31
0.0
  0
ARC
  5
34
330
29
100
AcDbEntity
  8
0
 62
    22
100
AcDbCircle
 10
0.4880203611777887
 20
-1.127299146756172
 30
0.0
 40
0.0956833935014068
100
AcDbArc
 50
270.2063009286848
 51
358.9686114340253
  0
LINE
  5
35
330
29
100
AcDbEntity
  8
0
 62
    22
100
AcDbLine
 10
0.4290390165908207
 20
-1.256144598615648
 30
0.0
 11
0.4290390165908207
 21
-1.22315027789304
 31
0.0
  0
LINE
  5
36
330
29
100
AcDbEntity
  8
0
 62
    22
100
AcDbLine
 10
0.4290390165908207
 20
-1.22315027789304
 30
0.0
 11
0.4883648809740891
 21
-1.22315027789304
 31
0.0
  0
LINE
  5
37
330
29
100
AcDbEntity
  8
0
 62
    22
100
AcDbLine
 10
0.5836882524480984
 20
-1.129021462591367
 30
0.0
 11
0.5841942848079072
 21
-1.12746688439163
 31
0.0
  0
LINE
  5
38
330
29
100
AcDbEntity
  8
0
 62
    22
100
AcDbLine
 10
0.4290390165908207
 20
-1.256144598615648
 30
0.0
 11
0.9011069318936506
 21
-1.256144598615648
 31
0.0
  0
LINE
  5
39
330
29
100
AcDbEntity
  8
0
 62
    22
100
AcDbLine
 10
1.085512597630156
 20
-0.415894330395318
 30
0.0
 11
1.085512597630156
 21
-0.4280723832374847
 31
0.0
  0
ARC
  5
3A
330
29
100
AcDbEntity
  8
0
 62
    22
100
AcDbCircle
 10
0.9138550451562537
 20
-0.4147906495365632
 30
0.0
 40
0.1716611005230106
100
AcDbArc
 50
359.6316189828552
 51
90.00081606717127
  0
ARC
  5
3B
330
29
100
AcDbEntity
  8
0
 62
    22
100
AcDbCircle
 10
0.9180888683309831
 20
-0.4147906495365632
 30
0.0
 40
0.1716611005230106
100
AcDbArc
 50
89.99918393282873
 51
180.3683810171443
  0
LINE
  5
3C
330
29
100
AcDbEntity
  8
0
 62
    22
100
AcDbLine
 10
0.2078601968792952
 20
-0.427988377825578
 30
0.0
 11
0.2441732502230991
 21
-0.427988377825578
 31
0.0
  0
LINE
  5
3D
330
29
100
AcDbEntity
  8
0
 62
    22
100
AcDbLine
 10
0.2446333508543006
 20
-0.415894330395318
 30
0.0
 11
0.2446333508543006
 21
-0.4280723832374847
 31
0.0
  0
ARC
  5
3E
330
29
100
AcDbEntity
  8
0
 62
    22
100
AcDbCircle
 10
0.4162909033282176
 20
-0.4147906495365632
 30
0.0
 40
0.1716611005230106
100
AcDbArc
 50
89.99918393282873
 51
180.3683810171443
  0
LINE
  5
3F
330
29
100
AcDbEntity
  8
0
 62
    22
100
AcDbLine
 10
0.2144627520724782
 20
-0.1706330859717156
 30
0.0
 11
0.2078601968792952
 21
-0.427988377825578
 31
0.0
  0
ARC
  5
40
330
29
100
AcDbEntity
  8
0
 62
    22
100
AcDbCircle
 10
0.4120570801534882
 20
-0.4147906495365632
 30
0.0
 40
0.1716611005230106
100
AcDbArc
 50
359.6316189828552
 51
90.00081606717127
  0
LWPOLYLINE
  5
41
330
29
100
AcDbEntity
  8
0
 62
    22
100
AcDbPolyline
 90
        4
 70
     0
 43
0.0
 10
0.224366029185191
 20
-0.1706330859717084
 10
1.115683196411978
 20
-0.1706330859717084
 10
1.122285751605161
 20
-0.427988377825578
 10
1.085972698261358
 20
-0.427988377825578
  0
ENDBLK
  5
43
330
29
100
AcDbEntity
  8
0
 62
     7
100
AcDbBlockEnd
  0
BLOCK
  5
314
330
313
100
AcDbEntity
  8
0
 62
     7
100
AcDbBlockBegin
  2
SCF
 70
     0
 10
0.0
 20
0.0
 30
0.0
  3
SCF
  1

  0
ENDBLK
  5
315
330
313
100
AcDbEntity
  8
0
 62
     7
100
AcDbBlockEnd
  0
BLOCK
  5
5D5
330
5A2
100
AcDbEntity
  8
0
 62
     7
100
AcDbBlockBegin
  2
TSFORMA
 70
     2
 10
0.0
 20
0.0
 30
0.0
  3
TSFORMA
  1

  0
INSERT
  5
5A3
330
5A2
100
AcDbEntity
  8
A1
 62
     7
100
AcDbBlockReference
  2
SCF
 10
0.0
 20
0.0
 30
0.0
  0
LINE
  5
5A4
330
5A2
100
AcDbEntity
  8
0
 62
     7
100
AcDbLine
 10
33.85359849505566
 20
6.139911809868134
 30
0.0
 11
15.45863081043479
 21
6.139911809868134
 31
0.0
  0
LINE
  5
5A5
330
5A2
100
AcDbEntity
  8
0
 62
     7
100
AcDbLine
 10
33.85359849505566
 20
1.705154898157314
 30
0.0
 11
15.45863081043479
 21
1.705154898157314
 31
0.0
  0
LINE
  5
5A6
330
5A2
100
AcDbEntity
  8
0
 62
     7
100
AcDbLine
 10
33.85359849505566
 20
2.829459360019779
 30
0.0
 11
15.45863081043479
 21
2.829459360019779
 31
0.0
  0
LINE
  5
5A7
330
5A2
100
AcDbEntity
  8
0
100
AcDbLine
 10
15.45863081043479
 20
7.419467812060279
 30
0.0
 11
63.0907971953311
 21
7.419467812060275
 31
0.0
  0
LINE
  5
5A8
330
5A2
100
AcDbEntity
  8
0
100
AcDbLine
 10
0.0
 20
0.0
 30
0.0
 11
63.0907971953311
 21
0.0
 31
0.0
  0
LINE
  5
5A9
330
5A2
100
AcDbEntity
  8
0
100
AcDbLine
 10
0.0
 20
46.93339791359997
 30
0.0
 11
0.0
 21
0.0
 31
0.0
  0
ATTDEF
  5
5AA
330
5A2
100
AcDbEntity
  8
A1
 62
     1
100
AcDbText
 10
12.82959661403713
 20
1.116082561967672
 30
0.0
 40
0.5
  1

 72
     2
 11
12.82959661403713
 21
1.116082561967672
 31
0.0
100
AcDbAttributeDefinition
  3
ADD BARCODE TEXT
  2
XXXXXX
 70
     0
  0
ATTDEF
  5
5AB
330
5A2
100
AcDbEntity
  8
A1
 62
     1
100
AcDbText
 10
7.602187176088335
 20
1.863125907903508
 30
0.0
 40
4.5625
  1

  7
barcoder
 72
     1
 11
7.602187176088335
 21
1.863125907903508
 31
0.0
100
AcDbAttributeDefinition
  3
ADD BARCODE NUMBER
  2
BARCODE
 70
     0
  0
LINE
  5
5AC
330
5A2
100
AcDbEntity
  8
0
 62
     7
100
AcDbLine
 10
15.45863081043479
 20
7.419467812060279
 30
0.0
 11
0.0
 21
7.419467812060279
 31
0.0
  0
TEXT
  5
5AD
330
5A2
100
AcDbEntity
  8
0
 62
     7
100
AcDbText
 10
18.19366726416784
 20
4.860691571657334
 30
0.0
 40
0.625
  1
- Finished Side
100
AcDbText
  0
TEXT
  5
5AE
330
5A2
100
AcDbEntity
  8
0
 62
     7
100
AcDbText
 10
18.20026126845819
 20
3.503849832636042
 30
0.0
 40
0.625
  1
- Unfinished Side
100
AcDbText
  0
LINE
  5
5AF
330
5A2
100
AcDbEntity
  8
0
100
AcDbLine
 10
15.45863081043479
 20
0.0
 30
0.0
 11
15.45863081043479
 21
7.419467812060279
 31
0.0
  0
LINE
  5
5B0
330
5A2
100
AcDbEntity
  8
0
 62
     7
100
AcDbLine
 10
15.94519003511693
 20
5.088809590082902
 30
0.0
 11
17.45428617139502
 21
5.088809590082902
 31
0.0
  0
TEXT
  5
5B1
330
5A2
100
AcDbEntity
  8
0
 62
     7
100
AcDbText
 10
16.48339397174975
 20
3.663762155695707
 30
0.0
 40
0.00390625
  1
TANNERSTONE 0001 TANNERSTONE 0001 TANNERSTONE 0001 TANNERSTONE 0001 TANNERSTONE 0001 TANNERSTONE 0001 TANNERSTONE 0001
 72
     1
 11
16.69109656521183
 21
3.663762155695707
 31
0.0
100
AcDbText
  0
LINE
  5
5B2
330
5A2
100
AcDbEntity
  8
0
 62
     7
100
AcDbLine
 10
15.94519003511693
 20
3.814849102060051
 30
0.0
 11
17.45428617139502
 21
3.814849102060051
 31
0.0
  0
TEXT
  5
5B3
330
5A2
100
AcDbEntity
  8
0
 62
     7
100
AcDbText
 10
15.94386684512347
 20
3.663762155695707
 30
0.0
 40
0.00390625
  1
TANNERSTONE 0001 TANNERSTONE 0001 TANNERSTONE 0001 TANNERSTONE 0001 TANNERSTONE 0001 TANNERSTONE 0001 TANNERSTONE 0001
 72
     1
 11
16.15156943858555
 21
3.663762155695707
 31
0.0
100
AcDbText
  0
TEXT
  5
5B4
330
5A2
100
AcDbEntity
  8
0
 62
     7
100
AcDbText
 10
17.04152309512345
 20
3.663762155695707
 30
0.0
 40
0.00390625
  1
TANNERSTONE 0001 TANNERSTONE 0001 TANNERSTONE 0001 TANNERSTONE 0001 TANNERSTONE 0001 TANNERSTONE 0001 TANNERSTONE 0001
 72
     1
 11
17.24922568858554
 21
3.663762155695707
 31
0.0
100
AcDbText
  0
ATTDEF
  5
5B5
330
5A2
100
AcDbEntity
  8
A1
 62
     1
100
AcDbText
 10
24.55771846427264
 20
0.6162142197210088
 30
0.0
 40
0.7559999999999999
  1

 72
     1
 11
24.55771846427264
 21
0.6162142197210088
 31
0.0
100
AcDbAttributeDefinition
  3
ADD CATEGORY NAMES
  2
XXXXXX
 70
     0
  0
TEXT
  5
5B6
330
5A2
100
AcDbEntity
  8
0
 62
     7
100
AcDbText
 10
22.72809728616285
 20
2.02499953627948
 30
0.0
 40
0.5
  1
CATEGORY
 72
     1
 11
24.68840912174046
 21
2.02499953627948
 31
0.0
100
AcDbText
  0
TEXT
  5
5B7
330
5A2
100
AcDbEntity
  8
0
 62
     7
100
AcDbText
 10
23.38153703079662
 20
6.531576458849073
 30
0.0
 40
0.4812500000000001
  1
LEGEND
100
AcDbText
  0
LINE
  5
5B8
330
5A2
100
AcDbEntity
  8
0
100
AcDbLine
 10
63.0907971953311
 20
0.0
 30
0.0
 11
63.0907971953311
 21
46.93339791359997
 31
0.0
  0
LINE
  5
5B9
330
5A2
100
AcDbEntity
  8
0
100
AcDbLine
 10
33.85359849505567
 20
3.957609866513919
 30
0.0
 11
63.0907971953311
 21
3.957609866513919
 31
0.0
  0
TEXT
  5
5BA
330
5A2
100
AcDbEntity
  8
0
100
AcDbText
 10
34.42750303318053
 20
2.935195390265757
 30
0.0
 40
0.6616455005868908
  1
ARCHITECTURAL CONCRETE CO., INC.
 41
1.25
 72
     4
 11
45.64904120290566
 21
3.21678158665302
 31
0.0
100
AcDbText
  0
TEXT
  5
5BB
330
5A2
100
AcDbEntity
  8
0
100
AcDbText
 10
38.10554018840551
 20
0.4042122027146437
 30
0.0
 40
0.3900256199701639
  1
PHONE: 1-800-789-4841  FAX : 770-463-2635
 41
1.1875
 72
     4
 11
45.67456989459564
 21
0.5986721769520713
 31
0.0
100
AcDbText
  0
TEXT
  5
5BC
330
5A2
100
AcDbEntity
  8
0
 62
     7
100
AcDbText
 10
36.45030612377447
 20
4.701996929624826
 30
0.0
 40
2.12625
  1
TannerStone
  7
ROMANC
 72
     1
 11
45.19112937160684
 21
4.701996929624826
 31
0.0
100
AcDbText
  0
TEXT
  5
5BD
330
5A2
100
AcDbEntity
  8
0
100
AcDbText
 10
36.65024310726515
 20
1.16937112143105
 30
0.0
 40
0.3900256199701639
  1
http://TannerStone.com ~ Email:Sales@TannerStone.com 
 41
1.1875
 72
     4
 11
45.88298880572835
 21
1.344758262374401
 31
0.0
100
AcDbText
  0
TEXT
  5
5BE
330
5A2
100
AcDbEntity
  8
0
100
AcDbText
 10
35.70454469973866
 20
1.940811732856256
 30
0.0
 40
0.4458291441485832
  1
101 JOHNSTON CIRCLE, PALMETTO, GEORGIA 30268
 41
1.1875
 72
     4
 11
45.7449918415723
 21
2.130549791723176
 31
0.0
100
AcDbText
  0
LINE
  5
5BF
330
5A2
100
AcDbEntity
  8
0
100
AcDbLine
 10
33.85359849505567
 20
0.0
 30
0.0
 11
33.85359849505567
 21
7.419467812060275
 31
0.0
  0
LINE
  5
5C0
330
5A2
100
AcDbEntity
  8
0
 62
     7
100
AcDbLine
 10
45.8804728588951
 20
4.302323642481653
 30
0.0
 11
45.8804728588951
 21
4.302323642481653
 31
0.0
  0
ATTDEF
  5
5C1
330
5A2
100
AcDbEntity
  8
A1
 62
     1
100
AcDbText
 10
60.24601051143854
 20
5.923645198888223
 30
0.0
 40
0.703125
  1

 72
     1
 11
60.24601051143854
 21
5.923645198888223
 31
0.0
100
AcDbAttributeDefinition
  3
ADD PROFILE AREA
  2
XXXXX
 70
     0
  0
ATTDEF
  5
5C2
330
5A2
100
AcDbEntity
  8
A1
 62
     1
100
AcDbText
 10
60.22058858229524
 20
4.231165867870629
 30
0.0
 40
0.703125
  1

 72
     1
 11
60.22058858229524
 21
4.231165867870629
 31
0.0
100
AcDbAttributeDefinition
  3
ADD #/LF
  2
XXXXX
 70
     0
  0
LINE
  5
5C3
330
5A2
100
AcDbEntity
  8
0
 62
     7
100
AcDbLine
 10
57.40487304162906
 20
5.688538839287097
 30
0.0
 11
63.0907971953311
 21
5.688538839287097
 31
0.0
  0
TEXT
  5
5C4
330
5A2
100
AcDbEntity
  8
0
 62
     7
100
AcDbText
 10
57.54164024396835
 20
5.24603903326999
 30
0.0
 40
0.322265625
  1
LBS/LINEAR FEET:
100
AcDbText
  0
LINE
  5
5C5
330
5A2
100
AcDbEntity
  8
LINEWORK
 62
     7
100
AcDbLine
 10
57.38685446707747
 20
2.236847700541034
 30
0.0
 11
63.07277862077971
 21
2.236847700541161
 31
0.0
  0
TEXT
  5
5C6
330
5A2
100
AcDbEntity
  8
0
 62
     7
100
AcDbText
 10
58.84125519694314
 20
0.9074523356241925
 30
0.0
 40
0.5035400390625
  1
1-1-2000
100
AcDbText
  0
LINE
  5
5C7
330
5A2
100
AcDbEntity
  8
0
100
AcDbLine
 10
57.40487304162886
 20
0.0
 30
0.0
 11
57.40487304162911
 21
7.419467812060275
 31
0.0
  0
ARC
  5
5C8
330
5A2
100
AcDbEntity
  8
0
 62
     7
100
AcDbCircle
 10
54.77484357037856
 20
4.675407294753147
 30
0.0
 40
0.3475219186225837
100
AcDbArc
 50
304.840880646349
 51
297.5553548372075
  0
TEXT
  5
5C9
330
5A2
100
AcDbEntity
  8
0
 62
     7
100
AcDbText
 10
54.52366531937782
 20
4.457137162968933
 30
0.0
 40
0.46875
  1
R
  7
ROMANC
 72
     1
 11
54.77717642848187
 21
4.457137162968933
 31
0.0
100
AcDbText
  0
ARC
  5
5CA
330
5A2
100
AcDbEntity
  8
0
 62
     7
100
AcDbCircle
 10
54.77484357037857
 20
4.675407294753146
 30
0.0
 40
0.3475219186225785
100
AcDbArc
 50
297.5553548372066
 51
304.8408806463482
  0
TEXT
  5
5CB
330
5A2
100
AcDbEntity
  8
0
 62
     7
100
AcDbText
 10
57.55084577252738
 20
3.528313427430639
 30
0.0
 40
0.322265625
  1
SCALE:
100
AcDbText
  0
TEXT
  5
5CC
330
5A2
100
AcDbEntity
  8
0
 62
     7
100
AcDbText
 10
57.58427807884865
 20
1.77327934849093
 30
0.0
 40
0.322265625
  1
DATE:
100
AcDbText
  0
LINE
  5
5CD
330
5A2
100
AcDbEntity
  8
0
 62
     7
100
AcDbLine
 10
57.404873041629
 20
3.957609866513919
 30
0.0
 11
56.92061203641685
 21
3.957609866513919
 31
0.0
  0
TEXT
  5
5CE
330
5A2
100
AcDbEntity
  8
0
 62
     7
100
AcDbText
 10
60.17361351816539
 20
2.848114535947829
 30
0.0
 40
0.5035400390625
  1
1:1
100
AcDbText
  0
TEXT
  5
5CF
330
5A2
100
AcDbEntity
  8
0
 62
     7
100
AcDbText
 10
57.55965863864929
 20
6.943562340807453
 30
0.0
 40
0.322265625
  1
PROFILE AREA:
100
AcDbText
  0
ATTDEF
  5
5D0
330
5A2
100
AcDbEntity
  8
A1
 62
     1
100
AcDbText
 10
59.04934003701934
 20
43.69048591217159
 30
0.0
 40
1.2375
  1

 72
     1
 11
59.04934003701934
 21
43.69048591217159
 31
0.0
100
AcDbAttributeDefinition
  3
ADD PAGE NUMBER
  2
TS00XX
 70
     0
  0
LINE
  5
5D1
330
5A2
100
AcDbEntity
  8
0
100
AcDbLine
 10
63.0907971953311
 20
41.85161907700595
 30
0.0
 11
55.03498980215056
 21
41.85161907700595
 31
0.0
  0
LINE
  5
5D2
330
5A2
100
AcDbEntity
  8
0
100
AcDbLine
 10
55.03498980215056
 20
41.85161907700595
 30
0.0
 11
55.03498980215056
 21
46.93339791359997
 31
0.0
  0
LINE
  5
5D3
330
5A2
100
AcDbEntity
  8
0
100
AcDbLine
 10
63.0907971953311
 20
46.93339791359997
 30
0.0
 11
63.0907971953311
 21
41.85161907700595
 31
0.0
  0
LINE
  5
5D4
330
5A2
100
AcDbEntity
  8
0
100
AcDbLine
 10
63.0907971953311
 20
46.93339791359997
 30
0.0
 11
0.0
 21
46.93339791359997
 31
0.0
  0
ENDBLK
  5
5D6
330
5A2
100
AcDbEntity
  8
0
 62
     7
100
AcDbBlockEnd
  0
BLOCK
  5
A80
330
A74
100
AcDbEntity
  8
0
 62
     7
100
AcDbBlockBegin
  2
TS4203
 70
     0
 10
0.0
 20
0.0
 30
0.0
  3
TS4203
  1

  0
LWPOLYLINE
  5
A75
330
A74
100
AcDbEntity
  8
A1
 62
     7
100
AcDbPolyline
 90
        2
 70
     0
 43
0.12
 10
3.0
 20
7.375
 10
-3.000000000000227
 20
7.374999999999886
  0
LWPOLYLINE
  5
A76
330
A74
100
AcDbEntity
  8
A1
 62
     7
100
AcDbPolyline
 90
        2
 70
     0
 43
0.12
 10
2.999999999999886
 20
6.9375
 10
-3.000000000000113
 20
6.937499999999886
  0
LWPOLYLINE
  5
A77
330
A74
100
AcDbEntity
  8
A1
 62
     7
100
AcDbPolyline
 90
        2
 70
     0
 43
0.12
 10
4.999999999999886
 20
2.687499999999886
 10
-5.0
 20
2.687499999999772
  0
LWPOLYLINE
  5
A78
330
A74
100
AcDbEntity
  8
A1
 62
     7
100
AcDbPolyline
 90
        2
 70
     0
 43
0.12
 10
5.0
 20
2.0
 10
-5.0
 20
1.999999999999886
  0
LWPOLYLINE
  5
A79
330
A74
100
AcDbEntity
  8
A1
 62
     7
100
AcDbPolyline
 90
        2
 70
     0
 43
0.12
 10
5.0
 20
0.0
 10
-5.0
 20
-0.0000000000001137
  0
LWPOLYLINE
  5
A7A
330
A74
100
AcDbEntity
  8
0
100
AcDbPolyline
 90
       38
 70
     1
 43
0.12
 10
0.0
 20
-0.2499999999998863
 10
-5.0
 20
-0.2500000000001137
 10
-5.0
 20
-0.0000000000001137
 10
-5.461742781506131
 20
0.0744553807792272
 42
-0.8516685226452354
 10
-5.461742781506018
 20
1.925544619220545
 10
-5.0
 20
1.999999999999886
 10
-5.0
 20
2.687499999999772
 10
-3.558081379638338
 20
3.241523497927687
 10
-2.717773437500113
 20
3.933227539062386
 10
-2.195312500000113
 20
4.617431640625
 10
-1.901367187500113
 20
5.1412353515625
 10
-1.8125
 20
5.5625
 10
-1.905273437500113
 20
5.9390869140625
 10
-2.156250000000113
 20
6.328857421875
 10
-3.000000000000113
 20
6.937499999999886
 10
-3.000000000000227
 20
7.374999999999886
 10
-3.257396780841759
 20
7.458744334296056
 42
-0.8381635747139435
 10
-3.167992002616756
 20
8.732203860797994
 10
-3.000000000000227
 20
8.749999999999886
 10
-0.0000000000001137
 20
8.75
 10
3.0
 20
8.75
 10
3.167992002616529
 20
8.732203860798108
 42
-0.8381635747139435
 10
3.257396780841531
 20
7.45874433429617
 10
3.0
 20
7.375
 10
2.999999999999886
 20
6.9375
 10
2.15625
 20
6.328857421875
 10
1.9052734375
 20
5.9390869140625
 10
1.812499999999886
 20
5.5625
 10
1.9013671875
 20
5.1412353515625
 10
2.1953125
 20
4.617431640625
 10
2.7177734375
 20
3.9332275390625
 10
3.558081379638224
 20
3.241523497927801
 10
4.999999999999886
 20
2.687499999999886
 10
5.0
 20
2.0
 10
5.461742781506018
 20
1.925544619220659
 42
-0.8516685226452354
 10
5.461742781506131
 20
0.0744553807793409
 10
5.0
 20
0.0
 10
5.0
 20
-0.25
  0
INSERT
  5
A7B
330
A74
100
AcDbEntity
  8
A1
 62
     7
100
AcDbBlockReference
 66
     1
  2
PROFILE LOGO
 10
-4.925177552673858
 20
1.869024660489003
 30
0.0
  0
ATTRIB
  5
A7C
330
A7B
100
AcDbEntity
  8
A1
 62
    22
100
AcDbText
 10
-4.643043310353557
 20
0.1907264115824319
 30
0.0
 40
0.2126953125
  1
1578
 72
     1
 11
-4.247047147392891
 21
0.1907264115824319
 31
0.0
100
AcDbAttribute
  2
XXXX
 70
     0
  0
SEQEND
  5
A7D
330
A7B
100
AcDbEntity
  8
A1
 62
     7
  0
LINE
  5
A7E
330
A74
100
AcDbEntity
  8
0
 62
     1
100
AcDbLine
 10
-0.0000000000002274
 20
9.125
 30
0.0
 11
3.25
 21
9.125
 31
0.0
  0
LINE
  5
A7F
330
A74
100
AcDbEntity
  8
0
100
AcDbLine
 10
5.0
 20
-0.25
 30
0.0
 11
5.0
 21
0.0
 31
0.0
  0
ENDBLK
  5
A81
330
A74
100
AcDbEntity
  8
0
 62
     7
100
AcDbBlockEnd
  0
BLOCK
  5
AA8
330
A9D
100
AcDbEntity
  8
0
 62
     7
100
AcDbBlockBegin
  2
*D4
 70
     1
 10
0.0
 20
0.0
 30
0.0
  3
*D4
  1

  0
LINE
  5
C91
330
A9D
100
AcDbEntity
  8
A1
 62
     0
100
AcDbLine
 10
512.7278994774435
 20
84.25761844687988
 30
0.0
 11
512.7278994774435
 21
81.03207573970074
 31
0.0
  0
LINE
  5
C92
330
A9D
100
AcDbEntity
  8
A1
 62
     0
100
AcDbLine
 10
502.7278994774435
 20
84.25761844687977
 30
0.0
 11
502.7278994774435
 21
81.03207573970074
 31
0.0
  0
LINE
  5
C93
330
A9D
100
AcDbEntity
  8
A1
 62
     0
100
AcDbLine
 10
512.1678994774436
 20
81.31207573970074
 30
0.0
 11
510.8093358037408
 21
81.31207573970074
 31
0.0
  0
LINE
  5
C94
330
A9D
100
AcDbEntity
  8
A1
 62
     0
100
AcDbLine
 10
503.2878994774435
 20
81.31207573970074
 30
0.0
 11
505.6157426074262
 21
81.31207573970074
 31
0.0
  0
MTEXT
  5
C95
330
A9D
100
AcDbEntity
  8
A1
 62
     0
100
AcDbMText
 10
508.2125392055835
 20
81.31207573970074
 30
0.0
 40
1.12
 41
0.0
 71
     5
 72
     1
  1
\A1;%%C10"
 73
     1
 44
1.0
  0
SOLID
  5
C96
330
A9D
100
AcDbEntity
  8
A1
 62
     0
100
AcDbTrace
 10
512.1678994774436
 20
81.40540907303408
 30
0.0
 11
512.1678994774436
 21
81.2187424063674
 31
0.0
 12
512.7278994774435
 22
81.31207573970074
 32
0.0
 13
512.7278994774435
 23
81.31207573970074
 33
0.0
  0
SOLID
  5
C97
330
A9D
100
AcDbEntity
  8
A1
 62
     0
100
AcDbTrace
 10
503.2878994774435
 20
81.40540907303408
 30
0.0
 11
503.2878994774435
 21
81.2187424063674
 31
0.0
 12
502.7278994774435
 22
81.31207573970074
 32
0.0
 13
502.7278994774435
 23
81.31207573970074
 33
0.0
  0
POINT
  5
C98
330
A9D
100
AcDbEntity
  8
DEFPOINTS
 62
     0
100
AcDbPoint
 10
512.7278994774435
 20
85.3776184468799
 30
0.0
  0
POINT
  5
C99
330
A9D
100
AcDbEntity
  8
DEFPOINTS
 62
     0
100
AcDbPoint
 10
502.7278994774435
 20
85.37761844687977
 30
0.0
  0
POINT
  5
C9A
330
A9D
100
AcDbEntity
  8
DEFPOINTS
 62
     0
100
AcDbPoint
 10
502.7278994774435
 20
81.31207573970074
 30
0.0
  0
ENDBLK
  5
AA9
330
A9D
100
AcDbEntity
  8
0
 62
     7
100
AcDbBlockEnd
  0
BLOCK
  5
AB6
330
AAB
100
AcDbEntity
  8
0
 62
     7
100
AcDbBlockBegin
  2
*D5
 70
     1
 10
0.0
 20
0.0
 30
0.0
  3
*D5
  1

  0
LINE
  5
C9B
330
AAB
100
AcDbEntity
  8
A1
 62
     0
100
AcDbLine
 10
513.9778801299384
 20
85.50159547441346
 30
0.0
 11
513.9778801299384
 21
78.51283910091486
 31
0.0
  0
LINE
  5
C9C
330
AAB
100
AcDbEntity
  8
A1
 62
     0
100
AcDbLine
 10
501.4779258183904
 20
85.5005907458686
 30
0.0
 11
501.4779258183904
 21
78.51283910091486
 31
0.0
  0
LINE
  5
C9D
330
AAB
100
AcDbEntity
  8
A1
 62
     0
100
AcDbLine
 10
513.4178801299385
 20
78.79283910091486
 30
0.0
 11
512.3682869022525
 21
78.79283910091486
 31
0.0
  0
LINE
  5
C9E
330
AAB
100
AcDbEntity
  8
A1
 62
     0
100
AcDbLine
 10
502.0379258183904
 20
78.79283910091486
 30
0.0
 11
504.0567915089145
 21
78.79283910091486
 31
0.0
  0
MTEXT
  5
C9F
330
AAB
100
AcDbEntity
  8
A1
 62
     0
100
AcDbMText
 10
508.2125392055835
 20
78.79283910091486
 30
0.0
 40
1.12
 41
0.0
 71
     5
 72
     1
  1
\A1;%%C12 1/2"
 73
     1
 44
1.0
  0
SOLID
  5
CA0
330
AAB
100
AcDbEntity
  8
A1
 62
     0
100
AcDbTrace
 10
513.4178801299385
 20
78.88617243424819
 30
0.0
 11
513.4178801299385
 21
78.69950576758153
 31
0.0
 12
513.9778801299384
 22
78.79283910091486
 32
0.0
 13
513.9778801299384
 23
78.79283910091486
 33
0.0
  0
SOLID
  5
CA1
330
AAB
100
AcDbEntity
  8
A1
 62
     0
100
AcDbTrace
 10
502.0379258183904
 20
78.88617243424819
 30
0.0
 11
502.0379258183904
 21
78.69950576758153
 31
0.0
 12
501.4779258183904
 22
78.79283910091486
 32
0.0
 13
501.4779258183904
 23
78.79283910091486
 33
0.0
  0
POINT
  5
CA2
330
AAB
100
AcDbEntity
  8
DEFPOINTS
 62
     0
100
AcDbPoint
 10
513.9778801299384
 20
86.62159547441346
 30
0.0
  0
POINT
  5
CA3
330
AAB
100
AcDbEntity
  8
DEFPOINTS
 62
     0
100
AcDbPoint
 10
501.4779258183904
 20
86.62059074586862
 30
0.0
  0
POINT
  5
CA4
330
AAB
100
AcDbEntity
  8
DEFPOINTS
 62
     0
100
AcDbPoint
 10
501.4779258183904
 20
78.79283910091486
 30
0.0
  0
ENDBLK
  5
AB7
330
AAB
100
AcDbEntity
  8
0
 62
     7
100
AcDbBlockEnd
  0
BLOCK
  5
AF7
330
AEC
100
AcDbEntity
  8
0
 62
     7
100
AcDbBlockBegin
  2
*D6
 70
     1
 10
0.0
 20
0.0
 30
0.0
  3
*D6
  1

  0
LINE
  5
CA5
330
AEC
100
AcDbEntity
  8
A1
 62
     0
100
AcDbLine
 10
498.7505072684183
 20
104.0723613478419
 30
0.0
 11
498.7505072684183
 21
119.6240878098774
 31
0.0
  0
LINE
  5
CA6
330
AEC
100
AcDbEntity
  8
A1
 62
     0
100
AcDbLine
 10
516.7044596712931
 20
104.1582658532905
 30
0.0
 11
516.7044596712931
 21
119.6240878098774
 31
0.0
  0
LINE
  5
CA7
330
AEC
100
AcDbEntity
  8
A1
 62
     0
100
AcDbLine
 10
499.3105072684183
 20
119.3440878098774
 30
0.0
 11
505.3640207997911
 21
119.3440878098774
 31
0.0
  0
LINE
  5
CA8
330
AEC
100
AcDbEntity
  8
A1
 62
     0
100
AcDbLine
 10
516.1444596712931
 20
119.3440878098774
 30
0.0
 11
510.5576139961057
 21
119.3440878098774
 31
0.0
  0
MTEXT
  5
CA9
330
AEC
100
AcDbEntity
  8
A1
 62
     0
100
AcDbMText
 10
507.9608173979485
 20
119.3440878098774
 30
0.0
 40
1.12
 41
0.0
 71
     5
 72
     1
  1
\A1;%%C18"
 73
     1
 44
1.0
  0
SOLID
  5
CAA
330
AEC
100
AcDbEntity
  8
A1
 62
     0
100
AcDbTrace
 10
499.3105072684183
 20
119.4374211432108
 30
0.0
 11
499.3105072684183
 21
119.2507544765441
 31
0.0
 12
498.7505072684183
 22
119.3440878098774
 32
0.0
 13
498.7505072684183
 23
119.3440878098774
 33
0.0
  0
SOLID
  5
CAB
330
AEC
100
AcDbEntity
  8
A1
 62
     0
100
AcDbTrace
 10
516.1444596712931
 20
119.4374211432108
 30
0.0
 11
516.1444596712931
 21
119.2507544765441
 31
0.0
 12
516.7044596712931
 22
119.3440878098774
 32
0.0
 13
516.7044596712931
 23
119.3440878098774
 33
0.0
  0
POINT
  5
CAC
330
AEC
100
AcDbEntity
  8
DEFPOINTS
 62
     0
100
AcDbPoint
 10
498.7505072684183
 20
102.9523613478419
 30
0.0
  0
POINT
  5
CAD
330
AEC
100
AcDbEntity
  8
DEFPOINTS
 62
     0
100
AcDbPoint
 10
516.7044596712931
 20
103.0382658532905
 30
0.0
  0
POINT
  5
CAE
330
AEC
100
AcDbEntity
  8
DEFPOINTS
 62
     0
100
AcDbPoint
 10
516.7044596712931
 20
119.3440878098774
 30
0.0
  0
ENDBLK
  5
AF8
330
AEC
100
AcDbEntity
  8
0
 62
     7
100
AcDbBlockEnd
  0
BLOCK
  5
B2F
330
AFE
100
AcDbEntity
  8
0
 62
     7
100
AcDbBlockBegin
  2
TSFORMB
 70
     2
 10
0.0
 20
0.0
 30
0.0
  3
TSFORMB
  1

  0
LINE
  5
AFF
330
AFE
100
AcDbEntity
  8
0
100
AcDbLine
 10
25.97049976153047
 20
12.46470592426126
 30
0.0
 11
105.9925392881562
 21
12.46470592426126
 31
0.0
  0
ATTDEF
  5
B00
330
AFE
100
AcDbEntity
  8
A1
 62
     1
100
AcDbText
 10
101.1418062311347
 20
7.219538615513812
 30
0.0
 40
0.9450000000000002
  1

 72
     1
 11
101.1418062311347
 21
7.219538615513812
 31
0.0
100
AcDbAttributeDefinition
  3
ADD #/LF
  2
XXXXX
 70
     0
  0
ATTDEF
  5
B01
330
AFE
100
AcDbEntity
  8
A1
 62
     1
100
AcDbText
 10
101.1759733039033
 20
10.0790044152711
 30
0.0
 40
0.9450000000000002
  1

 72
     1
 11
101.1759733039033
 21
10.0790044152711
 31
0.0
100
AcDbAttributeDefinition
  3
ADD PROFILE AREA
  2
XXXXX
 70
     0
  0
TEXT
  5
B02
330
AFE
100
AcDbEntity
  8
0
 62
     7
100
AcDbText
 10
96.70022651293081
 20
11.66518473255652
 30
0.0
 40
0.5414062500000001
  1
PROFILE AREA:
100
AcDbText
  0
TEXT
  5
B03
330
AFE
100
AcDbEntity
  8
0
 62
     7
100
AcDbText
 10
96.74158717246573
 20
2.97910930546476
 30
0.0
 40
0.5414062500000001
  1
DATE:
100
AcDbText
  0
TEXT
  5
B04
330
AFE
100
AcDbEntity
  8
0
 62
     7
100
AcDbText
 10
96.68542089784601
 20
5.927566558083469
 30
0.0
 40
0.5414062500000001
  1
SCALE:
100
AcDbText
  0
TEXT
  5
B05
330
AFE
100
AcDbEntity
  8
0
 62
     7
100
AcDbText
 10
98.85330873086449
 20
1.524519923848657
 30
0.0
 40
0.8459472656250001
  1
1-1-2000
100
AcDbText
  0
LINE
  5
B06
330
AFE
100
AcDbEntity
  8
LINEWORK
 62
     7
100
AcDbLine
 10
96.40991550469019
 20
3.757904136908933
 30
0.0
 11
105.9622680829099
 21
3.757904136909161
 31
0.0
  0
TEXT
  5
B07
330
AFE
100
AcDbEntity
  8
0
 62
     7
100
AcDbText
 10
96.66995560986684
 20
8.813345575893578
 30
0.0
 40
0.5414062500000001
  1
LBS/LINEAR FEET:
100
AcDbText
  0
LINE
  5
B08
330
AFE
100
AcDbEntity
  8
0
 62
     7
100
AcDbLine
 10
96.44018670993686
 20
9.556745250002336
 30
0.0
 11
105.9925392881562
 21
9.556745250002336
 31
0.0
  0
LINE
  5
B09
330
AFE
100
AcDbEntity
  8
0
100
AcDbLine
 10
56.87404547169356
 20
6.648784575743377
 30
0.0
 11
105.9925392881562
 21
6.648784575743377
 31
0.0
  0
TEXT
  5
B0A
330
AFE
100
AcDbEntity
  8
0
100
AcDbText
 10
59.98363509556092
 20
3.260563711198523
 30
0.0
 40
0.74899296216962
  1
101 JOHNSTON CIRCLE, PALMETTO, GEORGIA 30268
 41
1.1875
 72
     4
 11
76.85158629384145
 21
3.579323650094949
 31
0.0
100
AcDbText
  0
TEXT
  5
B0B
330
AFE
100
AcDbEntity
  8
0
100
AcDbText
 10
61.57240842020549
 20
1.964543484004154
 30
0.0
 40
0.6552430415498756
  1
http://TannerStone.com ~ Email:Sales@TannerStone.com 
 41
1.1875
 72
     4
 11
77.08342119362365
 21
2.259193880788984
 31
0.0
100
AcDbText
  0
TEXT
  5
B0C
330
AFE
100
AcDbEntity
  8
0
 62
     7
100
AcDbText
 10
61.23651428794111
 20
7.899354841769707
 30
0.0
 40
3.572100000000002
  1
TannerStone
  7
ROMANC
 72
     1
 11
75.92109734429951
 21
7.899354841769707
 31
0.0
100
AcDbText
  0
TEXT
  5
B0D
330
AFE
100
AcDbEntity
  8
0
100
AcDbText
 10
64.01730751652127
 20
0.6790765005605895
 30
0.0
 40
0.6552430415498756
  1
PHONE: 1-800-789-4841  FAX : 770-463-2635
 41
1.1875
 72
     4
 11
76.73327742292068
 21
1.005769257279467
 31
0.0
100
AcDbText
  0
TEXT
  5
B0E
330
AFE
100
AcDbEntity
  8
0
100
AcDbText
 10
57.83820509574332
 20
4.931128255646459
 30
0.0
 40
1.111564440985976
  1
ARCHITECTURAL CONCRETE CO., INC.
 41
1.25
 72
     4
 11
76.69038922088154
 21
5.404193065577061
 31
0.0
100
AcDbText
  0
LINE
  5
B0F
330
AFE
100
AcDbEntity
  8
0
100
AcDbLine
 10
96.44018670993652
 20
0.0
 30
0.0
 11
96.44018670993691
 21
12.46470592426126
 31
0.0
  0
TEXT
  5
B10
330
AFE
100
AcDbEntity
  8
0
 62
     7
100
AcDbText
 10
91.59975773655476
 20
7.487990433787814
 30
0.0
 40
0.7875000000000002
  1
R
  7
ROMANC
 72
     1
 11
92.02565639984957
 21
7.487990433787814
 31
0.0
100
AcDbText
  0
ARC
  5
B11
330
AFE
100
AcDbEntity
  8
0
 62
     7
100
AcDbCircle
 10
92.02173719823603
 20
7.854684255185276
 30
0.0
 40
0.5838368232859408
100
AcDbArc
 50
304.8408806463489
 51
297.555354837207
  0
LINE
  5
B12
330
AFE
100
AcDbEntity
  8
0
 62
     7
100
AcDbLine
 10
96.44018670993673
 20
6.648784575743377
 30
0.0
 11
95.62662822118031
 21
6.648784575743377
 31
0.0
  0
ARC
  5
B13
330
AFE
100
AcDbEntity
  8
0
 62
     7
100
AcDbCircle
 10
92.02173719823603
 20
7.854684255185276
 30
0.0
 40
0.5838368232859321
100
AcDbArc
 50
297.555354837207
 51
304.8408806463489
  0
TEXT
  5
B14
330
AFE
100
AcDbEntity
  8
0
 62
     7
100
AcDbText
 10
101.0916707105179
 20
4.784832420392348
 30
0.0
 40
0.8459472656250001
  1
1:1
100
AcDbText
  0
LINE
  5
B15
330
AFE
100
AcDbEntity
  8
0
100
AcDbLine
 10
105.9925392881562
 20
78.84810849484799
 30
0.0
 11
0.0
 21
78.84810849484799
 31
0.0
  0
LINE
  5
B16
330
AFE
100
AcDbEntity
  8
0
100
AcDbLine
 10
105.9925392881562
 20
70.31072004937001
 30
0.0
 11
92.45878286761294
 21
70.31072004937001
 31
0.0
  0
ATTDEF
  5
B17
330
AFE
100
AcDbEntity
  8
A1
 62
     1
100
AcDbText
 10
99.20289126219254
 20
73.4000163324483
 30
0.0
 40
2.079
  1

 72
     1
 11
99.20289126219254
 21
73.4000163324483
 31
0.0
100
AcDbAttributeDefinition
  3
ADD PAGE NUMBER
  2
TS00XX
 70
     0
  0
LINE
  5
B18
330
AFE
100
AcDbEntity
  8
0
100
AcDbLine
 10
92.45878286761294
 20
70.31072004937001
 30
0.0
 11
92.45878286761294
 21
78.84810849484799
 31
0.0
  0
LINE
  5
B19
330
AFE
100
AcDbEntity
  8
0
 62
     7
100
AcDbLine
 10
56.87404547169354
 20
4.753491724833224
 30
0.0
 11
25.97049976153047
 21
4.753491724833224
 31
0.0
  0
LINE
  5
B1A
330
AFE
100
AcDbEntity
  8
0
 62
     7
100
AcDbLine
 10
56.87404547169354
 20
2.864660228904284
 30
0.0
 11
25.97049976153047
 21
2.864660228904284
 31
0.0
  0
LINE
  5
B1B
330
AFE
100
AcDbEntity
  8
0
 62
     7
100
AcDbLine
 10
56.87404547169354
 20
10.31505184057846
 30
0.0
 11
25.97049976153047
 21
10.31505184057846
 31
0.0
  0
ATTDEF
  5
B1C
330
AFE
100
AcDbEntity
  8
A1
 62
     1
100
AcDbText
 10
12.85191920549937
 20
3.11796280247222
 30
0.0
 40
6.132000000000001
  1

  7
barcoder
 72
     1
 11
12.85191920549937
 21
3.11796280247222
 31
0.0
100
AcDbAttributeDefinition
  3
ADD BARCODE NUMBER
  2
BARCODE
 70
     0
  0
LINE
  5
B1D
330
AFE
100
AcDbEntity
  8
0
 62
     7
100
AcDbLine
 10
25.97049976153047
 20
12.46470592426126
 30
0.0
 11
0.0
 21
12.46470592426126
 31
0.0
  0
ATTDEF
  5
B1E
330
AFE
100
AcDbEntity
  8
A1
 62
     1
100
AcDbText
 10
21.55372231158239
 20
1.875018704105684
 30
0.0
 40
0.8400000000000002
  1

 72
     2
 11
21.55372231158239
 21
1.875018704105684
 31
0.0
100
AcDbAttributeDefinition
  3
ADD BARCODE TEXT
  2
XXXXXX
 70
     0
  0
ATTDEF
  5
B1F
330
AFE
100
AcDbEntity
  8
A1
 62
     1
100
AcDbText
 10
41.26016333205515
 20
0.916484150045278
 30
0.0
 40
1.025589599999999
  1

 72
     1
 11
41.26016333205515
 21
0.916484150045278
 31
0.0
100
AcDbAttributeDefinition
  3
ADD CATEGORY NAMES
  2
XXXXXX
 70
     0
  0
LINE
  5
B20
330
AFE
100
AcDbEntity
  8
0
100
AcDbLine
 10
25.97049976153047
 20
0.0
 30
0.0
 11
25.97049976153047
 21
12.46470592426126
 31
0.0
  0
TEXT
  5
B21
330
AFE
100
AcDbEntity
  8
0
 62
     7
100
AcDbText
 10
30.57643893100979
 20
5.886467718828555
 30
0.0
 40
1.05
  1
- Unfinished Side
100
AcDbText
  0
TEXT
  5
B22
330
AFE
100
AcDbEntity
  8
0
 62
     7
100
AcDbText
 10
30.56536100380199
 20
8.165961840384312
 30
0.0
 40
1.05
  1
- Finished Side
100
AcDbText
  0
TEXT
  5
B23
330
AFE
100
AcDbEntity
  8
0
 62
     7
100
AcDbText
 10
28.62975879980742
 20
6.155120421568796
 30
0.0
 40
0.0065625
  1
TANNERSTONE 0001 TANNERSTONE 0001 TANNERSTONE 0001 TANNERSTONE 0001 TANNERSTONE 0001 TANNERSTONE 0001 TANNERSTONE 0001
 72
     1
 11
28.97869915682372
 21
6.155120421568796
 31
0.0
100
AcDbText
  0
TEXT
  5
B24
330
AFE
100
AcDbEntity
  8
0
 62
     7
100
AcDbText
 10
26.78569629980744
 20
6.155120421568796
 30
0.0
 40
0.0065625
  1
TANNERSTONE 0001 TANNERSTONE 0001 TANNERSTONE 0001 TANNERSTONE 0001 TANNERSTONE 0001 TANNERSTONE 0001 TANNERSTONE 0001
 72
     1
 11
27.13463665682374
 21
6.155120421568796
 31
0.0
100
AcDbText
  0
LINE
  5
B25
330
AFE
100
AcDbEntity
  8
0
 62
     7
100
AcDbLine
 10
26.78791925899645
 20
6.408946491460881
 30
0.0
 11
29.32320076794366
 21
6.408946491460881
 31
0.0
  0
TEXT
  5
B26
330
AFE
100
AcDbEntity
  8
0
 62
     7
100
AcDbText
 10
27.6921018725396
 20
6.155120421568796
 30
0.0
 40
0.0065625
  1
TANNERSTONE 0001 TANNERSTONE 0001 TANNERSTONE 0001 TANNERSTONE 0001 TANNERSTONE 0001 TANNERSTONE 0001 TANNERSTONE 0001
 72
     1
 11
28.0410422295559
 21
6.155120421568796
 31
0.0
100
AcDbText
  0
LINE
  5
B27
330
AFE
100
AcDbEntity
  8
0
 62
     7
100
AcDbLine
 10
26.78791925899645
 20
8.549200111339274
 30
0.0
 11
29.32320076794366
 21
8.549200111339274
 31
0.0
  0
TEXT
  5
B28
330
AFE
100
AcDbEntity
  8
0
 62
     7
100
AcDbText
 10
38.18320344075359
 20
3.401999220949534
 30
0.0
 40
0.8400000000000002
  1
CATEGORY
 72
     1
 11
41.47652732452397
 21
3.401999220949534
 31
0.0
100
AcDbText
  0
TEXT
  5
B29
330
AFE
100
AcDbEntity
  8
0
 62
     7
100
AcDbText
 10
39.28098221173835
 20
10.97304845086645
 30
0.0
 40
0.8085000000000002
  1
LEGEND
100
AcDbText
  0
LINE
  5
B2A
330
AFE
100
AcDbEntity
  8
0
100
AcDbLine
 10
56.87404547169356
 20
0.0
 30
0.0
 11
56.87404547169356
 21
12.46470592426126
 31
0.0
  0
LINE
  5
B2B
330
AFE
100
AcDbEntity
  8
0
100
AcDbLine
 10
0.0
 20
78.84810849484799
 30
0.0
 11
0.0
 21
0.0
 31
0.0
  0
LINE
  5
B2C
330
AFE
100
AcDbEntity
  8
0
100
AcDbLine
 10
0.0
 20
0.0
 30
0.0
 11
105.9925392881562
 21
0.0
 31
0.0
  0
LINE
  5
B2D
330
AFE
100
AcDbEntity
  8
0
100
AcDbLine
 10
105.9925392881562
 20
0.0
 30
0.0
 11
105.9925392881562
 21
78.84810849484799
 31
0.0
  0
LINE
  5
B2E
330
AFE
100
AcDbEntity
  8
0
100
AcDbLine
 10
105.9925392881562
 20
78.84810849484799
 30
0.0
 11
105.9925392881562
 21
70.31072004937001
 31
0.0
  0
ENDBLK
  5
B30
330
AFE
100
AcDbEntity
  8
0
 62
     7
100
AcDbBlockEnd
  0
BLOCK
  5
BA3
330
B98
100
AcDbEntity
  8
0
 62
     7
100
AcDbBlockBegin
  2
*D8
 70
     1
 10
0.0
 20
0.0
 30
0.0
  3
*D8
  1

  0
LINE
  5
CAF
330
B98
100
AcDbEntity
  8
A1
 62
     0
100
AcDbLine
 10
513.8478994774435
 20
85.3776184468799
 30
0.0
 11
526.7670298659205
 21
85.3776184468799
 31
0.0
  0
LINE
  5
CB0
330
B98
100
AcDbEntity
  8
A1
 62
     0
100
AcDbLine
 10
508.9234962398178
 20
111.8855501527114
 30
0.0
 11
526.7670298659205
 21
111.8855501527114
 31
0.0
  0
LINE
  5
CB1
330
B98
100
AcDbEntity
  8
A1
 62
     0
100
AcDbLine
 10
526.4870298659205
 20
85.93761844687989
 30
0.0
 11
526.4870298659205
 21
97.26283841117142
 31
0.0
  0
LINE
  5
CB2
330
B98
100
AcDbEntity
  8
A1
 62
     0
100
AcDbLine
 10
526.4870298659205
 20
111.3255501527114
 30
0.0
 11
526.4870298659205
 21
99.60364634880431
 31
0.0
  0
MTEXT
  5
CB3
330
B98
100
AcDbEntity
  8
A1
 62
     0
100
AcDbMText
 10
526.4870298659205
 20
98.43324237998794
 30
0.0
 40
1.12
 41
0.0
 71
     5
 72
     1
  1
\A1;26 1/2"
 73
     1
 44
1.0
  0
SOLID
  5
CB4
330
B98
100
AcDbEntity
  8
A1
 62
     0
100
AcDbTrace
 10
526.3936965325872
 20
85.93761844687989
 30
0.0
 11
526.5803631992539
 21
85.93761844687989
 31
0.0
 12
526.4870298659205
 22
85.3776184468799
 32
0.0
 13
526.4870298659205
 23
85.3776184468799
 33
0.0
  0
SOLID
  5
CB5
330
B98
100
AcDbEntity
  8
A1
 62
     0
100
AcDbTrace
 10
526.3936965325872
 20
111.3255501527114
 30
0.0
 11
526.5803631992539
 21
111.3255501527114
 31
0.0
 12
526.4870298659205
 22
111.8855501527114
 32
0.0
 13
526.4870298659205
 23
111.8855501527114
 33
0.0
  0
POINT
  5
CB6
330
B98
100
AcDbEntity
  8
DEFPOINTS
 62
     0
100
AcDbPoint
 10
512.7278994774435
 20
85.3776184468799
 30
0.0
  0
POINT
  5
CB7
330
B98
100
AcDbEntity
  8
DEFPOINTS
 62
     0
100
AcDbPoint
 10
507.8034962398178
 20
111.8855501527114
 30
0.0
  0
POINT
  5
CB8
330
B98
100
AcDbEntity
  8
DEFPOINTS
 62
     0
100
AcDbPoint
 10
526.4870298659205
 20
111.8855501527114
 30
0.0
  0
ENDBLK
  5
BA4
330
B98
100
AcDbEntity
  8
0
 62
     7
100
AcDbBlockEnd
  0
BLOCK
  5
BB1
330
BA6
100
AcDbEntity
  8
0
 62
     7
100
AcDbBlockBegin
  2
*D9
 70
     1
 10
0.0
 20
0.0
 30
0.0
  3
*D9
  1

  0
LINE
  5
CB9
330
BA6
100
AcDbEntity
  8
A1
 62
     0
100
AcDbLine
 10
500.6078994774435
 20
85.37761844687977
 30
0.0
 11
490.9795338594066
 21
85.37761844687977
 31
0.0
  0
LINE
  5
CBA
330
BA6
100
AcDbEntity
  8
A1
 62
     0
100
AcDbLine
 10
502.4399074748267
 20
94.35982230767789
 30
0.0
 11
490.9795338594066
 21
94.35982230767789
 31
0.0
  0
LINE
  5
CBB
330
BA6
100
AcDbEntity
  8
A1
 62
     0
100
AcDbLine
 10
491.2595338594066
 20
85.93761844687978
 30
0.0
 11
491.2595338594066
 21
88.73876987766985
 31
0.0
  0
LINE
  5
CBC
330
BA6
100
AcDbEntity
  8
A1
 62
     0
100
AcDbLine
 10
491.2595338594066
 20
93.79982230767788
 30
0.0
 11
491.2595338594066
 21
91.02083933195761
 31
0.0
  0
MTEXT
  5
CBD
330
BA6
100
AcDbEntity
  8
A1
 62
     0
100
AcDbMText
 10
491.2595338594066
 20
89.87980460481381
 30
0.0
 40
1.12
 41
0.0
 71
     5
 72
     1
  1
\A1;9"
 73
     1
 44
1.0
  0
SOLID
  5
CBE
330
BA6
100
AcDbEntity
  8
A1
 62
     0
100
AcDbTrace
 10
491.1662005260732
 20
85.93761844687978
 30
0.0
 11
491.3528671927399
 21
85.93761844687978
 31
0.0
 12
491.2595338594066
 22
85.37761844687977
 32
0.0
 13
491.2595338594066
 23
85.37761844687977
 33
0.0
  0
SOLID
  5
CBF
330
BA6
100
AcDbEntity
  8
A1
 62
     0
100
AcDbTrace
 10
491.1662005260732
 20
93.79982230767788
 30
0.0
 11
491.3528671927399
 21
93.79982230767788
 31
0.0
 12
491.2595338594066
 22
94.35982230767789
 32
0.0
 13
491.2595338594066
 23
94.35982230767789
 33
0.0
  0
POINT
  5
CC0
330
BA6
100
AcDbEntity
  8
DEFPOINTS
 62
     0
100
AcDbPoint
 10
501.7278994774435
 20
85.37761844687977
 30
0.0
  0
POINT
  5
CC1
330
BA6
100
AcDbEntity
  8
DEFPOINTS
 62
     0
100
AcDbPoint
 10
503.5599074748268
 20
94.35982230767789
 30
0.0
  0
POINT
  5
CC2
330
BA6
100
AcDbEntity
  8
DEFPOINTS
 62
     0
100
AcDbPoint
 10
491.2595338594066
 20
94.35982230767789
 30
0.0
  0
ENDBLK
  5
BB2
330
BA6
100
AcDbEntity
  8
0
 62
     7
100
AcDbBlockEnd
  0
BLOCK
  5
BBF
330
BB4
100
AcDbEntity
  8
0
 62
     7
100
AcDbBlockBegin
  2
*D10
 70
     1
 10
0.0
 20
0.0
 30
0.0
  3
*D10
  1

  0
LINE
  5
CC3
330
BB4
100
AcDbEntity
  8
A1
 62
     0
100
AcDbLine
 10
501.8578994774434
 20
94.7526184468799
 30
0.0
 11
490.9795338594066
 21
94.7526184468799
 31
0.0
  0
LINE
  5
CC4
330
BB4
100
AcDbEntity
  8
A1
 62
     0
100
AcDbLine
 10
505.7411314924507
 20
111.9584269845031
 30
0.0
 11
490.9795338594066
 21
111.9584269845031
 31
0.0
  0
LINE
  5
CC5
330
BB4
100
AcDbEntity
  8
A1
 62
     0
100
AcDbLine
 10
491.2595338594066
 20
95.31261844687989
 30
0.0
 11
491.2595338594066
 21
101.8926809621695
 31
0.0
  0
LINE
  5
CC6
330
BB4
100
AcDbEntity
  8
A1
 62
     0
100
AcDbLine
 10
491.2595338594066
 20
111.3984269845031
 30
0.0
 11
491.2595338594066
 21
104.2334888998023
 31
0.0
  0
MTEXT
  5
CC7
330
BB4
100
AcDbEntity
  8
A1
 62
     0
100
AcDbMText
 10
491.2595338594066
 20
103.063084930986
 30
0.0
 40
1.12
 41
0.0
 71
     5
 72
     1
  1
\A1;17 3/16"
 73
     1
 44
1.0
  0
SOLID
  5
CC8
330
BB4
100
AcDbEntity
  8
A1
 62
     0
100
AcDbTrace
 10
491.1662005260732
 20
95.31261844687989
 30
0.0
 11
491.3528671927399
 21
95.31261844687989
 31
0.0
 12
491.2595338594066
 22
94.7526184468799
 32
0.0
 13
491.2595338594066
 23
94.7526184468799
 33
0.0
  0
SOLID
  5
CC9
330
BB4
100
AcDbEntity
  8
A1
 62
     0
100
AcDbTrace
 10
491.1662005260732
 20
111.3984269845031
 30
0.0
 11
491.3528671927399
 21
111.3984269845031
 31
0.0
 12
491.2595338594066
 22
111.9584269845031
 32
0.0
 13
491.2595338594066
 23
111.9584269845031
 33
0.0
  0
POINT
  5
CCA
330
BB4
100
AcDbEntity
  8
DEFPOINTS
 62
     0
100
AcDbPoint
 10
502.9778994774433
 20
94.7526184468799
 30
0.0
  0
POINT
  5
CCB
330
BB4
100
AcDbEntity
  8
DEFPOINTS
 62
     0
100
AcDbPoint
 10
506.8611314924508
 20
111.9584269845031
 30
0.0
  0
POINT
  5
CCC
330
BB4
100
AcDbEntity
  8
DEFPOINTS
 62
     0
100
AcDbPoint
 10
491.2595338594066
 20
111.9584269845031
 30
0.0
  0
ENDBLK
  5
BC0
330
BB4
100
AcDbEntity
  8
0
 62
     7
100
AcDbBlockEnd
  0
ENDSEC
  0
SECTION
  2
ENTITIES
  0
INSERT
  5
27
330
2
100
AcDbEntity
  8
A1
 62
     7
100
AcDbBlockReference
 66
     1
  2
PROFILE LOGO
 10
499.5251996913098
 20
104.3651530585065
 30
0.0
 41
1.7955
 42
1.7955
 43
1.7955
  0
ATTRIB
  5
28
330
27
100
AcDbEntity
  8
A1
 62
    22
100
AcDbText
 10
500.0477403779544
 20
101.3517685525948
 30
0.0
 40
0.38189443359375
  1
1536
 72
     1
 11
500.7427828339918
 21
101.3517685525948
 31
0.0
100
AcDbAttribute
  2
XXXX
 70
     0
  0
SEQEND
  5
44
330
27
100
AcDbEntity
  8
A1
 62
     7
  0
ATTDEF
  5
79B
330
2
100
AcDbEntity
  8
A1
 62
     1
100
AcDbText
 10
527.4592084771501
 20
80.13548191022618
 30
0.0
 40
1.199999999999999
  1

100
AcDbAttributeDefinition
  3
ADD LINK NUMBER (WMF)
  2
TS1578
 70
     0
  0
LINE
  5
79E
330
2
100
AcDbEntity
  8
0
 62
     1
100
AcDbLine
 10
520.0653019300893
 20
80.58085650264883
 30
0.0
 11
526.8750120582565
 21
80.58085650264883
 31
0.0
  0
LINE
  5
79F
330
2
100
AcDbEntity
  8
0
 62
     1
100
AcDbLine
 10
526.8750120582565
 20
79.6055425312653
 30
0.0
 11
526.8750120582565
 21
81.55617047403236
 31
0.0
  0
SOLID
  5
7CE
330
2
100
AcDbEntity
  8
A1
 62
     1
100
AcDbTrace
 10
508.2630377286304
 20
112.2537271288752
 30
0.0
 11
508.1197313978452
 21
112.3932380444226
 31
0.0
 12
507.7728518165955
 22
111.8935635942932
 32
0.0
 13
507.7728518165955
 23
111.8935635942932
 33
0.0
  0
LINE
  5
7CF
330
2
100
AcDbEntity
  8
A1
 62
     1
100
AcDbLine
 10
508.1913845632378
 20
112.3234825866489
 30
0.0
 11
512.8859999150039
 21
117.1458156483302
 31
0.0
  0
ATTDEF
  5
7D0
330
2
100
AcDbEntity
  8
A1
 62
     1
100
AcDbText
 10
526.8216629381519
 20
117.675755027291
 30
0.0
 40
1.199999999999999
  1

100
AcDbAttributeDefinition
  3
ADD LINK NUMBER (WMF)
  2
TS1536
 70
     0
  0
MTEXT
  5
7D1
330
2
100
AcDbEntity
  8
0
 62
     1
100
AcDbMText
 10
526.868261975322
 20
116.7790247602733
 30
0.0
 40
1.199999999999999
 41
0.0
 71
     1
 72
     1
  1
TannerStone
 73
     1
 44
1.0
1001
ACAD
1000
MTEXTBEGIN
1070
    73
1070
     1
1070
    44
1040
1.0
1070
    74
1070
     0
1000
MTEXTEND
1000
MTEXTBEGIN
1070
    73
1070
     1
1070
    44
1040
1.0
1070
    74
1070
     0
1000
MTEXTEND
  0
MTEXT
  5
7D2
330
2
100
AcDbEntity
  8
0
 62
     1
100
AcDbMText
 10
526.9615528641401
 20
114.9584326806799
 30
0.0
 40
0.8864099999999998
 41
0.0
 71
     1
 72
     1
  1
1-800-789-4841
 73
     1
 44
1.0
1001
ACAD
1000
MTEXTBEGIN
1070
    73
1070
     1
1070
    44
1040
1.0
1070
    74
1070
     0
1000
MTEXTEND
1000
MTEXTBEGIN
1070
    73
1070
     1
1070
    44
1040
1.0
1070
    74
1070
     0
1000
MTEXTEND
  0
LINE
  5
7D3
330
2
100
AcDbEntity
  8
0
 62
     1
100
AcDbLine
 10
512.8859999150038
 20
117.1458156483302
 30
0.0
 11
516.1599396175954
 21
117.1458156483302
 31
0.0
  0
LINE
  5
7D4
330
2
100
AcDbEntity
  8
0
 62
     1
100
AcDbLine
 10
526.2374665192586
 20
113.6310990757059
 30
0.0
 11
526.2374665192586
 21
119.0964435910972
 31
0.0
  0
LWPOLYLINE
  5
8A1
330
2
100
AcDbEntity
  8
A1
 62
     7
100
AcDbPolyline
 90
        2
 70
     0
 43
0.12
 10
511.4778994774433
 20
94.75159173974869
 42
4.569140455234761
 10
503.977899477443
 20
94.75159173974885
  0
LWPOLYLINE
  5
8A2
330
2
100
AcDbEntity
  8
A1
 62
     7
100
AcDbPolyline
 90
        2
 70
     1
 43
0.12
 10
503.9778994774433
 20
94.7526184468799
 10
511.4778994774432
 20
94.75261844687988
  0
SOLID
  5
9A1
330
2
100
AcDbEntity
  8
A1
 62
     1
100
AcDbTrace
 10
514.1797343505568
 20
85.48812323808906
 30
0.0
 11
514.3010105475931
 21
85.63002647440475
 31
0.0
 12
513.8146627401279
 22
85.92290344735566
 32
0.0
 13
513.8146627401279
 23
85.92290344735566
 33
0.0
  0
LINE
  5
9A2
330
2
100
AcDbEntity
  8
A1
 62
     1
100
AcDbLine
 10
514.8599585047659
 20
85.0295517634564
 30
0.0
 11
520.0653019300894
 21
80.58085650264883
 31
0.0
  0
LWPOLYLINE
  5
A83
330
2
100
AcDbEntity
  8
A1
 62
     7
100
AcDbPolyline
 90
        2
 70
     0
 43
0.12
 10
510.7278994774435
 20
93.00261844687989
 10
504.7278994774432
 20
93.00261844687979
  0
LWPOLYLINE
  5
A84
330
2
100
AcDbEntity
  8
A1
 62
     7
100
AcDbPolyline
 90
        2
 70
     0
 43
0.12
 10
510.7278994774434
 20
92.5651184468799
 10
504.7278994774434
 20
92.56511844687977
  0
LWPOLYLINE
  5
A85
330
2
100
AcDbEntity
  8
A1
 62
     7
100
AcDbPolyline
 90
        2
 70
     0
 43
0.12
 10
512.7278994774434
 20
88.31511844687979
 10
502.7278994774435
 20
88.31511844687966
  0
LWPOLYLINE
  5
A86
330
2
100
AcDbEntity
  8
A1
 62
     7
100
AcDbPolyline
 90
        2
 70
     0
 43
0.12
 10
512.7278994774435
 20
87.6276184468799
 10
502.7278994774435
 20
87.62761844687977
  0
LWPOLYLINE
  5
A87
330
2
100
AcDbEntity
  8
A1
 62
     7
100
AcDbPolyline
 90
        2
 70
     0
 43
0.12
 10
512.7278994774435
 20
85.62761844687988
 10
502.7278994774435
 20
85.62761844687978
  0
LWPOLYLINE
  5
A88
330
2
100
AcDbEntity
  8
0
100
AcDbPolyline
 90
       38
 70
     1
 43
0.12
 10
507.7278994774435
 20
85.37761844688001
 10
502.7278994774435
 20
85.37761844687977
 10
502.7278994774435
 20
85.62761844687978
 10
502.2661566959373
 20
85.70207382765913
 42
-0.8516685226452354
 10
502.2661566959375
 20
87.55316306610044
 10
502.7278994774435
 20
87.62761844687977
 10
502.7278994774435
 20
88.31511844687966
 10
504.1698180978052
 20
88.86914194480757
 10
505.0101260399434
 20
89.56084598594229
 10
505.5325869774434
 20
90.24505008750489
 10
505.8265322899434
 20
90.7688537984424
 10
505.9153994774435
 20
91.19011844687989
 10
505.8226260399434
 20
91.56670536094239
 10
505.5716494774434
 20
91.95647586875489
 10
504.7278994774434
 20
92.56511844687977
 10
504.7278994774432
 20
93.00261844687979
 10
504.4705026966018
 20
93.08636278117594
 42
-0.8381635747139435
 10
504.5599074748268
 20
94.35982230767789
 10
504.7278994774432
 20
94.37761844687978
 10
507.7278994774434
 20
94.37761844687988
 10
510.7278994774435
 20
94.37761844687988
 10
510.89589148006
 20
94.359822307678
 42
-0.8381635747139435
 10
510.985296258285
 20
93.08636278117607
 10
510.7278994774435
 20
93.00261844687989
 10
510.7278994774434
 20
92.5651184468799
 10
509.8841494774435
 20
91.95647586875489
 10
509.6331729149435
 20
91.56670536094239
 10
509.5403994774434
 20
91.19011844687989
 10
509.6292666649435
 20
90.7688537984424
 10
509.9232119774435
 20
90.24505008750489
 10
510.4456729149435
 20
89.56084598594239
 10
511.2859808570817
 20
88.8691419448077
 10
512.7278994774434
 20
88.31511844687979
 10
512.7278994774435
 20
87.6276184468799
 10
513.1896422589496
 20
87.55316306610055
 42
-0.8516685226452354
 10
513.1896422589496
 20
85.70207382765923
 10
512.7278994774435
 20
85.62761844687988
 10
512.7278994774435
 20
85.3776184468799
  0
INSERT
  5
A89
330
2
100
AcDbEntity
  8
A1
 62
     7
100
AcDbBlockReference
 66
     1
  2
PROFILE LOGO
 10
502.8027219247697
 20
87.49664310736889
 30
0.0
  0
ATTRIB
  5
A8A
330
A89
100
AcDbEntity
  8
A1
 62
    22
100
AcDbText
 10
503.0848561670899
 20
85.81834485846233
 30
0.0
 40
0.2126953125
  1
1578
 72
     1
 11
503.4808523300506
 21
85.81834485846233
 31
0.0
100
AcDbAttribute
  2
XXXX
 70
     0
  0
SEQEND
  5
A8B
330
A89
100
AcDbEntity
  8
A1
 62
     7
  0
LINE
  5
A8C
330
2
100
AcDbEntity
  8
0
 62
     1
100
AcDbLine
 10
507.7278994774433
 20
94.7526184468799
 30
0.0
 11
510.9778994774435
 21
94.7526184468799
 31
0.0
  0
LINE
  5
A8D
330
2
100
AcDbEntity
  8
0
100
AcDbLine
 10
512.7278994774435
 20
85.3776184468799
 30
0.0
 11
512.7278994774435
 21
85.62761844687988
 31
0.0
  0
DIMENSION
  5
A9C
330
2
100
AcDbEntity
  8
A1
 62
     7
100
AcDbDimension
  2
*D4
 10
502.7278994774435
 20
81.31207573970074
 30
0.0
 11
508.2125392055835
 21
81.31207573970074
 31
0.0
 70
   160
  1
%%C<>
 71
     5
 42
-1.0
  3
STANDARD
100
AcDbAlignedDimension
 13
512.7278994774435
 23
85.3776184468799
 33
0.0
 14
502.7278994774435
 24
85.37761844687977
 34
0.0
100
AcDbRotatedDimension
1001
ACAD
1000
DSTYLE
1002
{
1070
   287
1070
     4
1070
    40
1040
1.12
1070
    73
1070
     1
1070
    74
1070
     1
1070
    77
1070
     0
1070
   147
1040
0.5
1070
   279
1070
     1
1070
   288
1070
     1
1070
   289
1070
     3
1002
}
  0
DIMENSION
  5
AAA
330
2
100
AcDbEntity
  8
A1
 62
     7
100
AcDbDimension
  2
*D5
 10
501.4779258183904
 20
78.79283910091486
 30
0.0
 11
508.2125392055835
 21
78.79283910091486
 31
0.0
 70
   160
  1
%%C<>
 71
     5
 42
-1.0
  3
STANDARD
100
AcDbAlignedDimension
 13
513.9778801299384
 23
86.62159547441346
 33
0.0
 14
501.4779258183904
 24
86.62059074586862
 34
0.0
100
AcDbRotatedDimension
1001
ACAD
1000
DSTYLE
1002
{
1070
   287
1070
     4
1070
    40
1040
1.12
1070
    73
1070
     1
1070
    74
1070
     1
1070
    77
1070
     0
1070
   147
1040
0.5
1070
   279
1070
     1
1070
   288
1070
     1
1070
   289
1070
     3
1002
}
  0
DIMENSION
  5
AEB
330
2
100
AcDbEntity
  8
A1
 62
     7
100
AcDbDimension
  2
*D6
 10
516.7044596712931
 20
119.3440878098774
 30
0.0
 11
507.9608173979485
 21
119.3440878098774
 31
0.0
 70
   160
  1
%%C18"
 71
     5
 42
-1.0
  3
STANDARD
100
AcDbAlignedDimension
 13
498.7505072684183
 23
102.9523613478419
 33
0.0
 14
516.7044596712931
 24
103.0382658532905
 34
0.0
100
AcDbRotatedDimension
1001
ACAD
1000
DSTYLE
1002
{
1070
   287
1070
     4
1070
    40
1040
1.12
1070
    73
1070
     1
1070
    74
1070
     1
1070
    77
1070
     0
1070
   147
1040
0.5
1070
   279
1070
     1
1070
   288
1070
     1
1070
   289
1070
     3
1002
}
  0
LINE
  5
AFB
330
2
100
AcDbEntity
  8
0
 62
     1
100
AcDbLine
 10
517.184829863614
 20
117.1458156483302
 30
0.0
 11
537.8974787560107
 21
117.1458156483302
 31
0.0
  0
INSERT
  5
B31
330
2
100
AcDbEntity
  8
A1
 62
     7
100
AcDbBlockReference
 66
     1
  2
TSFORMB
 10
469.6776045268619
 20
64.88017229999119
 30
0.0
 41
0.7560000000000002
 42
0.7560000000000002
 43
0.7560000000000002
  0
ATTRIB
  5
B32
330
B31
100
AcDbEntity
  8
A1
 62
     1
100
AcDbText
 10
544.3357729716892
 20
70.33814349331965
 30
0.0
 40
0.7144200000000004
  1
287.48
 72
     1
 11
546.1408100375998
 21
70.33814349331965
 31
0.0
100
AcDbAttribute
  2
XXXXX
 70
     0
  0
ATTRIB
  5
B33
330
B31
100
AcDbEntity
  8
A1
 62
     1
100
AcDbText
 10
544.1309737181068
 20
72.49989963793616
 30
0.0
 40
0.7144200000000004
  1
318.44"
 72
     1
 11
546.1666403446128
 21
72.49989963793616
 31
0.0
100
AcDbAttribute
  2
XXXXX
 70
     0
  0
ATTRIB
  5
B34
330
B31
100
AcDbEntity
  8
A1
 62
     1
100
AcDbText
 10
540.1937389730995
 20
120.3705846473221
 30
0.0
 40
1.571724
  1
TSD003
 72
     1
 11
544.6749903210795
 21
120.3705846473221
 31
0.0
100
AcDbAttribute
  2
TS00XX
 70
     0
  0
ATTRIB
  5
B35
330
B31
100
AcDbEntity
  8
A1
 62
     1
100
AcDbText
 10
474.8158108462194
 20
67.23735217866021
 30
0.0
 40
4.635792000000001
  1
TSD003
  7
barcoder
 72
     1
 11
479.3936554462194
 21
67.23735217866021
 31
0.0
100
AcDbAttribute
  2
BARCODE
 70
     0
  0
ATTRIB
  5
B36
330
B31
100
AcDbEntity
  8
A1
 62
     1
100
AcDbText
 10
482.3510053839291
 20
66.2976864402951
 30
0.0
 40
0.6350400000000002
  1
TSD003
 72
     2
 11
485.9722185944182
 21
66.2976864402951
 31
0.0
100
AcDbAttribute
  2
XXXXXX
 70
     0
  0
ATTRIB
  5
B37
330
B31
100
AcDbEntity
  8
A1
 62
     1
100
AcDbText
 10
495.1115188137992
 20
65.57303431742544
 30
0.0
 40
0.7753457376
  1
BALL AND PEDESTAL
 72
     1
 11
500.8702880058955
 21
65.57303431742544
 31
0.0
100
AcDbAttribute
  2
XXXXXX
 70
     0
  0
SEQEND
  5
B38
330
B31
100
AcDbEntity
  8
A1
 62
     7
  0
DIMENSION
  5
B97
330
2
100
AcDbEntity
  8
A1
 62
     7
100
AcDbDimension
  2
*D8
 10
526.4870298659205
 20
111.8855501527114
 30
0.0
 11
526.4870298659205
 21
98.43324237998794
 31
0.0
 70
   160
 71
     5
 42
-1.0
  3
STANDARD
100
AcDbAlignedDimension
 13
512.7278994774435
 23
85.3776184468799
 33
0.0
 14
507.8034962398178
 24
111.8855501527114
 34
0.0
 50
90.0
100
AcDbRotatedDimension
1001
ACAD
1000
DSTYLE
1002
{
1070
   287
1070
     4
1070
    40
1040
1.12
1070
    73
1070
     1
1070
    74
1070
     1
1070
    77
1070
     0
1070
   147
1040
0.5
1070
   279
1070
     1
1070
   288
1070
     1
1070
   289
1070
     3
1002
}
  0
DIMENSION
  5
BA5
330
2
100
AcDbEntity
  8
A1
 62
     7
100
AcDbDimension
  2
*D9
 10
491.2595338594066
 20
94.35982230767789
 30
0.0
 11
491.2595338594066
 21
89.87980460481381
 31
0.0
 70
   160
 71
     5
 42
-1.0
  3
STANDARD
100
AcDbAlignedDimension
 13
501.7278994774435
 23
85.37761844687977
 33
0.0
 14
503.5599074748268
 24
94.35982230767789
 34
0.0
 50
90.0
100
AcDbRotatedDimension
1001
ACAD
1000
DSTYLE
1002
{
1070
   287
1070
     4
1070
    40
1040
1.12
1070
    73
1070
     1
1070
    74
1070
     1
1070
    77
1070
     0
1070
   147
1040
0.5
1070
   279
1070
     1
1070
   288
1070
     1
1070
   289
1070
     3
1002
}
  0
DIMENSION
  5
BB3
330
2
100
AcDbEntity
  8
A1
 62
     7
100
AcDbDimension
  2
*D10
 10
491.2595338594066
 20
111.9584269845031
 30
0.0
 11
491.2595338594066
 21
103.063084930986
 31
0.0
 70
   160
 71
     5
 42
-1.0
  3
STANDARD
100
AcDbAlignedDimension
 13
502.9778994774433
 23
94.7526184468799
 33
0.0
 14
506.8611314924508
 24
111.9584269845031
 34
0.0
 50
90.0
100
AcDbRotatedDimension
1001
ACAD
1000
DSTYLE
1002
{
1070
   287
1070
     4
1070
    40
1040
1.12
1070
    73
1070
     1
1070
    74
1070
     1
1070
    77
1070
     0
1070
   147
1040
0.5
1070
   279
1070
     1
1070
   288
1070
     1
1070
   289
1070
     3
1002
}
  0
LINE
  5
C54
330
2
100
AcDbEntity
  8
0
 62
     1
100
AcDbLine
 10
522.1366039778931
 20
105.8111654919249
 30
0.0
 11
525.8562914720003
 21
105.8111654919249
 31
0.0
  0
ATTDEF
  5
C57
330
2
100
AcDbEntity
  8
A1
 62
     1
100
AcDbText
 10
531.773437052431
 20
105.3657908995022
 30
0.0
 40
1.199999999999999
  1

100
AcDbAttributeDefinition
  3
ADD LINK NUMBER (WMF)
  2
TS1536
 70
     0
  0
LINE
  5
C58
330
2
100
AcDbEntity
  8
0
 62
     1
100
AcDbLine
 10
531.1892406335378
 20
104.8358515205414
 30
0.0
 11
531.1892406335378
 21
106.7864794633084
 31
0.0
  0
SOLID
  5
C59
330
2
100
AcDbEntity
  8
A1
 62
     1
100
AcDbTrace
 10
517.1815445216688
 20
102.3125486882112
 30
0.0
 11
517.0762370064793
 21
102.4666745189114
 31
0.0
 12
516.6665132719734
 22
102.0736890579923
 32
0.0
 13
516.6665132719734
 23
102.0736890579923
 33
0.0
  0
LINE
  5
C5A
330
2
100
AcDbEntity
  8
A1
 62
     1
100
AcDbLine
 10
517.128890764074
 20
102.3896116035613
 30
0.0
 11
522.1366039778931
 21
105.8111654919249
 31
0.0
  0
LINE
  5
C5E
330
2
100
AcDbEntity
  8
0
 62
     1
100
AcDbLine
 10
527.1892523099402
 20
105.8111654919249
 30
0.0
 11
531.1892406335378
 21
105.8111654919249
 31
0.0
  0
ENDSEC
  0
SECTION
  2
OBJECTS
  0
DICTIONARY
  5
8
330
0
100
AcDbDictionary
281
     1
  3
ACAD_GROUP
350
21
  3
ACAD_LAYOUT
350
C
  3
ACAD_MLINESTYLE
350
22
  3
ACAD_PLOTSETTINGS
350
23
  3
ACAD_PLOTSTYLENAME
350
7
  3
ASE_INDEX_DICTIONARY
350
5E2
  3
DWGPROPS
350
BDF
  0
DICTIONARY
  5
3
330
2
100
AcDbDictionary
280
     1
281
     1
  3
ACAD_LAYOUTSELFREF
360
C87
  0
DICTIONARY
  5
C0B
330
D
100
AcDbDictionary
280
     1
281
     1
  3
ACAD_LAYOUTSELFREF
360
C8A
  0
DICTIONARY
  5
21
102
{ACAD_REACTORS
330
8
102
}
330
8
100
AcDbDictionary
281
     1
  0
DICTIONARY
  5
C
102
{ACAD_REACTORS
330
8
102
}
330
8
100
AcDbDictionary
281
     1
  3
Layout1
350
10
  3
Model
350
B
  0
DICTIONARY
  5
22
102
{ACAD_REACTORS
330
8
102
}
330
8
100
AcDbDictionary
281
     1
  3
STANDARD
350
25
  0
DICTIONARY
  5
23
102
{ACAD_REACTORS
330
8
102
}
330
8
100
AcDbDictionary
281
     1
  0
ACDBDICTIONARYWDFLT
  5
7
102
{ACAD_REACTORS
330
8
102
}
330
8
100
AcDbDictionary
281
     1
  3
Normal
350
6
100
AcDbDictionaryWithDefault
340
6
  0
DICTIONARY
  5
5E2
102
{ACAD_REACTORS
330
8
102
}
330
8
100
AcDbDictionary
281
     1
  3
ASEBlockHierarchyIndexRecord
350
5E4
1001
DCO15
1040
1362991854.339999
  0
XRECORD
  5
BDF
102
{ACAD_REACTORS
330
8
102
}
330
8
100
AcDbXrecord
280
     1
  1
DWGPROPS COOKIE
  2

  3

  4

  6

  7

  8
catalog
  9

300
=
301
=
302
=
303
=
304
=
305
=
306
=
307
=
308
=
309
=
 40
2.440007175925925
 41
2451085.66483831
 42
2451642.662121643
  1

 90
        0
  0
XRECORD
  5
C87
102
{ACAD_REACTORS
330
3
102
}
330
3
100
AcDbXrecord
280
     1
340
2
  0
XRECORD
  5
C8A
102
{ACAD_REACTORS
330
C0B
102
}
330
C0B
100
AcDbXrecord
280
     1
340
D
  0
LAYOUT
  5
10
102
{ACAD_REACTORS
330
C
102
}
330
C
100
AcDbPlotSettings
  1

  2
None
  4

  6

 40
0.0
 41
0.0
 42
0.0
 43
0.0
 44
0.0
 45
0.0
 46
0.0
 47
0.0
 48
0.0
 49
0.0
140
0.0
141
0.0
142
1.0
143
1.0
 70
   688
 72
     0
 73
     0
 74
     5
  7

 75
    16
147
1.0
148
0.0
149
0.0
100
AcDbLayout
  1
Layout1
 70
     1
 71
     1
 10
0.0
 20
0.0
 11
12.0
 21
9.0
 12
0.0
 22
0.0
 32
0.0
 14
1.000000000000000E+20
 24
1.000000000000000E+20
 34
1.000000000000000E+20
 15
-1.000000000000000E+20
 25
-1.000000000000000E+20
 35
-1.000000000000000E+20
146
0.0
 13
0.0
 23
0.0
 33
0.0
 16
1.0
 26
0.0
 36
0.0
 17
0.0
 27
1.0
 37
0.0
 76
     0
330
D
  0
LAYOUT
  5
B
102
{ACAD_REACTORS
330
C
102
}
330
C
100
AcDbPlotSettings
  1

  2
HP LaserJet 5.pc3
  4
Letter
  6

 40
7.143749713897705
 41
6.381738662719726
 42
7.14373779296875
 43
6.381744384765625
 44
215.8999938964843
 45
279.3999938964843
 46
0.0
 47
0.0
 48
621.3757168041145
 49
474.7940657922356
140
776.0405273297699
141
524.8962291405273
142
1.0
143
7.638277914979424
 70
 11952
 72
     0
 73
     1
 74
     1
  7

 75
     0
147
0.130919562122622
148
-11929.40289793694
149
-1647.795860337156
100
AcDbLayout
  1
Model
 70
     1
 71
     0
 10
0.0
 20
0.0
 11
12.0
 21
9.0
 12
0.0
 22
0.0
 32
0.0
 14
0.0
 24
0.0
 34
0.0
 15
0.0
 25
0.0
 35
0.0
146
0.0
 13
0.0
 23
0.0
 33
0.0
 16
1.0
 26
0.0
 36
0.0
 17
0.0
 27
1.0
 37
0.0
 76
     0
330
2
  0
MLINESTYLE
  5
25
102
{ACAD_REACTORS
330
22
102
}
330
22
100
AcDbMlineStyle
  2
STANDARD
 70
     0
  3

 62
   256
 51
90.0
 52
90.0
 71
     2
 49
0.5
 62
   256
  6
BYLAYER
 49
-0.5
 62
   256
  6
BYLAYER
  0
ACDBPLACEHOLDER
  5
6
102
{ACAD_REACTORS
330
7
102
}
330
7
  0
XRECORD
  5
5E4
102
{ACAD_REACTORS
330
5E2
102
}
330
5E2
100
AcDbXrecord
280
     1
330
27
330
0
330
0
330
5A3
  0
ENDSEC
  0
EOF
