  0
SECTION
  2
HEADER
  9
$ACADVER
  1
AC1015
  9
$ACADMAINTVER
 70
     6
  9
$DWGCODEPAGE
  3
ANSI_1252
  9
$INSBASE
 10
0.0
 20
0.0
 30
0.0
  9
$EXTMIN
 10
694.587835746993
 20
926.8263437096347
 30
0.0
  9
$EXTMAX
 10
967.5572139063559
 20
1129.888929901355
 30
0.0
  9
$LIMMIN
 10
0.0
 20
0.0
  9
$LIMMAX
 10
12.0
 20
9.0
  9
$ORTHOMODE
 70
     1
  9
$REGENMODE
 70
     1
  9
$FILLMODE
 70
     1
  9
$QTEXTMODE
 70
     0
  9
$MIRRTEXT
 70
     0
  9
$LTSCALE
 40
1.0
  9
$ATTMODE
 70
     2
  9
$TEXTSIZE
 40
1.0
  9
$TRACEWID
 40
0.05
  9
$TEXTSTYLE
  7
STANDARD
  9
$CLAYER
  8
TEXT
  9
$CELTYPE
  6
BYLAYER
  9
$CECOLOR
 62
     7
  9
$CELTSCALE
 40
1.0
  9
$DISPSILH
 70
     0
  9
$DIMSCALE
 40
4.0
  9
$DIMASZ
 40
0.5
  9
$DIMEXO
 40
1.0
  9
$DIMDLI
 40
0.0625
  9
$DIMRND
 40
0.0
  9
$DIMDLE
 40
0.0
  9
$DIMEXE
 40
0.25
  9
$DIMTP
 40
0.0
  9
$DIMTM
 40
0.0
  9
$DIMTXT
 40
1.0
  9
$DIMCEN
 40
0.0
  9
$DIMTSZ
 40
0.0
  9
$DIMTOL
 70
     0
  9
$DIMLIM
 70
     0
  9
$DIMTIH
 70
     1
  9
$DIMTOH
 70
     1
  9
$DIMSE1
 70
     0
  9
$DIMSE2
 70
     0
  9
$DIMTAD
 70
     0
  9
$DIMZIN
 70
     0
  9
$DIMBLK
  1

  9
$DIMASO
 70
     1
  9
$DIMSHO
 70
     1
  9
$DIMPOST
  1
"
  9
$DIMAPOST
  1

  9
$DIMALT
 70
     0
  9
$DIMALTD
 70
     0
  9
$DIMALTF
 40
25.4
  9
$DIMLFAC
 40
1.0
  9
$DIMTOFL
 70
     0
  9
$DIMTVP
 40
0.0
  9
$DIMTIX
 70
     0
  9
$DIMSOXD
 70
     0
  9
$DIMSAH
 70
     0
  9
$DIMBLK1
  1

  9
$DIMBLK2
  1

  9
$DIMSTYLE
  2
STANDARD
  9
$DIMCLRD
 70
     0
  9
$DIMCLRE
 70
     0
  9
$DIMCLRT
 70
     0
  9
$DIMTFAC
 40
0.125
  9
$DIMGAP
 40
0.5
  9
$DIMJUST
 70
     0
  9
$DIMSD1
 70
     0
  9
$DIMSD2
 70
     0
  9
$DIMTOLJ
 70
     1
  9
$DIMTZIN
 70
     0
  9
$DIMALTZ
 70
     2
  9
$DIMALTTZ
 70
     2
  9
$DIMUPT
 70
     1
  9
$DIMDEC
 70
     4
  9
$DIMTDEC
 70
     4
  9
$DIMALTU
 70
     2
  9
$DIMALTTD
 70
     0
  9
$DIMTXSTY
  7
STANDARD
  9
$DIMAUNIT
 70
     0
  9
$DIMADEC
 70
     0
  9
$DIMALTRND
 40
0.0
  9
$DIMAZIN
 70
     0
  9
$DIMDSEP
 70
    46
  9
$DIMATFIT
 70
     1
  9
$DIMFRAC
 70
     2
  9
$DIMLDRBLK
  1

  9
$DIMLUNIT
 70
     5
  9
$DIMLWD
 70
    -2
  9
$DIMLWE
 70
    -2
  9
$DIMTMOVE
 70
     1
  9
$LUNITS
 70
     5
  9
$LUPREC
 70
     4
  9
$SKETCHINC
 40
0.1
  9
$FILLETRAD
 40
0.03125
  9
$AUNITS
 70
     0
  9
$AUPREC
 70
     1
  9
$MENU
  1
acad
  9
$ELEVATION
 40
0.0
  9
$PELEVATION
 40
0.0
  9
$THICKNESS
 40
0.0
  9
$LIMCHECK
 70
     0
  9
$CHAMFERA
 40
0.75
  9
$CHAMFERB
 40
0.75
  9
$CHAMFERC
 40
0.0
  9
$CHAMFERD
 40
0.0
  9
$SKPOLY
 70
     0
  9
$TDCREATE
 40
2451085.664838310
  9
$TDUCREATE
 40
2451085.831504976
  9
$TDUPDATE
 40
2451661.329034143
  9
$TDUUPDATE
 40
2451661.495700810
  9
$TDINDWG
 40
3.7793703704
  9
$TDUSRTIMER
 40
3.7793703704
  9
$USRTIMER
 70
     1
  9
$ANGBASE
 50
0.0
  9
$ANGDIR
 70
     0
  9
$PDMODE
 70
     0
  9
$PDSIZE
 40
0.0
  9
$PLINEWID
 40
0.12
  9
$SPLFRAME
 70
     0
  9
$SPLINETYPE
 70
     6
  9
$SPLINESEGS
 70
     8
  9
$HANDSEED
  5
9910
  9
$SURFTAB1
 70
     6
  9
$SURFTAB2
 70
     6
  9
$SURFTYPE
 70
     6
  9
$SURFU
 70
     6
  9
$SURFV
 70
     6
  9
$UCSBASE
  2

  9
$UCSNAME
  2

  9
$UCSORG
 10
0.0
 20
0.0
 30
0.0
  9
$UCSXDIR
 10
1.0
 20
0.0
 30
0.0
  9
$UCSYDIR
 10
0.0
 20
1.0
 30
0.0
  9
$UCSORTHOREF
  2

  9
$UCSORTHOVIEW
 70
     0
  9
$UCSORGTOP
 10
0.0
 20
0.0
 30
0.0
  9
$UCSORGBOTTOM
 10
0.0
 20
0.0
 30
0.0
  9
$UCSORGLEFT
 10
0.0
 20
0.0
 30
0.0
  9
$UCSORGRIGHT
 10
0.0
 20
0.0
 30
0.0
  9
$UCSORGFRONT
 10
0.0
 20
0.0
 30
0.0
  9
$UCSORGBACK
 10
0.0
 20
0.0
 30
0.0
  9
$PUCSBASE
  2

  9
$PUCSNAME
  2

  9
$PUCSORG
 10
0.0
 20
0.0
 30
0.0
  9
$PUCSXDIR
 10
1.0
 20
0.0
 30
0.0
  9
$PUCSYDIR
 10
0.0
 20
1.0
 30
0.0
  9
$PUCSORTHOREF
  2

  9
$PUCSORTHOVIEW
 70
     0
  9
$PUCSORGTOP
 10
0.0
 20
0.0
 30
0.0
  9
$PUCSORGBOTTOM
 10
0.0
 20
0.0
 30
0.0
  9
$PUCSORGLEFT
 10
0.0
 20
0.0
 30
0.0
  9
$PUCSORGRIGHT
 10
0.0
 20
0.0
 30
0.0
  9
$PUCSORGFRONT
 10
0.0
 20
0.0
 30
0.0
  9
$PUCSORGBACK
 10
0.0
 20
0.0
 30
0.0
  9
$USERI1
 70
     0
  9
$USERI2
 70
     0
  9
$USERI3
 70
     0
  9
$USERI4
 70
     0
  9
$USERI5
 70
     0
  9
$USERR1
 40
0.0
  9
$USERR2
 40
0.0
  9
$USERR3
 40
0.0
  9
$USERR4
 40
0.0
  9
$USERR5
 40
0.0
  9
$WORLDVIEW
 70
     1
  9
$SHADEDGE
 70
     1
  9
$SHADEDIF
 70
    70
  9
$TILEMODE
 70
     1
  9
$MAXACTVP
 70
    16
  9
$PINSBASE
 10
0.0
 20
0.0
 30
0.0
  9
$PLIMCHECK
 70
     0
  9
$PEXTMIN
 10
1.000000000000000E+20
 20
1.000000000000000E+20
 30
1.000000000000000E+20
  9
$PEXTMAX
 10
-1.000000000000000E+20
 20
-1.000000000000000E+20
 30
-1.000000000000000E+20
  9
$PLIMMIN
 10
0.0
 20
0.0
  9
$PLIMMAX
 10
12.0
 20
9.0
  9
$UNITMODE
 70
     0
  9
$VISRETAIN
 70
     0
  9
$PLINEGEN
 70
     0
  9
$PSLTSCALE
 70
     1
  9
$TREEDEPTH
 70
  3020
  9
$CMLSTYLE
  2
STANDARD
  9
$CMLJUST
 70
     0
  9
$CMLSCALE
 40
1.0
  9
$PROXYGRAPHICS
 70
     1
  9
$MEASUREMENT
 70
     0
  9
$CELWEIGHT
370
    13
  9
$ENDCAPS
280
     0
  9
$JOINSTYLE
280
     0
  9
$LWDISPLAY
290
     0
  9
$INSUNITS
 70
     0
  9
$HYPERLINKBASE
  1

  9
$STYLESHEET
  1

  9
$XEDIT
290
     1
  9
$CEPSNTYPE
380
     0
  9
$PSTYLEMODE
290
     1
  9
$FINGERPRINTGUID
  2
{A6232B84-9B2E-11D3-8DA4-00A0C981A35F}
  9
$VERSIONGUID
  2
{109DEC37-1B47-11D4-8DA4-00A0C981A35F}
  9
$EXTNAMES
290
     1
  9
$PSVPSCALE
 40
0.0
  9
$OLESTARTUP
290
     0
  0
ENDSEC
  0
SECTION
  2
CLASSES
  0
CLASS
  1
DICTIONARYVAR
  2
AcDbDictionaryVar
  3
AutoCAD 2000
 90
    32768
280
     0
281
     0
  0
CLASS
  1
LWPOLYLINE
  2
AcDbPolyline
  3
AutoCAD 2000
 90
    32768
280
     0
281
     1
  0
CLASS
  1
RASTERVARIABLES
  2
AcDbRasterVariables
  3
ISM
 90
    32768
280
     0
281
     0
  0
CLASS
  1
ACDBDICTIONARYWDFLT
  2
AcDbDictionaryWithDefault
  3
AutoCAD 2000
 90
        0
280
     0
281
     0
  0
CLASS
  1
ACDBPLACEHOLDER
  2
AcDbPlaceHolder
  3
AutoCAD 2000
 90
        0
280
     0
281
     0
  0
CLASS
  1
LAYOUT
  2
AcDbLayout
  3
AutoCAD 2000
 90
        0
280
     0
281
     0
  0
CLASS
  1
ACME_DOCUMENT
  2
AcMeDbDoc
  3
AcMeServices
 90
    32768
280
     1
281
     0
  0
CLASS
  1
ACMESCOPE
  2
AcMeScope
  3
AcMeServices
 90
    32768
280
     1
281
     0
  0
CLASS
  1
ACMECOMMANDHISTORY
  2
AcMeCommandHistory
  3
AcMeServices
 90
    32768
280
     1
281
     0
  0
CLASS
  1
ACIMSYSVARMAN
  2
AcImSysVarManager
  3
AcMeServices
 90
    32768
280
     1
281
     0
  0
CLASS
  1
ACIMREALSYSVAR
  2
AcImRealSysVar
  3
AcMeServices
 90
    32768
280
     1
281
     0
  0
CLASS
  1
ACIMINTSYSVAR
  2
AcImIntSysVar
  3
AcMeServices
 90
    32768
280
     1
281
     0
  0
CLASS
  1
ACMEDRAWINGMAN
  2
AcMeDrawingMan
  3
AcMeServices
 90
    32768
280
     1
281
     0
  0
CLASS
  1
ACMEVIEW
  2
AcMeView
  3
AcMeServices
 90
    32768
280
     1
281
     0
  0
CLASS
  1
ACDBENTITYCACHE
  2
AcMeEntityCache
  3
AcMeServices
 90
    32768
280
     1
281
     0
  0
CLASS
  1
GSMANAGER
  2
AcMeGSManager
  3
AcMeServices
 90
    32768
280
     1
281
     0
  0
CLASS
  1
AmdtInternalReactor
  2
AmdtInternalReactor
  3
AcMeServices
 90
    32768
280
     1
281
     0
  0
CLASS
  1
ACMESTATEMGR
  2
AcMeStateMgr
  3
AcMeServices
 90
    32768
280
     1
281
     0
  0
CLASS
  1
ACGREFMASTER
  2
AcGrefMaster
  3
AcAttribServices
 90
    32768
280
     1
281
     0
  0
CLASS
  1
AM_DRAWING_MGR
  2
AcDmDwgMgr
  3
AcMechDwgViewMgmt
 90
    32768
280
     1
281
     0
  0
CLASS
  1
AM_DWG_DOCUMENT
  2
AcDmDwgDocument
  3
AcMechDwgViewMgmt
 90
    32768
280
     1
281
     0
  0
CLASS
  1
AM_DWG_SHEET
  2
AcDmSheet
  3
AcMechDwgViewMgmt
 90
    32768
280
     1
281
     0
  0
CLASS
  1
AM_VIEWDIMPARMAP
  2
AcDmViewDimParMap
  3
AcMechDwgViewMgmt
 90
    32768
280
     1
281
     0
  0
CLASS
  1
AM_DWGMGR_NAME
  2
AcDmDwgMgrName
  3
AcMechDwgViewMgmt
 90
    32768
280
     1
281
     0
  0
CLASS
  1
ACME_DATABASE
  2
AcMeDbDatabase
  3
AcMeServices
 90
    32768
280
     1
281
     0
  0
CLASS
  1
ACRFINSADJUSTERMGR
  2
AcRfInsAdjusterMgr
  3
AcMeServices
 90
    32768
280
     1
281
     0
  0
CLASS
  1
ACGREFMASTER
  2
AcGrefacadMaster
  3
AcGrefServices
 90
    32768
280
     1
281
     0
  0
CLASS
  1
AMDTMENUSTATEMGR
  2
AmdtMenuStateMgr
  3
McadcomServices
 90
    32768
280
     1
281
     0
  0
CLASS
  1
AMDTMCOMMENUSTATE
  2
AmdtMcomMenuState
  3
McadcomServices
 90
    32768
280
     1
281
     0
  0
CLASS
  1
ASAPP
  2
AcAsAppObject
  3
AutoSurfServices
 90
    32768
280
     1
281
     0
  0
CLASS
  1
IM_STATIC_MAN
  2
AcImStaticVarManager
  3
AcMeServices
 90
    32768
280
     1
281
     0
  0
CLASS
  1
ACIMSTRSYSVAR
  2
AcImStrSysVar
  3
AcMeServices
 90
    32768
280
     1
281
     0
  0
CLASS
  1
ACIMDBLSTATICVAR
  2
AcImDblStaticVar
  3
AcMeServices
 90
    32768
280
     1
281
     0
  0
CLASS
  1
ACIMSTRSTATICVAR
  2
AcImStrStaticVar
  3
AcMeServices
 90
    32768
280
     1
281
     0
  0
CLASS
  1
ACIMINTSTATICVAR
  2
AcImIntStaticVar
  3
AcMeServices
 90
    32768
280
     1
281
     0
  0
CLASS
  1
ACADGREFMODULE
  2
AcAdGrefModule
  3
AdGrefServices
 90
    32768
280
     1
281
     0
  0
CLASS
  1
AMIMASTER
  2
AmiMaster
  3
AmiServices
 90
    32768
280
     1
281
     0
  0
CLASS
  1
ACASGREFMASTER
  2
AcAsGrefMaster
  3
AutoSurfResolverServices
 90
    32768
280
     1
281
     0
  0
CLASS
  1
MAPIAMMOUDLE
  2
MApiAmModule
  3
MApiAmServices
 90
    32768
280
     1
281
     0
  0
CLASS
  1
AMDTDMMENUSTATE
  2
AmdtDmMenuState
  3
AcMechDwgViewMgmt
 90
    32768
280
     1
281
     0
  0
CLASS
  1
AMDTADMENUSTATE
  2
AmdtAdMenuState
  3
DesignerServices
 90
    32768
280
     1
281
     0
  0
CLASS
  1
ADAPPL
  2
AcAdAppl
  3
DesignerServices
 90
    32768
280
     1
281
     0
  0
CLASS
  1
DEPMGR
  2
AcAdDepMgr
  3
DesignerServices
 90
    32768
280
     1
281
     0
  0
CLASS
  1
PARAMMGR
  2
AcAdParamMgr
  3
DesignerServices
 90
    32768
280
     1
281
     0
  0
CLASS
  1
PARAMSCOPE
  2
AcAdParamScope
  3
DesignerServices
 90
    32768
280
     1
281
     0
  0
CLASS
  1
NAMEDAPPL
  2
AcAdNamedAppl
  3
DesignerServices
 90
    32768
280
     1
281
     0
  0
CLASS
  1
ADHNTMPLT
  2
AdHoleNoteTemplateMgr
  3
DesignerServices
 90
    32768
280
     1
281
     0
  0
CLASS
  1
AM_HNTEMPLATE_MGR_NAME
  2
AdHoleNoteTemplateMgrName
  3
DesignerServices
 90
    32768
280
     1
281
     0
  0
CLASS
  1
AMDTAMMENUSTATE
  2
AmdtAmMenuState
  3
DesignerAssemblies
 90
    32768
280
     1
281
     0
  0
CLASS
  1
ACAMPROJECT
  2
AcAmProject
  3
DesignerAssemblies
 90
    32768
280
     1
281
     0
  0
CLASS
  1
ACAMGRCOMPDEF
  2
AcAmGrCompDef
  3
DesignerAssemblies
 90
    32768
280
     1
281
     0
  0
CLASS
  1
ACCMCONTEXT
  2
AcCmContext
  3
DesignerAssemblies
 90
    32768
280
     1
281
     0
  0
CLASS
  1
ACAMCOMPDEF
  2
AcAmCompDef
  3
DesignerAssemblies
 90
    32768
280
     1
281
     0
  0
CLASS
  1
ACAMCOMPDEFMGR
  2
AcAmCompDefMgr
  3
DesignerAssemblies
 90
    32768
280
     1
281
     0
  0
CLASS
  1
AMCONTEXTMGR
  2
AcAmContextMgr
  3
DesignerAssemblies
 90
    32768
280
     1
281
     0
  0
CLASS
  1
ACAMCONTEXTMODELER
  2
AcAmContextModeler
  3
DesignerAssemblies
 90
    32768
280
     1
281
     0
  0
CLASS
  1
MAPIADMODULE
  2
MApiAdModule
  3
MApiAdServices
 90
    32768
280
     1
281
     0
  0
CLASS
  1
ACMDATADICTIONARY
  2
AcmDataDictionary
  3
"AcmSymBB|Product Description: AutoCAD Mechanical 2000|Company: Autodesk"
 90
    32768
280
     1
281
     0
  0
CLASS
  1
ACMDATAENTRYBLOCK
  2
AcmDataEntryBlock
  3
"AcmSymBB|Product Description: AutoCAD Mechanical 2000|Company: Autodesk"
 90
    32768
280
     1
281
     0
  0
CLASS
  1
AMDTBROWSERDBTAB
  2
AmdtBrowserDbTab
  3
McadcomServices
 90
    32768
280
     1
281
     0
  0
CLASS
  1
CBROWSERAPPOBJECT
  2
CBrowserAppObject
  3
McadcomServices
 90
    32768
280
     1
281
     0
  0
CLASS
  1
DM_PLACEHOLDER
  2
AcDmSelsetPlaceholder
  3
AcMechDwgViewMgmt
 90
    32768
280
     1
281
     0
  0
CLASS
  1
CATALOGSTATE
  2
AcAmCatalogState
  3
DesignerAssemblies
 90
    32768
280
     1
281
     0
  0
CLASS
  1
ACAMGRCOMPDEFSET
  2
AcAmGrCompDefSet
  3
DesignerAssemblies
 90
    32768
280
     1
281
     0
  0
CLASS
  1
AMGOBJPROPCFG
  2
AmgObjPropCfg
  3
"AmgLay|Product Description: AutoCAD Mechanical 2000|Company: Autodesk"
 90
    32769
280
     1
281
     0
  0
CLASS
  1
LAYER_INDEX
  2
AcDbLayerIndex
  3
AutoCAD 2000
 90
    32768
280
     0
281
     0
  0
CLASS
  1
IDBUFFER
  2
AcDbIdBuffer
  3
AutoCAD 2000
 90
    32768
280
     0
281
     0
  0
CLASS
  1
ACRFATTGENMGR
  2
AcRfAttGeneralMgr
  3
AcAttribServices
 90
    32768
280
     1
281
     0
  0
CLASS
  1
PLOTSETTINGS
  2
AcDbPlotSettings
  3
AutoCAD 2000
 90
        0
280
     0
281
     0
  0
CLASS
  1
VBA_PROJECT
  2
AcDbVbaProject
  3
acadvba
 90
    32768
280
     0
281
     0
  0
CLASS
  1
LONG_TRANSACTION
  2
AcDbLongTransaction
  3
AutoCAD 2000
 90
    32768
280
     0
281
     0
  0
CLASS
  1
LWPOLYLINE
  2
AcDbPolyline
  3
AutoCAD 2000
 90
    32768
280
     0
281
     1
  0
CLASS
  1
HATCH
  2
AcDbHatch
  3
AutoCAD 2000
 90
    32768
280
     0
281
     1
  0
CLASS
  1
XRECORD
  2
AcDbXrecord
  3
AutoCAD 2000
 90
    32768
280
     0
281
     0
  0
CLASS
  1
LONG_TRANSACTION
  2
AcDbLongTransaction
  3
AutoCAD 2000
 90
    32768
280
     0
281
     0
  0
CLASS
  1
LWPOLYLINE
  2
AcDbPolyline
  3
AutoCAD 2000
 90
    32768
280
     0
281
     1
  0
CLASS
  1
HATCH
  2
AcDbHatch
  3
AutoCAD 2000
 90
    32768
280
     0
281
     1
  0
CLASS
  1
XRECORD
  2
AcDbXrecord
  3
AutoCAD 2000
 90
    32768
280
     0
281
     0
  0
CLASS
  1
LONG_TRANSACTION
  2
AcDbLongTransaction
  3
AutoCAD 2000
 90
    32768
280
     0
281
     0
  0
CLASS
  1
LWPOLYLINE
  2
AcDbPolyline
  3
AutoCAD 2000
 90
    32768
280
     0
281
     1
  0
CLASS
  1
HATCH
  2
AcDbHatch
  3
AutoCAD 2000
 90
    32768
280
     0
281
     1
  0
CLASS
  1
XRECORD
  2
AcDbXrecord
  3
AutoCAD 2000
 90
    32768
280
     0
281
     0
  0
CLASS
  1
LONG_TRANSACTION
  2
AcDbLongTransaction
  3
AutoCAD 2000
 90
    32768
280
     0
281
     0
  0
CLASS
  1
LWPOLYLINE
  2
AcDbPolyline
  3
AutoCAD 2000
 90
    32768
280
     0
281
     1
  0
CLASS
  1
HATCH
  2
AcDbHatch
  3
AutoCAD 2000
 90
    32768
280
     0
281
     1
  0
CLASS
  1
XRECORD
  2
AcDbXrecord
  3
AutoCAD 2000
 90
    32768
280
     0
281
     0
  0
CLASS
  1
LONG_TRANSACTION
  2
AcDbLongTransaction
  3
AutoCAD 2000
 90
    32768
280
     0
281
     0
  0
CLASS
  1
LWPOLYLINE
  2
AcDbPolyline
  3
AutoCAD 2000
 90
    32768
280
     0
281
     1
  0
CLASS
  1
HATCH
  2
AcDbHatch
  3
AutoCAD 2000
 90
    32768
280
     0
281
     1
  0
CLASS
  1
XRECORD
  2
AcDbXrecord
  3
AutoCAD 2000
 90
    32768
280
     0
281
     0
  0
CLASS
  1
LONG_TRANSACTION
  2
AcDbLongTransaction
  3
AutoCAD 2000
 90
    32768
280
     0
281
     0
  0
CLASS
  1
LWPOLYLINE
  2
AcDbPolyline
  3
AutoCAD 2000
 90
    32768
280
     0
281
     1
  0
CLASS
  1
HATCH
  2
AcDbHatch
  3
AutoCAD 2000
 90
    32768
280
     0
281
     1
  0
CLASS
  1
XRECORD
  2
AcDbXrecord
  3
AutoCAD 2000
 90
    32768
280
     0
281
     0
  0
CLASS
  1
LONG_TRANSACTION
  2
AcDbLongTransaction
  3
AutoCAD 2000
 90
    32768
280
     0
281
     0
  0
CLASS
  1
LWPOLYLINE
  2
AcDbPolyline
  3
AutoCAD 2000
 90
    32768
280
     0
281
     1
  0
CLASS
  1
HATCH
  2
AcDbHatch
  3
AutoCAD 2000
 90
    32768
280
     0
281
     1
  0
CLASS
  1
XRECORD
  2
AcDbXrecord
  3
AutoCAD 2000
 90
    32768
280
     0
281
     0
  0
ENDSEC
  0
SECTION
  2
TABLES
  0
TABLE
  2
VPORT
  5
1B
330
0
100
AcDbSymbolTable
 70
     2
  0
VPORT
  5
990F
330
1B
100
AcDbSymbolTableRecord
100
AcDbViewportTableRecord
  2
*Active
 70
     0
 10
0.0
 20
0.0
 11
1.0
 21
1.0
 12
895.521932092757
 22
995.3342183616626
 13
0.0
 23
0.0
 14
1.0
 24
1.0
 15
0.0
 25
0.0
 16
0.0
 26
0.0
 36
1.0
 17
-64.46234487877643
 27
33.0238264231553
 37
6.148717398612387
 40
204.561909232111
 41
1.413068844807467
 42
50.0
 43
-6.148717398612387
 44
-6.148717398612387
 50
0.0
 51
0.0
 71
     0
 72
 20000
 73
     1
 74
     1
 75
     0
 76
     0
 77
     0
 78
     2
281
     0
 65
     1
110
0.0
120
0.0
130
0.0
111
1.0
121
0.0
131
0.0
112
0.0
122
1.0
132
0.0
 79
     0
146
0.0
  0
ENDTAB
  0
TABLE
  2
LTYPE
  5
16
330
0
100
AcDbSymbolTable
 70
     4
  0
LTYPE
  5
17
330
16
100
AcDbSymbolTableRecord
100
AcDbLinetypeTableRecord
  2
BYBLOCK
 70
     0
  3

 72
    65
 73
     0
 40
0.0
  0
LTYPE
  5
18
330
16
100
AcDbSymbolTableRecord
100
AcDbLinetypeTableRecord
  2
BYLAYER
 70
     0
  3

 72
    65
 73
     0
 40
0.0
  0
LTYPE
  5
9
330
16
100
AcDbSymbolTableRecord
100
AcDbLinetypeTableRecord
  2
CONTINUOUS
 70
     0
  3
Solid line
 72
    65
 73
     0
 40
0.0
  0
LTYPE
  5
6A
330
16
100
AcDbSymbolTableRecord
100
AcDbLinetypeTableRecord
  2
PHANTOM
 70
     0
  3
Phantom ______  __  __  ______  __  __  ______
 72
    65
 73
     6
 40
2.5
 49
1.25
 74
     0
 49
-0.25
 74
     0
 49
0.25
 74
     0
 49
-0.25
 74
     0
 49
0.25
 74
     0
 49
-0.25
 74
     0
  0
LTYPE
  5
8CFC
330
16
100
AcDbSymbolTableRecord
100
AcDbLinetypeTableRecord
  2
CENTER
 70
     0
  3
Center ____ _ ____ _ ____ _ ____ _ ____ _ ____
 72
    65
 73
     4
 40
2.0
 49
1.25
 74
     0
 49
-0.25
 74
     0
 49
0.25
 74
     0
 49
-0.25
 74
     0
  0
LTYPE
  5
8CFD
330
16
100
AcDbSymbolTableRecord
100
AcDbLinetypeTableRecord
  2
HIDDEN
 70
     0
  3
Hidden __ __ __ __ __ __ __ __ __ __ __ __ __ _
 72
    65
 73
     2
 40
0.375
 49
0.25
 74
     0
 49
-0.125
 74
     0
  0
ENDTAB
  0
TABLE
  2
LAYER
  5
11
330
0
100
AcDbSymbolTable
 70
    10
  0
LAYER
  5
5
330
11
100
AcDbSymbolTableRecord
100
AcDbLayerTableRecord
  2
0
 70
     0
 62
     7
  6
CONTINUOUS
370
    -3
390
6
  0
LAYER
  5
28
330
11
100
AcDbSymbolTableRecord
100
AcDbLayerTableRecord
  2
BALUSTERS
 70
     0
 62
     7
  6
CONTINUOUS
370
    -3
390
6
  0
LAYER
  5
2F
330
11
100
AcDbSymbolTableRecord
100
AcDbLayerTableRecord
  2
LINEWORK
 70
     0
 62
     7
  6
CONTINUOUS
370
    -3
390
6
  0
LAYER
  5
83
330
11
100
AcDbSymbolTableRecord
100
AcDbLayerTableRecord
  2
Defpoints
 70
     0
 62
     7
  6
CONTINUOUS
290
     0
370
    -3
390
6
  0
LAYER
  5
24
330
11
100
AcDbSymbolTableRecord
100
AcDbLayerTableRecord
  2
leaders
 70
     0
 62
     1
  6
CONTINUOUS
370
    -3
390
6
  0
LAYER
  5
8D7
330
11
100
AcDbSymbolTableRecord
100
AcDbLayerTableRecord
  2
TEXT
 70
     0
 62
     7
  6
CONTINUOUS
370
    -3
390
6
  0
LAYER
  5
11AD
330
11
100
AcDbSymbolTableRecord
100
AcDbLayerTableRecord
  2
A1
 70
     0
 62
     7
  6
CONTINUOUS
370
    -3
390
6
  0
LAYER
  5
11AE
330
11
100
AcDbSymbolTableRecord
100
AcDbLayerTableRecord
  2
ASHADE
 70
     4
 62
     7
  6
CONTINUOUS
370
    -3
390
6
  0
LAYER
  5
8D02
330
11
100
AcDbSymbolTableRecord
100
AcDbLayerTableRecord
  2
MOLDING
 70
     0
 62
     7
  6
CONTINUOUS
370
    -3
390
6
  0
LAYER
  5
8D03
330
11
100
AcDbSymbolTableRecord
100
AcDbLayerTableRecord
  2
BALLASTR
 70
     0
 62
     7
  6
CONTINUOUS
370
    -3
390
6
  0
ENDTAB
  0
TABLE
  2
STYLE
  5
12
330
0
100
AcDbSymbolTable
 70
     3
  0
STYLE
  5
13
330
12
100
AcDbSymbolTableRecord
100
AcDbTextStyleTableRecord
  2
STANDARD
 70
     0
 40
0.0
 41
1.0
 50
0.0
 71
     0
 42
1.0
  3
unvr55w.ttf
  4

1001
ACAD
1000
Univers
1071
       34
  0
STYLE
  5
4B
330
12
100
AcDbSymbolTableRecord
100
AcDbTextStyleTableRecord
  2
ROMANC
 70
     0
 40
0.0
 41
1.0
 50
0.0
 71
     0
 42
0.5
  3
TIMESBD.TTF
  4

1001
ACAD
1000
Times New Roman
1071
 33554450
  0
STYLE
  5
2B
330
12
100
AcDbSymbolTableRecord
100
AcDbTextStyleTableRecord
  2
barcoder
 70
     0
 40
0.0
 41
1.0
 50
0.0
 71
     0
 42
4.5625
  3
cw_barcd.ttf
  4

1001
ACAD
1000
Barcoder
1071
 33554434
  0
ENDTAB
  0
TABLE
  2
VIEW
  5
19
330
0
100
AcDbSymbolTable
 70
     0
  0
ENDTAB
  0
TABLE
  2
UCS
  5
1A
330
0
100
AcDbSymbolTable
 70
     0
  0
ENDTAB
  0
TABLE
  2
APPID
  5
1D
330
0
100
AcDbSymbolTable
 70
    21
  0
APPID
  5
14
330
1D
100
AcDbSymbolTableRecord
100
AcDbRegAppTableRecord
  2
ACAD
 70
     0
  0
APPID
  5
11AF
330
1D
100
AcDbSymbolTableRecord
100
AcDbRegAppTableRecord
  2
DCO15
 70
     0
  0
APPID
  5
11B0
330
1D
100
AcDbSymbolTableRecord
100
AcDbRegAppTableRecord
  2
AVE_RENDER
 70
     0
  0
APPID
  5
11B1
330
1D
100
AcDbSymbolTableRecord
100
AcDbRegAppTableRecord
  2
AVE_ENTITY_MATERIAL
 70
     0
  0
APPID
  5
11B2
330
1D
100
AcDbSymbolTableRecord
100
AcDbRegAppTableRecord
  2
AVE_FINISH
 70
     0
  0
APPID
  5
11B3
330
1D
100
AcDbSymbolTableRecord
100
AcDbRegAppTableRecord
  2
AVE_MATERIAL
 70
     0
  0
APPID
  5
11B4
330
1D
100
AcDbSymbolTableRecord
100
AcDbRegAppTableRecord
  2
AVE_GLOBAL
 70
     0
  0
APPID
  5
160E
330
1D
100
AcDbSymbolTableRecord
100
AcDbRegAppTableRecord
  2
CONTENTBLOCKICON
 70
     0
  0
APPID
  5
5475
330
1D
100
AcDbSymbolTableRecord
100
AcDbRegAppTableRecord
  2
GENIUS_GENDIM_13
 70
     0
  0
APPID
  5
5476
330
1D
100
AcDbSymbolTableRecord
100
AcDbRegAppTableRecord
  2
GENIUS_GENDTOL_13
 70
     0
  0
APPID
  5
5477
330
1D
100
AcDbSymbolTableRecord
100
AcDbRegAppTableRecord
  2
GENIUS_GE3DTOL_13
 70
     0
  0
APPID
  5
5478
330
1D
100
AcDbSymbolTableRecord
100
AcDbRegAppTableRecord
  2
MCAD_NO_VIS
 70
     0
  0
APPID
  5
5479
330
1D
100
AcDbSymbolTableRecord
100
AcDbRegAppTableRecord
  2
ACAD_TEMP_GRAPHIC
 70
     0
  0
APPID
  5
547A
330
1D
100
AcDbSymbolTableRecord
100
AcDbRegAppTableRecord
  2
AD_DRAW
 70
     0
  0
APPID
  5
547B
330
1D
100
AcDbSymbolTableRecord
100
AcDbRegAppTableRecord
  2
ACATTRIBSERVICES
 70
     0
  0
APPID
  5
547C
330
1D
100
AcDbSymbolTableRecord
100
AcDbRegAppTableRecord
  2
ASURF_PCURVE_APPNAME
 70
     0
  0
APPID
  5
547D
330
1D
100
AcDbSymbolTableRecord
100
AcDbRegAppTableRecord
  2
DESIGNERASSEMBLIES
 70
     0
  0
APPID
  5
547E
330
1D
100
AcDbSymbolTableRecord
100
AcDbRegAppTableRecord
  2
ACADM_DIM_EDIT
 70
     0
  0
APPID
  5
547F
330
1D
100
AcDbSymbolTableRecord
100
AcDbRegAppTableRecord
  2
ADCADD_ZZ
 70
     0
  0
APPID
  5
5480
330
1D
100
AcDbSymbolTableRecord
100
AcDbRegAppTableRecord
  2
SDSK_PMN
 70
     0
  0
APPID
  5
5481
330
1D
100
AcDbSymbolTableRecord
100
AcDbRegAppTableRecord
  2
RAK
 70
     0
  0
ENDTAB
  0
TABLE
  2
DIMSTYLE
  5
1E
330
0
100
AcDbSymbolTable
 70
     1
100
AcDbDimStyleTable
 71
     0
  0
DIMSTYLE
105
1F
102
{ACAD_REACTORS
330
8F58
330
8F5A
330
8F5C
330
8F5F
330
971D
330
9771
330
978A
330
97A2
330
97D3
102
}
330
1E
100
AcDbSymbolTableRecord
100
AcDbDimStyleTableRecord
  2
STANDARD
 70
     0
  3
"
 41
0.5
 42
1.0
 43
0.0625
 44
0.25
 73
     0
 74
     0
 77
     3
140
1.0
141
0.0
146
0.125
147
0.125
171
     0
274
     0
276
     2
277
     5
285
     2
286
     2
289
     0
340
13
  0
ENDTAB
  0
TABLE
  2
BLOCK_RECORD
  5
1
330
0
100
AcDbSymbolTable
 70
    76
  0
BLOCK_RECORD
  5
2
102
{ACAD_XDICTIONARY
360
3
102
}
330
1
100
AcDbSymbolTableRecord
100
AcDbBlockTableRecord
  2
*MODEL_SPACE
340
B
  0
BLOCK_RECORD
  5
D
102
{ACAD_XDICTIONARY
360
A8B
102
}
330
1
100
AcDbSymbolTableRecord
100
AcDbBlockTableRecord
  2
*PAPER_SPACE
340
10
  0
BLOCK_RECORD
  5
30
330
1
100
AcDbSymbolTableRecord
100
AcDbBlockTableRecord
  2
TSFORMB
340
0
102
{BLKREFS
331
8E42
102
}
  0
BLOCK_RECORD
  5
1176
330
1
100
AcDbSymbolTableRecord
100
AcDbBlockTableRecord
  2
AVE_RENDER
340
0
102
{BLKREFS
331
1247
331
1248
331
1249
331
124A
331
124B
331
124C
331
124D
331
124E
331
1250
331
1251
331
1252
331
1253
331
1254
331
1255
331
1256
331
1257
331
1EFA
331
1EFB
331
1EFC
331
1EFD
331
1EFE
331
1EFF
331
1F00
331
1F01
331
1F03
331
1F04
331
1F05
331
1F06
331
1F07
331
1F08
331
1F09
331
1F0A
331
45BA
331
45BB
331
45BC
331
45BD
331
45BE
331
45BF
331
45C0
331
45C1
331
45C3
331
45C4
331
45C5
331
45C6
331
45C7
331
45C8
331
45C9
331
45CA
331
5898
331
5899
331
589A
331
589B
331
589C
331
589D
331
589E
331
589F
331
58A1
331
58A2
331
58A3
331
58A4
331
58A5
331
58A6
331
58A7
331
58A8
331
58AA
331
58AB
331
58AC
331
58AD
331
58AE
331
58AF
331
58B0
331
58B1
331
58B3
331
58B4
331
58B5
331
58B6
331
58B7
331
58B8
331
58B9
331
58BA
331
58BC
331
58BD
331
58BE
331
58BF
331
58C0
331
58C1
331
58C2
331
58C3
331
58C5
331
58C6
331
58C7
331
58C8
331
58C9
331
58CA
331
58CB
331
58CC
331
58CE
331
58CF
331
58D0
331
58D1
331
58D2
331
58D3
331
58D4
331
58D5
331
58D7
331
58D8
331
58D9
331
58DA
331
58DB
331
58DC
331
58DD
331
58DE
331
58EE
331
58EF
331
58F0
331
58F1
331
58F2
331
58F3
331
58F4
331
58F5
331
5BB9
331
5BBA
331
5BBB
331
5BBC
331
5BBD
331
5BBE
331
5BBF
331
5BC0
331
5BC2
331
5BC3
331
5BC4
331
5BC5
331
5BC6
331
5BC7
331
5BC8
331
5BC9
331
5BCB
331
5BCC
331
5BCD
331
5BCE
331
5BCF
331
5BD0
331
5BD1
331
5BD2
331
5BD4
331
5BD5
331
5BD6
331
5BD7
331
5BD8
331
5BD9
331
5BDA
331
5BDB
331
5BDD
331
5BDE
331
5BDF
331
5BE0
331
5BE1
331
5BE2
331
5BE3
331
5BE4
331
5BE6
331
5BE7
331
5BE8
331
5BE9
331
5BEA
331
5BEB
331
5BEC
331
5BED
331
5BEF
331
5BF0
331
5BF1
331
5BF2
331
5BF3
331
5BF4
331
5BF5
331
5BF6
331
5BF8
331
5BF9
331
5BFA
331
5BFB
331
5BFC
331
5BFD
331
5BFE
331
5BFF
331
5C0F
331
5C10
331
5C11
331
5C12
331
5C13
331
5C14
331
5C15
331
5C16
331
5C18
331
5C19
331
5C1A
331
5C1B
331
5C1C
331
5C1D
331
5C1E
331
5C1F
331
5C21
331
5C22
331
5C23
331
5C24
331
5C25
331
5C26
331
5C27
331
5C28
331
5C2A
331
5C2B
331
5C2C
331
5C2D
331
5C2E
331
5C2F
331
5C30
331
5C31
331
6CB8
331
6CB9
331
6CBA
331
6CBB
331
6CBC
331
6CBD
331
6CBE
331
6CBF
331
6CC1
331
6CC2
331
6CC3
331
6CC4
331
6CC5
331
6CC6
331
6CC7
331
6CC8
331
6CCE
331
6CCF
331
6CD0
331
6CD1
331
6CD2
331
6CD3
331
6CD4
331
6CD5
331
6CD7
331
6CD8
331
6CD9
331
6CDA
331
6CDB
331
6CDC
331
6CDD
331
6CDE
331
6CE0
331
6CE1
331
6CE2
331
6CE3
331
6CE4
331
6CE5
331
6CE6
331
6CE7
331
6CE9
331
6CEA
331
6CEB
331
6CEC
331
6CED
331
6CEE
331
6CEF
331
6CF0
331
7C2D
331
7C2E
331
7C2F
331
7C30
331
7C31
331
7C32
331
7C33
331
7C34
331
7C36
331
7C37
331
7C38
331
7C39
331
7C3A
331
7C3B
331
7C3C
331
7C3D
102
}
  0
BLOCK_RECORD
  5
1179
330
1
100
AcDbSymbolTableRecord
100
AcDbBlockTableRecord
  2
AVE_GLOBAL
340
0
102
{BLKREFS
331
124F
331
1258
331
1F02
331
1F0B
331
45C2
331
45CB
331
58A0
331
58A9
331
58B2
331
58BB
331
58C4
331
58CD
331
58D6
331
58DF
331
58F6
331
58F7
331
58F8
331
58F9
331
58FA
331
58FB
331
58FC
331
58FD
331
5924
331
5925
331
5B94
331
5B95
331
5B96
331
5B97
331
5B98
331
5B99
331
5B9A
331
5B9B
331
5BAA
331
5BAB
331
5BAC
331
5BAD
331
5BAE
331
5BAF
331
5BB0
331
5BB1
331
5BC1
331
5BCA
331
5BD3
331
5BDC
331
5BE5
331
5BEE
331
5BF7
331
5C00
331
5C17
331
5C20
331
5C29
331
5C32
331
6CC0
331
6CC9
331
6CD6
331
6CDF
331
6CE8
331
6CF1
331
7C35
331
7C3E
102
}
  0
BLOCK_RECORD
  5
52F4
330
1
100
AcDbSymbolTableRecord
100
AcDbBlockTableRecord
  2
*U3
340
0
102
{BLKREFS
331
58E0
102
}
  0
BLOCK_RECORD
  5
52F7
330
1
100
AcDbSymbolTableRecord
100
AcDbBlockTableRecord
  2
*U4
340
0
102
{BLKREFS
331
58E1
102
}
  0
BLOCK_RECORD
  5
52FA
330
1
100
AcDbSymbolTableRecord
100
AcDbBlockTableRecord
  2
*U5
340
0
102
{BLKREFS
331
58E2
102
}
  0
BLOCK_RECORD
  5
52FD
330
1
100
AcDbSymbolTableRecord
100
AcDbBlockTableRecord
  2
*U6
340
0
102
{BLKREFS
331
58E3
102
}
  0
BLOCK_RECORD
  5
5300
330
1
100
AcDbSymbolTableRecord
100
AcDbBlockTableRecord
  2
*U7
340
0
102
{BLKREFS
331
58E4
102
}
  0
BLOCK_RECORD
  5
5303
330
1
100
AcDbSymbolTableRecord
100
AcDbBlockTableRecord
  2
*U8
340
0
102
{BLKREFS
331
58E5
102
}
  0
BLOCK_RECORD
  5
5306
330
1
100
AcDbSymbolTableRecord
100
AcDbBlockTableRecord
  2
*U9
340
0
102
{BLKREFS
331
58E6
102
}
  0
BLOCK_RECORD
  5
5309
330
1
100
AcDbSymbolTableRecord
100
AcDbBlockTableRecord
  2
*U10
340
0
102
{BLKREFS
331
58E7
102
}
  0
BLOCK_RECORD
  5
530C
330
1
100
AcDbSymbolTableRecord
100
AcDbBlockTableRecord
  2
*U11
340
0
102
{BLKREFS
331
58E8
102
}
  0
BLOCK_RECORD
  5
530F
330
1
100
AcDbSymbolTableRecord
100
AcDbBlockTableRecord
  2
*U12
340
0
102
{BLKREFS
331
58E9
102
}
  0
BLOCK_RECORD
  5
5312
330
1
100
AcDbSymbolTableRecord
100
AcDbBlockTableRecord
  2
*U13
340
0
102
{BLKREFS
331
58EA
102
}
  0
BLOCK_RECORD
  5
5315
330
1
100
AcDbSymbolTableRecord
100
AcDbBlockTableRecord
  2
*U14
340
0
102
{BLKREFS
331
58EB
102
}
  0
BLOCK_RECORD
  5
5318
330
1
100
AcDbSymbolTableRecord
100
AcDbBlockTableRecord
  2
*U15
340
0
102
{BLKREFS
331
58EC
102
}
  0
BLOCK_RECORD
  5
531B
330
1
100
AcDbSymbolTableRecord
100
AcDbBlockTableRecord
  2
*U16
340
0
102
{BLKREFS
331
58ED
102
}
  0
BLOCK_RECORD
  5
531E
330
1
100
AcDbSymbolTableRecord
100
AcDbBlockTableRecord
  2
*U17
340
0
102
{BLKREFS
331
58FE
102
}
  0
BLOCK_RECORD
  5
5321
330
1
100
AcDbSymbolTableRecord
100
AcDbBlockTableRecord
  2
*U18
340
0
102
{BLKREFS
331
58FF
102
}
  0
BLOCK_RECORD
  5
5324
330
1
100
AcDbSymbolTableRecord
100
AcDbBlockTableRecord
  2
*U19
340
0
102
{BLKREFS
331
5900
102
}
  0
BLOCK_RECORD
  5
5327
330
1
100
AcDbSymbolTableRecord
100
AcDbBlockTableRecord
  2
*U20
340
0
102
{BLKREFS
331
5901
102
}
  0
BLOCK_RECORD
  5
532A
330
1
100
AcDbSymbolTableRecord
100
AcDbBlockTableRecord
  2
*U21
340
0
102
{BLKREFS
331
5902
102
}
  0
BLOCK_RECORD
  5
532D
330
1
100
AcDbSymbolTableRecord
100
AcDbBlockTableRecord
  2
*U22
340
0
102
{BLKREFS
331
5903
102
}
  0
BLOCK_RECORD
  5
5330
330
1
100
AcDbSymbolTableRecord
100
AcDbBlockTableRecord
  2
*U23
340
0
102
{BLKREFS
331
5904
102
}
  0
BLOCK_RECORD
  5
5333
330
1
100
AcDbSymbolTableRecord
100
AcDbBlockTableRecord
  2
*U24
340
0
102
{BLKREFS
331
5905
102
}
  0
BLOCK_RECORD
  5
5336
330
1
100
AcDbSymbolTableRecord
100
AcDbBlockTableRecord
  2
*U25
340
0
102
{BLKREFS
331
5906
102
}
  0
BLOCK_RECORD
  5
5339
330
1
100
AcDbSymbolTableRecord
100
AcDbBlockTableRecord
  2
*U26
340
0
102
{BLKREFS
331
5907
102
}
  0
BLOCK_RECORD
  5
533C
330
1
100
AcDbSymbolTableRecord
100
AcDbBlockTableRecord
  2
*U27
340
0
102
{BLKREFS
331
5908
102
}
  0
BLOCK_RECORD
  5
533F
330
1
100
AcDbSymbolTableRecord
100
AcDbBlockTableRecord
  2
*U28
340
0
102
{BLKREFS
331
5909
102
}
  0
BLOCK_RECORD
  5
5342
330
1
100
AcDbSymbolTableRecord
100
AcDbBlockTableRecord
  2
*U29
340
0
102
{BLKREFS
331
590A
102
}
  0
BLOCK_RECORD
  5
5345
330
1
100
AcDbSymbolTableRecord
100
AcDbBlockTableRecord
  2
*U30
340
0
102
{BLKREFS
331
590B
102
}
  0
BLOCK_RECORD
  5
5348
330
1
100
AcDbSymbolTableRecord
100
AcDbBlockTableRecord
  2
*U31
340
0
102
{BLKREFS
331
5B9C
102
}
  0
BLOCK_RECORD
  5
534B
330
1
100
AcDbSymbolTableRecord
100
AcDbBlockTableRecord
  2
*U32
340
0
102
{BLKREFS
331
5B9D
102
}
  0
BLOCK_RECORD
  5
534E
330
1
100
AcDbSymbolTableRecord
100
AcDbBlockTableRecord
  2
*U33
340
0
102
{BLKREFS
331
5B9E
102
}
  0
BLOCK_RECORD
  5
5351
330
1
100
AcDbSymbolTableRecord
100
AcDbBlockTableRecord
  2
*U34
340
0
102
{BLKREFS
331
5B9F
102
}
  0
BLOCK_RECORD
  5
5354
330
1
100
AcDbSymbolTableRecord
100
AcDbBlockTableRecord
  2
*U35
340
0
102
{BLKREFS
331
5BA0
102
}
  0
BLOCK_RECORD
  5
5357
330
1
100
AcDbSymbolTableRecord
100
AcDbBlockTableRecord
  2
*U36
340
0
102
{BLKREFS
331
5BA1
102
}
  0
BLOCK_RECORD
  5
535A
330
1
100
AcDbSymbolTableRecord
100
AcDbBlockTableRecord
  2
*U37
340
0
102
{BLKREFS
331
5BA2
102
}
  0
BLOCK_RECORD
  5
535D
330
1
100
AcDbSymbolTableRecord
100
AcDbBlockTableRecord
  2
*U38
340
0
102
{BLKREFS
331
5BA3
102
}
  0
BLOCK_RECORD
  5
5360
330
1
100
AcDbSymbolTableRecord
100
AcDbBlockTableRecord
  2
*U39
340
0
102
{BLKREFS
331
5BA4
102
}
  0
BLOCK_RECORD
  5
5363
330
1
100
AcDbSymbolTableRecord
100
AcDbBlockTableRecord
  2
*U40
340
0
102
{BLKREFS
331
5BA5
102
}
  0
BLOCK_RECORD
  5
5366
330
1
100
AcDbSymbolTableRecord
100
AcDbBlockTableRecord
  2
*U41
340
0
102
{BLKREFS
331
5BA6
102
}
  0
BLOCK_RECORD
  5
5369
330
1
100
AcDbSymbolTableRecord
100
AcDbBlockTableRecord
  2
*U42
340
0
102
{BLKREFS
331
5BA7
102
}
  0
BLOCK_RECORD
  5
536C
330
1
100
AcDbSymbolTableRecord
100
AcDbBlockTableRecord
  2
*U43
340
0
102
{BLKREFS
331
5BA8
102
}
  0
BLOCK_RECORD
  5
536F
330
1
100
AcDbSymbolTableRecord
100
AcDbBlockTableRecord
  2
*U44
340
0
102
{BLKREFS
331
5BA9
102
}
  0
BLOCK_RECORD
  5
5372
330
1
100
AcDbSymbolTableRecord
100
AcDbBlockTableRecord
  2
*U45
340
0
102
{BLKREFS
331
5BB2
102
}
  0
BLOCK_RECORD
  5
5375
330
1
100
AcDbSymbolTableRecord
100
AcDbBlockTableRecord
  2
*U46
340
0
102
{BLKREFS
331
5BB3
102
}
  0
BLOCK_RECORD
  5
5378
330
1
100
AcDbSymbolTableRecord
100
AcDbBlockTableRecord
  2
*U47
340
0
102
{BLKREFS
331
5BB4
102
}
  0
BLOCK_RECORD
  5
537B
330
1
100
AcDbSymbolTableRecord
100
AcDbBlockTableRecord
  2
*U48
340
0
102
{BLKREFS
331
5BB5
102
}
  0
BLOCK_RECORD
  5
537E
330
1
100
AcDbSymbolTableRecord
100
AcDbBlockTableRecord
  2
*U49
340
0
102
{BLKREFS
331
5BB6
102
}
  0
BLOCK_RECORD
  5
5381
330
1
100
AcDbSymbolTableRecord
100
AcDbBlockTableRecord
  2
*U50
340
0
102
{BLKREFS
331
5BB7
102
}
  0
BLOCK_RECORD
  5
5384
330
1
100
AcDbSymbolTableRecord
100
AcDbBlockTableRecord
  2
*U51
340
0
102
{BLKREFS
331
5BB8
102
}
  0
BLOCK_RECORD
  5
5387
330
1
100
AcDbSymbolTableRecord
100
AcDbBlockTableRecord
  2
*U52
340
0
102
{BLKREFS
331
5C01
102
}
  0
BLOCK_RECORD
  5
538A
330
1
100
AcDbSymbolTableRecord
100
AcDbBlockTableRecord
  2
*U53
340
0
102
{BLKREFS
331
5C02
102
}
  0
BLOCK_RECORD
  5
538D
330
1
100
AcDbSymbolTableRecord
100
AcDbBlockTableRecord
  2
*U54
340
0
102
{BLKREFS
331
5C03
102
}
  0
BLOCK_RECORD
  5
5390
330
1
100
AcDbSymbolTableRecord
100
AcDbBlockTableRecord
  2
*U55
340
0
102
{BLKREFS
331
5C04
102
}
  0
BLOCK_RECORD
  5
5393
330
1
100
AcDbSymbolTableRecord
100
AcDbBlockTableRecord
  2
*U56
340
0
102
{BLKREFS
331
5C05
102
}
  0
BLOCK_RECORD
  5
5396
330
1
100
AcDbSymbolTableRecord
100
AcDbBlockTableRecord
  2
*U57
340
0
102
{BLKREFS
331
5C06
102
}
  0
BLOCK_RECORD
  5
5399
330
1
100
AcDbSymbolTableRecord
100
AcDbBlockTableRecord
  2
*U58
340
0
102
{BLKREFS
331
5C07
102
}
  0
BLOCK_RECORD
  5
539C
330
1
100
AcDbSymbolTableRecord
100
AcDbBlockTableRecord
  2
*U59
340
0
102
{BLKREFS
331
5C08
102
}
  0
BLOCK_RECORD
  5
539F
330
1
100
AcDbSymbolTableRecord
100
AcDbBlockTableRecord
  2
*U60
340
0
102
{BLKREFS
331
5C09
102
}
  0
BLOCK_RECORD
  5
53A2
330
1
100
AcDbSymbolTableRecord
100
AcDbBlockTableRecord
  2
*U61
340
0
102
{BLKREFS
331
5C0A
102
}
  0
BLOCK_RECORD
  5
53A5
330
1
100
AcDbSymbolTableRecord
100
AcDbBlockTableRecord
  2
*U62
340
0
102
{BLKREFS
331
5C0B
102
}
  0
BLOCK_RECORD
  5
53A8
330
1
100
AcDbSymbolTableRecord
100
AcDbBlockTableRecord
  2
*U63
340
0
102
{BLKREFS
331
5C0C
102
}
  0
BLOCK_RECORD
  5
53AB
330
1
100
AcDbSymbolTableRecord
100
AcDbBlockTableRecord
  2
*U64
340
0
102
{BLKREFS
331
5C0D
102
}
  0
BLOCK_RECORD
  5
53AE
330
1
100
AcDbSymbolTableRecord
100
AcDbBlockTableRecord
  2
*U65
340
0
102
{BLKREFS
331
5C0E
102
}
  0
BLOCK_RECORD
  5
8F70
330
1
100
AcDbSymbolTableRecord
100
AcDbBlockTableRecord
  2
*D66
340
0
  0
BLOCK_RECORD
  5
8F8A
330
1
100
AcDbSymbolTableRecord
100
AcDbBlockTableRecord
  2
*D67
340
0
  0
BLOCK_RECORD
  5
8FA4
330
1
100
AcDbSymbolTableRecord
100
AcDbBlockTableRecord
  2
*D68
340
0
  0
BLOCK_RECORD
  5
8FB1
330
1
100
AcDbSymbolTableRecord
100
AcDbBlockTableRecord
  2
*D69
340
0
  0
BLOCK_RECORD
  5
971E
330
1
100
AcDbSymbolTableRecord
100
AcDbBlockTableRecord
  2
*D70
340
0
  0
BLOCK_RECORD
  5
9772
330
1
100
AcDbSymbolTableRecord
100
AcDbBlockTableRecord
  2
*D71
340
0
  0
BLOCK_RECORD
  5
978B
330
1
100
AcDbSymbolTableRecord
100
AcDbBlockTableRecord
  2
*D72
340
0
  0
BLOCK_RECORD
  5
97A3
330
1
100
AcDbSymbolTableRecord
100
AcDbBlockTableRecord
  2
*D73
340
0
  0
BLOCK_RECORD
  5
97D4
330
1
100
AcDbSymbolTableRecord
100
AcDbBlockTableRecord
  2
*D75
340
0
  0
ENDTAB
  0
ENDSEC
  0
SECTION
  2
BLOCKS
  0
BLOCK
  5
4
330
2
100
AcDbEntity
  8
0
100
AcDbBlockBegin
  2
*MODEL_SPACE
 70
     2
 10
0.0
 20
0.0
 30
0.0
  3
*MODEL_SPACE
  1

  0
ENDBLK
  5
A
330
2
100
AcDbEntity
  8
0
100
AcDbBlockEnd
  0
BLOCK
  5
E
330
D
100
AcDbEntity
 67
     1
  8
0
100
AcDbBlockBegin
  2
*PAPER_SPACE
 70
     0
 10
0.0
 20
0.0
 30
0.0
  3
*PAPER_SPACE
  1

  0
ENDBLK
  5
F
330
D
100
AcDbEntity
 67
     1
  8
0
100
AcDbBlockEnd
  0
BLOCK
  5
5D
330
30
100
AcDbEntity
  8
0
 62
     7
100
AcDbBlockBegin
  2
TSFORMB
 70
     2
 10
0.0
 20
0.0
 30
0.0
  3
TSFORMB
  1

  0
LINE
  5
31
330
30
100
AcDbEntity
  8
0
100
AcDbLine
 10
105.9925392881563
 20
78.84810849484797
 30
0.0
 11
105.9925392881563
 21
70.31072004936999
 31
0.0
  0
LINE
  5
32
330
30
100
AcDbEntity
  8
0
100
AcDbLine
 10
105.9925392881563
 20
0.0
 30
0.0
 11
105.9925392881563
 21
78.84810849484797
 31
0.0
  0
LINE
  5
33
330
30
100
AcDbEntity
  8
0
100
AcDbLine
 10
0.0
 20
0.0
 30
0.0
 11
105.9925392881563
 21
0.0
 31
0.0
  0
LINE
  5
34
330
30
100
AcDbEntity
  8
0
100
AcDbLine
 10
0.0
 20
78.84810849484797
 30
0.0
 11
0.0
 21
0.0
 31
0.0
  0
LINE
  5
35
330
30
100
AcDbEntity
  8
0
100
AcDbLine
 10
56.87404547169354
 20
0.0
 30
0.0
 11
56.87404547169354
 21
12.46470592426129
 31
0.0
  0
TEXT
  5
36
330
30
100
AcDbEntity
  8
0
 62
     7
100
AcDbText
 10
39.28098221173832
 20
10.97304845086642
 30
0.0
 40
0.8085000000000002
  1
LEGEND
100
AcDbText
  0
TEXT
  5
37
330
30
100
AcDbEntity
  8
0
 62
     7
100
AcDbText
 10
38.18320344075362
 20
3.401999220949562
 30
0.0
 40
0.8400000000000002
  1
CATEGORY
 72
     1
 11
41.47652732452399
 21
3.401999220949562
 31
0.0
100
AcDbText
  0
LINE
  5
38
330
30
100
AcDbEntity
  8
0
 62
     7
100
AcDbLine
 10
26.78791925899645
 20
8.549200111339303
 30
0.0
 11
29.32320076794366
 21
8.549200111339303
 31
0.0
  0
TEXT
  5
39
330
30
100
AcDbEntity
  8
0
 62
     7
100
AcDbText
 10
30.56536100380196
 20
8.165961840384341
 30
0.0
 40
1.05
  1
- Unfinished Side
100
AcDbText
  0
LINE
  5
3A
330
30
100
AcDbEntity
  8
0
100
AcDbLine
 10
25.9704997615305
 20
0.0
 30
0.0
 11
25.9704997615305
 21
12.46470592426129
 31
0.0
  0
ATTDEF
  5
3B
330
30
100
AcDbEntity
  8
BALUSTERS
 62
     1
100
AcDbText
 10
41.26016333205519
 20
0.916484150045278
 30
0.0
 40
1.025589599999999
  1

 72
     1
 11
41.26016333205519
 21
0.916484150045278
 31
0.0
100
AcDbAttributeDefinition
  3
ADD CATEGORY NAMES
  2
XXXXXX
 70
     0
  0
ATTDEF
  5
3C
330
30
100
AcDbEntity
  8
BALUSTERS
 62
     1
100
AcDbText
 10
21.55372231158242
 20
1.875018704105684
 30
0.0
 40
0.8400000000000002
  1

 72
     2
 11
21.55372231158242
 21
1.875018704105684
 31
0.0
100
AcDbAttributeDefinition
  3
ADD BARCODE TEXT
  2
XXXXXX
 70
     0
  0
LINE
  5
3D
330
30
100
AcDbEntity
  8
0
 62
     7
100
AcDbLine
 10
25.9704997615305
 20
12.46470592426129
 30
0.0
 11
0.0
 21
12.46470592426129
 31
0.0
  0
ATTDEF
  5
3E
330
30
100
AcDbEntity
  8
BALUSTERS
 62
     1
100
AcDbText
 10
12.85191920549937
 20
3.11796280247222
 30
0.0
 40
6.132000000000001
  1

  7
barcoder
 72
     1
 11
12.85191920549937
 21
3.11796280247222
 31
0.0
100
AcDbAttributeDefinition
  3
ADD BARCODE NUMBER
  2
BARCODE
 70
     0
  0
LINE
  5
3F
330
30
100
AcDbEntity
  8
0
 62
     7
100
AcDbLine
 10
56.87404547169354
 20
10.31505184057846
 30
0.0
 11
25.9704997615305
 21
10.31505184057846
 31
0.0
  0
LINE
  5
40
330
30
100
AcDbEntity
  8
0
 62
     7
100
AcDbLine
 10
56.87404547169354
 20
2.864660228904256
 30
0.0
 11
25.9704997615305
 21
2.864660228904256
 31
0.0
  0
LINE
  5
41
330
30
100
AcDbEntity
  8
0
 62
     7
100
AcDbLine
 10
56.87404547169354
 20
4.753491724833224
 30
0.0
 11
25.9704997615305
 21
4.753491724833224
 31
0.0
  0
LINE
  5
42
330
30
100
AcDbEntity
  8
0
100
AcDbLine
 10
92.45878286761296
 20
70.31072004936999
 30
0.0
 11
92.45878286761296
 21
78.84810849484797
 31
0.0
  0
ATTDEF
  5
43
330
30
100
AcDbEntity
  8
BALUSTERS
 62
     1
100
AcDbText
 10
99.20289126219257
 20
73.40001633244828
 30
0.0
 40
2.079
  1

 72
     1
 11
99.20289126219257
 21
73.40001633244828
 31
0.0
100
AcDbAttributeDefinition
  3
ADD PAGE NUMBER
  2
TS00XX
 70
     0
  0
LINE
  5
44
330
30
100
AcDbEntity
  8
0
100
AcDbLine
 10
105.9925392881563
 20
70.31072004936999
 30
0.0
 11
92.45878286761296
 21
70.31072004936999
 31
0.0
  0
LINE
  5
45
330
30
100
AcDbEntity
  8
0
100
AcDbLine
 10
105.9925392881563
 20
78.84810849484797
 30
0.0
 11
0.0
 21
78.84810849484797
 31
0.0
  0
TEXT
  5
46
330
30
100
AcDbEntity
  8
0
 62
     7
100
AcDbText
 10
101.0916707105178
 20
4.784832420392319
 30
0.0
 40
0.8459472656250001
  1
1:1
100
AcDbText
  0
ARC
  5
47
330
30
100
AcDbEntity
  8
0
 62
     7
100
AcDbCircle
 10
92.02173719823599
 20
7.854684255185304
 30
0.0
 40
0.5838368232859321
100
AcDbArc
 50
297.5553548372056
 51
304.8408806463489
  0
LINE
  5
48
330
30
100
AcDbEntity
  8
0
 62
     7
100
AcDbLine
 10
96.44018670993672
 20
6.648784575743377
 30
0.0
 11
95.62662822118033
 21
6.648784575743377
 31
0.0
  0
ARC
  5
49
330
30
100
AcDbEntity
  8
0
 62
     7
100
AcDbCircle
 10
92.02173719823599
 20
7.854684255185304
 30
0.0
 40
0.5838368232859408
100
AcDbArc
 50
304.8408806463489
 51
297.5553548372056
  0
TEXT
  5
4A
330
30
100
AcDbEntity
  8
0
 62
     7
100
AcDbText
 10
91.5997577365548
 20
7.487990433787842
 30
0.0
 40
0.7875000000000002
  1
R
  7
ROMANC
 72
     1
 11
92.02565639984959
 21
7.487990433787842
 31
0.0
100
AcDbText
  0
LINE
  5
4C
330
30
100
AcDbEntity
  8
0
100
AcDbLine
 10
96.44018670993649
 20
0.0
 30
0.0
 11
96.44018670993695
 21
12.46470592426129
 31
0.0
  0
TEXT
  5
4D
330
30
100
AcDbEntity
  8
0
100
AcDbText
 10
57.83820509574335
 20
4.931128255646488
 30
0.0
 40
1.111564440985976
  1
ARCHITECTURAL CONCRETE CO., INC.
 41
1.25
 72
     4
 11
76.69038922088157
 21
5.404193065577089
 31
0.0
100
AcDbText
  0
TEXT
  5
4E
330
30
100
AcDbEntity
  8
0
100
AcDbText
 10
64.01730751652124
 20
0.6790765005606179
 30
0.0
 40
0.6552430415498756
  1
PHONE: 1-800-789-4841  FAX : 770-463-2635
 41
1.1875
 72
     4
 11
76.73327742292065
 21
1.005769257279496
 31
0.0
100
AcDbText
  0
TEXT
  5
4F
330
30
100
AcDbEntity
  8
0
 62
     7
100
AcDbText
 10
61.23651428794109
 20
7.899354841769707
 30
0.0
 40
3.572100000000002
  1
TannerStone
  7
ROMANC
 72
     1
 11
75.92109734429948
 21
7.899354841769707
 31
0.0
100
AcDbText
  0
TEXT
  5
50
330
30
100
AcDbEntity
  8
0
100
AcDbText
 10
61.57240842020546
 20
1.964543484004154
 30
0.0
 40
0.6552430415498756
  1
http://TannerStone.com ~ Email:Sales@TannerStone.com 
 41
1.1875
 72
     4
 11
77.08342119362362
 21
2.259193880788984
 31
0.0
100
AcDbText
  0
TEXT
  5
51
330
30
100
AcDbEntity
  8
0
100
AcDbText
 10
59.98363509556096
 20
3.260563711198551
 30
0.0
 40
0.74899296216962
  1
101 JOHNSTON CIRCLE, PALMETTO, GEORGIA 30268
 41
1.1875
 72
     4
 11
76.85158629384147
 21
3.579323650094977
 31
0.0
100
AcDbText
  0
LINE
  5
52
330
30
100
AcDbEntity
  8
0
100
AcDbLine
 10
56.87404547169354
 20
6.648784575743377
 30
0.0
 11
105.9925392881563
 21
6.648784575743377
 31
0.0
  0
LINE
  5
53
330
30
100
AcDbEntity
  8
0
 62
     7
100
AcDbLine
 10
96.44018670993682
 20
9.556745250002336
 30
0.0
 11
105.9925392881563
 21
9.556745250002336
 31
0.0
  0
TEXT
  5
54
330
30
100
AcDbEntity
  8
0
 62
     7
100
AcDbText
 10
96.66995560986686
 20
8.813345575893606
 30
0.0
 40
0.5414062500000001
  1
LBS/LINEAR FEET:
100
AcDbText
  0
LINE
  5
55
330
30
100
AcDbEntity
  8
LINEWORK
 62
     7
100
AcDbLine
 10
96.40991550469017
 20
3.757904136908962
 30
0.0
 11
105.9622680829099
 21
3.757904136909189
 31
0.0
  0
TEXT
  5
56
330
30
100
AcDbEntity
  8
0
 62
     7
100
AcDbText
 10
98.85330873086445
 20
1.524519923848686
 30
0.0
 40
0.8459472656250001
  1
1-1-2000
100
AcDbText
  0
TEXT
  5
57
330
30
100
AcDbEntity
  8
0
 62
     7
100
AcDbText
 10
96.68542089784603
 20
5.927566558083469
 30
0.0
 40
0.5414062500000001
  1
SCALE:
100
AcDbText
  0
TEXT
  5
58
330
30
100
AcDbEntity
  8
0
 62
     7
100
AcDbText
 10
96.74158717246577
 20
2.97910930546476
 30
0.0
 40
0.5414062500000001
  1
DATE:
100
AcDbText
  0
TEXT
  5
59
330
30
100
AcDbEntity
  8
0
 62
     7
100
AcDbText
 10
96.70022651293084
 20
11.66518473255649
 30
0.0
 40
0.5414062500000001
  1
PROFILE AREA:
100
AcDbText
  0
ATTDEF
  5
5A
330
30
100
AcDbEntity
  8
BALUSTERS
 62
     1
100
AcDbText
 10
101.1759733039033
 20
10.07900441527107
 30
0.0
 40
0.9450000000000002
  1

 72
     1
 11
101.1759733039033
 21
10.07900441527107
 31
0.0
100
AcDbAttributeDefinition
  3
ADD PROFILE AREA
  2
XXXXX
 70
     0
  0
ATTDEF
  5
5B
330
30
100
AcDbEntity
  8
BALUSTERS
 62
     1
100
AcDbText
 10
101.1418062311347
 20
7.21953861551384
 30
0.0
 40
0.9450000000000002
  1

 72
     1
 11
101.1418062311347
 21
7.21953861551384
 31
0.0
100
AcDbAttributeDefinition
  3
ADD #/LF
  2
XXXXX
 70
     0
  0
LINE
  5
5C
330
30
100
AcDbEntity
  8
0
100
AcDbLine
 10
25.9704997615305
 20
12.46470592426129
 30
0.0
 11
105.9925392881563
 21
12.46470592426129
 31
0.0
  0
ENDBLK
  5
5E
330
30
100
AcDbEntity
  8
0
 62
     7
100
AcDbBlockEnd
  0
BLOCK
  5
1177
330
1176
100
AcDbEntity
  8
ASHADE
100
AcDbBlockBegin
  2
AVE_RENDER
 70
     0
 10
0.0
 20
0.0
 30
0.0
  3
AVE_RENDER
  1
AVE_RENDER
  0
ENDBLK
  5
1178
330
1176
100
AcDbEntity
  8
0
100
AcDbBlockEnd
  0
BLOCK
  5
117A
330
1179
100
AcDbEntity
  8
ASHADE
100
AcDbBlockBegin
  2
AVE_GLOBAL
 70
     0
 10
0.0
 20
0.0
 30
0.0
  3
AVE_GLOBAL
  1
AVE_GLOBAL
  0
ENDBLK
  5
117B
330
1179
100
AcDbEntity
  8
0
100
AcDbBlockEnd
  0
BLOCK
  5
52F5
330
52F4
100
AcDbEntity
  8
0
100
AcDbBlockBegin
  2
*U3
 70
     1
 10
0.0
 20
0.0
 30
0.0
  3
*U3
  1

  0
ENDBLK
  5
52F6
330
52F4
100
AcDbEntity
  8
0
100
AcDbBlockEnd
  0
BLOCK
  5
52F8
330
52F7
100
AcDbEntity
  8
0
100
AcDbBlockBegin
  2
*U4
 70
     1
 10
0.0
 20
0.0
 30
0.0
  3
*U4
  1

  0
ENDBLK
  5
52F9
330
52F7
100
AcDbEntity
  8
0
100
AcDbBlockEnd
  0
BLOCK
  5
52FB
330
52FA
100
AcDbEntity
  8
0
100
AcDbBlockBegin
  2
*U5
 70
     1
 10
0.0
 20
0.0
 30
0.0
  3
*U5
  1

  0
ENDBLK
  5
52FC
330
52FA
100
AcDbEntity
  8
0
100
AcDbBlockEnd
  0
BLOCK
  5
52FE
330
52FD
100
AcDbEntity
  8
0
100
AcDbBlockBegin
  2
*U6
 70
     1
 10
0.0
 20
0.0
 30
0.0
  3
*U6
  1

  0
ENDBLK
  5
52FF
330
52FD
100
AcDbEntity
  8
0
100
AcDbBlockEnd
  0
BLOCK
  5
5301
330
5300
100
AcDbEntity
  8
0
100
AcDbBlockBegin
  2
*U7
 70
     1
 10
0.0
 20
0.0
 30
0.0
  3
*U7
  1

  0
ENDBLK
  5
5302
330
5300
100
AcDbEntity
  8
0
100
AcDbBlockEnd
  0
BLOCK
  5
5304
330
5303
100
AcDbEntity
  8
0
100
AcDbBlockBegin
  2
*U8
 70
     1
 10
0.0
 20
0.0
 30
0.0
  3
*U8
  1

  0
ENDBLK
  5
5305
330
5303
100
AcDbEntity
  8
0
100
AcDbBlockEnd
  0
BLOCK
  5
5307
330
5306
100
AcDbEntity
  8
0
100
AcDbBlockBegin
  2
*U9
 70
     1
 10
0.0
 20
0.0
 30
0.0
  3
*U9
  1

  0
ENDBLK
  5
5308
330
5306
100
AcDbEntity
  8
0
100
AcDbBlockEnd
  0
BLOCK
  5
530A
330
5309
100
AcDbEntity
  8
0
100
AcDbBlockBegin
  2
*U10
 70
     1
 10
0.0
 20
0.0
 30
0.0
  3
*U10
  1

  0
ENDBLK
  5
530B
330
5309
100
AcDbEntity
  8
0
100
AcDbBlockEnd
  0
BLOCK
  5
530D
330
530C
100
AcDbEntity
  8
0
100
AcDbBlockBegin
  2
*U11
 70
     1
 10
0.0
 20
0.0
 30
0.0
  3
*U11
  1

  0
ENDBLK
  5
530E
330
530C
100
AcDbEntity
  8
0
100
AcDbBlockEnd
  0
BLOCK
  5
5310
330
530F
100
AcDbEntity
  8
0
100
AcDbBlockBegin
  2
*U12
 70
     1
 10
0.0
 20
0.0
 30
0.0
  3
*U12
  1

  0
ENDBLK
  5
5311
330
530F
100
AcDbEntity
  8
0
100
AcDbBlockEnd
  0
BLOCK
  5
5313
330
5312
100
AcDbEntity
  8
0
100
AcDbBlockBegin
  2
*U13
 70
     1
 10
0.0
 20
0.0
 30
0.0
  3
*U13
  1

  0
ENDBLK
  5
5314
330
5312
100
AcDbEntity
  8
0
100
AcDbBlockEnd
  0
BLOCK
  5
5316
330
5315
100
AcDbEntity
  8
0
100
AcDbBlockBegin
  2
*U14
 70
     1
 10
0.0
 20
0.0
 30
0.0
  3
*U14
  1

  0
ENDBLK
  5
5317
330
5315
100
AcDbEntity
  8
0
100
AcDbBlockEnd
  0
BLOCK
  5
5319
330
5318
100
AcDbEntity
  8
0
100
AcDbBlockBegin
  2
*U15
 70
     1
 10
0.0
 20
0.0
 30
0.0
  3
*U15
  1

  0
ENDBLK
  5
531A
330
5318
100
AcDbEntity
  8
0
100
AcDbBlockEnd
  0
BLOCK
  5
531C
330
531B
100
AcDbEntity
  8
0
100
AcDbBlockBegin
  2
*U16
 70
     1
 10
0.0
 20
0.0
 30
0.0
  3
*U16
  1

  0
ENDBLK
  5
531D
330
531B
100
AcDbEntity
  8
0
100
AcDbBlockEnd
  0
BLOCK
  5
531F
330
531E
100
AcDbEntity
  8
0
100
AcDbBlockBegin
  2
*U17
 70
     1
 10
0.0
 20
0.0
 30
0.0
  3
*U17
  1

  0
ENDBLK
  5
5320
330
531E
100
AcDbEntity
  8
0
100
AcDbBlockEnd
  0
BLOCK
  5
5322
330
5321
100
AcDbEntity
  8
0
100
AcDbBlockBegin
  2
*U18
 70
     1
 10
0.0
 20
0.0
 30
0.0
  3
*U18
  1

  0
ENDBLK
  5
5323
330
5321
100
AcDbEntity
  8
0
100
AcDbBlockEnd
  0
BLOCK
  5
5325
330
5324
100
AcDbEntity
  8
0
100
AcDbBlockBegin
  2
*U19
 70
     1
 10
0.0
 20
0.0
 30
0.0
  3
*U19
  1

  0
ENDBLK
  5
5326
330
5324
100
AcDbEntity
  8
0
100
AcDbBlockEnd
  0
BLOCK
  5
5328
330
5327
100
AcDbEntity
  8
0
100
AcDbBlockBegin
  2
*U20
 70
     1
 10
0.0
 20
0.0
 30
0.0
  3
*U20
  1

  0
ENDBLK
  5
5329
330
5327
100
AcDbEntity
  8
0
100
AcDbBlockEnd
  0
BLOCK
  5
532B
330
532A
100
AcDbEntity
  8
0
100
AcDbBlockBegin
  2
*U21
 70
     1
 10
0.0
 20
0.0
 30
0.0
  3
*U21
  1

  0
ENDBLK
  5
532C
330
532A
100
AcDbEntity
  8
0
100
AcDbBlockEnd
  0
BLOCK
  5
532E
330
532D
100
AcDbEntity
  8
0
100
AcDbBlockBegin
  2
*U22
 70
     1
 10
0.0
 20
0.0
 30
0.0
  3
*U22
  1

  0
ENDBLK
  5
532F
330
532D
100
AcDbEntity
  8
0
100
AcDbBlockEnd
  0
BLOCK
  5
5331
330
5330
100
AcDbEntity
  8
0
100
AcDbBlockBegin
  2
*U23
 70
     1
 10
0.0
 20
0.0
 30
0.0
  3
*U23
  1

  0
ENDBLK
  5
5332
330
5330
100
AcDbEntity
  8
0
100
AcDbBlockEnd
  0
BLOCK
  5
5334
330
5333
100
AcDbEntity
  8
0
100
AcDbBlockBegin
  2
*U24
 70
     1
 10
0.0
 20
0.0
 30
0.0
  3
*U24
  1

  0
ENDBLK
  5
5335
330
5333
100
AcDbEntity
  8
0
100
AcDbBlockEnd
  0
BLOCK
  5
5337
330
5336
100
AcDbEntity
  8
0
100
AcDbBlockBegin
  2
*U25
 70
     1
 10
0.0
 20
0.0
 30
0.0
  3
*U25
  1

  0
ENDBLK
  5
5338
330
5336
100
AcDbEntity
  8
0
100
AcDbBlockEnd
  0
BLOCK
  5
533A
330
5339
100
AcDbEntity
  8
0
100
AcDbBlockBegin
  2
*U26
 70
     1
 10
0.0
 20
0.0
 30
0.0
  3
*U26
  1

  0
ENDBLK
  5
533B
330
5339
100
AcDbEntity
  8
0
100
AcDbBlockEnd
  0
BLOCK
  5
533D
330
533C
100
AcDbEntity
  8
0
100
AcDbBlockBegin
  2
*U27
 70
     1
 10
0.0
 20
0.0
 30
0.0
  3
*U27
  1

  0
ENDBLK
  5
533E
330
533C
100
AcDbEntity
  8
0
100
AcDbBlockEnd
  0
BLOCK
  5
5340
330
533F
100
AcDbEntity
  8
0
100
AcDbBlockBegin
  2
*U28
 70
     1
 10
0.0
 20
0.0
 30
0.0
  3
*U28
  1

  0
ENDBLK
  5
5341
330
533F
100
AcDbEntity
  8
0
100
AcDbBlockEnd
  0
BLOCK
  5
5343
330
5342
100
AcDbEntity
  8
0
100
AcDbBlockBegin
  2
*U29
 70
     1
 10
0.0
 20
0.0
 30
0.0
  3
*U29
  1

  0
ENDBLK
  5
5344
330
5342
100
AcDbEntity
  8
0
100
AcDbBlockEnd
  0
BLOCK
  5
5346
330
5345
100
AcDbEntity
  8
0
100
AcDbBlockBegin
  2
*U30
 70
     1
 10
0.0
 20
0.0
 30
0.0
  3
*U30
  1

  0
ENDBLK
  5
5347
330
5345
100
AcDbEntity
  8
0
100
AcDbBlockEnd
  0
BLOCK
  5
5349
330
5348
100
AcDbEntity
  8
0
100
AcDbBlockBegin
  2
*U31
 70
     1
 10
0.0
 20
0.0
 30
0.0
  3
*U31
  1

  0
ENDBLK
  5
534A
330
5348
100
AcDbEntity
  8
0
100
AcDbBlockEnd
  0
BLOCK
  5
534C
330
534B
100
AcDbEntity
  8
0
100
AcDbBlockBegin
  2
*U32
 70
     1
 10
0.0
 20
0.0
 30
0.0
  3
*U32
  1

  0
ENDBLK
  5
534D
330
534B
100
AcDbEntity
  8
0
100
AcDbBlockEnd
  0
BLOCK
  5
534F
330
534E
100
AcDbEntity
  8
0
100
AcDbBlockBegin
  2
*U33
 70
     1
 10
0.0
 20
0.0
 30
0.0
  3
*U33
  1

  0
ENDBLK
  5
5350
330
534E
100
AcDbEntity
  8
0
100
AcDbBlockEnd
  0
BLOCK
  5
5352
330
5351
100
AcDbEntity
  8
0
100
AcDbBlockBegin
  2
*U34
 70
     1
 10
0.0
 20
0.0
 30
0.0
  3
*U34
  1

  0
ENDBLK
  5
5353
330
5351
100
AcDbEntity
  8
0
100
AcDbBlockEnd
  0
BLOCK
  5
5355
330
5354
100
AcDbEntity
  8
0
100
AcDbBlockBegin
  2
*U35
 70
     1
 10
0.0
 20
0.0
 30
0.0
  3
*U35
  1

  0
ENDBLK
  5
5356
330
5354
100
AcDbEntity
  8
0
100
AcDbBlockEnd
  0
BLOCK
  5
5358
330
5357
100
AcDbEntity
  8
0
100
AcDbBlockBegin
  2
*U36
 70
     1
 10
0.0
 20
0.0
 30
0.0
  3
*U36
  1

  0
ENDBLK
  5
5359
330
5357
100
AcDbEntity
  8
0
100
AcDbBlockEnd
  0
BLOCK
  5
535B
330
535A
100
AcDbEntity
  8
0
100
AcDbBlockBegin
  2
*U37
 70
     1
 10
0.0
 20
0.0
 30
0.0
  3
*U37
  1

  0
ENDBLK
  5
535C
330
535A
100
AcDbEntity
  8
0
100
AcDbBlockEnd
  0
BLOCK
  5
535E
330
535D
100
AcDbEntity
  8
0
100
AcDbBlockBegin
  2
*U38
 70
     1
 10
0.0
 20
0.0
 30
0.0
  3
*U38
  1

  0
ENDBLK
  5
535F
330
535D
100
AcDbEntity
  8
0
100
AcDbBlockEnd
  0
BLOCK
  5
5361
330
5360
100
AcDbEntity
  8
0
100
AcDbBlockBegin
  2
*U39
 70
     1
 10
0.0
 20
0.0
 30
0.0
  3
*U39
  1

  0
ENDBLK
  5
5362
330
5360
100
AcDbEntity
  8
0
100
AcDbBlockEnd
  0
BLOCK
  5
5364
330
5363
100
AcDbEntity
  8
0
100
AcDbBlockBegin
  2
*U40
 70
     1
 10
0.0
 20
0.0
 30
0.0
  3
*U40
  1

  0
ENDBLK
  5
5365
330
5363
100
AcDbEntity
  8
0
100
AcDbBlockEnd
  0
BLOCK
  5
5367
330
5366
100
AcDbEntity
  8
0
100
AcDbBlockBegin
  2
*U41
 70
     1
 10
0.0
 20
0.0
 30
0.0
  3
*U41
  1

  0
ENDBLK
  5
5368
330
5366
100
AcDbEntity
  8
0
100
AcDbBlockEnd
  0
BLOCK
  5
536A
330
5369
100
AcDbEntity
  8
0
100
AcDbBlockBegin
  2
*U42
 70
     1
 10
0.0
 20
0.0
 30
0.0
  3
*U42
  1

  0
ENDBLK
  5
536B
330
5369
100
AcDbEntity
  8
0
100
AcDbBlockEnd
  0
BLOCK
  5
536D
330
536C
100
AcDbEntity
  8
0
100
AcDbBlockBegin
  2
*U43
 70
     1
 10
0.0
 20
0.0
 30
0.0
  3
*U43
  1

  0
ENDBLK
  5
536E
330
536C
100
AcDbEntity
  8
0
100
AcDbBlockEnd
  0
BLOCK
  5
5370
330
536F
100
AcDbEntity
  8
0
100
AcDbBlockBegin
  2
*U44
 70
     1
 10
0.0
 20
0.0
 30
0.0
  3
*U44
  1

  0
ENDBLK
  5
5371
330
536F
100
AcDbEntity
  8
0
100
AcDbBlockEnd
  0
BLOCK
  5
5373
330
5372
100
AcDbEntity
  8
0
100
AcDbBlockBegin
  2
*U45
 70
     1
 10
0.0
 20
0.0
 30
0.0
  3
*U45
  1

  0
ENDBLK
  5
5374
330
5372
100
AcDbEntity
  8
0
100
AcDbBlockEnd
  0
BLOCK
  5
5376
330
5375
100
AcDbEntity
  8
0
100
AcDbBlockBegin
  2
*U46
 70
     1
 10
0.0
 20
0.0
 30
0.0
  3
*U46
  1

  0
ENDBLK
  5
5377
330
5375
100
AcDbEntity
  8
0
100
AcDbBlockEnd
  0
BLOCK
  5
5379
330
5378
100
AcDbEntity
  8
0
100
AcDbBlockBegin
  2
*U47
 70
     1
 10
0.0
 20
0.0
 30
0.0
  3
*U47
  1

  0
ENDBLK
  5
537A
330
5378
100
AcDbEntity
  8
0
100
AcDbBlockEnd
  0
BLOCK
  5
537C
330
537B
100
AcDbEntity
  8
0
100
AcDbBlockBegin
  2
*U48
 70
     1
 10
0.0
 20
0.0
 30
0.0
  3
*U48
  1

  0
ENDBLK
  5
537D
330
537B
100
AcDbEntity
  8
0
100
AcDbBlockEnd
  0
BLOCK
  5
537F
330
537E
100
AcDbEntity
  8
0
100
AcDbBlockBegin
  2
*U49
 70
     1
 10
0.0
 20
0.0
 30
0.0
  3
*U49
  1

  0
ENDBLK
  5
5380
330
537E
100
AcDbEntity
  8
0
100
AcDbBlockEnd
  0
BLOCK
  5
5382
330
5381
100
AcDbEntity
  8
0
100
AcDbBlockBegin
  2
*U50
 70
     1
 10
0.0
 20
0.0
 30
0.0
  3
*U50
  1

  0
ENDBLK
  5
5383
330
5381
100
AcDbEntity
  8
0
100
AcDbBlockEnd
  0
BLOCK
  5
5385
330
5384
100
AcDbEntity
  8
0
100
AcDbBlockBegin
  2
*U51
 70
     1
 10
0.0
 20
0.0
 30
0.0
  3
*U51
  1

  0
ENDBLK
  5
5386
330
5384
100
AcDbEntity
  8
0
100
AcDbBlockEnd
  0
BLOCK
  5
5388
330
5387
100
AcDbEntity
  8
0
100
AcDbBlockBegin
  2
*U52
 70
     1
 10
0.0
 20
0.0
 30
0.0
  3
*U52
  1

  0
ENDBLK
  5
5389
330
5387
100
AcDbEntity
  8
0
100
AcDbBlockEnd
  0
BLOCK
  5
538B
330
538A
100
AcDbEntity
  8
0
100
AcDbBlockBegin
  2
*U53
 70
     1
 10
0.0
 20
0.0
 30
0.0
  3
*U53
  1

  0
ENDBLK
  5
538C
330
538A
100
AcDbEntity
  8
0
100
AcDbBlockEnd
  0
BLOCK
  5
538E
330
538D
100
AcDbEntity
  8
0
100
AcDbBlockBegin
  2
*U54
 70
     1
 10
0.0
 20
0.0
 30
0.0
  3
*U54
  1

  0
ENDBLK
  5
538F
330
538D
100
AcDbEntity
  8
0
100
AcDbBlockEnd
  0
BLOCK
  5
5391
330
5390
100
AcDbEntity
  8
0
100
AcDbBlockBegin
  2
*U55
 70
     1
 10
0.0
 20
0.0
 30
0.0
  3
*U55
  1

  0
ENDBLK
  5
5392
330
5390
100
AcDbEntity
  8
0
100
AcDbBlockEnd
  0
BLOCK
  5
5394
330
5393
100
AcDbEntity
  8
0
100
AcDbBlockBegin
  2
*U56
 70
     1
 10
0.0
 20
0.0
 30
0.0
  3
*U56
  1

  0
ENDBLK
  5
5395
330
5393
100
AcDbEntity
  8
0
100
AcDbBlockEnd
  0
BLOCK
  5
5397
330
5396
100
AcDbEntity
  8
0
100
AcDbBlockBegin
  2
*U57
 70
     1
 10
0.0
 20
0.0
 30
0.0
  3
*U57
  1

  0
ENDBLK
  5
5398
330
5396
100
AcDbEntity
  8
0
100
AcDbBlockEnd
  0
BLOCK
  5
539A
330
5399
100
AcDbEntity
  8
0
100
AcDbBlockBegin
  2
*U58
 70
     1
 10
0.0
 20
0.0
 30
0.0
  3
*U58
  1

  0
ENDBLK
  5
539B
330
5399
100
AcDbEntity
  8
0
100
AcDbBlockEnd
  0
BLOCK
  5
539D
330
539C
100
AcDbEntity
  8
0
100
AcDbBlockBegin
  2
*U59
 70
     1
 10
0.0
 20
0.0
 30
0.0
  3
*U59
  1

  0
ENDBLK
  5
539E
330
539C
100
AcDbEntity
  8
0
100
AcDbBlockEnd
  0
BLOCK
  5
53A0
330
539F
100
AcDbEntity
  8
0
100
AcDbBlockBegin
  2
*U60
 70
     1
 10
0.0
 20
0.0
 30
0.0
  3
*U60
  1

  0
ENDBLK
  5
53A1
330
539F
100
AcDbEntity
  8
0
100
AcDbBlockEnd
  0
BLOCK
  5
53A3
330
53A2
100
AcDbEntity
  8
0
100
AcDbBlockBegin
  2
*U61
 70
     1
 10
0.0
 20
0.0
 30
0.0
  3
*U61
  1

  0
ENDBLK
  5
53A4
330
53A2
100
AcDbEntity
  8
0
100
AcDbBlockEnd
  0
BLOCK
  5
53A6
330
53A5
100
AcDbEntity
  8
0
100
AcDbBlockBegin
  2
*U62
 70
     1
 10
0.0
 20
0.0
 30
0.0
  3
*U62
  1

  0
ENDBLK
  5
53A7
330
53A5
100
AcDbEntity
  8
0
100
AcDbBlockEnd
  0
BLOCK
  5
53A9
330
53A8
100
AcDbEntity
  8
0
100
AcDbBlockBegin
  2
*U63
 70
     1
 10
0.0
 20
0.0
 30
0.0
  3
*U63
  1

  0
ENDBLK
  5
53AA
330
53A8
100
AcDbEntity
  8
0
100
AcDbBlockEnd
  0
BLOCK
  5
53AC
330
53AB
100
AcDbEntity
  8
0
100
AcDbBlockBegin
  2
*U64
 70
     1
 10
0.0
 20
0.0
 30
0.0
  3
*U64
  1

  0
ENDBLK
  5
53AD
330
53AB
100
AcDbEntity
  8
0
100
AcDbBlockEnd
  0
BLOCK
  5
53AF
330
53AE
100
AcDbEntity
  8
0
100
AcDbBlockBegin
  2
*U65
 70
     1
 10
0.0
 20
0.0
 30
0.0
  3
*U65
  1

  0
ENDBLK
  5
53B0
330
53AE
100
AcDbEntity
  8
0
100
AcDbBlockEnd
  0
BLOCK
  5
8F7B
330
8F70
100
AcDbEntity
  8
0
 62
     7
370
    13
100
AcDbBlockBegin
  2
*D66
 70
     1
 10
0.0
 20
0.0
 30
0.0
  3
*D66
  1

  0
LINE
  5
98B0
330
8F70
100
AcDbEntity
  8
leaders
 62
     0
100
AcDbLine
 10
927.006723864499
 20
1059.187594567786
 30
0.0
 11
944.0193012084197
 21
1059.187594567786
 31
0.0
  0
LINE
  5
98B1
330
8F70
100
AcDbEntity
  8
leaders
 62
     0
100
AcDbLine
 10
933.1456260688016
 20
1019.937596537429
 30
0.0
 11
944.0193012084197
 21
1019.937596537429
 31
0.0
  0
LINE
  5
98B2
330
8F70
100
AcDbEntity
  8
leaders
 62
     0
100
AcDbLine
 10
943.0193012084197
 20
1057.187594567786
 30
0.0
 11
943.0193012084197
 21
1044.068779474124
 31
0.0
  0
LINE
  5
98B3
330
8F70
100
AcDbEntity
  8
leaders
 62
     0
100
AcDbLine
 10
943.0193012084197
 20
1021.937596537429
 30
0.0
 11
943.0193012084197
 21
1035.708751125435
 31
0.0
  0
MTEXT
  5
98B4
330
8F70
100
AcDbEntity
  8
leaders
 62
     0
100
AcDbMText
 10
943.0193012084197
 20
1039.88876529978
 30
0.0
 40
4.0
 41
0.0
 71
     5
 72
     1
  1
\A1;39 1/2"
 73
     1
 44
1.0
  0
SOLID
  5
98B5
330
8F70
100
AcDbEntity
  8
leaders
 62
     0
100
AcDbTrace
 10
942.6859678750863
 20
1057.187594567786
 30
0.0
 11
943.3526345417531
 21
1057.187594567786
 31
0.0
 12
943.0193012084197
 22
1059.187594567786
 32
0.0
 13
943.0193012084197
 23
1059.187594567786
 33
0.0
  0
SOLID
  5
98B6
330
8F70
100
AcDbEntity
  8
leaders
 62
     0
100
AcDbTrace
 10
942.6859678750863
 20
1021.937596537429
 30
0.0
 11
943.3526345417531
 21
1021.937596537429
 31
0.0
 12
943.0193012084197
 22
1019.937596537429
 32
0.0
 13
943.0193012084197
 23
1019.937596537429
 33
0.0
  0
POINT
  5
98B7
330
8F70
100
AcDbEntity
  8
Defpoints
 62
     0
100
AcDbPoint
 10
923.006723864499
 20
1059.187594567786
 30
0.0
  0
POINT
  5
98B8
330
8F70
100
AcDbEntity
  8
Defpoints
 62
     0
100
AcDbPoint
 10
929.1456260688015
 20
1019.937596537429
 30
0.0
  0
POINT
  5
98B9
330
8F70
100
AcDbEntity
  8
Defpoints
 62
     0
100
AcDbPoint
 10
943.0193012084197
 20
1019.937596537429
 30
0.0
  0
ENDBLK
  5
8F7C
330
8F70
100
AcDbEntity
  8
0
 62
     7
370
    13
100
AcDbBlockEnd
  0
BLOCK
  5
8F95
330
8F8A
100
AcDbEntity
  8
0
 62
     7
370
    13
100
AcDbBlockBegin
  2
*D67
 70
     1
 10
0.0
 20
0.0
 30
0.0
  3
*D67
  1

  0
LINE
  5
98BA
330
8F8A
100
AcDbEntity
  8
leaders
 62
     0
100
AcDbLine
 10
837.6072112287484
 20
1016.335832762413
 30
0.0
 11
837.6072112287484
 21
1002.115157641679
 31
0.0
  0
LINE
  5
98BB
330
8F8A
100
AcDbEntity
  8
leaders
 62
     0
100
AcDbLine
 10
858.4822112287483
 20
1052.054278165774
 30
0.0
 11
858.4822112287483
 21
1002.115157641679
 31
0.0
  0
LINE
  5
98BC
330
8F8A
100
AcDbEntity
  8
leaders
 62
     0
100
AcDbLine
 10
839.6072112287484
 20
1003.115157641679
 30
0.0
 11
856.4822112287483
 21
1003.115157641679
 31
0.0
  0
LINE
  5
98BD
330
8F8A
100
AcDbEntity
  8
leaders
 62
     0
100
AcDbLine
 10
860.9024753724341
 20
1003.115157641679
 30
0.0
 11
858.4822112287483
 21
1003.115157641679
 31
0.0
  0
MTEXT
  5
98BE
330
8F8A
100
AcDbEntity
  8
leaders
 62
     0
100
AcDbMText
 10
873.8053811130436
 20
1003.115157641679
 30
0.0
 40
4.0
 41
0.0
 71
     5
 72
     1
  1
\A1;20 7/8"
 73
     1
 44
1.0
  0
SOLID
  5
98BF
330
8F8A
100
AcDbEntity
  8
leaders
 62
     0
100
AcDbTrace
 10
839.6072112287484
 20
1003.448490975012
 30
0.0
 11
839.6072112287484
 21
1002.781824308346
 31
0.0
 12
837.6072112287484
 22
1003.115157641679
 32
0.0
 13
837.6072112287484
 23
1003.115157641679
 33
0.0
  0
SOLID
  5
98C0
330
8F8A
100
AcDbEntity
  8
leaders
 62
     0
100
AcDbTrace
 10
856.4822112287483
 20
1003.448490975012
 30
0.0
 11
856.4822112287483
 21
1002.781824308346
 31
0.0
 12
858.4822112287483
 22
1003.115157641679
 32
0.0
 13
858.4822112287483
 23
1003.115157641679
 33
0.0
  0
POINT
  5
98C1
330
8F8A
100
AcDbEntity
  8
Defpoints
 62
     0
100
AcDbPoint
 10
837.6072112287484
 20
1020.335832762413
 30
0.0
  0
POINT
  5
98C2
330
8F8A
100
AcDbEntity
  8
Defpoints
 62
     0
100
AcDbPoint
 10
858.4822112287483
 20
1056.054278165774
 30
0.0
  0
POINT
  5
98C3
330
8F8A
100
AcDbEntity
  8
Defpoints
 62
     0
100
AcDbPoint
 10
858.4822112287483
 20
1003.115157641679
 30
0.0
  0
ENDBLK
  5
8F96
330
8F8A
100
AcDbEntity
  8
0
 62
     7
370
    13
100
AcDbBlockEnd
  0
BLOCK
  5
8FAF
330
8FA4
100
AcDbEntity
  8
0
 62
     7
370
    13
100
AcDbBlockBegin
  2
*D68
 70
     1
 10
0.0
 20
0.0
 30
0.0
  3
*D68
  1

  0
LINE
  5
98C4
330
8FA4
100
AcDbEntity
  8
leaders
 62
     0
100
AcDbLine
 10
916.8956260688016
 20
1015.937596537429
 30
0.0
 11
916.8956260688016
 21
1002.090104270651
 31
0.0
  0
LINE
  5
98C5
330
8FA4
100
AcDbEntity
  8
leaders
 62
     0
100
AcDbLine
 10
929.1456260688015
 20
1015.937596537429
 30
0.0
 11
929.1456260688015
 21
1002.090104270651
 31
0.0
  0
LINE
  5
98C6
330
8FA4
100
AcDbEntity
  8
leaders
 62
     0
100
AcDbLine
 10
918.8956260688016
 20
1003.090104270651
 30
0.0
 11
927.1456260688015
 21
1003.090104270651
 31
0.0
  0
LINE
  5
98C7
330
8FA4
100
AcDbEntity
  8
leaders
 62
     0
100
AcDbLine
 10
933.8987323991526
 20
1003.090104270651
 30
0.0
 11
929.1456260688015
 21
1003.090104270651
 31
0.0
  0
MTEXT
  5
98C8
330
8FA4
100
AcDbEntity
  8
leaders
 62
     0
100
AcDbMText
 10
946.4770456521646
 20
1003.090104270651
 30
0.0
 40
4.0
 41
0.0
 71
     5
 72
     1
  1
\A1;12 1/4"
 73
     1
 44
1.0
  0
SOLID
  5
98C9
330
8FA4
100
AcDbEntity
  8
leaders
 62
     0
100
AcDbTrace
 10
918.8956260688016
 20
1003.423437603984
 30
0.0
 11
918.8956260688016
 21
1002.756770937317
 31
0.0
 12
916.8956260688016
 22
1003.090104270651
 32
0.0
 13
916.8956260688016
 23
1003.090104270651
 33
0.0
  0
SOLID
  5
98CA
330
8FA4
100
AcDbEntity
  8
leaders
 62
     0
100
AcDbTrace
 10
927.1456260688015
 20
1003.423437603984
 30
0.0
 11
927.1456260688015
 21
1002.756770937317
 31
0.0
 12
929.1456260688015
 22
1003.090104270651
 32
0.0
 13
929.1456260688015
 23
1003.090104270651
 33
0.0
  0
POINT
  5
98CB
330
8FA4
100
AcDbEntity
  8
Defpoints
 62
     0
100
AcDbPoint
 10
916.8956260688016
 20
1019.937596537429
 30
0.0
  0
POINT
  5
98CC
330
8FA4
100
AcDbEntity
  8
Defpoints
 62
     0
100
AcDbPoint
 10
929.1456260688015
 20
1019.937596537429
 30
0.0
  0
POINT
  5
98CD
330
8FA4
100
AcDbEntity
  8
Defpoints
 62
     0
100
AcDbPoint
 10
929.1456260688015
 20
1003.090104270651
 30
0.0
  0
ENDBLK
  5
8FB0
330
8FA4
100
AcDbEntity
  8
0
 62
     7
370
    13
100
AcDbBlockEnd
  0
BLOCK
  5
8FBC
330
8FB1
100
AcDbEntity
  8
0
 62
     7
370
    13
100
AcDbBlockBegin
  2
*D69
 70
     1
 10
0.0
 20
0.0
 30
0.0
  3
*D69
  1

  0
LINE
  5
98CE
330
8FB1
100
AcDbEntity
  8
leaders
 62
     0
100
AcDbLine
 10
874.3439100869045
 20
1063.429278165774
 30
0.0
 11
874.3439100869045
 21
1070.750949458175
 31
0.0
  0
LINE
  5
98CF
330
8FB1
100
AcDbEntity
  8
leaders
 62
     0
100
AcDbLine
 10
888.9850060169827
 20
1063.429278165774
 30
0.0
 11
888.9850060169827
 21
1070.750949458175
 31
0.0
  0
LINE
  5
98D0
330
8FB1
100
AcDbEntity
  8
leaders
 62
     0
100
AcDbLine
 10
876.3439100869044
 20
1069.750949458175
 30
0.0
 11
886.9850060169827
 21
1069.750949458175
 31
0.0
  0
LINE
  5
98D1
330
8FB1
100
AcDbEntity
  8
leaders
 62
     0
100
AcDbLine
 10
898.3618424886596
 20
1069.750949458175
 30
0.0
 11
888.9850060169827
 21
1069.750949458175
 31
0.0
  0
MTEXT
  5
98D2
330
8FB1
100
AcDbEntity
  8
leaders
 62
     0
100
AcDbMText
 10
910.9401557416717
 20
1069.750949458175
 30
0.0
 40
4.0
 41
0.0
 71
     5
 72
     1
  1
\A1;14 5/8"
 73
     1
 44
1.0
  0
SOLID
  5
98D3
330
8FB1
100
AcDbEntity
  8
leaders
 62
     0
100
AcDbTrace
 10
876.3439100869044
 20
1070.084282791508
 30
0.0
 11
876.3439100869044
 21
1069.417616124842
 31
0.0
 12
874.3439100869045
 22
1069.750949458175
 32
0.0
 13
874.3439100869045
 23
1069.750949458175
 33
0.0
  0
SOLID
  5
98D4
330
8FB1
100
AcDbEntity
  8
leaders
 62
     0
100
AcDbTrace
 10
886.9850060169827
 20
1070.084282791508
 30
0.0
 11
886.9850060169827
 21
1069.417616124842
 31
0.0
 12
888.9850060169827
 22
1069.750949458175
 32
0.0
 13
888.9850060169827
 23
1069.750949458175
 33
0.0
  0
POINT
  5
98D5
330
8FB1
100
AcDbEntity
  8
Defpoints
 62
     0
100
AcDbPoint
 10
874.3439100869045
 20
1059.429278165774
 30
0.0
  0
POINT
  5
98D6
330
8FB1
100
AcDbEntity
  8
Defpoints
 62
     0
100
AcDbPoint
 10
888.9850060169827
 20
1059.429278165774
 30
0.0
  0
POINT
  5
98D7
330
8FB1
100
AcDbEntity
  8
Defpoints
 62
     0
100
AcDbPoint
 10
888.9850060169827
 20
1069.750949458175
 30
0.0
  0
ENDBLK
  5
8FBD
330
8FB1
100
AcDbEntity
  8
0
 62
     7
370
    13
100
AcDbBlockEnd
  0
BLOCK
  5
9729
330
971E
100
AcDbEntity
  8
0
 62
     7
370
    13
100
AcDbBlockBegin
  2
*D70
 70
     1
 10
0.0
 20
0.0
 30
0.0
  3
*D70
  1

  0
LINE
  5
98D8
330
971E
100
AcDbEntity
  8
leaders
 62
     0
100
AcDbLine
 10
914.8956260688015
 20
1029.68759653743
 30
0.0
 11
903.3173201448182
 21
1029.68759653743
 31
0.0
  0
LINE
  5
98D9
330
971E
100
AcDbEntity
  8
leaders
 62
     0
100
AcDbLine
 10
914.6456260688015
 20
1055.81259653743
 30
0.0
 11
903.3173201448182
 21
1055.81259653743
 31
0.0
  0
LINE
  5
98DA
330
971E
100
AcDbEntity
  8
leaders
 62
     0
100
AcDbLine
 10
904.3173201448182
 20
1031.68759653743
 30
0.0
 11
904.3173201448182
 21
1038.128336430789
 31
0.0
  0
LINE
  5
98DB
330
971E
100
AcDbEntity
  8
leaders
 62
     0
100
AcDbLine
 10
904.3173201448182
 20
1053.81259653743
 30
0.0
 11
904.3173201448182
 21
1046.488364779478
 31
0.0
  0
MTEXT
  5
98DC
330
971E
100
AcDbEntity
  8
leaders
 62
     0
100
AcDbMText
 10
904.3173201448182
 20
1042.308350605134
 30
0.0
 40
4.0
 41
0.0
 71
     5
 72
     1
  1
\A1;26 1/8"
 73
     1
 44
1.0
  0
SOLID
  5
98DD
330
971E
100
AcDbEntity
  8
leaders
 62
     0
100
AcDbTrace
 10
903.9839868114849
 20
1031.68759653743
 30
0.0
 11
904.6506534781515
 21
1031.68759653743
 31
0.0
 12
904.3173201448182
 22
1029.68759653743
 32
0.0
 13
904.3173201448182
 23
1029.68759653743
 33
0.0
  0
SOLID
  5
98DE
330
971E
100
AcDbEntity
  8
leaders
 62
     0
100
AcDbTrace
 10
903.9839868114849
 20
1053.81259653743
 30
0.0
 11
904.6506534781515
 21
1053.81259653743
 31
0.0
 12
904.3173201448182
 22
1055.81259653743
 32
0.0
 13
904.3173201448182
 23
1055.81259653743
 33
0.0
  0
POINT
  5
98DF
330
971E
100
AcDbEntity
  8
Defpoints
 62
     0
100
AcDbPoint
 10
918.8956260688016
 20
1029.68759653743
 30
0.0
  0
POINT
  5
98E0
330
971E
100
AcDbEntity
  8
Defpoints
 62
     0
100
AcDbPoint
 10
918.6456260688016
 20
1055.81259653743
 30
0.0
  0
POINT
  5
98E1
330
971E
100
AcDbEntity
  8
Defpoints
 62
     0
100
AcDbPoint
 10
904.3173201448182
 20
1055.81259653743
 30
0.0
  0
ENDBLK
  5
972A
330
971E
100
AcDbEntity
  8
0
 62
     7
370
    13
100
AcDbBlockEnd
  0
BLOCK
  5
977D
330
9772
100
AcDbEntity
  8
0
 62
     7
370
    13
100
AcDbBlockBegin
  2
*D71
 70
     1
 10
0.0
 20
0.0
 30
0.0
  3
*D71
  1

  0
LINE
  5
98E2
330
9772
100
AcDbEntity
  8
leaders
 62
     0
100
AcDbLine
 10
732.471957361827
 20
1019.958832762413
 30
0.0
 11
716.5727702205777
 21
1019.958832762413
 31
0.0
  0
LINE
  5
98E3
330
9772
100
AcDbEntity
  8
leaders
 62
     0
100
AcDbLine
 10
732.46611529867
 20
1059.429278165774
 30
0.0
 11
716.5727702205777
 21
1059.429278165774
 31
0.0
  0
LINE
  5
98E4
330
9772
100
AcDbEntity
  8
leaders
 62
     0
100
AcDbLine
 10
717.5727702205777
 20
1021.958832762413
 30
0.0
 11
717.5727702205777
 21
1035.813240154997
 31
0.0
  0
LINE
  5
98E5
330
9772
100
AcDbEntity
  8
leaders
 62
     0
100
AcDbLine
 10
717.5727702205777
 20
1057.429278165774
 30
0.0
 11
717.5727702205777
 21
1044.173268503686
 31
0.0
  0
MTEXT
  5
98E6
330
9772
100
AcDbEntity
  8
leaders
 62
     0
100
AcDbMText
 10
717.5727702205777
 20
1039.993254329342
 30
0.0
 40
4.0
 41
0.0
 71
     5
 72
     1
  1
\A1;39 1/2"
 73
     1
 44
1.0
  0
SOLID
  5
98E7
330
9772
100
AcDbEntity
  8
leaders
 62
     0
100
AcDbTrace
 10
717.2394368872443
 20
1021.958832762413
 30
0.0
 11
717.9061035539111
 21
1021.958832762413
 31
0.0
 12
717.5727702205777
 22
1019.958832762413
 32
0.0
 13
717.5727702205777
 23
1019.958832762413
 33
0.0
  0
SOLID
  5
98E8
330
9772
100
AcDbEntity
  8
leaders
 62
     0
100
AcDbTrace
 10
717.2394368872443
 20
1057.429278165774
 30
0.0
 11
717.9061035539111
 21
1057.429278165774
 31
0.0
 12
717.5727702205777
 22
1059.429278165774
 32
0.0
 13
717.5727702205777
 23
1059.429278165774
 33
0.0
  0
POINT
  5
98E9
330
9772
100
AcDbEntity
  8
Defpoints
 62
     0
100
AcDbPoint
 10
736.471957361827
 20
1019.958832762413
 30
0.0
  0
POINT
  5
98EA
330
9772
100
AcDbEntity
  8
Defpoints
 62
     0
100
AcDbPoint
 10
736.46611529867
 20
1059.429278165774
 30
0.0
  0
POINT
  5
98EB
330
9772
100
AcDbEntity
  8
Defpoints
 62
     0
100
AcDbPoint
 10
717.5727702205777
 20
1059.429278165774
 30
0.0
  0
ENDBLK
  5
977E
330
9772
100
AcDbEntity
  8
0
 62
     7
370
    13
100
AcDbBlockEnd
  0
BLOCK
  5
9796
330
978B
100
AcDbEntity
  8
0
 62
     7
370
    13
100
AcDbBlockBegin
  2
*D72
 70
     1
 10
0.0
 20
0.0
 30
0.0
  3
*D72
  1

  0
LINE
  5
98EC
330
978B
100
AcDbEntity
  8
leaders
 62
     0
100
AcDbLine
 10
784.0447112287484
 20
1018.835832762413
 30
0.0
 11
784.0447112287484
 21
1010.685996645254
 31
0.0
  0
LINE
  5
98ED
330
978B
100
AcDbEntity
  8
leaders
 62
     0
100
AcDbLine
 10
810.9197112287484
 20
1018.835832762413
 30
0.0
 11
810.9197112287484
 21
1010.685996645254
 31
0.0
  0
LINE
  5
98EE
330
978B
100
AcDbEntity
  8
leaders
 62
     0
100
AcDbLine
 10
782.0447112287483
 20
1011.685996645254
 30
0.0
 11
780.0447112287484
 21
1011.685996645254
 31
0.0
  0
LINE
  5
98EF
330
978B
100
AcDbEntity
  8
leaders
 62
     0
100
AcDbLine
 10
812.9197112287483
 20
1011.685996645254
 30
0.0
 11
814.9197112287483
 21
1011.685996645254
 31
0.0
  0
MTEXT
  5
98F0
330
978B
100
AcDbEntity
  8
leaders
 62
     0
100
AcDbMText
 10
798.0523947279309
 20
1011.685996645254
 30
0.0
 40
4.0
 41
0.0
 71
     5
 72
     1
  1
\A1;26 7/8"
 73
     1
 44
1.0
  0
SOLID
  5
98F1
330
978B
100
AcDbEntity
  8
leaders
 62
     0
100
AcDbTrace
 10
782.0447112287483
 20
1012.019329978588
 30
0.0
 11
782.0447112287483
 21
1011.352663311921
 31
0.0
 12
784.0447112287484
 22
1011.685996645254
 32
0.0
 13
784.0447112287484
 23
1011.685996645254
 33
0.0
  0
SOLID
  5
98F2
330
978B
100
AcDbEntity
  8
leaders
 62
     0
100
AcDbTrace
 10
812.9197112287483
 20
1012.019329978588
 30
0.0
 11
812.9197112287483
 21
1011.352663311921
 31
0.0
 12
810.9197112287484
 22
1011.685996645254
 32
0.0
 13
810.9197112287484
 23
1011.685996645254
 33
0.0
  0
POINT
  5
98F3
330
978B
100
AcDbEntity
  8
Defpoints
 62
     0
100
AcDbPoint
 10
784.0447112287484
 20
1022.835832762413
 30
0.0
  0
POINT
  5
98F4
330
978B
100
AcDbEntity
  8
Defpoints
 62
     0
100
AcDbPoint
 10
810.9197112287484
 20
1022.835832762413
 30
0.0
  0
POINT
  5
98F5
330
978B
100
AcDbEntity
  8
Defpoints
 62
     0
100
AcDbPoint
 10
810.9197112287484
 20
1011.685996645254
 30
0.0
  0
ENDBLK
  5
9797
330
978B
100
AcDbEntity
  8
0
 62
     7
370
    13
100
AcDbBlockEnd
  0
BLOCK
  5
97AE
330
97A3
100
AcDbEntity
  8
0
 62
     7
370
    13
100
AcDbBlockBegin
  2
*D73
 70
     1
 10
0.0
 20
0.0
 30
0.0
  3
*D73
  1

  0
LINE
  5
98F6
330
97A3
100
AcDbEntity
  8
leaders
 62
     0
100
AcDbLine
 10
757.34111529867
 20
1016.335832762413
 30
0.0
 11
757.34111529867
 21
1002.115157641679
 31
0.0
  0
LINE
  5
98F7
330
97A3
100
AcDbEntity
  8
leaders
 62
     0
100
AcDbLine
 10
736.46611529867
 20
1052.054278165774
 30
0.0
 11
736.46611529867
 21
1002.115157641679
 31
0.0
  0
LINE
  5
98F8
330
97A3
100
AcDbEntity
  8
leaders
 62
     0
100
AcDbLine
 10
755.34111529867
 20
1003.115157641679
 30
0.0
 11
738.4661152986701
 21
1003.115157641679
 31
0.0
  0
LINE
  5
98F9
330
97A3
100
AcDbEntity
  8
leaders
 62
     0
100
AcDbLine
 10
734.0458511549843
 20
1003.115157641679
 30
0.0
 11
736.46611529867
 21
1003.115157641679
 31
0.0
  0
MTEXT
  5
98FA
330
97A3
100
AcDbEntity
  8
leaders
 62
     0
100
AcDbMText
 10
721.1429454143748
 20
1003.115157641679
 30
0.0
 40
4.0
 41
0.0
 71
     5
 72
     1
  1
\A1;20 7/8"
 73
     1
 44
1.0
  0
SOLID
  5
98FB
330
97A3
100
AcDbEntity
  8
leaders
 62
     0
100
AcDbTrace
 10
755.34111529867
 20
1003.448490975012
 30
0.0
 11
755.34111529867
 21
1002.781824308346
 31
0.0
 12
757.34111529867
 22
1003.115157641679
 32
0.0
 13
757.34111529867
 23
1003.115157641679
 33
0.0
  0
SOLID
  5
98FC
330
97A3
100
AcDbEntity
  8
leaders
 62
     0
100
AcDbTrace
 10
738.4661152986701
 20
1003.448490975012
 30
0.0
 11
738.4661152986701
 21
1002.781824308346
 31
0.0
 12
736.46611529867
 22
1003.115157641679
 32
0.0
 13
736.46611529867
 23
1003.115157641679
 33
0.0
  0
POINT
  5
98FD
330
97A3
100
AcDbEntity
  8
Defpoints
 62
     0
100
AcDbPoint
 10
757.34111529867
 20
1020.335832762413
 30
0.0
  0
POINT
  5
98FE
330
97A3
100
AcDbEntity
  8
Defpoints
 62
     0
100
AcDbPoint
 10
736.46611529867
 20
1056.054278165774
 30
0.0
  0
POINT
  5
98FF
330
97A3
100
AcDbEntity
  8
Defpoints
 62
     0
100
AcDbPoint
 10
736.46611529867
 20
1003.115157641679
 30
0.0
  0
ENDBLK
  5
97AF
330
97A3
100
AcDbEntity
  8
0
 62
     7
370
    13
100
AcDbBlockEnd
  0
BLOCK
  5
97DF
330
97D4
100
AcDbEntity
  8
0
 62
     7
370
    13
100
AcDbBlockBegin
  2
*D75
 70
     1
 10
0.0
 20
0.0
 30
0.0
  3
*D75
  1

  0
LINE
  5
9900
330
97D4
100
AcDbEntity
  8
TEXT
 62
     0
100
AcDbLine
 10
757.34111529867
 20
1016.484371697902
 30
0.0
 11
757.34111529867
 21
1002.115157641679
 31
0.0
  0
LINE
  5
9901
330
97D4
100
AcDbEntity
  8
TEXT
 62
     0
100
AcDbLine
 10
837.59111529867
 20
1016.484371697902
 30
0.0
 11
837.59111529867
 21
1002.115157641679
 31
0.0
  0
LINE
  5
9902
330
97D4
100
AcDbEntity
  8
TEXT
 62
     0
100
AcDbLine
 10
759.34111529867
 20
1003.115157641679
 30
0.0
 11
785.9944529572049
 21
1003.115157641679
 31
0.0
  0
LINE
  5
9903
330
97D4
100
AcDbEntity
  8
TEXT
 62
     0
100
AcDbLine
 10
835.5911152986701
 20
1003.115157641679
 30
0.0
 11
810.0284713838526
 21
1003.115157641679
 31
0.0
  0
MTEXT
  5
9904
330
97D4
100
AcDbEntity
  8
TEXT
 62
     0
100
AcDbMText
 10
798.0114621705288
 20
1003.115157641679
 30
0.0
 40
4.0
 41
0.0
 71
     5
 72
     1
  1
\A1;VARIES
 73
     1
 44
1.0
  0
SOLID
  5
9905
330
97D4
100
AcDbEntity
  8
TEXT
 62
     0
100
AcDbTrace
 10
759.34111529867
 20
1003.448490975012
 30
0.0
 11
759.34111529867
 21
1002.781824308346
 31
0.0
 12
757.34111529867
 22
1003.115157641679
 32
0.0
 13
757.34111529867
 23
1003.115157641679
 33
0.0
  0
SOLID
  5
9906
330
97D4
100
AcDbEntity
  8
TEXT
 62
     0
100
AcDbTrace
 10
835.5911152986701
 20
1003.448490975012
 30
0.0
 11
835.5911152986701
 21
1002.781824308346
 31
0.0
 12
837.59111529867
 22
1003.115157641679
 32
0.0
 13
837.59111529867
 23
1003.115157641679
 33
0.0
  0
POINT
  5
9907
330
97D4
100
AcDbEntity
  8
Defpoints
 62
     0
100
AcDbPoint
 10
757.34111529867
 20
1020.484371697902
 30
0.0
  0
POINT
  5
9908
330
97D4
100
AcDbEntity
  8
Defpoints
 62
     0
100
AcDbPoint
 10
837.59111529867
 20
1020.484371697902
 30
0.0
  0
POINT
  5
9909
330
97D4
100
AcDbEntity
  8
Defpoints
 62
     0
100
AcDbPoint
 10
837.59111529867
 20
1003.115157641679
 30
0.0
  0
ENDBLK
  5
97E0
330
97D4
100
AcDbEntity
  8
0
 62
     7
370
    13
100
AcDbBlockEnd
  0
ENDSEC
  0
SECTION
  2
ENTITIES
  0
INSERT
  5
1247
330
2
100
AcDbEntity
  8
ASHADE
 62
     1
370
    13
100
AcDbBlockReference
  2
AVE_RENDER
 10
716.8802747180818
 20
428.996703363162
 30
0.0
1001
AVE_RENDER
1002
{
1070
     7
1000
Pref
1070
    30
1070
    20
1070
     1
1070
     0
1000

1070
    10
1070
     1
1070
    10
1040
1.0
1070
     1
1040
0.3
1040
0.7
1040
0.0
1040
10.0
1010
-1.0
1020
-1.0
1030
-1.0
1040
0.3
1070
    49
1070
     0
1070
     0
1010
1.0
1020
1.0
1030
1.0
1040
45.0
1070
     1
1070
     0
1000
WCS
1040
0.0
1070
     0
1040
10.0
1002
}
  0
INSERT
  5
1248
330
2
100
AcDbEntity
  8
ASHADE
 62
     3
370
    13
100
AcDbBlockReference
  2
AVE_RENDER
 10
716.8802747180818
 20
428.996703363162
 30
0.0
1001
AVE_RENDER
1002
{
1070
     0
1000
Full Opt
1070
     0
1070
     1
1070
     1
1070
     1
1070
     0
1070
     0
1070
     0
1070
     1
1070
     1
1040
0.0001
1040
0.0001
1002
}
  0
INSERT
  5
1249
330
2
100
AcDbEntity
  8
ASHADE
 62
     4
370
    13
100
AcDbBlockReference
  2
AVE_RENDER
 10
716.8802747180818
 20
428.996703363162
 30
0.0
1001
AVE_RENDER
1002
{
1070
     0
1000
Quick Opt
1070
     0
1070
     1
1070
     1
1070
     1
1070
     0
1070
     0
1070
     1
1002
}
  0
INSERT
  5
124A
330
2
100
AcDbEntity
  8
ASHADE
 62
     5
370
    13
100
AcDbBlockReference
  2
AVE_RENDER
 10
716.8802747180818
 20
428.996703363162
 30
0.0
1001
AVE_RENDER
1002
{
1070
     1
1000
Scanl Opt
1070
     2
1070
     0
1070
     2
1040
2.0
1040
4.0
1070
     0
1070
     1
1070
     0
1040
0.03
1002
}
  0
INSERT
  5
124B
330
2
100
AcDbEntity
  8
ASHADE
 62
     6
370
    13
100
AcDbBlockReference
  2
AVE_RENDER
 10
716.8802747180818
 20
428.996703363162
 30
0.0
1001
AVE_RENDER
1002
{
1070
     2
1000
Raytr Opt
1070
     2
1070
     0
1070
     2
1040
2.0
1040
4.0
1070
     0
1070
     1
1070
     1
1040
0.03
1070
     3
1040
0.03
1002
}
  0
INSERT
  5
124C
330
2
100
AcDbEntity
  8
ASHADE
 62
     7
370
    13
100
AcDbBlockReference
  2
AVE_RENDER
 10
716.8802747180818
 20
428.996703363162
 30
0.0
1001
AVE_RENDER
1002
{
1070
     0
1000
RFile Opt
1070
     1
1070
   640
1070
   480
1070
 10000
1070
     1
1070
     8
1070
     8
1070
     0
1070
     0
1070
     0
1070
     0
1070
     0
1070
     0
1070
     0
1002
}
  0
INSERT
  5
124D
330
2
100
AcDbEntity
  8
ASHADE
 62
     8
370
    13
100
AcDbBlockReference
  2
AVE_RENDER
 10
716.8802747180818
 20
428.996703363162
 30
0.0
1001
AVE_RENDER
1002
{
1070
     0
1000
Fog Opt
1070
     0
1070
     0
1040
0.0
1040
1.0
1040
0.0
1040
1.0
1010
0.5
1020
0.5
1030
0.5
1002
}
  0
INSERT
  5
124E
330
2
100
AcDbEntity
  8
ASHADE
 62
     9
370
    13
100
AcDbBlockReference
  2
AVE_RENDER
 10
716.8802747180818
 20
428.996703363162
 30
0.0
1001
AVE_RENDER
1002
{
1070
     0
1000
BG Opt
1070
     0
1070
     1
1010
0.0
1020
0.0
1030
0.0
1010
1.0
1020
0.0
1030
0.0
1010
0.0
1020
1.0
1030
0.0
1010
0.0
1020
0.0
1030
1.0
1040
0.5
1040
0.33
1040
0.0
1000

1070
     1
1000

1070
     1
1070
     1
1040
1.0
1040
1.0
1040
0.0
1040
0.0
1070
     0
1002
}
  0
INSERT
  5
124F
330
2
100
AcDbEntity
  8
ASHADE
 62
     1
370
    13
100
AcDbBlockReference
  2
AVE_GLOBAL
 10
716.8802747180818
 20
428.996703363162
 30
0.0
1001
AVE_MATERIAL
1002
{
1000
*GLOBAL*
1000
1
1000
Global finish.
1002
{
1002
}
1002
{
1070
    63
1002
{
1002
{
1010
-1.0
1020
-1.0
1030
-1.0
1002
}
1040
0.1000000014901161
1000

1040
0.0
1002
{
1002
}
1040
0.0
1002
{
1002
}
1040
0.0
1002
}
1002
{
1002
{
1010
-1.0
1020
-1.0
1030
-1.0
1002
}
1040
0.6999999880790711
1000

1040
0.0
1002
{
1002
}
1040
0.0
1002
{
1002
}
1040
0.0
1002
}
1002
{
1002
{
1010
-1.0
1020
-1.0
1030
-1.0
1002
}
1040
0.2000000029802322
1000

1040
0.0
1002
{
1002
}
1040
0.0
1002
{
1002
}
1040
0.0
1002
}
1002
{
1070
     0
1002
{
1070
     1
1002
{
1040
1.0
1040
1.0
1000

1040
0.0
1002
{
1002
}
1040
0.0
1002
{
1002
}
1040
0.0
1002
}
1002
}
1040
1.0
1040
0.0
1040
0.0
1002
}
1002
{
1040
1.0
1040
1.0
1000

1040
0.0
1002
{
1002
}
1040
0.0
1002
{
1002
}
1040
0.0
1002
}
1002
{
1040
0.5
1040
1.0
1000

1040
0.0
1002
{
1002
}
1040
0.0
1002
{
1002
}
1040
0.0
1002
}
1002
{
1070
     0
1040
0.0
1002
{
1002
}
1040
1.0
1002
{
1002
}
1040
0.0
1002
}
1002
{
1040
0.0
1002
{
1002
{
1010
0.0
1020
0.0
1030
0.0
1002
}
1040
1.0
1000

1040
0.0
1002
{
1002
}
1040
0.0
1002
{
1002
}
1040
0.0
1002
}
1002
}
1002
{
1002
{
1070
     1
1002
{
1040
0.0
1040
1.0
1000

1040
0.0
1002
{
1002
}
1040
0.0
1002
{
1002
}
1040
0.0
1002
}
1002
}
1040
0.0
1002
{
1002
}
1010
1.0
1020
0.0
1030
0.0
1010
0.0
1020
1.0
1030
0.0
1010
0.0
1020
0.0
1030
1.0
1070
     0
1002
}
1002
{
1002
{
1040
1.0
1040
1.0
1002
{
1070
     1
1002
{
1040
1.0
1040
1.0
1000

1040
0.0
1002
{
1002
}
1040
0.0
1002
{
1002
}
1040
0.0
1002
}
1002
}
1002
}
1070
     0
1040
0.0
1002
{
1002
}
1002
}
1002
{
1002
}
1002
}
1002
{
1071
        3
1070
     3
1070
     0
1002
{
1070
     2
1070
     0
1070
     0
1040
0.0
1002
}
1070
     0
1070
     2
1002
{
1002
}
1002
}
1002
{
1040
8030.0
1040
190.3000030517578
1040
0.3050000071525574
1040
228.0
1040
545.0
1040
14.0
1040
17.39999961853027
1040
0.4560000002384186
1002
}
1002
}
  0
INSERT
  5
1250
330
2
100
AcDbEntity
  8
ASHADE
 62
     1
370
    13
100
AcDbBlockReference
  2
AVE_RENDER
 10
716.7945457706323
 20
373.1331682575083
 30
0.0
1001
AVE_RENDER
1002
{
1070
     7
1000
Pref
1070
    60
1070
    20
1070
     1
1070
     0
1000

1070
    10
1070
     1
1070
    10
1040
1.0
1070
     1
1040
0.3
1040
0.7
1040
0.0
1040
10.0
1010
-1.0
1020
-1.0
1030
-1.0
1040
0.3
1070
    49
1070
     0
1070
     0
1010
1.0
1020
1.0
1030
1.0
1040
45.0
1070
     1
1070
     0
1000
WCS
1040
0.0
1070
     0
1040
10.0
1002
}
  0
INSERT
  5
1251
330
2
100
AcDbEntity
  8
ASHADE
 62
     3
370
    13
100
AcDbBlockReference
  2
AVE_RENDER
 10
716.7945457706323
 20
373.1331682575083
 30
0.0
1001
AVE_RENDER
1002
{
1070
     0
1000
Full Opt
1070
     0
1070
     1
1070
     1
1070
     1
1070
     0
1070
     0
1070
     0
1070
     1
1070
     1
1040
0.0001
1040
0.0001
1002
}
  0
INSERT
  5
1252
330
2
100
AcDbEntity
  8
ASHADE
 62
     4
370
    13
100
AcDbBlockReference
  2
AVE_RENDER
 10
716.7945457706323
 20
373.1331682575083
 30
0.0
1001
AVE_RENDER
1002
{
1070
     0
1000
Quick Opt
1070
     0
1070
     1
1070
     1
1070
     1
1070
     0
1070
     0
1070
     1
1002
}
  0
INSERT
  5
1253
330
2
100
AcDbEntity
  8
ASHADE
 62
     5
370
    13
100
AcDbBlockReference
  2
AVE_RENDER
 10
716.7945457706323
 20
373.1331682575083
 30
0.0
1001
AVE_RENDER
1002
{
1070
     1
1000
Scanl Opt
1070
     2
1070
     0
1070
     2
1040
2.0
1040
4.0
1070
     0
1070
     1
1070
     0
1040
0.03
1002
}
  0
INSERT
  5
1254
330
2
100
AcDbEntity
  8
ASHADE
 62
     6
370
    13
100
AcDbBlockReference
  2
AVE_RENDER
 10
716.7945457706323
 20
373.1331682575083
 30
0.0
1001
AVE_RENDER
1002
{
1070
     2
1000
Raytr Opt
1070
     2
1070
     0
1070
     2
1040
2.0
1040
4.0
1070
     0
1070
     1
1070
     1
1040
0.03
1070
     3
1040
0.03
1002
}
  0
INSERT
  5
1255
330
2
100
AcDbEntity
  8
ASHADE
 62
     7
370
    13
100
AcDbBlockReference
  2
AVE_RENDER
 10
716.7945457706323
 20
373.1331682575083
 30
0.0
1001
AVE_RENDER
1002
{
1070
     0
1000
RFile Opt
1070
     1
1070
   640
1070
   480
1070
 10000
1070
     1
1070
     8
1070
     8
1070
     0
1070
     0
1070
     0
1070
     0
1070
     0
1070
     0
1070
     0
1002
}
  0
INSERT
  5
1256
330
2
100
AcDbEntity
  8
ASHADE
 62
     8
370
    13
100
AcDbBlockReference
  2
AVE_RENDER
 10
716.7945457706323
 20
373.1331682575083
 30
0.0
1001
AVE_RENDER
1002
{
1070
     0
1000
Fog Opt
1070
     0
1070
     0
1040
0.0
1040
1.0
1040
0.0
1040
1.0
1010
0.5
1020
0.5
1030
0.5
1002
}
  0
INSERT
  5
1257
330
2
100
AcDbEntity
  8
ASHADE
 62
     9
370
    13
100
AcDbBlockReference
  2
AVE_RENDER
 10
716.7945457706323
 20
373.1331682575083
 30
0.0
1001
AVE_RENDER
1002
{
1070
     0
1000
BG Opt
1070
     0
1070
     1
1010
0.0
1020
0.0
1030
0.0
1010
1.0
1020
0.0
1030
0.0
1010
0.0
1020
1.0
1030
0.0
1010
0.0
1020
0.0
1030
1.0
1040
0.5
1040
0.33
1040
0.0
1000

1070
     1
1000

1070
     1
1070
     1
1040
1.0
1040
1.0
1040
0.0
1040
0.0
1070
     0
1002
}
  0
INSERT
  5
1258
330
2
100
AcDbEntity
  8
ASHADE
 62
     1
370
    13
100
AcDbBlockReference
  2
AVE_GLOBAL
 10
716.7945457706323
 20
373.1331682575083
 30
0.0
1001
AVE_MATERIAL
1002
{
1000
*GLOBAL*
1000
1
1000
Global finish.
1002
{
1002
}
1002
{
1070
    63
1002
{
1002
{
1010
-1.0
1020
-1.0
1030
-1.0
1002
}
1040
0.1000000014901161
1000

1040
0.0
1002
{
1002
}
1040
0.0
1002
{
1002
}
1040
0.0
1002
}
1002
{
1002
{
1010
-1.0
1020
-1.0
1030
-1.0
1002
}
1040
0.6999999880790711
1000

1040
0.0
1002
{
1002
}
1040
0.0
1002
{
1002
}
1040
0.0
1002
}
1002
{
1002
{
1010
-1.0
1020
-1.0
1030
-1.0
1002
}
1040
0.2000000029802322
1000

1040
0.0
1002
{
1002
}
1040
0.0
1002
{
1002
}
1040
0.0
1002
}
1002
{
1070
     0
1002
{
1070
     1
1002
{
1040
1.0
1040
1.0
1000

1040
0.0
1002
{
1002
}
1040
0.0
1002
{
1002
}
1040
0.0
1002
}
1002
}
1040
1.0
1040
0.0
1040
0.0
1002
}
1002
{
1040
1.0
1040
1.0
1000

1040
0.0
1002
{
1002
}
1040
0.0
1002
{
1002
}
1040
0.0
1002
}
1002
{
1040
0.5
1040
1.0
1000

1040
0.0
1002
{
1002
}
1040
0.0
1002
{
1002
}
1040
0.0
1002
}
1002
{
1070
     0
1040
0.0
1002
{
1002
}
1040
1.0
1002
{
1002
}
1040
0.0
1002
}
1002
{
1040
0.0
1002
{
1002
{
1010
0.0
1020
0.0
1030
0.0
1002
}
1040
1.0
1000

1040
0.0
1002
{
1002
}
1040
0.0
1002
{
1002
}
1040
0.0
1002
}
1002
}
1002
{
1002
{
1070
     1
1002
{
1040
0.0
1040
1.0
1000

1040
0.0
1002
{
1002
}
1040
0.0
1002
{
1002
}
1040
0.0
1002
}
1002
}
1040
0.0
1002
{
1002
}
1010
1.0
1020
0.0
1030
0.0
1010
0.0
1020
1.0
1030
0.0
1010
0.0
1020
0.0
1030
1.0
1070
     0
1002
}
1002
{
1002
{
1040
1.0
1040
1.0
1002
{
1070
     1
1002
{
1040
1.0
1040
1.0
1000

1040
0.0
1002
{
1002
}
1040
0.0
1002
{
1002
}
1040
0.0
1002
}
1002
}
1002
}
1070
     0
1040
0.0
1002
{
1002
}
1002
}
1002
{
1002
}
1002
}
1002
{
1071
        3
1070
     3
1070
     0
1002
{
1070
     2
1070
     0
1070
     0
1040
0.0
1002
}
1070
     0
1070
     2
1002
{
1002
}
1002
}
1002
{
1040
8030.0
1040
190.3000030517578
1040
0.3050000071525574
1040
228.0
1040
545.0
1040
14.0
1040
17.39999961853027
1040
0.4560000002384186
1002
}
1002
}
  0
INSERT
  5
1EFA
330
2
100
AcDbEntity
  8
ASHADE
 62
     1
370
    13
100
AcDbBlockReference
  2
AVE_RENDER
 10
777.0222907209789
 20
614.0526601250773
 30
0.0
1001
AVE_RENDER
1002
{
1070
     7
1000
Pref
1070
    30
1070
    20
1070
     1
1070
     0
1000

1070
    10
1070
     1
1070
    10
1040
1.0
1070
     1
1040
0.3
1040
0.7
1040
0.0
1040
10.0
1010
-1.0
1020
-1.0
1030
-1.0
1040
0.3
1070
    49
1070
     0
1070
     0
1010
1.0
1020
1.0
1030
1.0
1040
45.0
1070
     1
1070
     0
1000
WCS
1040
0.0
1070
     0
1040
10.0
1002
}
  0
INSERT
  5
1EFB
330
2
100
AcDbEntity
  8
ASHADE
 62
     3
370
    13
100
AcDbBlockReference
  2
AVE_RENDER
 10
777.0222907209789
 20
614.0526601250773
 30
0.0
1001
AVE_RENDER
1002
{
1070
     0
1000
Full Opt
1070
     0
1070
     1
1070
     1
1070
     1
1070
     0
1070
     0
1070
     0
1070
     1
1070
     1
1040
0.0001
1040
0.0001
1002
}
  0
INSERT
  5
1EFC
330
2
100
AcDbEntity
  8
ASHADE
 62
     4
370
    13
100
AcDbBlockReference
  2
AVE_RENDER
 10
777.0222907209789
 20
614.0526601250773
 30
0.0
1001
AVE_RENDER
1002
{
1070
     0
1000
Quick Opt
1070
     0
1070
     1
1070
     1
1070
     1
1070
     0
1070
     0
1070
     1
1002
}
  0
INSERT
  5
1EFD
330
2
100
AcDbEntity
  8
ASHADE
 62
     5
370
    13
100
AcDbBlockReference
  2
AVE_RENDER
 10
777.0222907209789
 20
614.0526601250773
 30
0.0
1001
AVE_RENDER
1002
{
1070
     1
1000
Scanl Opt
1070
     2
1070
     0
1070
     2
1040
2.0
1040
4.0
1070
     0
1070
     1
1070
     0
1040
0.03
1002
}
  0
INSERT
  5
1EFE
330
2
100
AcDbEntity
  8
ASHADE
 62
     6
370
    13
100
AcDbBlockReference
  2
AVE_RENDER
 10
777.0222907209789
 20
614.0526601250773
 30
0.0
1001
AVE_RENDER
1002
{
1070
     2
1000
Raytr Opt
1070
     2
1070
     0
1070
     2
1040
2.0
1040
4.0
1070
     0
1070
     1
1070
     1
1040
0.03
1070
     3
1040
0.03
1002
}
  0
INSERT
  5
1EFF
330
2
100
AcDbEntity
  8
ASHADE
 62
     7
370
    13
100
AcDbBlockReference
  2
AVE_RENDER
 10
777.0222907209789
 20
614.0526601250773
 30
0.0
1001
AVE_RENDER
1002
{
1070
     0
1000
RFile Opt
1070
     1
1070
   640
1070
   480
1070
 10000
1070
     1
1070
     8
1070
     8
1070
     0
1070
     0
1070
     0
1070
     0
1070
     0
1070
     0
1070
     0
1002
}
  0
INSERT
  5
1F00
330
2
100
AcDbEntity
  8
ASHADE
 62
     8
370
    13
100
AcDbBlockReference
  2
AVE_RENDER
 10
777.0222907209789
 20
614.0526601250773
 30
0.0
1001
AVE_RENDER
1002
{
1070
     0
1000
Fog Opt
1070
     0
1070
     0
1040
0.0
1040
1.0
1040
0.0
1040
1.0
1010
0.5
1020
0.5
1030
0.5
1002
}
  0
INSERT
  5
1F01
330
2
100
AcDbEntity
  8
ASHADE
 62
     9
370
    13
100
AcDbBlockReference
  2
AVE_RENDER
 10
777.0222907209789
 20
614.0526601250773
 30
0.0
1001
AVE_RENDER
1002
{
1070
     0
1000
BG Opt
1070
     0
1070
     1
1010
0.0
1020
0.0
1030
0.0
1010
1.0
1020
0.0
1030
0.0
1010
0.0
1020
1.0
1030
0.0
1010
0.0
1020
0.0
1030
1.0
1040
0.5
1040
0.33
1040
0.0
1000

1070
     1
1000

1070
     1
1070
     1
1040
1.0
1040
1.0
1040
0.0
1040
0.0
1070
     0
1002
}
  0
INSERT
  5
1F02
330
2
100
AcDbEntity
  8
ASHADE
 62
     1
370
    13
100
AcDbBlockReference
  2
AVE_GLOBAL
 10
777.0222907209789
 20
614.0526601250773
 30
0.0
1001
AVE_MATERIAL
1002
{
1000
*GLOBAL*
1000
1
1000
Global finish.
1002
{
1002
}
1002
{
1070
    63
1002
{
1002
{
1010
-1.0
1020
-1.0
1030
-1.0
1002
}
1040
0.1000000014901161
1000

1040
0.0
1002
{
1002
}
1040
0.0
1002
{
1002
}
1040
0.0
1002
}
1002
{
1002
{
1010
-1.0
1020
-1.0
1030
-1.0
1002
}
1040
0.6999999880790711
1000

1040
0.0
1002
{
1002
}
1040
0.0
1002
{
1002
}
1040
0.0
1002
}
1002
{
1002
{
1010
-1.0
1020
-1.0
1030
-1.0
1002
}
1040
0.2000000029802322
1000

1040
0.0
1002
{
1002
}
1040
0.0
1002
{
1002
}
1040
0.0
1002
}
1002
{
1070
     0
1002
{
1070
     1
1002
{
1040
1.0
1040
1.0
1000

1040
0.0
1002
{
1002
}
1040
0.0
1002
{
1002
}
1040
0.0
1002
}
1002
}
1040
1.0
1040
0.0
1040
0.0
1002
}
1002
{
1040
1.0
1040
1.0
1000

1040
0.0
1002
{
1002
}
1040
0.0
1002
{
1002
}
1040
0.0
1002
}
1002
{
1040
0.5
1040
1.0
1000

1040
0.0
1002
{
1002
}
1040
0.0
1002
{
1002
}
1040
0.0
1002
}
1002
{
1070
     0
1040
0.0
1002
{
1002
}
1040
1.0
1002
{
1002
}
1040
0.0
1002
}
1002
{
1040
0.0
1002
{
1002
{
1010
0.0
1020
0.0
1030
0.0
1002
}
1040
1.0
1000

1040
0.0
1002
{
1002
}
1040
0.0
1002
{
1002
}
1040
0.0
1002
}
1002
}
1002
{
1002
{
1070
     1
1002
{
1040
0.0
1040
1.0
1000

1040
0.0
1002
{
1002
}
1040
0.0
1002
{
1002
}
1040
0.0
1002
}
1002
}
1040
0.0
1002
{
1002
}
1010
1.0
1020
0.0
1030
0.0
1010
0.0
1020
1.0
1030
0.0
1010
0.0
1020
0.0
1030
1.0
1070
     0
1002
}
1002
{
1002
{
1040
1.0
1040
1.0
1002
{
1070
     1
1002
{
1040
1.0
1040
1.0
1000

1040
0.0
1002
{
1002
}
1040
0.0
1002
{
1002
}
1040
0.0
1002
}
1002
}
1002
}
1070
     0
1040
0.0
1002
{
1002
}
1002
}
1002
{
1002
}
1002
}
1002
{
1071
        3
1070
     3
1070
     0
1002
{
1070
     2
1070
     0
1070
     0
1040
0.0
1002
}
1070
     0
1070
     2
1002
{
1002
}
1002
}
1002
{
1040
8030.0
1040
190.3000030517578
1040
0.3050000071525574
1040
228.0
1040
545.0
1040
14.0
1040
17.39999961853027
1040
0.4560000002384186
1002
}
1002
}
  0
INSERT
  5
1F03
330
2
100
AcDbEntity
  8
ASHADE
 62
     1
370
    13
100
AcDbBlockReference
  2
AVE_RENDER
 10
776.9365617735295
 20
558.1891250194237
 30
0.0
1001
AVE_RENDER
1002
{
1070
     7
1000
Pref
1070
    60
1070
    20
1070
     1
1070
     0
1000

1070
    10
1070
     1
1070
    10
1040
1.0
1070
     1
1040
0.3
1040
0.7
1040
0.0
1040
10.0
1010
-1.0
1020
-1.0
1030
-1.0
1040
0.3
1070
    49
1070
     0
1070
     0
1010
1.0
1020
1.0
1030
1.0
1040
45.0
1070
     1
1070
     0
1000
WCS
1040
0.0
1070
     0
1040
10.0
1002
}
  0
INSERT
  5
1F04
330
2
100
AcDbEntity
  8
ASHADE
 62
     3
370
    13
100
AcDbBlockReference
  2
AVE_RENDER
 10
776.9365617735295
 20
558.1891250194237
 30
0.0
1001
AVE_RENDER
1002
{
1070
     0
1000
Full Opt
1070
     0
1070
     1
1070
     1
1070
     1
1070
     0
1070
     0
1070
     0
1070
     1
1070
     1
1040
0.0001
1040
0.0001
1002
}
  0
INSERT
  5
1F05
330
2
100
AcDbEntity
  8
ASHADE
 62
     4
370
    13
100
AcDbBlockReference
  2
AVE_RENDER
 10
776.9365617735295
 20
558.1891250194237
 30
0.0
1001
AVE_RENDER
1002
{
1070
     0
1000
Quick Opt
1070
     0
1070
     1
1070
     1
1070
     1
1070
     0
1070
     0
1070
     1
1002
}
  0
INSERT
  5
1F06
330
2
100
AcDbEntity
  8
ASHADE
 62
     5
370
    13
100
AcDbBlockReference
  2
AVE_RENDER
 10
776.9365617735295
 20
558.1891250194237
 30
0.0
1001
AVE_RENDER
1002
{
1070
     1
1000
Scanl Opt
1070
     2
1070
     0
1070
     2
1040
2.0
1040
4.0
1070
     0
1070
     1
1070
     0
1040
0.03
1002
}
  0
INSERT
  5
1F07
330
2
100
AcDbEntity
  8
ASHADE
 62
     6
370
    13
100
AcDbBlockReference
  2
AVE_RENDER
 10
776.9365617735295
 20
558.1891250194237
 30
0.0
1001
AVE_RENDER
1002
{
1070
     2
1000
Raytr Opt
1070
     2
1070
     0
1070
     2
1040
2.0
1040
4.0
1070
     0
1070
     1
1070
     1
1040
0.03
1070
     3
1040
0.03
1002
}
  0
INSERT
  5
1F08
330
2
100
AcDbEntity
  8
ASHADE
 62
     7
370
    13
100
AcDbBlockReference
  2
AVE_RENDER
 10
776.9365617735295
 20
558.1891250194237
 30
0.0
1001
AVE_RENDER
1002
{
1070
     0
1000
RFile Opt
1070
     1
1070
   640
1070
   480
1070
 10000
1070
     1
1070
     8
1070
     8
1070
     0
1070
     0
1070
     0
1070
     0
1070
     0
1070
     0
1070
     0
1002
}
  0
INSERT
  5
1F09
330
2
100
AcDbEntity
  8
ASHADE
 62
     8
370
    13
100
AcDbBlockReference
  2
AVE_RENDER
 10
776.9365617735295
 20
558.1891250194237
 30
0.0
1001
AVE_RENDER
1002
{
1070
     0
1000
Fog Opt
1070
     0
1070
     0
1040
0.0
1040
1.0
1040
0.0
1040
1.0
1010
0.5
1020
0.5
1030
0.5
1002
}
  0
INSERT
  5
1F0A
330
2
100
AcDbEntity
  8
ASHADE
 62
     9
370
    13
100
AcDbBlockReference
  2
AVE_RENDER
 10
776.9365617735295
 20
558.1891250194237
 30
0.0
1001
AVE_RENDER
1002
{
1070
     0
1000
BG Opt
1070
     0
1070
     1
1010
0.0
1020
0.0
1030
0.0
1010
1.0
1020
0.0
1030
0.0
1010
0.0
1020
1.0
1030
0.0
1010
0.0
1020
0.0
1030
1.0
1040
0.5
1040
0.33
1040
0.0
1000

1070
     1
1000

1070
     1
1070
     1
1040
1.0
1040
1.0
1040
0.0
1040
0.0
1070
     0
1002
}
  0
INSERT
  5
1F0B
330
2
100
AcDbEntity
  8
ASHADE
 62
     1
370
    13
100
AcDbBlockReference
  2
AVE_GLOBAL
 10
776.9365617735295
 20
558.1891250194237
 30
0.0
1001
AVE_MATERIAL
1002
{
1000
*GLOBAL*
1000
1
1000
Global finish.
1002
{
1002
}
1002
{
1070
    63
1002
{
1002
{
1010
-1.0
1020
-1.0
1030
-1.0
1002
}
1040
0.1000000014901161
1000

1040
0.0
1002
{
1002
}
1040
0.0
1002
{
1002
}
1040
0.0
1002
}
1002
{
1002
{
1010
-1.0
1020
-1.0
1030
-1.0
1002
}
1040
0.6999999880790711
1000

1040
0.0
1002
{
1002
}
1040
0.0
1002
{
1002
}
1040
0.0
1002
}
1002
{
1002
{
1010
-1.0
1020
-1.0
1030
-1.0
1002
}
1040
0.2000000029802322
1000

1040
0.0
1002
{
1002
}
1040
0.0
1002
{
1002
}
1040
0.0
1002
}
1002
{
1070
     0
1002
{
1070
     1
1002
{
1040
1.0
1040
1.0
1000

1040
0.0
1002
{
1002
}
1040
0.0
1002
{
1002
}
1040
0.0
1002
}
1002
}
1040
1.0
1040
0.0
1040
0.0
1002
}
1002
{
1040
1.0
1040
1.0
1000

1040
0.0
1002
{
1002
}
1040
0.0
1002
{
1002
}
1040
0.0
1002
}
1002
{
1040
0.5
1040
1.0
1000

1040
0.0
1002
{
1002
}
1040
0.0
1002
{
1002
}
1040
0.0
1002
}
1002
{
1070
     0
1040
0.0
1002
{
1002
}
1040
1.0
1002
{
1002
}
1040
0.0
1002
}
1002
{
1040
0.0
1002
{
1002
{
1010
0.0
1020
0.0
1030
0.0
1002
}
1040
1.0
1000

1040
0.0
1002
{
1002
}
1040
0.0
1002
{
1002
}
1040
0.0
1002
}
1002
}
1002
{
1002
{
1070
     1
1002
{
1040
0.0
1040
1.0
1000

1040
0.0
1002
{
1002
}
1040
0.0
1002
{
1002
}
1040
0.0
1002
}
1002
}
1040
0.0
1002
{
1002
}
1010
1.0
1020
0.0
1030
0.0
1010
0.0
1020
1.0
1030
0.0
1010
0.0
1020
0.0
1030
1.0
1070
     0
1002
}
1002
{
1002
{
1040
1.0
1040
1.0
1002
{
1070
     1
1002
{
1040
1.0
1040
1.0
1000

1040
0.0
1002
{
1002
}
1040
0.0
1002
{
1002
}
1040
0.0
1002
}
1002
}
1002
}
1070
     0
1040
0.0
1002
{
1002
}
1002
}
1002
{
1002
}
1002
}
1002
{
1071
        3
1070
     3
1070
     0
1002
{
1070
     2
1070
     0
1070
     0
1040
0.0
1002
}
1070
     0
1070
     2
1002
{
1002
}
1002
}
1002
{
1040
8030.0
1040
190.3000030517578
1040
0.3050000071525574
1040
228.0
1040
545.0
1040
14.0
1040
17.39999961853027
1040
0.4560000002384186
1002
}
1002
}
  0
INSERT
  5
45BA
330
2
100
AcDbEntity
  8
ASHADE
 62
     1
370
    13
100
AcDbBlockReference
  2
AVE_RENDER
 10
1057.490623497154
 20
493.3586469508151
 30
0.0
1001
AVE_RENDER
1002
{
1070
     7
1000
Pref
1070
    30
1070
    20
1070
     1
1070
     0
1000

1070
    10
1070
     1
1070
    10
1040
1.0
1070
     1
1040
0.3
1040
0.7
1040
0.0
1040
10.0
1010
-1.0
1020
-1.0
1030
-1.0
1040
0.3
1070
    49
1070
     0
1070
     0
1010
1.0
1020
1.0
1030
1.0
1040
45.0
1070
     1
1070
     0
1000
WCS
1040
0.0
1070
     0
1040
10.0
1002
}
  0
INSERT
  5
45BB
330
2
100
AcDbEntity
  8
ASHADE
 62
     3
370
    13
100
AcDbBlockReference
  2
AVE_RENDER
 10
1057.490623497154
 20
493.3586469508151
 30
0.0
1001
AVE_RENDER
1002
{
1070
     0
1000
Full Opt
1070
     0
1070
     1
1070
     1
1070
     1
1070
     0
1070
     0
1070
     0
1070
     1
1070
     1
1040
0.0001
1040
0.0001
1002
}
  0
INSERT
  5
45BC
330
2
100
AcDbEntity
  8
ASHADE
 62
     4
370
    13
100
AcDbBlockReference
  2
AVE_RENDER
 10
1057.490623497154
 20
493.3586469508151
 30
0.0
1001
AVE_RENDER
1002
{
1070
     0
1000
Quick Opt
1070
     0
1070
     1
1070
     1
1070
     1
1070
     0
1070
     0
1070
     1
1002
}
  0
INSERT
  5
45BD
330
2
100
AcDbEntity
  8
ASHADE
 62
     5
370
    13
100
AcDbBlockReference
  2
AVE_RENDER
 10
1057.490623497154
 20
493.3586469508151
 30
0.0
1001
AVE_RENDER
1002
{
1070
     1
1000
Scanl Opt
1070
     2
1070
     0
1070
     2
1040
2.0
1040
4.0
1070
     0
1070
     1
1070
     0
1040
0.03
1002
}
  0
INSERT
  5
45BE
330
2
100
AcDbEntity
  8
ASHADE
 62
     6
370
    13
100
AcDbBlockReference
  2
AVE_RENDER
 10
1057.490623497154
 20
493.3586469508151
 30
0.0
1001
AVE_RENDER
1002
{
1070
     2
1000
Raytr Opt
1070
     2
1070
     0
1070
     2
1040
2.0
1040
4.0
1070
     0
1070
     1
1070
     1
1040
0.03
1070
     3
1040
0.03
1002
}
  0
INSERT
  5
45BF
330
2
100
AcDbEntity
  8
ASHADE
 62
     7
370
    13
100
AcDbBlockReference
  2
AVE_RENDER
 10
1057.490623497154
 20
493.3586469508151
 30
0.0
1001
AVE_RENDER
1002
{
1070
     0
1000
RFile Opt
1070
     1
1070
   640
1070
   480
1070
 10000
1070
     1
1070
     8
1070
     8
1070
     0
1070
     0
1070
     0
1070
     0
1070
     0
1070
     0
1070
     0
1002
}
  0
INSERT
  5
45C0
330
2
100
AcDbEntity
  8
ASHADE
 62
     8
370
    13
100
AcDbBlockReference
  2
AVE_RENDER
 10
1057.490623497154
 20
493.3586469508151
 30
0.0
1001
AVE_RENDER
1002
{
1070
     0
1000
Fog Opt
1070
     0
1070
     0
1040
0.0
1040
1.0
1040
0.0
1040
1.0
1010
0.5
1020
0.5
1030
0.5
1002
}
  0
INSERT
  5
45C1
330
2
100
AcDbEntity
  8
ASHADE
 62
     9
370
    13
100
AcDbBlockReference
  2
AVE_RENDER
 10
1057.490623497154
 20
493.3586469508151
 30
0.0
1001
AVE_RENDER
1002
{
1070
     0
1000
BG Opt
1070
     0
1070
     1
1010
0.0
1020
0.0
1030
0.0
1010
1.0
1020
0.0
1030
0.0
1010
0.0
1020
1.0
1030
0.0
1010
0.0
1020
0.0
1030
1.0
1040
0.5
1040
0.33
1040
0.0
1000

1070
     1
1000

1070
     1
1070
     1
1040
1.0
1040
1.0
1040
0.0
1040
0.0
1070
     0
1002
}
  0
INSERT
  5
45C2
330
2
100
AcDbEntity
  8
ASHADE
 62
     1
370
    13
100
AcDbBlockReference
  2
AVE_GLOBAL
 10
1057.490623497154
 20
493.3586469508151
 30
0.0
1001
AVE_MATERIAL
1002
{
1000
*GLOBAL*
1000
1
1000
Global finish.
1002
{
1002
}
1002
{
1070
    63
1002
{
1002
{
1010
-1.0
1020
-1.0
1030
-1.0
1002
}
1040
0.1000000014901161
1000

1040
0.0
1002
{
1002
}
1040
0.0
1002
{
1002
}
1040
0.0
1002
}
1002
{
1002
{
1010
-1.0
1020
-1.0
1030
-1.0
1002
}
1040
0.6999999880790711
1000

1040
0.0
1002
{
1002
}
1040
0.0
1002
{
1002
}
1040
0.0
1002
}
1002
{
1002
{
1010
-1.0
1020
-1.0
1030
-1.0
1002
}
1040
0.2000000029802322
1000

1040
0.0
1002
{
1002
}
1040
0.0
1002
{
1002
}
1040
0.0
1002
}
1002
{
1070
     0
1002
{
1070
     1
1002
{
1040
1.0
1040
1.0
1000

1040
0.0
1002
{
1002
}
1040
0.0
1002
{
1002
}
1040
0.0
1002
}
1002
}
1040
1.0
1040
0.0
1040
0.0
1002
}
1002
{
1040
1.0
1040
1.0
1000

1040
0.0
1002
{
1002
}
1040
0.0
1002
{
1002
}
1040
0.0
1002
}
1002
{
1040
0.5
1040
1.0
1000

1040
0.0
1002
{
1002
}
1040
0.0
1002
{
1002
}
1040
0.0
1002
}
1002
{
1070
     0
1040
0.0
1002
{
1002
}
1040
1.0
1002
{
1002
}
1040
0.0
1002
}
1002
{
1040
0.0
1002
{
1002
{
1010
0.0
1020
0.0
1030
0.0
1002
}
1040
1.0
1000

1040
0.0
1002
{
1002
}
1040
0.0
1002
{
1002
}
1040
0.0
1002
}
1002
}
1002
{
1002
{
1070
     1
1002
{
1040
0.0
1040
1.0
1000

1040
0.0
1002
{
1002
}
1040
0.0
1002
{
1002
}
1040
0.0
1002
}
1002
}
1040
0.0
1002
{
1002
}
1010
1.0
1020
0.0
1030
0.0
1010
0.0
1020
1.0
1030
0.0
1010
0.0
1020
0.0
1030
1.0
1070
     0
1002
}
1002
{
1002
{
1040
1.0
1040
1.0
1002
{
1070
     1
1002
{
1040
1.0
1040
1.0
1000

1040
0.0
1002
{
1002
}
1040
0.0
1002
{
1002
}
1040
0.0
1002
}
1002
}
1002
}
1070
     0
1040
0.0
1002
{
1002
}
1002
}
1002
{
1002
}
1002
}
1002
{
1071
        3
1070
     3
1070
     0
1002
{
1070
     2
1070
     0
1070
     0
1040
0.0
1002
}
1070
     0
1070
     2
1002
{
1002
}
1002
}
1002
{
1040
8030.0
1040
190.3000030517578
1040
0.3050000071525574
1040
228.0
1040
545.0
1040
14.0
1040
17.39999961853027
1040
0.4560000002384186
1002
}
1002
}
  0
INSERT
  5
45C3
330
2
100
AcDbEntity
  8
ASHADE
 62
     1
370
    13
100
AcDbBlockReference
  2
AVE_RENDER
 10
1057.404894549704
 20
437.4951118451614
 30
0.0
1001
AVE_RENDER
1002
{
1070
     7
1000
Pref
1070
    60
1070
    20
1070
     1
1070
     0
1000

1070
    10
1070
     1
1070
    10
1040
1.0
1070
     1
1040
0.3
1040
0.7
1040
0.0
1040
10.0
1010
-1.0
1020
-1.0
1030
-1.0
1040
0.3
1070
    49
1070
     0
1070
     0
1010
1.0
1020
1.0
1030
1.0
1040
45.0
1070
     1
1070
     0
1000
WCS
1040
0.0
1070
     0
1040
10.0
1002
}
  0
INSERT
  5
45C4
330
2
100
AcDbEntity
  8
ASHADE
 62
     3
370
    13
100
AcDbBlockReference
  2
AVE_RENDER
 10
1057.404894549704
 20
437.4951118451614
 30
0.0
1001
AVE_RENDER
1002
{
1070
     0
1000
Full Opt
1070
     0
1070
     1
1070
     1
1070
     1
1070
     0
1070
     0
1070
     0
1070
     1
1070
     1
1040
0.0001
1040
0.0001
1002
}
  0
INSERT
  5
45C5
330
2
100
AcDbEntity
  8
ASHADE
 62
     4
370
    13
100
AcDbBlockReference
  2
AVE_RENDER
 10
1057.404894549704
 20
437.4951118451614
 30
0.0
1001
AVE_RENDER
1002
{
1070
     0
1000
Quick Opt
1070
     0
1070
     1
1070
     1
1070
     1
1070
     0
1070
     0
1070
     1
1002
}
  0
INSERT
  5
45C6
330
2
100
AcDbEntity
  8
ASHADE
 62
     5
370
    13
100
AcDbBlockReference
  2
AVE_RENDER
 10
1057.404894549704
 20
437.4951118451614
 30
0.0
1001
AVE_RENDER
1002
{
1070
     1
1000
Scanl Opt
1070
     2
1070
     0
1070
     2
1040
2.0
1040
4.0
1070
     0
1070
     1
1070
     0
1040
0.03
1002
}
  0
INSERT
  5
45C7
330
2
100
AcDbEntity
  8
ASHADE
 62
     6
370
    13
100
AcDbBlockReference
  2
AVE_RENDER
 10
1057.404894549704
 20
437.4951118451614
 30
0.0
1001
AVE_RENDER
1002
{
1070
     2
1000
Raytr Opt
1070
     2
1070
     0
1070
     2
1040
2.0
1040
4.0
1070
     0
1070
     1
1070
     1
1040
0.03
1070
     3
1040
0.03
1002
}
  0
INSERT
  5
45C8
330
2
100
AcDbEntity
  8
ASHADE
 62
     7
370
    13
100
AcDbBlockReference
  2
AVE_RENDER
 10
1057.404894549704
 20
437.4951118451614
 30
0.0
1001
AVE_RENDER
1002
{
1070
     0
1000
RFile Opt
1070
     1
1070
   640
1070
   480
1070
 10000
1070
     1
1070
     8
1070
     8
1070
     0
1070
     0
1070
     0
1070
     0
1070
     0
1070
     0
1070
     0
1002
}
  0
INSERT
  5
45C9
330
2
100
AcDbEntity
  8
ASHADE
 62
     8
370
    13
100
AcDbBlockReference
  2
AVE_RENDER
 10
1057.404894549704
 20
437.4951118451614
 30
0.0
1001
AVE_RENDER
1002
{
1070
     0
1000
Fog Opt
1070
     0
1070
     0
1040
0.0
1040
1.0
1040
0.0
1040
1.0
1010
0.5
1020
0.5
1030
0.5
1002
}
  0
INSERT
  5
45CA
330
2
100
AcDbEntity
  8
ASHADE
 62
     9
370
    13
100
AcDbBlockReference
  2
AVE_RENDER
 10
1057.404894549704
 20
437.4951118451614
 30
0.0
1001
AVE_RENDER
1002
{
1070
     0
1000
BG Opt
1070
     0
1070
     1
1010
0.0
1020
0.0
1030
0.0
1010
1.0
1020
0.0
1030
0.0
1010
0.0
1020
1.0
1030
0.0
1010
0.0
1020
0.0
1030
1.0
1040
0.5
1040
0.33
1040
0.0
1000

1070
     1
1000

1070
     1
1070
     1
1040
1.0
1040
1.0
1040
0.0
1040
0.0
1070
     0
1002
}
  0
INSERT
  5
45CB
330
2
100
AcDbEntity
  8
ASHADE
 62
     1
370
    13
100
AcDbBlockReference
  2
AVE_GLOBAL
 10
1057.404894549704
 20
437.4951118451614
 30
0.0
1001
AVE_MATERIAL
1002
{
1000
*GLOBAL*
1000
1
1000
Global finish.
1002
{
1002
}
1002
{
1070
    63
1002
{
1002
{
1010
-1.0
1020
-1.0
1030
-1.0
1002
}
1040
0.1000000014901161
1000

1040
0.0
1002
{
1002
}
1040
0.0
1002
{
1002
}
1040
0.0
1002
}
1002
{
1002
{
1010
-1.0
1020
-1.0
1030
-1.0
1002
}
1040
0.6999999880790711
1000

1040
0.0
1002
{
1002
}
1040
0.0
1002
{
1002
}
1040
0.0
1002
}
1002
{
1002
{
1010
-1.0
1020
-1.0
1030
-1.0
1002
}
1040
0.2000000029802322
1000

1040
0.0
1002
{
1002
}
1040
0.0
1002
{
1002
}
1040
0.0
1002
}
1002
{
1070
     0
1002
{
1070
     1
1002
{
1040
1.0
1040
1.0
1000

1040
0.0
1002
{
1002
}
1040
0.0
1002
{
1002
}
1040
0.0
1002
}
1002
}
1040
1.0
1040
0.0
1040
0.0
1002
}
1002
{
1040
1.0
1040
1.0
1000

1040
0.0
1002
{
1002
}
1040
0.0
1002
{
1002
}
1040
0.0
1002
}
1002
{
1040
0.5
1040
1.0
1000

1040
0.0
1002
{
1002
}
1040
0.0
1002
{
1002
}
1040
0.0
1002
}
1002
{
1070
     0
1040
0.0
1002
{
1002
}
1040
1.0
1002
{
1002
}
1040
0.0
1002
}
1002
{
1040
0.0
1002
{
1002
{
1010
0.0
1020
0.0
1030
0.0
1002
}
1040
1.0
1000

1040
0.0
1002
{
1002
}
1040
0.0
1002
{
1002
}
1040
0.0
1002
}
1002
}
1002
{
1002
{
1070
     1
1002
{
1040
0.0
1040
1.0
1000

1040
0.0
1002
{
1002
}
1040
0.0
1002
{
1002
}
1040
0.0
1002
}
1002
}
1040
0.0
1002
{
1002
}
1010
1.0
1020
0.0
1030
0.0
1010
0.0
1020
1.0
1030
0.0
1010
0.0
1020
0.0
1030
1.0
1070
     0
1002
}
1002
{
1002
{
1040
1.0
1040
1.0
1002
{
1070
     1
1002
{
1040
1.0
1040
1.0
1000

1040
0.0
1002
{
1002
}
1040
0.0
1002
{
1002
}
1040
0.0
1002
}
1002
}
1002
}
1070
     0
1040
0.0
1002
{
1002
}
1002
}
1002
{
1002
}
1002
}
1002
{
1071
        3
1070
     3
1070
     0
1002
{
1070
     2
1070
     0
1070
     0
1040
0.0
1002
}
1070
     0
1070
     2
1002
{
1002
}
1002
}
1002
{
1040
8030.0
1040
190.3000030517578
1040
0.3050000071525574
1040
228.0
1040
545.0
1040
14.0
1040
17.39999961853027
1040
0.4560000002384186
1002
}
1002
}
  0
INSERT
  5
5898
330
2
100
AcDbEntity
  8
ASHADE
 62
     1
370
    13
100
AcDbBlockReference
  2
AVE_RENDER
 10
523.7560457418883
 20
762.571162426946
 30
0.0
1001
AVE_RENDER
1002
{
1070
     7
1000
Pref
1070
    30
1070
    20
1070
     1
1070
     0
1000

1070
    10
1070
     1
1070
    10
1040
1.0
1070
     1
1040
0.3
1040
0.7
1040
0.0
1040
10.0
1010
-1.0
1020
-1.0
1030
-1.0
1040
0.3
1070
    49
1070
     0
1070
     0
1010
1.0
1020
1.0
1030
1.0
1040
45.0
1070
     1
1070
     0
1000
WCS
1040
0.0
1070
     0
1040
10.0
1002
}
  0
INSERT
  5
5899
330
2
100
AcDbEntity
  8
ASHADE
 62
     3
370
    13
100
AcDbBlockReference
  2
AVE_RENDER
 10
523.7560457418883
 20
762.571162426946
 30
0.0
1001
AVE_RENDER
1002
{
1070
     0
1000
Full Opt
1070
     0
1070
     1
1070
     1
1070
     1
1070
     0
1070
     0
1070
     0
1070
     1
1070
     1
1040
0.0001
1040
0.0001
1002
}
  0
INSERT
  5
589A
330
2
100
AcDbEntity
  8
ASHADE
 62
     4
370
    13
100
AcDbBlockReference
  2
AVE_RENDER
 10
523.7560457418883
 20
762.571162426946
 30
0.0
1001
AVE_RENDER
1002
{
1070
     0
1000
Quick Opt
1070
     0
1070
     1
1070
     1
1070
     1
1070
     0
1070
     0
1070
     1
1002
}
  0
INSERT
  5
589B
330
2
100
AcDbEntity
  8
ASHADE
 62
     5
370
    13
100
AcDbBlockReference
  2
AVE_RENDER
 10
523.7560457418883
 20
762.571162426946
 30
0.0
1001
AVE_RENDER
1002
{
1070
     1
1000
Scanl Opt
1070
     2
1070
     0
1070
     2
1040
2.0
1040
4.0
1070
     0
1070
     1
1070
     0
1040
0.03
1002
}
  0
INSERT
  5
589C
330
2
100
AcDbEntity
  8
ASHADE
 62
     6
370
    13
100
AcDbBlockReference
  2
AVE_RENDER
 10
523.7560457418883
 20
762.571162426946
 30
0.0
1001
AVE_RENDER
1002
{
1070
     2
1000
Raytr Opt
1070
     2
1070
     0
1070
     2
1040
2.0
1040
4.0
1070
     0
1070
     1
1070
     1
1040
0.03
1070
     3
1040
0.03
1002
}
  0
INSERT
  5
589D
330
2
100
AcDbEntity
  8
ASHADE
 62
     7
370
    13
100
AcDbBlockReference
  2
AVE_RENDER
 10
523.7560457418883
 20
762.571162426946
 30
0.0
1001
AVE_RENDER
1002
{
1070
     0
1000
RFile Opt
1070
     1
1070
   640
1070
   480
1070
 10000
1070
     1
1070
     8
1070
     8
1070
     0
1070
     0
1070
     0
1070
     0
1070
     0
1070
     0
1070
     0
1002
}
  0
INSERT
  5
589E
330
2
100
AcDbEntity
  8
ASHADE
 62
     8
370
    13
100
AcDbBlockReference
  2
AVE_RENDER
 10
523.7560457418883
 20
762.571162426946
 30
0.0
1001
AVE_RENDER
1002
{
1070
     0
1000
Fog Opt
1070
     0
1070
     0
1040
0.0
1040
1.0
1040
0.0
1040
1.0
1010
0.5
1020
0.5
1030
0.5
1002
}
  0
INSERT
  5
589F
330
2
100
AcDbEntity
  8
ASHADE
 62
     9
370
    13
100
AcDbBlockReference
  2
AVE_RENDER
 10
523.7560457418883
 20
762.571162426946
 30
0.0
1001
AVE_RENDER
1002
{
1070
     0
1000
BG Opt
1070
     0
1070
     1
1010
0.0
1020
0.0
1030
0.0
1010
1.0
1020
0.0
1030
0.0
1010
0.0
1020
1.0
1030
0.0
1010
0.0
1020
0.0
1030
1.0
1040
0.5
1040
0.33
1040
0.0
1000

1070
     1
1000

1070
     1
1070
     1
1040
1.0
1040
1.0
1040
0.0
1040
0.0
1070
     0
1002
}
  0
INSERT
  5
58A0
330
2
100
AcDbEntity
  8
ASHADE
 62
     1
370
    13
100
AcDbBlockReference
  2
AVE_GLOBAL
 10
523.7560457418883
 20
762.571162426946
 30
0.0
1001
AVE_MATERIAL
1002
{
1000
*GLOBAL*
1000
1
1000
Global finish.
1002
{
1002
}
1002
{
1070
    63
1002
{
1002
{
1010
-1.0
1020
-1.0
1030
-1.0
1002
}
1040
0.1000000014901161
1000

1040
0.0
1002
{
1002
}
1040
0.0
1002
{
1002
}
1040
0.0
1002
}
1002
{
1002
{
1010
-1.0
1020
-1.0
1030
-1.0
1002
}
1040
0.6999999880790711
1000

1040
0.0
1002
{
1002
}
1040
0.0
1002
{
1002
}
1040
0.0
1002
}
1002
{
1002
{
1010
-1.0
1020
-1.0
1030
-1.0
1002
}
1040
0.2000000029802322
1000

1040
0.0
1002
{
1002
}
1040
0.0
1002
{
1002
}
1040
0.0
1002
}
1002
{
1070
     0
1002
{
1070
     1
1002
{
1040
1.0
1040
1.0
1000

1040
0.0
1002
{
1002
}
1040
0.0
1002
{
1002
}
1040
0.0
1002
}
1002
}
1040
1.0
1040
0.0
1040
0.0
1002
}
1002
{
1040
1.0
1040
1.0
1000

1040
0.0
1002
{
1002
}
1040
0.0
1002
{
1002
}
1040
0.0
1002
}
1002
{
1040
0.5
1040
1.0
1000

1040
0.0
1002
{
1002
}
1040
0.0
1002
{
1002
}
1040
0.0
1002
}
1002
{
1070
     0
1040
0.0
1002
{
1002
}
1040
1.0
1002
{
1002
}
1040
0.0
1002
}
1002
{
1040
0.0
1002
{
1002
{
1010
0.0
1020
0.0
1030
0.0
1002
}
1040
1.0
1000

1040
0.0
1002
{
1002
}
1040
0.0
1002
{
1002
}
1040
0.0
1002
}
1002
}
1002
{
1002
{
1070
     1
1002
{
1040
0.0
1040
1.0
1000

1040
0.0
1002
{
1002
}
1040
0.0
1002
{
1002
}
1040
0.0
1002
}
1002
}
1040
0.0
1002
{
1002
}
1010
1.0
1020
0.0
1030
0.0
1010
0.0
1020
1.0
1030
0.0
1010
0.0
1020
0.0
1030
1.0
1070
     0
1002
}
1002
{
1002
{
1040
1.0
1040
1.0
1002
{
1070
     1
1002
{
1040
1.0
1040
1.0
1000

1040
0.0
1002
{
1002
}
1040
0.0
1002
{
1002
}
1040
0.0
1002
}
1002
}
1002
}
1070
     0
1040
0.0
1002
{
1002
}
1002
}
1002
{
1002
}
1002
}
1002
{
1071
        3
1070
     3
1070
     0
1002
{
1070
     2
1070
     0
1070
     0
1040
0.0
1002
}
1070
     0
1070
     2
1002
{
1002
}
1002
}
1002
{
1040
8030.0
1040
190.3000030517578
1040
0.3050000071525574
1040
228.0
1040
545.0
1040
14.0
1040
17.39999961853027
1040
0.4560000002384186
1002
}
1002
}
  0
INSERT
  5
58A1
330
2
100
AcDbEntity
  8
ASHADE
 62
     1
370
    13
100
AcDbBlockReference
  2
AVE_RENDER
 10
523.6703167944389
 20
706.7076273212924
 30
0.0
1001
AVE_RENDER
1002
{
1070
     7
1000
Pref
1070
    60
1070
    20
1070
     1
1070
     0
1000

1070
    10
1070
     1
1070
    10
1040
1.0
1070
     1
1040
0.3
1040
0.7
1040
0.0
1040
10.0
1010
-1.0
1020
-1.0
1030
-1.0
1040
0.3
1070
    49
1070
     0
1070
     0
1010
1.0
1020
1.0
1030
1.0
1040
45.0
1070
     1
1070
     0
1000
WCS
1040
0.0
1070
     0
1040
10.0
1002
}
  0
INSERT
  5
58A2
330
2
100
AcDbEntity
  8
ASHADE
 62
     3
370
    13
100
AcDbBlockReference
  2
AVE_RENDER
 10
523.6703167944389
 20
706.7076273212924
 30
0.0
1001
AVE_RENDER
1002
{
1070
     0
1000
Full Opt
1070
     0
1070
     1
1070
     1
1070
     1
1070
     0
1070
     0
1070
     0
1070
     1
1070
     1
1040
0.0001
1040
0.0001
1002
}
  0
INSERT
  5
58A3
330
2
100
AcDbEntity
  8
ASHADE
 62
     4
370
    13
100
AcDbBlockReference
  2
AVE_RENDER
 10
523.6703167944389
 20
706.7076273212924
 30
0.0
1001
AVE_RENDER
1002
{
1070
     0
1000
Quick Opt
1070
     0
1070
     1
1070
     1
1070
     1
1070
     0
1070
     0
1070
     1
1002
}
  0
INSERT
  5
58A4
330
2
100
AcDbEntity
  8
ASHADE
 62
     5
370
    13
100
AcDbBlockReference
  2
AVE_RENDER
 10
523.6703167944389
 20
706.7076273212924
 30
0.0
1001
AVE_RENDER
1002
{
1070
     1
1000
Scanl Opt
1070
     2
1070
     0
1070
     2
1040
2.0
1040
4.0
1070
     0
1070
     1
1070
     0
1040
0.03
1002
}
  0
INSERT
  5
58A5
330
2
100
AcDbEntity
  8
ASHADE
 62
     6
370
    13
100
AcDbBlockReference
  2
AVE_RENDER
 10
523.6703167944389
 20
706.7076273212924
 30
0.0
1001
AVE_RENDER
1002
{
1070
     2
1000
Raytr Opt
1070
     2
1070
     0
1070
     2
1040
2.0
1040
4.0
1070
     0
1070
     1
1070
     1
1040
0.03
1070
     3
1040
0.03
1002
}
  0
INSERT
  5
58A6
330
2
100
AcDbEntity
  8
ASHADE
 62
     7
370
    13
100
AcDbBlockReference
  2
AVE_RENDER
 10
523.6703167944389
 20
706.7076273212924
 30
0.0
1001
AVE_RENDER
1002
{
1070
     0
1000
RFile Opt
1070
     1
1070
   640
1070
   480
1070
 10000
1070
     1
1070
     8
1070
     8
1070
     0
1070
     0
1070
     0
1070
     0
1070
     0
1070
     0
1070
     0
1002
}
  0
INSERT
  5
58A7
330
2
100
AcDbEntity
  8
ASHADE
 62
     8
370
    13
100
AcDbBlockReference
  2
AVE_RENDER
 10
523.6703167944389
 20
706.7076273212924
 30
0.0
1001
AVE_RENDER
1002
{
1070
     0
1000
Fog Opt
1070
     0
1070
     0
1040
0.0
1040
1.0
1040
0.0
1040
1.0
1010
0.5
1020
0.5
1030
0.5
1002
}
  0
INSERT
  5
58A8
330
2
100
AcDbEntity
  8
ASHADE
 62
     9
370
    13
100
AcDbBlockReference
  2
AVE_RENDER
 10
523.6703167944389
 20
706.7076273212924
 30
0.0
1001
AVE_RENDER
1002
{
1070
     0
1000
BG Opt
1070
     0
1070
     1
1010
0.0
1020
0.0
1030
0.0
1010
1.0
1020
0.0
1030
0.0
1010
0.0
1020
1.0
1030
0.0
1010
0.0
1020
0.0
1030
1.0
1040
0.5
1040
0.33
1040
0.0
1000

1070
     1
1000

1070
     1
1070
     1
1040
1.0
1040
1.0
1040
0.0
1040
0.0
1070
     0
1002
}
  0
INSERT
  5
58A9
330
2
100
AcDbEntity
  8
ASHADE
 62
     1
370
    13
100
AcDbBlockReference
  2
AVE_GLOBAL
 10
523.6703167944389
 20
706.7076273212924
 30
0.0
1001
AVE_MATERIAL
1002
{
1000
*GLOBAL*
1000
1
1000
Global finish.
1002
{
1002
}
1002
{
1070
    63
1002
{
1002
{
1010
-1.0
1020
-1.0
1030
-1.0
1002
}
1040
0.1000000014901161
1000

1040
0.0
1002
{
1002
}
1040
0.0
1002
{
1002
}
1040
0.0
1002
}
1002
{
1002
{
1010
-1.0
1020
-1.0
1030
-1.0
1002
}
1040
0.6999999880790711
1000

1040
0.0
1002
{
1002
}
1040
0.0
1002
{
1002
}
1040
0.0
1002
}
1002
{
1002
{
1010
-1.0
1020
-1.0
1030
-1.0
1002
}
1040
0.2000000029802322
1000

1040
0.0
1002
{
1002
}
1040
0.0
1002
{
1002
}
1040
0.0
1002
}
1002
{
1070
     0
1002
{
1070
     1
1002
{
1040
1.0
1040
1.0
1000

1040
0.0
1002
{
1002
}
1040
0.0
1002
{
1002
}
1040
0.0
1002
}
1002
}
1040
1.0
1040
0.0
1040
0.0
1002
}
1002
{
1040
1.0
1040
1.0
1000

1040
0.0
1002
{
1002
}
1040
0.0
1002
{
1002
}
1040
0.0
1002
}
1002
{
1040
0.5
1040
1.0
1000

1040
0.0
1002
{
1002
}
1040
0.0
1002
{
1002
}
1040
0.0
1002
}
1002
{
1070
     0
1040
0.0
1002
{
1002
}
1040
1.0
1002
{
1002
}
1040
0.0
1002
}
1002
{
1040
0.0
1002
{
1002
{
1010
0.0
1020
0.0
1030
0.0
1002
}
1040
1.0
1000

1040
0.0
1002
{
1002
}
1040
0.0
1002
{
1002
}
1040
0.0
1002
}
1002
}
1002
{
1002
{
1070
     1
1002
{
1040
0.0
1040
1.0
1000

1040
0.0
1002
{
1002
}
1040
0.0
1002
{
1002
}
1040
0.0
1002
}
1002
}
1040
0.0
1002
{
1002
}
1010
1.0
1020
0.0
1030
0.0
1010
0.0
1020
1.0
1030
0.0
1010
0.0
1020
0.0
1030
1.0
1070
     0
1002
}
1002
{
1002
{
1040
1.0
1040
1.0
1002
{
1070
     1
1002
{
1040
1.0
1040
1.0
1000

1040
0.0
1002
{
1002
}
1040
0.0
1002
{
1002
}
1040
0.0
1002
}
1002
}
1002
}
1070
     0
1040
0.0
1002
{
1002
}
1002
}
1002
{
1002
}
1002
}
1002
{
1071
        3
1070
     3
1070
     0
1002
{
1070
     2
1070
     0
1070
     0
1040
0.0
1002
}
1070
     0
1070
     2
1002
{
1002
}
1002
}
1002
{
1040
8030.0
1040
190.3000030517578
1040
0.3050000071525574
1040
228.0
1040
545.0
1040
14.0
1040
17.39999961853027
1040
0.4560000002384186
1002
}
1002
}
  0
INSERT
  5
58AA
330
2
100
AcDbEntity
  8
ASHADE
 62
     1
370
    13
100
AcDbBlockReference
  2
AVE_RENDER
 10
574.853223682071
 20
694.9171533416412
 30
0.0
1001
AVE_RENDER
1002
{
1070
     7
1000
Pref
1070
    30
1070
    20
1070
     1
1070
     0
1000

1070
    10
1070
     1
1070
    10
1040
1.0
1070
     1
1040
0.3
1040
0.7
1040
0.0
1040
10.0
1010
-1.0
1020
-1.0
1030
-1.0
1040
0.3
1070
    49
1070
     0
1070
     0
1010
1.0
1020
1.0
1030
1.0
1040
45.0
1070
     1
1070
     0
1000
WCS
1040
0.0
1070
     0
1040
10.0
1002
}
  0
INSERT
  5
58AB
330
2
100
AcDbEntity
  8
ASHADE
 62
     3
370
    13
100
AcDbBlockReference
  2
AVE_RENDER
 10
574.853223682071
 20
694.9171533416412
 30
0.0
1001
AVE_RENDER
1002
{
1070
     0
1000
Full Opt
1070
     0
1070
     1
1070
     1
1070
     1
1070
     0
1070
     0
1070
     0
1070
     1
1070
     1
1040
0.0001
1040
0.0001
1002
}
  0
INSERT
  5
58AC
330
2
100
AcDbEntity
  8
ASHADE
 62
     4
370
    13
100
AcDbBlockReference
  2
AVE_RENDER
 10
574.853223682071
 20
694.9171533416412
 30
0.0
1001
AVE_RENDER
1002
{
1070
     0
1000
Quick Opt
1070
     0
1070
     1
1070
     1
1070
     1
1070
     0
1070
     0
1070
     1
1002
}
  0
INSERT
  5
58AD
330
2
100
AcDbEntity
  8
ASHADE
 62
     5
370
    13
100
AcDbBlockReference
  2
AVE_RENDER
 10
574.853223682071
 20
694.9171533416412
 30
0.0
1001
AVE_RENDER
1002
{
1070
     1
1000
Scanl Opt
1070
     2
1070
     0
1070
     2
1040
2.0
1040
4.0
1070
     0
1070
     1
1070
     0
1040
0.03
1002
}
  0
INSERT
  5
58AE
330
2
100
AcDbEntity
  8
ASHADE
 62
     6
370
    13
100
AcDbBlockReference
  2
AVE_RENDER
 10
574.853223682071
 20
694.9171533416412
 30
0.0
1001
AVE_RENDER
1002
{
1070
     2
1000
Raytr Opt
1070
     2
1070
     0
1070
     2
1040
2.0
1040
4.0
1070
     0
1070
     1
1070
     1
1040
0.03
1070
     3
1040
0.03
1002
}
  0
INSERT
  5
58AF
330
2
100
AcDbEntity
  8
ASHADE
 62
     7
370
    13
100
AcDbBlockReference
  2
AVE_RENDER
 10
574.853223682071
 20
694.9171533416412
 30
0.0
1001
AVE_RENDER
1002
{
1070
     0
1000
RFile Opt
1070
     1
1070
   640
1070
   480
1070
 10000
1070
     1
1070
     8
1070
     8
1070
     0
1070
     0
1070
     0
1070
     0
1070
     0
1070
     0
1070
     0
1002
}
  0
INSERT
  5
58B0
330
2
100
AcDbEntity
  8
ASHADE
 62
     8
370
    13
100
AcDbBlockReference
  2
AVE_RENDER
 10
574.853223682071
 20
694.9171533416412
 30
0.0
1001
AVE_RENDER
1002
{
1070
     0
1000
Fog Opt
1070
     0
1070
     0
1040
0.0
1040
1.0
1040
0.0
1040
1.0
1010
0.5
1020
0.5
1030
0.5
1002
}
  0
INSERT
  5
58B1
330
2
100
AcDbEntity
  8
ASHADE
 62
     9
370
    13
100
AcDbBlockReference
  2
AVE_RENDER
 10
574.853223682071
 20
694.9171533416412
 30
0.0
1001
AVE_RENDER
1002
{
1070
     0
1000
BG Opt
1070
     0
1070
     1
1010
0.0
1020
0.0
1030
0.0
1010
1.0
1020
0.0
1030
0.0
1010
0.0
1020
1.0
1030
0.0
1010
0.0
1020
0.0
1030
1.0
1040
0.5
1040
0.33
1040
0.0
1000

1070
     1
1000

1070
     1
1070
     1
1040
1.0
1040
1.0
1040
0.0
1040
0.0
1070
     0
1002
}
  0
INSERT
  5
58B2
330
2
100
AcDbEntity
  8
ASHADE
 62
     1
370
    13
100
AcDbBlockReference
  2
AVE_GLOBAL
 10
574.853223682071
 20
694.9171533416412
 30
0.0
1001
AVE_MATERIAL
1002
{
1000
*GLOBAL*
1000
1
1000
Global finish.
1002
{
1002
}
1002
{
1070
    63
1002
{
1002
{
1010
-1.0
1020
-1.0
1030
-1.0
1002
}
1040
0.1000000014901161
1000

1040
0.0
1002
{
1002
}
1040
0.0
1002
{
1002
}
1040
0.0
1002
}
1002
{
1002
{
1010
-1.0
1020
-1.0
1030
-1.0
1002
}
1040
0.6999999880790711
1000

1040
0.0
1002
{
1002
}
1040
0.0
1002
{
1002
}
1040
0.0
1002
}
1002
{
1002
{
1010
-1.0
1020
-1.0
1030
-1.0
1002
}
1040
0.2000000029802322
1000

1040
0.0
1002
{
1002
}
1040
0.0
1002
{
1002
}
1040
0.0
1002
}
1002
{
1070
     0
1002
{
1070
     1
1002
{
1040
1.0
1040
1.0
1000

1040
0.0
1002
{
1002
}
1040
0.0
1002
{
1002
}
1040
0.0
1002
}
1002
}
1040
1.0
1040
0.0
1040
0.0
1002
}
1002
{
1040
1.0
1040
1.0
1000

1040
0.0
1002
{
1002
}
1040
0.0
1002
{
1002
}
1040
0.0
1002
}
1002
{
1040
0.5
1040
1.0
1000

1040
0.0
1002
{
1002
}
1040
0.0
1002
{
1002
}
1040
0.0
1002
}
1002
{
1070
     0
1040
0.0
1002
{
1002
}
1040
1.0
1002
{
1002
}
1040
0.0
1002
}
1002
{
1040
0.0
1002
{
1002
{
1010
0.0
1020
0.0
1030
0.0
1002
}
1040
1.0
1000

1040
0.0
1002
{
1002
}
1040
0.0
1002
{
1002
}
1040
0.0
1002
}
1002
}
1002
{
1002
{
1070
     1
1002
{
1040
0.0
1040
1.0
1000

1040
0.0
1002
{
1002
}
1040
0.0
1002
{
1002
}
1040
0.0
1002
}
1002
}
1040
0.0
1002
{
1002
}
1010
1.0
1020
0.0
1030
0.0
1010
0.0
1020
1.0
1030
0.0
1010
0.0
1020
0.0
1030
1.0
1070
     0
1002
}
1002
{
1002
{
1040
1.0
1040
1.0
1002
{
1070
     1
1002
{
1040
1.0
1040
1.0
1000

1040
0.0
1002
{
1002
}
1040
0.0
1002
{
1002
}
1040
0.0
1002
}
1002
}
1002
}
1070
     0
1040
0.0
1002
{
1002
}
1002
}
1002
{
1002
}
1002
}
1002
{
1071
        3
1070
     3
1070
     0
1002
{
1070
     2
1070
     0
1070
     0
1040
0.0
1002
}
1070
     0
1070
     2
1002
{
1002
}
1002
}
1002
{
1040
8030.0
1040
190.3000030517578
1040
0.3050000071525574
1040
228.0
1040
545.0
1040
14.0
1040
17.39999961853027
1040
0.4560000002384186
1002
}
1002
}
  0
INSERT
  5
58B3
330
2
100
AcDbEntity
  8
ASHADE
 62
     1
370
    13
100
AcDbBlockReference
  2
AVE_RENDER
 10
574.7674947346216
 20
639.0536182359875
 30
0.0
1001
AVE_RENDER
1002
{
1070
     7
1000
Pref
1070
    60
1070
    20
1070
     1
1070
     0
1000

1070
    10
1070
     1
1070
    10
1040
1.0
1070
     1
1040
0.3
1040
0.7
1040
0.0
1040
10.0
1010
-1.0
1020
-1.0
1030
-1.0
1040
0.3
1070
    49
1070
     0
1070
     0
1010
1.0
1020
1.0
1030
1.0
1040
45.0
1070
     1
1070
     0
1000
WCS
1040
0.0
1070
     0
1040
10.0
1002
}
  0
INSERT
  5
58B4
330
2
100
AcDbEntity
  8
ASHADE
 62
     3
370
    13
100
AcDbBlockReference
  2
AVE_RENDER
 10
574.7674947346216
 20
639.0536182359875
 30
0.0
1001
AVE_RENDER
1002
{
1070
     0
1000
Full Opt
1070
     0
1070
     1
1070
     1
1070
     1
1070
     0
1070
     0
1070
     0
1070
     1
1070
     1
1040
0.0001
1040
0.0001
1002
}
  0
INSERT
  5
58B5
330
2
100
AcDbEntity
  8
ASHADE
 62
     4
370
    13
100
AcDbBlockReference
  2
AVE_RENDER
 10
574.7674947346216
 20
639.0536182359875
 30
0.0
1001
AVE_RENDER
1002
{
1070
     0
1000
Quick Opt
1070
     0
1070
     1
1070
     1
1070
     1
1070
     0
1070
     0
1070
     1
1002
}
  0
INSERT
  5
58B6
330
2
100
AcDbEntity
  8
ASHADE
 62
     5
370
    13
100
AcDbBlockReference
  2
AVE_RENDER
 10
574.7674947346216
 20
639.0536182359875
 30
0.0
1001
AVE_RENDER
1002
{
1070
     1
1000
Scanl Opt
1070
     2
1070
     0
1070
     2
1040
2.0
1040
4.0
1070
     0
1070
     1
1070
     0
1040
0.03
1002
}
  0
INSERT
  5
58B7
330
2
100
AcDbEntity
  8
ASHADE
 62
     6
370
    13
100
AcDbBlockReference
  2
AVE_RENDER
 10
574.7674947346216
 20
639.0536182359875
 30
0.0
1001
AVE_RENDER
1002
{
1070
     2
1000
Raytr Opt
1070
     2
1070
     0
1070
     2
1040
2.0
1040
4.0
1070
     0
1070
     1
1070
     1
1040
0.03
1070
     3
1040
0.03
1002
}
  0
INSERT
  5
58B8
330
2
100
AcDbEntity
  8
ASHADE
 62
     7
370
    13
100
AcDbBlockReference
  2
AVE_RENDER
 10
574.7674947346216
 20
639.0536182359875
 30
0.0
1001
AVE_RENDER
1002
{
1070
     0
1000
RFile Opt
1070
     1
1070
   640
1070
   480
1070
 10000
1070
     1
1070
     8
1070
     8
1070
     0
1070
     0
1070
     0
1070
     0
1070
     0
1070
     0
1070
     0
1002
}
  0
INSERT
  5
58B9
330
2
100
AcDbEntity
  8
ASHADE
 62
     8
370
    13
100
AcDbBlockReference
  2
AVE_RENDER
 10
574.7674947346216
 20
639.0536182359875
 30
0.0
1001
AVE_RENDER
1002
{
1070
     0
1000
Fog Opt
1070
     0
1070
     0
1040
0.0
1040
1.0
1040
0.0
1040
1.0
1010
0.5
1020
0.5
1030
0.5
1002
}
  0
INSERT
  5
58BA
330
2
100
AcDbEntity
  8
ASHADE
 62
     9
370
    13
100
AcDbBlockReference
  2
AVE_RENDER
 10
574.7674947346216
 20
639.0536182359875
 30
0.0
1001
AVE_RENDER
1002
{
1070
     0
1000
BG Opt
1070
     0
1070
     1
1010
0.0
1020
0.0
1030
0.0
1010
1.0
1020
0.0
1030
0.0
1010
0.0
1020
1.0
1030
0.0
1010
0.0
1020
0.0
1030
1.0
1040
0.5
1040
0.33
1040
0.0
1000

1070
     1
1000

1070
     1
1070
     1
1040
1.0
1040
1.0
1040
0.0
1040
0.0
1070
     0
1002
}
  0
INSERT
  5
58BB
330
2
100
AcDbEntity
  8
ASHADE
 62
     1
370
    13
100
AcDbBlockReference
  2
AVE_GLOBAL
 10
574.7674947346216
 20
639.0536182359875
 30
0.0
1001
AVE_MATERIAL
1002
{
1000
*GLOBAL*
1000
1
1000
Global finish.
1002
{
1002
}
1002
{
1070
    63
1002
{
1002
{
1010
-1.0
1020
-1.0
1030
-1.0
1002
}
1040
0.1000000014901161
1000

1040
0.0
1002
{
1002
}
1040
0.0
1002
{
1002
}
1040
0.0
1002
}
1002
{
1002
{
1010
-1.0
1020
-1.0
1030
-1.0
1002
}
1040
0.6999999880790711
1000

1040
0.0
1002
{
1002
}
1040
0.0
1002
{
1002
}
1040
0.0
1002
}
1002
{
1002
{
1010
-1.0
1020
-1.0
1030
-1.0
1002
}
1040
0.2000000029802322
1000

1040
0.0
1002
{
1002
}
1040
0.0
1002
{
1002
}
1040
0.0
1002
}
1002
{
1070
     0
1002
{
1070
     1
1002
{
1040
1.0
1040
1.0
1000

1040
0.0
1002
{
1002
}
1040
0.0
1002
{
1002
}
1040
0.0
1002
}
1002
}
1040
1.0
1040
0.0
1040
0.0
1002
}
1002
{
1040
1.0
1040
1.0
1000

1040
0.0
1002
{
1002
}
1040
0.0
1002
{
1002
}
1040
0.0
1002
}
1002
{
1040
0.5
1040
1.0
1000

1040
0.0
1002
{
1002
}
1040
0.0
1002
{
1002
}
1040
0.0
1002
}
1002
{
1070
     0
1040
0.0
1002
{
1002
}
1040
1.0
1002
{
1002
}
1040
0.0
1002
}
1002
{
1040
0.0
1002
{
1002
{
1010
0.0
1020
0.0
1030
0.0
1002
}
1040
1.0
1000

1040
0.0
1002
{
1002
}
1040
0.0
1002
{
1002
}
1040
0.0
1002
}
1002
}
1002
{
1002
{
1070
     1
1002
{
1040
0.0
1040
1.0
1000

1040
0.0
1002
{
1002
}
1040
0.0
1002
{
1002
}
1040
0.0
1002
}
1002
}
1040
0.0
1002
{
1002
}
1010
1.0
1020
0.0
1030
0.0
1010
0.0
1020
1.0
1030
0.0
1010
0.0
1020
0.0
1030
1.0
1070
     0
1002
}
1002
{
1002
{
1040
1.0
1040
1.0
1002
{
1070
     1
1002
{
1040
1.0
1040
1.0
1000

1040
0.0
1002
{
1002
}
1040
0.0
1002
{
1002
}
1040
0.0
1002
}
1002
}
1002
}
1070
     0
1040
0.0
1002
{
1002
}
1002
}
1002
{
1002
}
1002
}
1002
{
1071
        3
1070
     3
1070
     0
1002
{
1070
     2
1070
     0
1070
     0
1040
0.0
1002
}
1070
     0
1070
     2
1002
{
1002
}
1002
}
1002
{
1040
8030.0
1040
190.3000030517578
1040
0.3050000071525574
1040
228.0
1040
545.0
1040
14.0
1040
17.39999961853027
1040
0.4560000002384186
1002
}
1002
}
  0
INSERT
  5
58BC
330
2
100
AcDbEntity
  8
ASHADE
 62
     1
370
    13
100
AcDbBlockReference
  2
AVE_RENDER
 10
586.7854134624354
 20
776.0320015536685
 30
0.0
1001
AVE_RENDER
1002
{
1070
     7
1000
Pref
1070
    30
1070
    20
1070
     1
1070
     0
1000

1070
    10
1070
     1
1070
    10
1040
1.0
1070
     1
1040
0.3
1040
0.7
1040
0.0
1040
10.0
1010
-1.0
1020
-1.0
1030
-1.0
1040
0.3
1070
    49
1070
     0
1070
     0
1010
1.0
1020
1.0
1030
1.0
1040
45.0
1070
     1
1070
     0
1000
WCS
1040
0.0
1070
     0
1040
10.0
1002
}
  0
INSERT
  5
58BD
330
2
100
AcDbEntity
  8
ASHADE
 62
     3
370
    13
100
AcDbBlockReference
  2
AVE_RENDER
 10
586.7854134624354
 20
776.0320015536685
 30
0.0
1001
AVE_RENDER
1002
{
1070
     0
1000
Full Opt
1070
     0
1070
     1
1070
     1
1070
     1
1070
     0
1070
     0
1070
     0
1070
     1
1070
     1
1040
0.0001
1040
0.0001
1002
}
  0
INSERT
  5
58BE
330
2
100
AcDbEntity
  8
ASHADE
 62
     4
370
    13
100
AcDbBlockReference
  2
AVE_RENDER
 10
586.7854134624354
 20
776.0320015536685
 30
0.0
1001
AVE_RENDER
1002
{
1070
     0
1000
Quick Opt
1070
     0
1070
     1
1070
     1
1070
     1
1070
     0
1070
     0
1070
     1
1002
}
  0
INSERT
  5
58BF
330
2
100
AcDbEntity
  8
ASHADE
 62
     5
370
    13
100
AcDbBlockReference
  2
AVE_RENDER
 10
586.7854134624354
 20
776.0320015536685
 30
0.0
1001
AVE_RENDER
1002
{
1070
     1
1000
Scanl Opt
1070
     2
1070
     0
1070
     2
1040
2.0
1040
4.0
1070
     0
1070
     1
1070
     0
1040
0.03
1002
}
  0
INSERT
  5
58C0
330
2
100
AcDbEntity
  8
ASHADE
 62
     6
370
    13
100
AcDbBlockReference
  2
AVE_RENDER
 10
586.7854134624354
 20
776.0320015536685
 30
0.0
1001
AVE_RENDER
1002
{
1070
     2
1000
Raytr Opt
1070
     2
1070
     0
1070
     2
1040
2.0
1040
4.0
1070
     0
1070
     1
1070
     1
1040
0.03
1070
     3
1040
0.03
1002
}
  0
INSERT
  5
58C1
330
2
100
AcDbEntity
  8
ASHADE
 62
     7
370
    13
100
AcDbBlockReference
  2
AVE_RENDER
 10
586.7854134624354
 20
776.0320015536685
 30
0.0
1001
AVE_RENDER
1002
{
1070
     0
1000
RFile Opt
1070
     1
1070
   640
1070
   480
1070
 10000
1070
     1
1070
     8
1070
     8
1070
     0
1070
     0
1070
     0
1070
     0
1070
     0
1070
     0
1070
     0
1002
}
  0
INSERT
  5
58C2
330
2
100
AcDbEntity
  8
ASHADE
 62
     8
370
    13
100
AcDbBlockReference
  2
AVE_RENDER
 10
586.7854134624354
 20
776.0320015536685
 30
0.0
1001
AVE_RENDER
1002
{
1070
     0
1000
Fog Opt
1070
     0
1070
     0
1040
0.0
1040
1.0
1040
0.0
1040
1.0
1010
0.5
1020
0.5
1030
0.5
1002
}
  0
INSERT
  5
58C3
330
2
100
AcDbEntity
  8
ASHADE
 62
     9
370
    13
100
AcDbBlockReference
  2
AVE_RENDER
 10
586.7854134624354
 20
776.0320015536685
 30
0.0
1001
AVE_RENDER
1002
{
1070
     0
1000
BG Opt
1070
     0
1070
     1
1010
0.0
1020
0.0
1030
0.0
1010
1.0
1020
0.0
1030
0.0
1010
0.0
1020
1.0
1030
0.0
1010
0.0
1020
0.0
1030
1.0
1040
0.5
1040
0.33
1040
0.0
1000

1070
     1
1000

1070
     1
1070
     1
1040
1.0
1040
1.0
1040
0.0
1040
0.0
1070
     0
1002
}
  0
INSERT
  5
58C4
330
2
100
AcDbEntity
  8
ASHADE
 62
     1
370
    13
100
AcDbBlockReference
  2
AVE_GLOBAL
 10
586.7854134624354
 20
776.0320015536685
 30
0.0
1001
AVE_MATERIAL
1002
{
1000
*GLOBAL*
1000
1
1000
Global finish.
1002
{
1002
}
1002
{
1070
    63
1002
{
1002
{
1010
-1.0
1020
-1.0
1030
-1.0
1002
}
1040
0.1000000014901161
1000

1040
0.0
1002
{
1002
}
1040
0.0
1002
{
1002
}
1040
0.0
1002
}
1002
{
1002
{
1010
-1.0
1020
-1.0
1030
-1.0
1002
}
1040
0.6999999880790711
1000

1040
0.0
1002
{
1002
}
1040
0.0
1002
{
1002
}
1040
0.0
1002
}
1002
{
1002
{
1010
-1.0
1020
-1.0
1030
-1.0
1002
}
1040
0.2000000029802322
1000

1040
0.0
1002
{
1002
}
1040
0.0
1002
{
1002
}
1040
0.0
1002
}
1002
{
1070
     0
1002
{
1070
     1
1002
{
1040
1.0
1040
1.0
1000

1040
0.0
1002
{
1002
}
1040
0.0
1002
{
1002
}
1040
0.0
1002
}
1002
}
1040
1.0
1040
0.0
1040
0.0
1002
}
1002
{
1040
1.0
1040
1.0
1000

1040
0.0
1002
{
1002
}
1040
0.0
1002
{
1002
}
1040
0.0
1002
}
1002
{
1040
0.5
1040
1.0
1000

1040
0.0
1002
{
1002
}
1040
0.0
1002
{
1002
}
1040
0.0
1002
}
1002
{
1070
     0
1040
0.0
1002
{
1002
}
1040
1.0
1002
{
1002
}
1040
0.0
1002
}
1002
{
1040
0.0
1002
{
1002
{
1010
0.0
1020
0.0
1030
0.0
1002
}
1040
1.0
1000

1040
0.0
1002
{
1002
}
1040
0.0
1002
{
1002
}
1040
0.0
1002
}
1002
}
1002
{
1002
{
1070
     1
1002
{
1040
0.0
1040
1.0
1000

1040
0.0
1002
{
1002
}
1040
0.0
1002
{
1002
}
1040
0.0
1002
}
1002
}
1040
0.0
1002
{
1002
}
1010
1.0
1020
0.0
1030
0.0
1010
0.0
1020
1.0
1030
0.0
1010
0.0
1020
0.0
1030
1.0
1070
     0
1002
}
1002
{
1002
{
1040
1.0
1040
1.0
1002
{
1070
     1
1002
{
1040
1.0
1040
1.0
1000

1040
0.0
1002
{
1002
}
1040
0.0
1002
{
1002
}
1040
0.0
1002
}
1002
}
1002
}
1070
     0
1040
0.0
1002
{
1002
}
1002
}
1002
{
1002
}
1002
}
1002
{
1071
        3
1070
     3
1070
     0
1002
{
1070
     2
1070
     0
1070
     0
1040
0.0
1002
}
1070
     0
1070
     2
1002
{
1002
}
1002
}
1002
{
1040
8030.0
1040
190.3000030517578
1040
0.3050000071525574
1040
228.0
1040
545.0
1040
14.0
1040
17.39999961853027
1040
0.4560000002384186
1002
}
1002
}
  0
INSERT
  5
58C5
330
2
100
AcDbEntity
  8
ASHADE
 62
     1
370
    13
100
AcDbBlockReference
  2
AVE_RENDER
 10
586.699684514986
 20
720.1684664480149
 30
0.0
1001
AVE_RENDER
1002
{
1070
     7
1000
Pref
1070
    60
1070
    20
1070
     1
1070
     0
1000

1070
    10
1070
     1
1070
    10
1040
1.0
1070
     1
1040
0.3
1040
0.7
1040
0.0
1040
10.0
1010
-1.0
1020
-1.0
1030
-1.0
1040
0.3
1070
    49
1070
     0
1070
     0
1010
1.0
1020
1.0
1030
1.0
1040
45.0
1070
     1
1070
     0
1000
WCS
1040
0.0
1070
     0
1040
10.0
1002
}
  0
INSERT
  5
58C6
330
2
100
AcDbEntity
  8
ASHADE
 62
     3
370
    13
100
AcDbBlockReference
  2
AVE_RENDER
 10
586.699684514986
 20
720.1684664480149
 30
0.0
1001
AVE_RENDER
1002
{
1070
     0
1000
Full Opt
1070
     0
1070
     1
1070
     1
1070
     1
1070
     0
1070
     0
1070
     0
1070
     1
1070
     1
1040
0.0001
1040
0.0001
1002
}
  0
INSERT
  5
58C7
330
2
100
AcDbEntity
  8
ASHADE
 62
     4
370
    13
100
AcDbBlockReference
  2
AVE_RENDER
 10
586.699684514986
 20
720.1684664480149
 30
0.0
1001
AVE_RENDER
1002
{
1070
     0
1000
Quick Opt
1070
     0
1070
     1
1070
     1
1070
     1
1070
     0
1070
     0
1070
     1
1002
}
  0
INSERT
  5
58C8
330
2
100
AcDbEntity
  8
ASHADE
 62
     5
370
    13
100
AcDbBlockReference
  2
AVE_RENDER
 10
586.699684514986
 20
720.1684664480149
 30
0.0
1001
AVE_RENDER
1002
{
1070
     1
1000
Scanl Opt
1070
     2
1070
     0
1070
     2
1040
2.0
1040
4.0
1070
     0
1070
     1
1070
     0
1040
0.03
1002
}
  0
INSERT
  5
58C9
330
2
100
AcDbEntity
  8
ASHADE
 62
     6
370
    13
100
AcDbBlockReference
  2
AVE_RENDER
 10
586.699684514986
 20
720.1684664480149
 30
0.0
1001
AVE_RENDER
1002
{
1070
     2
1000
Raytr Opt
1070
     2
1070
     0
1070
     2
1040
2.0
1040
4.0
1070
     0
1070
     1
1070
     1
1040
0.03
1070
     3
1040
0.03
1002
}
  0
INSERT
  5
58CA
330
2
100
AcDbEntity
  8
ASHADE
 62
     7
370
    13
100
AcDbBlockReference
  2
AVE_RENDER
 10
586.699684514986
 20
720.1684664480149
 30
0.0
1001
AVE_RENDER
1002
{
1070
     0
1000
RFile Opt
1070
     1
1070
   640
1070
   480
1070
 10000
1070
     1
1070
     8
1070
     8
1070
     0
1070
     0
1070
     0
1070
     0
1070
     0
1070
     0
1070
     0
1002
}
  0
INSERT
  5
58CB
330
2
100
AcDbEntity
  8
ASHADE
 62
     8
370
    13
100
AcDbBlockReference
  2
AVE_RENDER
 10
586.699684514986
 20
720.1684664480149
 30
0.0
1001
AVE_RENDER
1002
{
1070
     0
1000
Fog Opt
1070
     0
1070
     0
1040
0.0
1040
1.0
1040
0.0
1040
1.0
1010
0.5
1020
0.5
1030
0.5
1002
}
  0
INSERT
  5
58CC
330
2
100
AcDbEntity
  8
ASHADE
 62
     9
370
    13
100
AcDbBlockReference
  2
AVE_RENDER
 10
586.699684514986
 20
720.1684664480149
 30
0.0
1001
AVE_RENDER
1002
{
1070
     0
1000
BG Opt
1070
     0
1070
     1
1010
0.0
1020
0.0
1030
0.0
1010
1.0
1020
0.0
1030
0.0
1010
0.0
1020
1.0
1030
0.0
1010
0.0
1020
0.0
1030
1.0
1040
0.5
1040
0.33
1040
0.0
1000

1070
     1
1000

1070
     1
1070
     1
1040
1.0
1040
1.0
1040
0.0
1040
0.0
1070
     0
1002
}
  0
INSERT
  5
58CD
330
2
100
AcDbEntity
  8
ASHADE
 62
     1
370
    13
100
AcDbBlockReference
  2
AVE_GLOBAL
 10
586.699684514986
 20
720.1684664480149
 30
0.0
1001
AVE_MATERIAL
1002
{
1000
*GLOBAL*
1000
1
1000
Global finish.
1002
{
1002
}
1002
{
1070
    63
1002
{
1002
{
1010
-1.0
1020
-1.0
1030
-1.0
1002
}
1040
0.1000000014901161
1000

1040
0.0
1002
{
1002
}
1040
0.0
1002
{
1002
}
1040
0.0
1002
}
1002
{
1002
{
1010
-1.0
1020
-1.0
1030
-1.0
1002
}
1040
0.6999999880790711
1000

1040
0.0
1002
{
1002
}
1040
0.0
1002
{
1002
}
1040
0.0
1002
}
1002
{
1002
{
1010
-1.0
1020
-1.0
1030
-1.0
1002
}
1040
0.2000000029802322
1000

1040
0.0
1002
{
1002
}
1040
0.0
1002
{
1002
}
1040
0.0
1002
}
1002
{
1070
     0
1002
{
1070
     1
1002
{
1040
1.0
1040
1.0
1000

1040
0.0
1002
{
1002
}
1040
0.0
1002
{
1002
}
1040
0.0
1002
}
1002
}
1040
1.0
1040
0.0
1040
0.0
1002
}
1002
{
1040
1.0
1040
1.0
1000

1040
0.0
1002
{
1002
}
1040
0.0
1002
{
1002
}
1040
0.0
1002
}
1002
{
1040
0.5
1040
1.0
1000

1040
0.0
1002
{
1002
}
1040
0.0
1002
{
1002
}
1040
0.0
1002
}
1002
{
1070
     0
1040
0.0
1002
{
1002
}
1040
1.0
1002
{
1002
}
1040
0.0
1002
}
1002
{
1040
0.0
1002
{
1002
{
1010
0.0
1020
0.0
1030
0.0
1002
}
1040
1.0
1000

1040
0.0
1002
{
1002
}
1040
0.0
1002
{
1002
}
1040
0.0
1002
}
1002
}
1002
{
1002
{
1070
     1
1002
{
1040
0.0
1040
1.0
1000

1040
0.0
1002
{
1002
}
1040
0.0
1002
{
1002
}
1040
0.0
1002
}
1002
}
1040
0.0
1002
{
1002
}
1010
1.0
1020
0.0
1030
0.0
1010
0.0
1020
1.0
1030
0.0
1010
0.0
1020
0.0
1030
1.0
1070
     0
1002
}
1002
{
1002
{
1040
1.0
1040
1.0
1002
{
1070
     1
1002
{
1040
1.0
1040
1.0
1000

1040
0.0
1002
{
1002
}
1040
0.0
1002
{
1002
}
1040
0.0
1002
}
1002
}
1002
}
1070
     0
1040
0.0
1002
{
1002
}
1002
}
1002
{
1002
}
1002
}
1002
{
1071
        3
1070
     3
1070
     0
1002
{
1070
     2
1070
     0
1070
     0
1040
0.0
1002
}
1070
     0
1070
     2
1002
{
1002
}
1002
}
1002
{
1040
8030.0
1040
190.3000030517578
1040
0.3050000071525574
1040
228.0
1040
545.0
1040
14.0
1040
17.39999961853027
1040
0.4560000002384186
1002
}
1002
}
  0
INSERT
  5
58CE
330
2
100
AcDbEntity
  8
ASHADE
 62
     1
370
    13
100
AcDbBlockReference
  2
AVE_RENDER
 10
859.3099858631653
 20
681.7357176149061
 30
0.0
1001
AVE_RENDER
1002
{
1070
     7
1000
Pref
1070
    30
1070
    20
1070
     1
1070
     0
1000

1070
    10
1070
     1
1070
    10
1040
1.0
1070
     1
1040
0.3
1040
0.7
1040
0.0
1040
10.0
1010
-1.0
1020
-1.0
1030
-1.0
1040
0.3
1070
    49
1070
     0
1070
     0
1010
1.0
1020
1.0
1030
1.0
1040
45.0
1070
     1
1070
     0
1000
WCS
1040
0.0
1070
     0
1040
10.0
1002
}
  0
INSERT
  5
58CF
330
2
100
AcDbEntity
  8
ASHADE
 62
     3
370
    13
100
AcDbBlockReference
  2
AVE_RENDER
 10
859.3099858631653
 20
681.7357176149061
 30
0.0
1001
AVE_RENDER
1002
{
1070
     0
1000
Full Opt
1070
     0
1070
     1
1070
     1
1070
     1
1070
     0
1070
     0
1070
     0
1070
     1
1070
     1
1040
0.0001
1040
0.0001
1002
}
  0
INSERT
  5
58D0
330
2
100
AcDbEntity
  8
ASHADE
 62
     4
370
    13
100
AcDbBlockReference
  2
AVE_RENDER
 10
859.3099858631653
 20
681.7357176149061
 30
0.0
1001
AVE_RENDER
1002
{
1070
     0
1000
Quick Opt
1070
     0
1070
     1
1070
     1
1070
     1
1070
     0
1070
     0
1070
     1
1002
}
  0
INSERT
  5
58D1
330
2
100
AcDbEntity
  8
ASHADE
 62
     5
370
    13
100
AcDbBlockReference
  2
AVE_RENDER
 10
859.3099858631653
 20
681.7357176149061
 30
0.0
1001
AVE_RENDER
1002
{
1070
     1
1000
Scanl Opt
1070
     2
1070
     0
1070
     2
1040
2.0
1040
4.0
1070
     0
1070
     1
1070
     0
1040
0.03
1002
}
  0
INSERT
  5
58D2
330
2
100
AcDbEntity
  8
ASHADE
 62
     6
370
    13
100
AcDbBlockReference
  2
AVE_RENDER
 10
859.3099858631653
 20
681.7357176149061
 30
0.0
1001
AVE_RENDER
1002
{
1070
     2
1000
Raytr Opt
1070
     2
1070
     0
1070
     2
1040
2.0
1040
4.0
1070
     0
1070
     1
1070
     1
1040
0.03
1070
     3
1040
0.03
1002
}
  0
INSERT
  5
58D3
330
2
100
AcDbEntity
  8
ASHADE
 62
     7
370
    13
100
AcDbBlockReference
  2
AVE_RENDER
 10
859.3099858631653
 20
681.7357176149061
 30
0.0
1001
AVE_RENDER
1002
{
1070
     0
1000
RFile Opt
1070
     1
1070
   640
1070
   480
1070
 10000
1070
     1
1070
     8
1070
     8
1070
     0
1070
     0
1070
     0
1070
     0
1070
     0
1070
     0
1070
     0
1002
}
  0
INSERT
  5
58D4
330
2
100
AcDbEntity
  8
ASHADE
 62
     8
370
    13
100
AcDbBlockReference
  2
AVE_RENDER
 10
859.3099858631653
 20
681.7357176149061
 30
0.0
1001
AVE_RENDER
1002
{
1070
     0
1000
Fog Opt
1070
     0
1070
     0
1040
0.0
1040
1.0
1040
0.0
1040
1.0
1010
0.5
1020
0.5
1030
0.5
1002
}
  0
INSERT
  5
58D5
330
2
100
AcDbEntity
  8
ASHADE
 62
     9
370
    13
100
AcDbBlockReference
  2
AVE_RENDER
 10
859.3099858631653
 20
681.7357176149061
 30
0.0
1001
AVE_RENDER
1002
{
1070
     0
1000
BG Opt
1070
     0
1070
     1
1010
0.0
1020
0.0
1030
0.0
1010
1.0
1020
0.0
1030
0.0
1010
0.0
1020
1.0
1030
0.0
1010
0.0
1020
0.0
1030
1.0
1040
0.5
1040
0.33
1040
0.0
1000

1070
     1
1000

1070
     1
1070
     1
1040
1.0
1040
1.0
1040
0.0
1040
0.0
1070
     0
1002
}
  0
INSERT
  5
58D6
330
2
100
AcDbEntity
  8
ASHADE
 62
     1
370
    13
100
AcDbBlockReference
  2
AVE_GLOBAL
 10
859.3099858631653
 20
681.7357176149061
 30
0.0
1001
AVE_MATERIAL
1002
{
1000
*GLOBAL*
1000
1
1000
Global finish.
1002
{
1002
}
1002
{
1070
    63
1002
{
1002
{
1010
-1.0
1020
-1.0
1030
-1.0
1002
}
1040
0.1000000014901161
1000

1040
0.0
1002
{
1002
}
1040
0.0
1002
{
1002
}
1040
0.0
1002
}
1002
{
1002
{
1010
-1.0
1020
-1.0
1030
-1.0
1002
}
1040
0.6999999880790711
1000

1040
0.0
1002
{
1002
}
1040
0.0
1002
{
1002
}
1040
0.0
1002
}
1002
{
1002
{
1010
-1.0
1020
-1.0
1030
-1.0
1002
}
1040
0.2000000029802322
1000

1040
0.0
1002
{
1002
}
1040
0.0
1002
{
1002
}
1040
0.0
1002
}
1002
{
1070
     0
1002
{
1070
     1
1002
{
1040
1.0
1040
1.0
1000

1040
0.0
1002
{
1002
}
1040
0.0
1002
{
1002
}
1040
0.0
1002
}
1002
}
1040
1.0
1040
0.0
1040
0.0
1002
}
1002
{
1040
1.0
1040
1.0
1000

1040
0.0
1002
{
1002
}
1040
0.0
1002
{
1002
}
1040
0.0
1002
}
1002
{
1040
0.5
1040
1.0
1000

1040
0.0
1002
{
1002
}
1040
0.0
1002
{
1002
}
1040
0.0
1002
}
1002
{
1070
     0
1040
0.0
1002
{
1002
}
1040
1.0
1002
{
1002
}
1040
0.0
1002
}
1002
{
1040
0.0
1002
{
1002
{
1010
0.0
1020
0.0
1030
0.0
1002
}
1040
1.0
1000

1040
0.0
1002
{
1002
}
1040
0.0
1002
{
1002
}
1040
0.0
1002
}
1002
}
1002
{
1002
{
1070
     1
1002
{
1040
0.0
1040
1.0
1000

1040
0.0
1002
{
1002
}
1040
0.0
1002
{
1002
}
1040
0.0
1002
}
1002
}
1040
0.0
1002
{
1002
}
1010
1.0
1020
0.0
1030
0.0
1010
0.0
1020
1.0
1030
0.0
1010
0.0
1020
0.0
1030
1.0
1070
     0
1002
}
1002
{
1002
{
1040
1.0
1040
1.0
1002
{
1070
     1
1002
{
1040
1.0
1040
1.0
1000

1040
0.0
1002
{
1002
}
1040
0.0
1002
{
1002
}
1040
0.0
1002
}
1002
}
1002
}
1070
     0
1040
0.0
1002
{
1002
}
1002
}
1002
{
1002
}
1002
}
1002
{
1071
        3
1070
     3
1070
     0
1002
{
1070
     2
1070
     0
1070
     0
1040
0.0
1002
}
1070
     0
1070
     2
1002
{
1002
}
1002
}
1002
{
1040
8030.0
1040
190.3000030517578
1040
0.3050000071525574
1040
228.0
1040
545.0
1040
14.0
1040
17.39999961853027
1040
0.4560000002384186
1002
}
1002
}
  0
INSERT
  5
58D7
330
2
100
AcDbEntity
  8
ASHADE
 62
     1
370
    13
100
AcDbBlockReference
  2
AVE_RENDER
 10
859.2242569157159
 20
625.8721825092525
 30
0.0
1001
AVE_RENDER
1002
{
1070
     7
1000
Pref
1070
    60
1070
    20
1070
     1
1070
     0
1000

1070
    10
1070
     1
1070
    10
1040
1.0
1070
     1
1040
0.3
1040
0.7
1040
0.0
1040
10.0
1010
-1.0
1020
-1.0
1030
-1.0
1040
0.3
1070
    49
1070
     0
1070
     0
1010
1.0
1020
1.0
1030
1.0
1040
45.0
1070
     1
1070
     0
1000
WCS
1040
0.0
1070
     0
1040
10.0
1002
}
  0
INSERT
  5
58D8
330
2
100
AcDbEntity
  8
ASHADE
 62
     3
370
    13
100
AcDbBlockReference
  2
AVE_RENDER
 10
859.2242569157159
 20
625.8721825092525
 30
0.0
1001
AVE_RENDER
1002
{
1070
     0
1000
Full Opt
1070
     0
1070
     1
1070
     1
1070
     1
1070
     0
1070
     0
1070
     0
1070
     1
1070
     1
1040
0.0001
1040
0.0001
1002
}
  0
INSERT
  5
58D9
330
2
100
AcDbEntity
  8
ASHADE
 62
     4
370
    13
100
AcDbBlockReference
  2
AVE_RENDER
 10
859.2242569157159
 20
625.8721825092525
 30
0.0
1001
AVE_RENDER
1002
{
1070
     0
1000
Quick Opt
1070
     0
1070
     1
1070
     1
1070
     1
1070
     0
1070
     0
1070
     1
1002
}
  0
INSERT
  5
58DA
330
2
100
AcDbEntity
  8
ASHADE
 62
     5
370
    13
100
AcDbBlockReference
  2
AVE_RENDER
 10
859.2242569157159
 20
625.8721825092525
 30
0.0
1001
AVE_RENDER
1002
{
1070
     1
1000
Scanl Opt
1070
     2
1070
     0
1070
     2
1040
2.0
1040
4.0
1070
     0
1070
     1
1070
     0
1040
0.03
1002
}
  0
INSERT
  5
58DB
330
2
100
AcDbEntity
  8
ASHADE
 62
     6
370
    13
100
AcDbBlockReference
  2
AVE_RENDER
 10
859.2242569157159
 20
625.8721825092525
 30
0.0
1001
AVE_RENDER
1002
{
1070
     2
1000
Raytr Opt
1070
     2
1070
     0
1070
     2
1040
2.0
1040
4.0
1070
     0
1070
     1
1070
     1
1040
0.03
1070
     3
1040
0.03
1002
}
  0
INSERT
  5
58DC
330
2
100
AcDbEntity
  8
ASHADE
 62
     7
370
    13
100
AcDbBlockReference
  2
AVE_RENDER
 10
859.2242569157159
 20
625.8721825092525
 30
0.0
1001
AVE_RENDER
1002
{
1070
     0
1000
RFile Opt
1070
     1
1070
   640
1070
   480
1070
 10000
1070
     1
1070
     8
1070
     8
1070
     0
1070
     0
1070
     0
1070
     0
1070
     0
1070
     0
1070
     0
1002
}
  0
INSERT
  5
58DD
330
2
100
AcDbEntity
  8
ASHADE
 62
     8
370
    13
100
AcDbBlockReference
  2
AVE_RENDER
 10
859.2242569157159
 20
625.8721825092525
 30
0.0
1001
AVE_RENDER
1002
{
1070
     0
1000
Fog Opt
1070
     0
1070
     0
1040
0.0
1040
1.0
1040
0.0
1040
1.0
1010
0.5
1020
0.5
1030
0.5
1002
}
  0
INSERT
  5
58DE
330
2
100
AcDbEntity
  8
ASHADE
 62
     9
370
    13
100
AcDbBlockReference
  2
AVE_RENDER
 10
859.2242569157159
 20
625.8721825092525
 30
0.0
1001
AVE_RENDER
1002
{
1070
     0
1000
BG Opt
1070
     0
1070
     1
1010
0.0
1020
0.0
1030
0.0
1010
1.0
1020
0.0
1030
0.0
1010
0.0
1020
1.0
1030
0.0
1010
0.0
1020
0.0
1030
1.0
1040
0.5
1040
0.33
1040
0.0
1000

1070
     1
1000

1070
     1
1070
     1
1040
1.0
1040
1.0
1040
0.0
1040
0.0
1070
     0
1002
}
  0
INSERT
  5
58DF
330
2
100
AcDbEntity
  8
ASHADE
 62
     1
370
    13
100
AcDbBlockReference
  2
AVE_GLOBAL
 10
859.2242569157159
 20
625.8721825092525
 30
0.0
1001
AVE_MATERIAL
1002
{
1000
*GLOBAL*
1000
1
1000
Global finish.
1002
{
1002
}
1002
{
1070
    63
1002
{
1002
{
1010
-1.0
1020
-1.0
1030
-1.0
1002
}
1040
0.1000000014901161
1000

1040
0.0
1002
{
1002
}
1040
0.0
1002
{
1002
}
1040
0.0
1002
}
1002
{
1002
{
1010
-1.0
1020
-1.0
1030
-1.0
1002
}
1040
0.6999999880790711
1000

1040
0.0
1002
{
1002
}
1040
0.0
1002
{
1002
}
1040
0.0
1002
}
1002
{
1002
{
1010
-1.0
1020
-1.0
1030
-1.0
1002
}
1040
0.2000000029802322
1000

1040
0.0
1002
{
1002
}
1040
0.0
1002
{
1002
}
1040
0.0
1002
}
1002
{
1070
     0
1002
{
1070
     1
1002
{
1040
1.0
1040
1.0
1000

1040
0.0
1002
{
1002
}
1040
0.0
1002
{
1002
}
1040
0.0
1002
}
1002
}
1040
1.0
1040
0.0
1040
0.0
1002
}
1002
{
1040
1.0
1040
1.0
1000

1040
0.0
1002
{
1002
}
1040
0.0
1002
{
1002
}
1040
0.0
1002
}
1002
{
1040
0.5
1040
1.0
1000

1040
0.0
1002
{
1002
}
1040
0.0
1002
{
1002
}
1040
0.0
1002
}
1002
{
1070
     0
1040
0.0
1002
{
1002
}
1040
1.0
1002
{
1002
}
1040
0.0
1002
}
1002
{
1040
0.0
1002
{
1002
{
1010
0.0
1020
0.0
1030
0.0
1002
}
1040
1.0
1000

1040
0.0
1002
{
1002
}
1040
0.0
1002
{
1002
}
1040
0.0
1002
}
1002
}
1002
{
1002
{
1070
     1
1002
{
1040
0.0
1040
1.0
1000

1040
0.0
1002
{
1002
}
1040
0.0
1002
{
1002
}
1040
0.0
1002
}
1002
}
1040
0.0
1002
{
1002
}
1010
1.0
1020
0.0
1030
0.0
1010
0.0
1020
1.0
1030
0.0
1010
0.0
1020
0.0
1030
1.0
1070
     0
1002
}
1002
{
1002
{
1040
1.0
1040
1.0
1002
{
1070
     1
1002
{
1040
1.0
1040
1.0
1000

1040
0.0
1002
{
1002
}
1040
0.0
1002
{
1002
}
1040
0.0
1002
}
1002
}
1002
}
1070
     0
1040
0.0
1002
{
1002
}
1002
}
1002
{
1002
}
1002
}
1002
{
1071
        3
1070
     3
1070
     0
1002
{
1070
     2
1070
     0
1070
     0
1040
0.0
1002
}
1070
     0
1070
     2
1002
{
1002
}
1002
}
1002
{
1040
8030.0
1040
190.3000030517578
1040
0.3050000071525574
1040
228.0
1040
545.0
1040
14.0
1040
17.39999961853027
1040
0.4560000002384186
1002
}
1002
}
  0
INSERT
  5
58E0
330
2
100
AcDbEntity
  8
0
370
    13
100
AcDbBlockReference
  2
*U3
 10
1034.740585551572
 20
152.8646744391725
 30
0.0
  0
INSERT
  5
58E1
330
2
100
AcDbEntity
  8
0
370
    13
100
AcDbBlockReference
  2
*U4
 10
1034.4280799966
 20
159.4241189093129
 30
0.0
  0
INSERT
  5
58E2
330
2
100
AcDbEntity
  8
0
370
    13
100
AcDbBlockReference
  2
*U5
 10
1034.990590306957
 20
155.4884520303596
 30
0.0
  0
INSERT
  5
58E3
330
2
100
AcDbEntity
  8
0
370
    13
100
AcDbBlockReference
  2
*U6
 10
1035.990609328495
 20
142.1821503346839
 30
0.0
  0
INSERT
  5
58E4
330
2
100
AcDbEntity
  8
0
370
    13
100
AcDbBlockReference
  2
*U7
 10
267.9085916073636
 20
266.7763381753297
 30
0.0
  0
INSERT
  5
58E5
330
2
100
AcDbEntity
  8
0
370
    13
100
AcDbBlockReference
  2
*U8
 10
281.6251292251815
 20
272.0988275074846
 30
0.0
  0
INSERT
  5
58E6
330
2
100
AcDbEntity
  8
0
370
    13
100
AcDbBlockReference
  2
*U9
 10
279.8905436452664
 20
266.1931384296617
 30
0.0
  0
INSERT
  5
58E7
330
2
100
AcDbEntity
  8
0
370
    13
100
AcDbBlockReference
  2
*U10
 10
961.1393497150395
 20
676.8974475426837
 30
0.0
  0
INSERT
  5
58E8
330
2
100
AcDbEntity
  8
0
370
    13
100
AcDbBlockReference
  2
*U11
 10
960.8268441600664
 20
683.456892012824
 30
0.0
  0
INSERT
  5
58E9
330
2
100
AcDbEntity
  8
0
370
    13
100
AcDbBlockReference
  2
*U12
 10
961.3893544704238
 20
679.5212251338707
 30
0.0
  0
INSERT
  5
58EA
330
2
100
AcDbEntity
  8
0
370
    13
100
AcDbBlockReference
  2
*U13
 10
962.3893734919624
 20
666.2149234381949
 30
0.0
  0
INSERT
  5
58EB
330
2
100
AcDbEntity
  8
0
370
    13
100
AcDbBlockReference
  2
*U14
 10
194.3073557708301
 20
790.8091112788408
 30
0.0
  0
INSERT
  5
58EC
330
2
100
AcDbEntity
  8
0
370
    13
100
AcDbBlockReference
  2
*U15
 10
208.023893388648
 20
796.1316006109957
 30
0.0
  0
INSERT
  5
58ED
330
2
100
AcDbEntity
  8
0
370
    13
100
AcDbBlockReference
  2
*U16
 10
206.2893078087329
 20
790.2259115331728
 30
0.0
  0
INSERT
  5
58EE
330
2
100
AcDbEntity
  8
ASHADE
 62
     1
370
    13
100
AcDbBlockReference
  2
AVE_RENDER
 10
636.3220305526265
 20
917.1324289929744
 30
0.0
1001
AVE_RENDER
1002
{
1070
     7
1000
Pref
1070
    50
1070
    20
1070
     1
1070
     0
1000

1070
    10
1070
     1
1070
    10
1040
1.0
1070
     1
1040
0.3
1040
0.7
1040
0.0
1040
10.0
1010
-1.0
1020
-1.0
1030
-1.0
1040
0.3
1070
    49
1070
     1
1070
     0
1010
1.0
1020
1.0
1030
1.0
1040
45.0
1070
     1
1070
     0
1000
WCS
1040
0.0
1070
     1
1040
10.0
1002
}
  0
INSERT
  5
58EF
330
2
100
AcDbEntity
  8
ASHADE
 62
     3
370
    13
100
AcDbBlockReference
  2
AVE_RENDER
 10
636.3220305526265
 20
917.1324289929744
 30
0.0
1001
AVE_RENDER
1002
{
1070
     0
1000
Full Opt
1070
     0
1070
     1
1070
     1
1070
     1
1070
     0
1070
     0
1070
     0
1070
     1
1070
     1
1040
0.0001
1040
0.0001
1002
}
  0
INSERT
  5
58F0
330
2
100
AcDbEntity
  8
ASHADE
 62
     4
370
    13
100
AcDbBlockReference
  2
AVE_RENDER
 10
636.3220305526265
 20
917.1324289929744
 30
0.0
1001
AVE_RENDER
1002
{
1070
     0
1000
Quick Opt
1070
     0
1070
     1
1070
     1
1070
     1
1070
     0
1070
     0
1070
     1
1002
}
  0
INSERT
  5
58F1
330
2
100
AcDbEntity
  8
ASHADE
 62
     5
370
    13
100
AcDbBlockReference
  2
AVE_RENDER
 10
636.3220305526265
 20
917.1324289929744
 30
0.0
1001
AVE_RENDER
1002
{
1070
     1
1000
Scanl Opt
1070
     5
1070
     0
1070
     2
1040
2.0
1040
4.0
1070
     0
1070
     0
1070
     0
1040
0.03
1002
}
  0
INSERT
  5
58F2
330
2
100
AcDbEntity
  8
ASHADE
 62
     6
370
    13
100
AcDbBlockReference
  2
AVE_RENDER
 10
636.3220305526265
 20
917.1324289929744
 30
0.0
1001
AVE_RENDER
1002
{
1070
     2
1000
Raytr Opt
1070
     2
1070
     0
1070
     2
1040
2.0
1040
4.0
1070
     0
1070
     1
1070
     1
1040
0.03
1070
     3
1040
0.03
1002
}
  0
INSERT
  5
58F3
330
2
100
AcDbEntity
  8
ASHADE
 62
     7
370
    13
100
AcDbBlockReference
  2
AVE_RENDER
 10
636.3220305526265
 20
917.1324289929744
 30
0.0
1001
AVE_RENDER
1002
{
1070
     0
1000
RFile Opt
1070
     1
1070
   640
1070
   480
1070
 10000
1070
     1
1070
     8
1070
     8
1070
     0
1070
     0
1070
     0
1070
     0
1070
     0
1070
     0
1070
     0
1002
}
  0
INSERT
  5
58F4
330
2
100
AcDbEntity
  8
ASHADE
 62
     8
370
    13
100
AcDbBlockReference
  2
AVE_RENDER
 10
636.3220305526265
 20
917.1324289929744
 30
0.0
1001
AVE_RENDER
1002
{
1070
     0
1000
Fog Opt
1070
     0
1070
     0
1040
0.0
1040
1.0
1040
0.0
1040
1.0
1010
0.5
1020
0.5
1030
0.5
1002
}
  0
INSERT
  5
58F5
330
2
100
AcDbEntity
  8
ASHADE
 62
     9
370
    13
100
AcDbBlockReference
  2
AVE_RENDER
 10
636.3220305526265
 20
917.1324289929744
 30
0.0
1001
AVE_RENDER
1002
{
1070
     0
1000
BG Opt
1070
     0
1070
     1
1010
0.0
1020
0.0
1030
0.0
1010
1.0
1020
0.0
1030
0.0
1010
0.0
1020
1.0
1030
0.0
1010
0.0
1020
0.0
1030
1.0
1040
0.5
1040
0.33
1040
0.0
1000

1070
     1
1000

1070
     1
1070
     1
1040
1.0
1040
1.0
1040
0.0
1040
0.0
1070
     0
1002
}
  0
INSERT
  5
58F6
330
2
100
AcDbEntity
  8
ASHADE
 62
     1
370
    13
100
AcDbBlockReference
  2
AVE_GLOBAL
 10
636.3220305526265
 20
917.1324289929744
 30
0.0
1001
AVE_MATERIAL
1002
{
1000
*GLOBAL*
1000
1
1000
Global finish.
1002
{
1002
}
1002
{
1070
    63
1002
{
1002
{
1010
-1.0
1020
-1.0
1030
-1.0
1002
}
1040
0.1000000014901161
1000

1040
0.0
1002
{
1002
}
1040
0.0
1002
{
1002
}
1040
0.0
1002
}
1002
{
1002
{
1010
-1.0
1020
-1.0
1030
-1.0
1002
}
1040
0.6999999880790711
1000

1040
0.0
1002
{
1002
}
1040
0.0
1002
{
1002
}
1040
0.0
1002
}
1002
{
1002
{
1010
-1.0
1020
-1.0
1030
-1.0
1002
}
1040
0.2000000029802322
1000

1040
0.0
1002
{
1002
}
1040
0.0
1002
{
1002
}
1040
0.0
1002
}
1002
{
1070
     0
1002
{
1070
     1
1002
{
1040
1.0
1040
1.0
1000

1040
0.0
1002
{
1002
}
1040
0.0
1002
{
1002
}
1040
0.0
1002
}
1002
}
1040
1.0
1040
0.0
1040
0.0
1002
}
1002
{
1040
1.0
1040
1.0
1000

1040
0.0
1002
{
1002
}
1040
0.0
1002
{
1002
}
1040
0.0
1002
}
1002
{
1040
0.5
1040
1.0
1000

1040
0.0
1002
{
1002
}
1040
0.0
1002
{
1002
}
1040
0.0
1002
}
1002
{
1070
     0
1040
0.0
1002
{
1002
}
1040
1.0
1002
{
1002
}
1040
0.0
1002
}
1002
{
1040
0.0
1002
{
1002
{
1010
0.0
1020
0.0
1030
0.0
1002
}
1040
1.0
1000

1040
0.0
1002
{
1002
}
1040
0.0
1002
{
1002
}
1040
0.0
1002
}
1002
}
1002
{
1002
{
1070
     1
1002
{
1040
0.0
1040
1.0
1000

1040
0.0
1002
{
1002
}
1040
0.0
1002
{
1002
}
1040
0.0
1002
}
1002
}
1040
0.0
1002
{
1002
}
1010
1.0
1020
0.0
1030
0.0
1010
0.0
1020
1.0
1030
0.0
1010
0.0
1020
0.0
1030
1.0
1070
     0
1002
}
1002
{
1002
{
1040
1.0
1040
1.0
1002
{
1070
     1
1002
{
1040
1.0
1040
1.0
1000

1040
0.0
1002
{
1002
}
1040
0.0
1002
{
1002
}
1040
0.0
1002
}
1002
}
1002
}
1070
     0
1040
0.0
1002
{
1002
}
1002
}
1002
{
1002
}
1002
}
1002
{
1071
        3
1070
     3
1070
     0
1002
{
1070
     2
1070
     0
1070
     0
1040
0.0
1002
}
1070
     0
1070
     2
1002
{
1002
}
1002
}
1002
{
1040
8030.0
1040
190.3000030517578
1040
0.3050000071525574
1040
228.0
1040
545.0
1040
14.0
1040
17.39999961853027
1040
0.4560000002384186
1002
}
1002
}
  0
INSERT
  5
58F7
330
2
100
AcDbEntity
  8
ASHADE
 62
     1
370
    13
100
AcDbBlockReference
  2
AVE_GLOBAL
 10
636.2363016051771
 20
861.2688938873207
 30
0.0
1001
AVE_MATERIAL
1002
{
1000
*GLOBAL*
1000
1
1000
Global finish.
1002
{
1002
}
1002
{
1070
    63
1002
{
1002
{
1010
-1.0
1020
-1.0
1030
-1.0
1002
}
1040
0.1000000014901161
1000

1040
0.0
1002
{
1002
}
1040
0.0
1002
{
1002
}
1040
0.0
1002
}
1002
{
1002
{
1010
-1.0
1020
-1.0
1030
-1.0
1002
}
1040
0.6999999880790711
1000

1040
0.0
1002
{
1002
}
1040
0.0
1002
{
1002
}
1040
0.0
1002
}
1002
{
1002
{
1010
-1.0
1020
-1.0
1030
-1.0
1002
}
1040
0.2000000029802322
1000

1040
0.0
1002
{
1002
}
1040
0.0
1002
{
1002
}
1040
0.0
1002
}
1002
{
1070
     0
1002
{
1070
     1
1002
{
1040
1.0
1040
1.0
1000

1040
0.0
1002
{
1002
}
1040
0.0
1002
{
1002
}
1040
0.0
1002
}
1002
}
1040
1.0
1040
0.0
1040
0.0
1002
}
1002
{
1040
1.0
1040
1.0
1000

1040
0.0
1002
{
1002
}
1040
0.0
1002
{
1002
}
1040
0.0
1002
}
1002
{
1040
0.5
1040
1.0
1000

1040
0.0
1002
{
1002
}
1040
0.0
1002
{
1002
}
1040
0.0
1002
}
1002
{
1070
     0
1040
0.0
1002
{
1002
}
1040
1.0
1002
{
1002
}
1040
0.0
1002
}
1002
{
1040
0.0
1002
{
1002
{
1010
0.0
1020
0.0
1030
0.0
1002
}
1040
1.0
1000

1040
0.0
1002
{
1002
}
1040
0.0
1002
{
1002
}
1040
0.0
1002
}
1002
}
1002
{
1002
{
1070
     1
1002
{
1040
0.0
1040
1.0
1000

1040
0.0
1002
{
1002
}
1040
0.0
1002
{
1002
}
1040
0.0
1002
}
1002
}
1040
0.0
1002
{
1002
}
1010
1.0
1020
0.0
1030
0.0
1010
0.0
1020
1.0
1030
0.0
1010
0.0
1020
0.0
1030
1.0
1070
     0
1002
}
1002
{
1002
{
1040
1.0
1040
1.0
1002
{
1070
     1
1002
{
1040
1.0
1040
1.0
1000

1040
0.0
1002
{
1002
}
1040
0.0
1002
{
1002
}
1040
0.0
1002
}
1002
}
1002
}
1070
     0
1040
0.0
1002
{
1002
}
1002
}
1002
{
1002
}
1002
}
1002
{
1071
        3
1070
     3
1070
     0
1002
{
1070
     2
1070
     0
1070
     0
1040
0.0
1002
}
1070
     0
1070
     2
1002
{
1002
}
1002
}
1002
{
1040
8030.0
1040
190.3000030517578
1040
0.3050000071525574
1040
228.0
1040
545.0
1040
14.0
1040
17.39999961853027
1040
0.4560000002384186
1002
}
1002
}
  0
INSERT
  5
58F8
330
2
100
AcDbEntity
  8
ASHADE
 62
     1
370
    13
100
AcDbBlockReference
  2
AVE_GLOBAL
 10
687.4192084928092
 20
849.4784199076695
 30
0.0
1001
AVE_MATERIAL
1002
{
1000
*GLOBAL*
1000
1
1000
Global finish.
1002
{
1002
}
1002
{
1070
    63
1002
{
1002
{
1010
-1.0
1020
-1.0
1030
-1.0
1002
}
1040
0.1000000014901161
1000

1040
0.0
1002
{
1002
}
1040
0.0
1002
{
1002
}
1040
0.0
1002
}
1002
{
1002
{
1010
-1.0
1020
-1.0
1030
-1.0
1002
}
1040
0.6999999880790711
1000

1040
0.0
1002
{
1002
}
1040
0.0
1002
{
1002
}
1040
0.0
1002
}
1002
{
1002
{
1010
-1.0
1020
-1.0
1030
-1.0
1002
}
1040
0.2000000029802322
1000

1040
0.0
1002
{
1002
}
1040
0.0
1002
{
1002
}
1040
0.0
1002
}
1002
{
1070
     0
1002
{
1070
     1
1002
{
1040
1.0
1040
1.0
1000

1040
0.0
1002
{
1002
}
1040
0.0
1002
{
1002
}
1040
0.0
1002
}
1002
}
1040
1.0
1040
0.0
1040
0.0
1002
}
1002
{
1040
1.0
1040
1.0
1000

1040
0.0
1002
{
1002
}
1040
0.0
1002
{
1002
}
1040
0.0
1002
}
1002
{
1040
0.5
1040
1.0
1000

1040
0.0
1002
{
1002
}
1040
0.0
1002
{
1002
}
1040
0.0
1002
}
1002
{
1070
     0
1040
0.0
1002
{
1002
}
1040
1.0
1002
{
1002
}
1040
0.0
1002
}
1002
{
1040
0.0
1002
{
1002
{
1010
0.0
1020
0.0
1030
0.0
1002
}
1040
1.0
1000

1040
0.0
1002
{
1002
}
1040
0.0
1002
{
1002
}
1040
0.0
1002
}
1002
}
1002
{
1002
{
1070
     1
1002
{
1040
0.0
1040
1.0
1000

1040
0.0
1002
{
1002
}
1040
0.0
1002
{
1002
}
1040
0.0
1002
}
1002
}
1040
0.0
1002
{
1002
}
1010
1.0
1020
0.0
1030
0.0
1010
0.0
1020
1.0
1030
0.0
1010
0.0
1020
0.0
1030
1.0
1070
     0
1002
}
1002
{
1002
{
1040
1.0
1040
1.0
1002
{
1070
     1
1002
{
1040
1.0
1040
1.0
1000

1040
0.0
1002
{
1002
}
1040
0.0
1002
{
1002
}
1040
0.0
1002
}
1002
}
1002
}
1070
     0
1040
0.0
1002
{
1002
}
1002
}
1002
{
1002
}
1002
}
1002
{
1071
        3
1070
     3
1070
     0
1002
{
1070
     2
1070
     0
1070
     0
1040
0.0
1002
}
1070
     0
1070
     2
1002
{
1002
}
1002
}
1002
{
1040
8030.0
1040
190.3000030517578
1040
0.3050000071525574
1040
228.0
1040
545.0
1040
14.0
1040
17.39999961853027
1040
0.4560000002384186
1002
}
1002
}
  0
INSERT
  5
58F9
330
2
100
AcDbEntity
  8
ASHADE
 62
     1
370
    13
100
AcDbBlockReference
  2
AVE_GLOBAL
 10
687.3334795453598
 20
793.6148848020158
 30
0.0
1001
AVE_MATERIAL
1002
{
1000
*GLOBAL*
1000
1
1000
Global finish.
1002
{
1002
}
1002
{
1070
    63
1002
{
1002
{
1010
-1.0
1020
-1.0
1030
-1.0
1002
}
1040
0.1000000014901161
1000

1040
0.0
1002
{
1002
}
1040
0.0
1002
{
1002
}
1040
0.0
1002
}
1002
{
1002
{
1010
-1.0
1020
-1.0
1030
-1.0
1002
}
1040
0.6999999880790711
1000

1040
0.0
1002
{
1002
}
1040
0.0
1002
{
1002
}
1040
0.0
1002
}
1002
{
1002
{
1010
-1.0
1020
-1.0
1030
-1.0
1002
}
1040
0.2000000029802322
1000

1040
0.0
1002
{
1002
}
1040
0.0
1002
{
1002
}
1040
0.0
1002
}
1002
{
1070
     0
1002
{
1070
     1
1002
{
1040
1.0
1040
1.0
1000

1040
0.0
1002
{
1002
}
1040
0.0
1002
{
1002
}
1040
0.0
1002
}
1002
}
1040
1.0
1040
0.0
1040
0.0
1002
}
1002
{
1040
1.0
1040
1.0
1000

1040
0.0
1002
{
1002
}
1040
0.0
1002
{
1002
}
1040
0.0
1002
}
1002
{
1040
0.5
1040
1.0
1000

1040
0.0
1002
{
1002
}
1040
0.0
1002
{
1002
}
1040
0.0
1002
}
1002
{
1070
     0
1040
0.0
1002
{
1002
}
1040
1.0
1002
{
1002
}
1040
0.0
1002
}
1002
{
1040
0.0
1002
{
1002
{
1010
0.0
1020
0.0
1030
0.0
1002
}
1040
1.0
1000

1040
0.0
1002
{
1002
}
1040
0.0
1002
{
1002
}
1040
0.0
1002
}
1002
}
1002
{
1002
{
1070
     1
1002
{
1040
0.0
1040
1.0
1000

1040
0.0
1002
{
1002
}
1040
0.0
1002
{
1002
}
1040
0.0
1002
}
1002
}
1040
0.0
1002
{
1002
}
1010
1.0
1020
0.0
1030
0.0
1010
0.0
1020
1.0
1030
0.0
1010
0.0
1020
0.0
1030
1.0
1070
     0
1002
}
1002
{
1002
{
1040
1.0
1040
1.0
1002
{
1070
     1
1002
{
1040
1.0
1040
1.0
1000

1040
0.0
1002
{
1002
}
1040
0.0
1002
{
1002
}
1040
0.0
1002
}
1002
}
1002
}
1070
     0
1040
0.0
1002
{
1002
}
1002
}
1002
{
1002
}
1002
}
1002
{
1071
        3
1070
     3
1070
     0
1002
{
1070
     2
1070
     0
1070
     0
1040
0.0
1002
}
1070
     0
1070
     2
1002
{
1002
}
1002
}
1002
{
1040
8030.0
1040
190.3000030517578
1040
0.3050000071525574
1040
228.0
1040
545.0
1040
14.0
1040
17.39999961853027
1040
0.4560000002384186
1002
}
1002
}
  0
INSERT
  5
58FA
330
2
100
AcDbEntity
  8
ASHADE
 62
     1
370
    13
100
AcDbBlockReference
  2
AVE_GLOBAL
 10
699.3513982731736
 20
930.5932681196967
 30
0.0
1001
AVE_MATERIAL
1002
{
1000
*GLOBAL*
1000
1
1000
Global finish.
1002
{
1002
}
1002
{
1070
    63
1002
{
1002
{
1010
-1.0
1020
-1.0
1030
-1.0
1002
}
1040
0.1000000014901161
1000

1040
0.0
1002
{
1002
}
1040
0.0
1002
{
1002
}
1040
0.0
1002
}
1002
{
1002
{
1010
-1.0
1020
-1.0
1030
-1.0
1002
}
1040
0.6999999880790711
1000

1040
0.0
1002
{
1002
}
1040
0.0
1002
{
1002
}
1040
0.0
1002
}
1002
{
1002
{
1010
-1.0
1020
-1.0
1030
-1.0
1002
}
1040
0.2000000029802322
1000

1040
0.0
1002
{
1002
}
1040
0.0
1002
{
1002
}
1040
0.0
1002
}
1002
{
1070
     0
1002
{
1070
     1
1002
{
1040
1.0
1040
1.0
1000

1040
0.0
1002
{
1002
}
1040
0.0
1002
{
1002
}
1040
0.0
1002
}
1002
}
1040
1.0
1040
0.0
1040
0.0
1002
}
1002
{
1040
1.0
1040
1.0
1000

1040
0.0
1002
{
1002
}
1040
0.0
1002
{
1002
}
1040
0.0
1002
}
1002
{
1040
0.5
1040
1.0
1000

1040
0.0
1002
{
1002
}
1040
0.0
1002
{
1002
}
1040
0.0
1002
}
1002
{
1070
     0
1040
0.0
1002
{
1002
}
1040
1.0
1002
{
1002
}
1040
0.0
1002
}
1002
{
1040
0.0
1002
{
1002
{
1010
0.0
1020
0.0
1030
0.0
1002
}
1040
1.0
1000

1040
0.0
1002
{
1002
}
1040
0.0
1002
{
1002
}
1040
0.0
1002
}
1002
}
1002
{
1002
{
1070
     1
1002
{
1040
0.0
1040
1.0
1000

1040
0.0
1002
{
1002
}
1040
0.0
1002
{
1002
}
1040
0.0
1002
}
1002
}
1040
0.0
1002
{
1002
}
1010
1.0
1020
0.0
1030
0.0
1010
0.0
1020
1.0
1030
0.0
1010
0.0
1020
0.0
1030
1.0
1070
     0
1002
}
1002
{
1002
{
1040
1.0
1040
1.0
1002
{
1070
     1
1002
{
1040
1.0
1040
1.0
1000

1040
0.0
1002
{
1002
}
1040
0.0
1002
{
1002
}
1040
0.0
1002
}
1002
}
1002
}
1070
     0
1040
0.0
1002
{
1002
}
1002
}
1002
{
1002
}
1002
}
1002
{
1071
        3
1070
     3
1070
     0
1002
{
1070
     2
1070
     0
1070
     0
1040
0.0
1002
}
1070
     0
1070
     2
1002
{
1002
}
1002
}
1002
{
1040
8030.0
1040
190.3000030517578
1040
0.3050000071525574
1040
228.0
1040
545.0
1040
14.0
1040
17.39999961853027
1040
0.4560000002384186
1002
}
1002
}
  0
INSERT
  5
58FB
330
2
100
AcDbEntity
  8
ASHADE
 62
     1
370
    13
100
AcDbBlockReference
  2
AVE_GLOBAL
 10
699.2656693257242
 20
874.729733014043
 30
0.0
1001
AVE_MATERIAL
1002
{
1000
*GLOBAL*
1000
1
1000
Global finish.
1002
{
1002
}
1002
{
1070
    63
1002
{
1002
{
1010
-1.0
1020
-1.0
1030
-1.0
1002
}
1040
0.1000000014901161
1000

1040
0.0
1002
{
1002
}
1040
0.0
1002
{
1002
}
1040
0.0
1002
}
1002
{
1002
{
1010
-1.0
1020
-1.0
1030
-1.0
1002
}
1040
0.6999999880790711
1000

1040
0.0
1002
{
1002
}
1040
0.0
1002
{
1002
}
1040
0.0
1002
}
1002
{
1002
{
1010
-1.0
1020
-1.0
1030
-1.0
1002
}
1040
0.2000000029802322
1000

1040
0.0
1002
{
1002
}
1040
0.0
1002
{
1002
}
1040
0.0
1002
}
1002
{
1070
     0
1002
{
1070
     1
1002
{
1040
1.0
1040
1.0
1000

1040
0.0
1002
{
1002
}
1040
0.0
1002
{
1002
}
1040
0.0
1002
}
1002
}
1040
1.0
1040
0.0
1040
0.0
1002
}
1002
{
1040
1.0
1040
1.0
1000

1040
0.0
1002
{
1002
}
1040
0.0
1002
{
1002
}
1040
0.0
1002
}
1002
{
1040
0.5
1040
1.0
1000

1040
0.0
1002
{
1002
}
1040
0.0
1002
{
1002
}
1040
0.0
1002
}
1002
{
1070
     0
1040
0.0
1002
{
1002
}
1040
1.0
1002
{
1002
}
1040
0.0
1002
}
1002
{
1040
0.0
1002
{
1002
{
1010
0.0
1020
0.0
1030
0.0
1002
}
1040
1.0
1000

1040
0.0
1002
{
1002
}
1040
0.0
1002
{
1002
}
1040
0.0
1002
}
1002
}
1002
{
1002
{
1070
     1
1002
{
1040
0.0
1040
1.0
1000

1040
0.0
1002
{
1002
}
1040
0.0
1002
{
1002
}
1040
0.0
1002
}
1002
}
1040
0.0
1002
{
1002
}
1010
1.0
1020
0.0
1030
0.0
1010
0.0
1020
1.0
1030
0.0
1010
0.0
1020
0.0
1030
1.0
1070
     0
1002
}
1002
{
1002
{
1040
1.0
1040
1.0
1002
{
1070
     1
1002
{
1040
1.0
1040
1.0
1000

1040
0.0
1002
{
1002
}
1040
0.0
1002
{
1002
}
1040
0.0
1002
}
1002
}
1002
}
1070
     0
1040
0.0
1002
{
1002
}
1002
}
1002
{
1002
}
1002
}
1002
{
1071
        3
1070
     3
1070
     0
1002
{
1070
     2
1070
     0
1070
     0
1040
0.0
1002
}
1070
     0
1070
     2
1002
{
1002
}
1002
}
1002
{
1040
8030.0
1040
190.3000030517578
1040
0.3050000071525574
1040
228.0
1040
545.0
1040
14.0
1040
17.39999961853027
1040
0.4560000002384186
1002
}
1002
}
  0
INSERT
  5
58FC
330
2
100
AcDbEntity
  8
ASHADE
 62
     1
370
    13
100
AcDbBlockReference
  2
AVE_GLOBAL
 10
971.8759706739033
 20
836.2969841809343
 30
0.0
1001
AVE_MATERIAL
1002
{
1000
*GLOBAL*
1000
1
1000
Global finish.
1002
{
1002
}
1002
{
1070
    63
1002
{
1002
{
1010
-1.0
1020
-1.0
1030
-1.0
1002
}
1040
0.1000000014901161
1000

1040
0.0
1002
{
1002
}
1040
0.0
1002
{
1002
}
1040
0.0
1002
}
1002
{
1002
{
1010
-1.0
1020
-1.0
1030
-1.0
1002
}
1040
0.6999999880790711
1000

1040
0.0
1002
{
1002
}
1040
0.0
1002
{
1002
}
1040
0.0
1002
}
1002
{
1002
{
1010
-1.0
1020
-1.0
1030
-1.0
1002
}
1040
0.2000000029802322
1000

1040
0.0
1002
{
1002
}
1040
0.0
1002
{
1002
}
1040
0.0
1002
}
1002
{
1070
     0
1002
{
1070
     1
1002
{
1040
1.0
1040
1.0
1000

1040
0.0
1002
{
1002
}
1040
0.0
1002
{
1002
}
1040
0.0
1002
}
1002
}
1040
1.0
1040
0.0
1040
0.0
1002
}
1002
{
1040
1.0
1040
1.0
1000

1040
0.0
1002
{
1002
}
1040
0.0
1002
{
1002
}
1040
0.0
1002
}
1002
{
1040
0.5
1040
1.0
1000

1040
0.0
1002
{
1002
}
1040
0.0
1002
{
1002
}
1040
0.0
1002
}
1002
{
1070
     0
1040
0.0
1002
{
1002
}
1040
1.0
1002
{
1002
}
1040
0.0
1002
}
1002
{
1040
0.0
1002
{
1002
{
1010
0.0
1020
0.0
1030
0.0
1002
}
1040
1.0
1000

1040
0.0
1002
{
1002
}
1040
0.0
1002
{
1002
}
1040
0.0
1002
}
1002
}
1002
{
1002
{
1070
     1
1002
{
1040
0.0
1040
1.0
1000

1040
0.0
1002
{
1002
}
1040
0.0
1002
{
1002
}
1040
0.0
1002
}
1002
}
1040
0.0
1002
{
1002
}
1010
1.0
1020
0.0
1030
0.0
1010
0.0
1020
1.0
1030
0.0
1010
0.0
1020
0.0
1030
1.0
1070
     0
1002
}
1002
{
1002
{
1040
1.0
1040
1.0
1002
{
1070
     1
1002
{
1040
1.0
1040
1.0
1000

1040
0.0
1002
{
1002
}
1040
0.0
1002
{
1002
}
1040
0.0
1002
}
1002
}
1002
}
1070
     0
1040
0.0
1002
{
1002
}
1002
}
1002
{
1002
}
1002
}
1002
{
1071
        3
1070
     3
1070
     0
1002
{
1070
     2
1070
     0
1070
     0
1040
0.0
1002
}
1070
     0
1070
     2
1002
{
1002
}
1002
}
1002
{
1040
8030.0
1040
190.3000030517578
1040
0.3050000071525574
1040
228.0
1040
545.0
1040
14.0
1040
17.39999961853027
1040
0.4560000002384186
1002
}
1002
}
  0
INSERT
  5
58FD
330
2
100
AcDbEntity
  8
ASHADE
 62
     1
370
    13
100
AcDbBlockReference
  2
AVE_GLOBAL
 10
971.7902417264539
 20
780.4334490752807
 30
0.0
1001
AVE_MATERIAL
1002
{
1000
*GLOBAL*
1000
1
1000
Global finish.
1002
{
1002
}
1002
{
1070
    63
1002
{
1002
{
1010
-1.0
1020
-1.0
1030
-1.0
1002
}
1040
0.1000000014901161
1000

1040
0.0
1002
{
1002
}
1040
0.0
1002
{
1002
}
1040
0.0
1002
}
1002
{
1002
{
1010
-1.0
1020
-1.0
1030
-1.0
1002
}
1040
0.6999999880790711
1000

1040
0.0
1002
{
1002
}
1040
0.0
1002
{
1002
}
1040
0.0
1002
}
1002
{
1002
{
1010
-1.0
1020
-1.0
1030
-1.0
1002
}
1040
0.2000000029802322
1000

1040
0.0
1002
{
1002
}
1040
0.0
1002
{
1002
}
1040
0.0
1002
}
1002
{
1070
     0
1002
{
1070
     1
1002
{
1040
1.0
1040
1.0
1000

1040
0.0
1002
{
1002
}
1040
0.0
1002
{
1002
}
1040
0.0
1002
}
1002
}
1040
1.0
1040
0.0
1040
0.0
1002
}
1002
{
1040
1.0
1040
1.0
1000

1040
0.0
1002
{
1002
}
1040
0.0
1002
{
1002
}
1040
0.0
1002
}
1002
{
1040
0.5
1040
1.0
1000

1040
0.0
1002
{
1002
}
1040
0.0
1002
{
1002
}
1040
0.0
1002
}
1002
{
1070
     0
1040
0.0
1002
{
1002
}
1040
1.0
1002
{
1002
}
1040
0.0
1002
}
1002
{
1040
0.0
1002
{
1002
{
1010
0.0
1020
0.0
1030
0.0
1002
}
1040
1.0
1000

1040
0.0
1002
{
1002
}
1040
0.0
1002
{
1002
}
1040
0.0
1002
}
1002
}
1002
{
1002
{
1070
     1
1002
{
1040
0.0
1040
1.0
1000

1040
0.0
1002
{
1002
}
1040
0.0
1002
{
1002
}
1040
0.0
1002
}
1002
}
1040
0.0
1002
{
1002
}
1010
1.0
1020
0.0
1030
0.0
1010
0.0
1020
1.0
1030
0.0
1010
0.0
1020
0.0
1030
1.0
1070
     0
1002
}
1002
{
1002
{
1040
1.0
1040
1.0
1002
{
1070
     1
1002
{
1040
1.0
1040
1.0
1000

1040
0.0
1002
{
1002
}
1040
0.0
1002
{
1002
}
1040
0.0
1002
}
1002
}
1002
}
1070
     0
1040
0.0
1002
{
1002
}
1002
}
1002
{
1002
}
1002
}
1002
{
1071
        3
1070
     3
1070
     0
1002
{
1070
     2
1070
     0
1070
     0
1040
0.0
1002
}
1070
     0
1070
     2
1002
{
1002
}
1002
}
1002
{
1040
8030.0
1040
190.3000030517578
1040
0.3050000071525574
1040
228.0
1040
545.0
1040
14.0
1040
17.39999961853027
1040
0.4560000002384186
1002
}
1002
}
  0
INSERT
  5
58FE
330
2
100
AcDbEntity
  8
0
370
    13
100
AcDbBlockReference
  2
*U17
 10
1147.306570362311
 20
307.4259410052007
 30
0.0
  0
INSERT
  5
58FF
330
2
100
AcDbEntity
  8
0
370
    13
100
AcDbBlockReference
  2
*U18
 10
1146.994064807338
 20
313.9853854753411
 30
0.0
  0
INSERT
  5
5900
330
2
100
AcDbEntity
  8
0
370
    13
100
AcDbBlockReference
  2
*U19
 10
1147.556575117695
 20
310.0497185963878
 30
0.0
  0
INSERT
  5
5901
330
2
100
AcDbEntity
  8
0
370
    13
100
AcDbBlockReference
  2
*U20
 10
1148.556594139234
 20
296.743416900712
 30
0.0
  0
INSERT
  5
5902
330
2
100
AcDbEntity
  8
0
370
    13
100
AcDbBlockReference
  2
*U21
 10
380.4745764181018
 20
421.337604741358
 30
0.0
  0
INSERT
  5
5903
330
2
100
AcDbEntity
  8
0
370
    13
100
AcDbBlockReference
  2
*U22
 10
394.1911140359197
 20
426.6600940735129
 30
0.0
  0
INSERT
  5
5904
330
2
100
AcDbEntity
  8
0
370
    13
100
AcDbBlockReference
  2
*U23
 10
392.4565284560046
 20
420.75440499569
 30
0.0
  0
INSERT
  5
5905
330
2
100
AcDbEntity
  8
0
370
    13
100
AcDbBlockReference
  2
*U24
 10
1073.705334525777
 20
831.458714108712
 30
0.0
  0
INSERT
  5
5906
330
2
100
AcDbEntity
  8
0
370
    13
100
AcDbBlockReference
  2
*U25
 10
1073.392828970804
 20
838.0181585788523
 30
0.0
  0
INSERT
  5
5907
330
2
100
AcDbEntity
  8
0
370
    13
100
AcDbBlockReference
  2
*U26
 10
1073.955339281162
 20
834.082491699899
 30
0.0
  0
INSERT
  5
5908
330
2
100
AcDbEntity
  8
0
370
    13
100
AcDbBlockReference
  2
*U27
 10
1074.9553583027
 20
820.7761900042232
 30
0.0
  0
INSERT
  5
5909
330
2
100
AcDbEntity
  8
0
370
    13
100
AcDbBlockReference
  2
*U28
 10
306.8733405815683
 20
945.3703778448691
 30
0.0
  0
INSERT
  5
590A
330
2
100
AcDbEntity
  8
0
370
    13
100
AcDbBlockReference
  2
*U29
 10
320.5898781993862
 20
950.6928671770239
 30
0.0
  0
INSERT
  5
590B
330
2
100
AcDbEntity
  8
0
370
    13
100
AcDbBlockReference
  2
*U30
 10
318.8552926194711
 20
944.7871780992011
 30
0.0
  0
INSERT
  5
5924
330
2
100
AcDbEntity
  8
ASHADE
 62
     1
370
    13
100
AcDbBlockReference
  2
AVE_GLOBAL
 10
770.3872386958869
 20
887.4850981548096
 30
0.0
1001
AVE_MATERIAL
1002
{
1000
*GLOBAL*
1000
1
1000
Global finish.
1002
{
1002
}
1002
{
1070
    63
1002
{
1002
{
1010
-1.0
1020
-1.0
1030
-1.0
1002
}
1040
0.1000000014901161
1000

1040
0.0
1002
{
1002
}
1040
0.0
1002
{
1002
}
1040
0.0
1002
}
1002
{
1002
{
1010
-1.0
1020
-1.0
1030
-1.0
1002
}
1040
0.6999999880790711
1000

1040
0.0
1002
{
1002
}
1040
0.0
1002
{
1002
}
1040
0.0
1002
}
1002
{
1002
{
1010
-1.0
1020
-1.0
1030
-1.0
1002
}
1040
0.2000000029802322
1000

1040
0.0
1002
{
1002
}
1040
0.0
1002
{
1002
}
1040
0.0
1002
}
1002
{
1070
     0
1002
{
1070
     1
1002
{
1040
1.0
1040
1.0
1000

1040
0.0
1002
{
1002
}
1040
0.0
1002
{
1002
}
1040
0.0
1002
}
1002
}
1040
1.0
1040
0.0
1040
0.0
1002
}
1002
{
1040
1.0
1040
1.0
1000

1040
0.0
1002
{
1002
}
1040
0.0
1002
{
1002
}
1040
0.0
1002
}
1002
{
1040
0.5
1040
1.0
1000

1040
0.0
1002
{
1002
}
1040
0.0
1002
{
1002
}
1040
0.0
1002
}
1002
{
1070
     0
1040
0.0
1002
{
1002
}
1040
1.0
1002
{
1002
}
1040
0.0
1002
}
1002
{
1040
0.0
1002
{
1002
{
1010
0.0
1020
0.0
1030
0.0
1002
}
1040
1.0
1000

1040
0.0
1002
{
1002
}
1040
0.0
1002
{
1002
}
1040
0.0
1002
}
1002
}
1002
{
1002
{
1070
     1
1002
{
1040
0.0
1040
1.0
1000

1040
0.0
1002
{
1002
}
1040
0.0
1002
{
1002
}
1040
0.0
1002
}
1002
}
1040
0.0
1002
{
1002
}
1010
1.0
1020
0.0
1030
0.0
1010
0.0
1020
1.0
1030
0.0
1010
0.0
1020
0.0
1030
1.0
1070
     0
1002
}
1002
{
1002
{
1040
1.0
1040
1.0
1002
{
1070
     1
1002
{
1040
1.0
1040
1.0
1000

1040
0.0
1002
{
1002
}
1040
0.0
1002
{
1002
}
1040
0.0
1002
}
1002
}
1002
}
1070
     0
1040
0.0
1002
{
1002
}
1002
}
1002
{
1002
}
1002
}
1002
{
1071
        3
1070
     3
1070
     0
1002
{
1070
     2
1070
     0
1070
     0
1040
0.0
1002
}
1070
     0
1070
     2
1002
{
1002
}
1002
}
1002
{
1040
8030.0
1040
190.3000030517578
1040
0.3050000071525574
1040
228.0
1040
545.0
1040
14.0
1040
17.39999961853027
1040
0.4560000002384186
1002
}
1002
}
  0
INSERT
  5
5925
330
2
100
AcDbEntity
  8
ASHADE
 62
     1
370
    13
100
AcDbBlockReference
  2
AVE_GLOBAL
 10
770.3015097484375
 20
831.6215630491559
 30
0.0
1001
AVE_MATERIAL
1002
{
1000
*GLOBAL*
1000
1
1000
Global finish.
1002
{
1002
}
1002
{
1070
    63
1002
{
1002
{
1010
-1.0
1020
-1.0
1030
-1.0
1002
}
1040
0.1000000014901161
1000

1040
0.0
1002
{
1002
}
1040
0.0
1002
{
1002
}
1040
0.0
1002
}
1002
{
1002
{
1010
-1.0
1020
-1.0
1030
-1.0
1002
}
1040
0.6999999880790711
1000

1040
0.0
1002
{
1002
}
1040
0.0
1002
{
1002
}
1040
0.0
1002
}
1002
{
1002
{
1010
-1.0
1020
-1.0
1030
-1.0
1002
}
1040
0.2000000029802322
1000

1040
0.0
1002
{
1002
}
1040
0.0
1002
{
1002
}
1040
0.0
1002
}
1002
{
1070
     0
1002
{
1070
     1
1002
{
1040
1.0
1040
1.0
1000

1040
0.0
1002
{
1002
}
1040
0.0
1002
{
1002
}
1040
0.0
1002
}
1002
}
1040
1.0
1040
0.0
1040
0.0
1002
}
1002
{
1040
1.0
1040
1.0
1000

1040
0.0
1002
{
1002
}
1040
0.0
1002
{
1002
}
1040
0.0
1002
}
1002
{
1040
0.5
1040
1.0
1000

1040
0.0
1002
{
1002
}
1040
0.0
1002
{
1002
}
1040
0.0
1002
}
1002
{
1070
     0
1040
0.0
1002
{
1002
}
1040
1.0
1002
{
1002
}
1040
0.0
1002
}
1002
{
1040
0.0
1002
{
1002
{
1010
0.0
1020
0.0
1030
0.0
1002
}
1040
1.0
1000

1040
0.0
1002
{
1002
}
1040
0.0
1002
{
1002
}
1040
0.0
1002
}
1002
}
1002
{
1002
{
1070
     1
1002
{
1040
0.0
1040
1.0
1000

1040
0.0
1002
{
1002
}
1040
0.0
1002
{
1002
}
1040
0.0
1002
}
1002
}
1040
0.0
1002
{
1002
}
1010
1.0
1020
0.0
1030
0.0
1010
0.0
1020
1.0
1030
0.0
1010
0.0
1020
0.0
1030
1.0
1070
     0
1002
}
1002
{
1002
{
1040
1.0
1040
1.0
1002
{
1070
     1
1002
{
1040
1.0
1040
1.0
1000

1040
0.0
1002
{
1002
}
1040
0.0
1002
{
1002
}
1040
0.0
1002
}
1002
}
1002
}
1070
     0
1040
0.0
1002
{
1002
}
1002
}
1002
{
1002
}
1002
}
1002
{
1071
        3
1070
     3
1070
     0
1002
{
1070
     2
1070
     0
1070
     0
1040
0.0
1002
}
1070
     0
1070
     2
1002
{
1002
}
1002
}
1002
{
1040
8030.0
1040
190.3000030517578
1040
0.3050000071525574
1040
228.0
1040
545.0
1040
14.0
1040
17.39999961853027
1040
0.4560000002384186
1002
}
1002
}
  0
INSERT
  5
5B94
330
2
100
AcDbEntity
  8
ASHADE
 62
     1
370
    13
100
AcDbBlockReference
  2
AVE_GLOBAL
 10
507.6027708370297
 20
1093.949162311179
 30
0.0
1001
AVE_MATERIAL
1002
{
1000
*GLOBAL*
1000
1
1000
Global finish.
1002
{
1002
}
1002
{
1070
    63
1002
{
1002
{
1010
-1.0
1020
-1.0
1030
-1.0
1002
}
1040
0.1000000014901161
1000

1040
0.0
1002
{
1002
}
1040
0.0
1002
{
1002
}
1040
0.0
1002
}
1002
{
1002
{
1010
-1.0
1020
-1.0
1030
-1.0
1002
}
1040
0.6999999880790711
1000

1040
0.0
1002
{
1002
}
1040
0.0
1002
{
1002
}
1040
0.0
1002
}
1002
{
1002
{
1010
-1.0
1020
-1.0
1030
-1.0
1002
}
1040
0.2000000029802322
1000

1040
0.0
1002
{
1002
}
1040
0.0
1002
{
1002
}
1040
0.0
1002
}
1002
{
1070
     0
1002
{
1070
     1
1002
{
1040
1.0
1040
1.0
1000

1040
0.0
1002
{
1002
}
1040
0.0
1002
{
1002
}
1040
0.0
1002
}
1002
}
1040
1.0
1040
0.0
1040
0.0
1002
}
1002
{
1040
1.0
1040
1.0
1000

1040
0.0
1002
{
1002
}
1040
0.0
1002
{
1002
}
1040
0.0
1002
}
1002
{
1040
0.5
1040
1.0
1000

1040
0.0
1002
{
1002
}
1040
0.0
1002
{
1002
}
1040
0.0
1002
}
1002
{
1070
     0
1040
0.0
1002
{
1002
}
1040
1.0
1002
{
1002
}
1040
0.0
1002
}
1002
{
1040
0.0
1002
{
1002
{
1010
0.0
1020
0.0
1030
0.0
1002
}
1040
1.0
1000

1040
0.0
1002
{
1002
}
1040
0.0
1002
{
1002
}
1040
0.0
1002
}
1002
}
1002
{
1002
{
1070
     1
1002
{
1040
0.0
1040
1.0
1000

1040
0.0
1002
{
1002
}
1040
0.0
1002
{
1002
}
1040
0.0
1002
}
1002
}
1040
0.0
1002
{
1002
}
1010
1.0
1020
0.0
1030
0.0
1010
0.0
1020
1.0
1030
0.0
1010
0.0
1020
0.0
1030
1.0
1070
     0
1002
}
1002
{
1002
{
1040
1.0
1040
1.0
1002
{
1070
     1
1002
{
1040
1.0
1040
1.0
1000

1040
0.0
1002
{
1002
}
1040
0.0
1002
{
1002
}
1040
0.0
1002
}
1002
}
1002
}
1070
     0
1040
0.0
1002
{
1002
}
1002
}
1002
{
1002
}
1002
}
1002
{
1071
        3
1070
     3
1070
     0
1002
{
1070
     2
1070
     0
1070
     0
1040
0.0
1002
}
1070
     0
1070
     2
1002
{
1002
}
1002
}
1002
{
1040
8030.0
1040
190.3000030517578
1040
0.3050000071525574
1040
228.0
1040
545.0
1040
14.0
1040
17.39999961853027
1040
0.4560000002384186
1002
}
1002
}
  0
INSERT
  5
5B95
330
2
100
AcDbEntity
  8
ASHADE
 62
     1
370
    13
100
AcDbBlockReference
  2
AVE_GLOBAL
 10
507.5170418895803
 20
1038.085627205526
 30
0.0
1001
AVE_MATERIAL
1002
{
1000
*GLOBAL*
1000
1
1000
Global finish.
1002
{
1002
}
1002
{
1070
    63
1002
{
1002
{
1010
-1.0
1020
-1.0
1030
-1.0
1002
}
1040
0.1000000014901161
1000

1040
0.0
1002
{
1002
}
1040
0.0
1002
{
1002
}
1040
0.0
1002
}
1002
{
1002
{
1010
-1.0
1020
-1.0
1030
-1.0
1002
}
1040
0.6999999880790711
1000

1040
0.0
1002
{
1002
}
1040
0.0
1002
{
1002
}
1040
0.0
1002
}
1002
{
1002
{
1010
-1.0
1020
-1.0
1030
-1.0
1002
}
1040
0.2000000029802322
1000

1040
0.0
1002
{
1002
}
1040
0.0
1002
{
1002
}
1040
0.0
1002
}
1002
{
1070
     0
1002
{
1070
     1
1002
{
1040
1.0
1040
1.0
1000

1040
0.0
1002
{
1002
}
1040
0.0
1002
{
1002
}
1040
0.0
1002
}
1002
}
1040
1.0
1040
0.0
1040
0.0
1002
}
1002
{
1040
1.0
1040
1.0
1000

1040
0.0
1002
{
1002
}
1040
0.0
1002
{
1002
}
1040
0.0
1002
}
1002
{
1040
0.5
1040
1.0
1000

1040
0.0
1002
{
1002
}
1040
0.0
1002
{
1002
}
1040
0.0
1002
}
1002
{
1070
     0
1040
0.0
1002
{
1002
}
1040
1.0
1002
{
1002
}
1040
0.0
1002
}
1002
{
1040
0.0
1002
{
1002
{
1010
0.0
1020
0.0
1030
0.0
1002
}
1040
1.0
1000

1040
0.0
1002
{
1002
}
1040
0.0
1002
{
1002
}
1040
0.0
1002
}
1002
}
1002
{
1002
{
1070
     1
1002
{
1040
0.0
1040
1.0
1000

1040
0.0
1002
{
1002
}
1040
0.0
1002
{
1002
}
1040
0.0
1002
}
1002
}
1040
0.0
1002
{
1002
}
1010
1.0
1020
0.0
1030
0.0
1010
0.0
1020
1.0
1030
0.0
1010
0.0
1020
0.0
1030
1.0
1070
     0
1002
}
1002
{
1002
{
1040
1.0
1040
1.0
1002
{
1070
     1
1002
{
1040
1.0
1040
1.0
1000

1040
0.0
1002
{
1002
}
1040
0.0
1002
{
1002
}
1040
0.0
1002
}
1002
}
1002
}
1070
     0
1040
0.0
1002
{
1002
}
1002
}
1002
{
1002
}
1002
}
1002
{
1071
        3
1070
     3
1070
     0
1002
{
1070
     2
1070
     0
1070
     0
1040
0.0
1002
}
1070
     0
1070
     2
1002
{
1002
}
1002
}
1002
{
1040
8030.0
1040
190.3000030517578
1040
0.3050000071525574
1040
228.0
1040
545.0
1040
14.0
1040
17.39999961853027
1040
0.4560000002384186
1002
}
1002
}
  0
INSERT
  5
5B96
330
2
100
AcDbEntity
  8
ASHADE
 62
     1
370
    13
100
AcDbBlockReference
  2
AVE_GLOBAL
 10
558.6999487772125
 20
1026.295153225875
 30
0.0
1001
AVE_MATERIAL
1002
{
1000
*GLOBAL*
1000
1
1000
Global finish.
1002
{
1002
}
1002
{
1070
    63
1002
{
1002
{
1010
-1.0
1020
-1.0
1030
-1.0
1002
}
1040
0.1000000014901161
1000

1040
0.0
1002
{
1002
}
1040
0.0
1002
{
1002
}
1040
0.0
1002
}
1002
{
1002
{
1010
-1.0
1020
-1.0
1030
-1.0
1002
}
1040
0.6999999880790711
1000

1040
0.0
1002
{
1002
}
1040
0.0
1002
{
1002
}
1040
0.0
1002
}
1002
{
1002
{
1010
-1.0
1020
-1.0
1030
-1.0
1002
}
1040
0.2000000029802322
1000

1040
0.0
1002
{
1002
}
1040
0.0
1002
{
1002
}
1040
0.0
1002
}
1002
{
1070
     0
1002
{
1070
     1
1002
{
1040
1.0
1040
1.0
1000

1040
0.0
1002
{
1002
}
1040
0.0
1002
{
1002
}
1040
0.0
1002
}
1002
}
1040
1.0
1040
0.0
1040
0.0
1002
}
1002
{
1040
1.0
1040
1.0
1000

1040
0.0
1002
{
1002
}
1040
0.0
1002
{
1002
}
1040
0.0
1002
}
1002
{
1040
0.5
1040
1.0
1000

1040
0.0
1002
{
1002
}
1040
0.0
1002
{
1002
}
1040
0.0
1002
}
1002
{
1070
     0
1040
0.0
1002
{
1002
}
1040
1.0
1002
{
1002
}
1040
0.0
1002
}
1002
{
1040
0.0
1002
{
1002
{
1010
0.0
1020
0.0
1030
0.0
1002
}
1040
1.0
1000

1040
0.0
1002
{
1002
}
1040
0.0
1002
{
1002
}
1040
0.0
1002
}
1002
}
1002
{
1002
{
1070
     1
1002
{
1040
0.0
1040
1.0
1000

1040
0.0
1002
{
1002
}
1040
0.0
1002
{
1002
}
1040
0.0
1002
}
1002
}
1040
0.0
1002
{
1002
}
1010
1.0
1020
0.0
1030
0.0
1010
0.0
1020
1.0
1030
0.0
1010
0.0
1020
0.0
1030
1.0
1070
     0
1002
}
1002
{
1002
{
1040
1.0
1040
1.0
1002
{
1070
     1
1002
{
1040
1.0
1040
1.0
1000

1040
0.0
1002
{
1002
}
1040
0.0
1002
{
1002
}
1040
0.0
1002
}
1002
}
1002
}
1070
     0
1040
0.0
1002
{
1002
}
1002
}
1002
{
1002
}
1002
}
1002
{
1071
        3
1070
     3
1070
     0
1002
{
1070
     2
1070
     0
1070
     0
1040
0.0
1002
}
1070
     0
1070
     2
1002
{
1002
}
1002
}
1002
{
1040
8030.0
1040
190.3000030517578
1040
0.3050000071525574
1040
228.0
1040
545.0
1040
14.0
1040
17.39999961853027
1040
0.4560000002384186
1002
}
1002
}
  0
INSERT
  5
5B97
330
2
100
AcDbEntity
  8
ASHADE
 62
     1
370
    13
100
AcDbBlockReference
  2
AVE_GLOBAL
 10
558.6142198297631
 20
970.4316181202212
 30
0.0
1001
AVE_MATERIAL
1002
{
1000
*GLOBAL*
1000
1
1000
Global finish.
1002
{
1002
}
1002
{
1070
    63
1002
{
1002
{
1010
-1.0
1020
-1.0
1030
-1.0
1002
}
1040
0.1000000014901161
1000

1040
0.0
1002
{
1002
}
1040
0.0
1002
{
1002
}
1040
0.0
1002
}
1002
{
1002
{
1010
-1.0
1020
-1.0
1030
-1.0
1002
}
1040
0.6999999880790711
1000

1040
0.0
1002
{
1002
}
1040
0.0
1002
{
1002
}
1040
0.0
1002
}
1002
{
1002
{
1010
-1.0
1020
-1.0
1030
-1.0
1002
}
1040
0.2000000029802322
1000

1040
0.0
1002
{
1002
}
1040
0.0
1002
{
1002
}
1040
0.0
1002
}
1002
{
1070
     0
1002
{
1070
     1
1002
{
1040
1.0
1040
1.0
1000

1040
0.0
1002
{
1002
}
1040
0.0
1002
{
1002
}
1040
0.0
1002
}
1002
}
1040
1.0
1040
0.0
1040
0.0
1002
}
1002
{
1040
1.0
1040
1.0
1000

1040
0.0
1002
{
1002
}
1040
0.0
1002
{
1002
}
1040
0.0
1002
}
1002
{
1040
0.5
1040
1.0
1000

1040
0.0
1002
{
1002
}
1040
0.0
1002
{
1002
}
1040
0.0
1002
}
1002
{
1070
     0
1040
0.0
1002
{
1002
}
1040
1.0
1002
{
1002
}
1040
0.0
1002
}
1002
{
1040
0.0
1002
{
1002
{
1010
0.0
1020
0.0
1030
0.0
1002
}
1040
1.0
1000

1040
0.0
1002
{
1002
}
1040
0.0
1002
{
1002
}
1040
0.0
1002
}
1002
}
1002
{
1002
{
1070
     1
1002
{
1040
0.0
1040
1.0
1000

1040
0.0
1002
{
1002
}
1040
0.0
1002
{
1002
}
1040
0.0
1002
}
1002
}
1040
0.0
1002
{
1002
}
1010
1.0
1020
0.0
1030
0.0
1010
0.0
1020
1.0
1030
0.0
1010
0.0
1020
0.0
1030
1.0
1070
     0
1002
}
1002
{
1002
{
1040
1.0
1040
1.0
1002
{
1070
     1
1002
{
1040
1.0
1040
1.0
1000

1040
0.0
1002
{
1002
}
1040
0.0
1002
{
1002
}
1040
0.0
1002
}
1002
}
1002
}
1070
     0
1040
0.0
1002
{
1002
}
1002
}
1002
{
1002
}
1002
}
1002
{
1071
        3
1070
     3
1070
     0
1002
{
1070
     2
1070
     0
1070
     0
1040
0.0
1002
}
1070
     0
1070
     2
1002
{
1002
}
1002
}
1002
{
1040
8030.0
1040
190.3000030517578
1040
0.3050000071525574
1040
228.0
1040
545.0
1040
14.0
1040
17.39999961853027
1040
0.4560000002384186
1002
}
1002
}
  0
INSERT
  5
5B98
330
2
100
AcDbEntity
  8
ASHADE
 62
     1
370
    13
100
AcDbBlockReference
  2
AVE_GLOBAL
 10
570.6321385575769
 20
1107.410001437902
 30
0.0
1001
AVE_MATERIAL
1002
{
1000
*GLOBAL*
1000
1
1000
Global finish.
1002
{
1002
}
1002
{
1070
    63
1002
{
1002
{
1010
-1.0
1020
-1.0
1030
-1.0
1002
}
1040
0.1000000014901161
1000

1040
0.0
1002
{
1002
}
1040
0.0
1002
{
1002
}
1040
0.0
1002
}
1002
{
1002
{
1010
-1.0
1020
-1.0
1030
-1.0
1002
}
1040
0.6999999880790711
1000

1040
0.0
1002
{
1002
}
1040
0.0
1002
{
1002
}
1040
0.0
1002
}
1002
{
1002
{
1010
-1.0
1020
-1.0
1030
-1.0
1002
}
1040
0.2000000029802322
1000

1040
0.0
1002
{
1002
}
1040
0.0
1002
{
1002
}
1040
0.0
1002
}
1002
{
1070
     0
1002
{
1070
     1
1002
{
1040
1.0
1040
1.0
1000

1040
0.0
1002
{
1002
}
1040
0.0
1002
{
1002
}
1040
0.0
1002
}
1002
}
1040
1.0
1040
0.0
1040
0.0
1002
}
1002
{
1040
1.0
1040
1.0
1000

1040
0.0
1002
{
1002
}
1040
0.0
1002
{
1002
}
1040
0.0
1002
}
1002
{
1040
0.5
1040
1.0
1000

1040
0.0
1002
{
1002
}
1040
0.0
1002
{
1002
}
1040
0.0
1002
}
1002
{
1070
     0
1040
0.0
1002
{
1002
}
1040
1.0
1002
{
1002
}
1040
0.0
1002
}
1002
{
1040
0.0
1002
{
1002
{
1010
0.0
1020
0.0
1030
0.0
1002
}
1040
1.0
1000

1040
0.0
1002
{
1002
}
1040
0.0
1002
{
1002
}
1040
0.0
1002
}
1002
}
1002
{
1002
{
1070
     1
1002
{
1040
0.0
1040
1.0
1000

1040
0.0
1002
{
1002
}
1040
0.0
1002
{
1002
}
1040
0.0
1002
}
1002
}
1040
0.0
1002
{
1002
}
1010
1.0
1020
0.0
1030
0.0
1010
0.0
1020
1.0
1030
0.0
1010
0.0
1020
0.0
1030
1.0
1070
     0
1002
}
1002
{
1002
{
1040
1.0
1040
1.0
1002
{
1070
     1
1002
{
1040
1.0
1040
1.0
1000

1040
0.0
1002
{
1002
}
1040
0.0
1002
{
1002
}
1040
0.0
1002
}
1002
}
1002
}
1070
     0
1040
0.0
1002
{
1002
}
1002
}
1002
{
1002
}
1002
}
1002
{
1071
        3
1070
     3
1070
     0
1002
{
1070
     2
1070
     0
1070
     0
1040
0.0
1002
}
1070
     0
1070
     2
1002
{
1002
}
1002
}
1002
{
1040
8030.0
1040
190.3000030517578
1040
0.3050000071525574
1040
228.0
1040
545.0
1040
14.0
1040
17.39999961853027
1040
0.4560000002384186
1002
}
1002
}
  0
INSERT
  5
5B99
330
2
100
AcDbEntity
  8
ASHADE
 62
     1
370
    13
100
AcDbBlockReference
  2
AVE_GLOBAL
 10
570.5464096101275
 20
1051.546466332248
 30
0.0
1001
AVE_MATERIAL
1002
{
1000
*GLOBAL*
1000
1
1000
Global finish.
1002
{
1002
}
1002
{
1070
    63
1002
{
1002
{
1010
-1.0
1020
-1.0
1030
-1.0
1002
}
1040
0.1000000014901161
1000

1040
0.0
1002
{
1002
}
1040
0.0
1002
{
1002
}
1040
0.0
1002
}
1002
{
1002
{
1010
-1.0
1020
-1.0
1030
-1.0
1002
}
1040
0.6999999880790711
1000

1040
0.0
1002
{
1002
}
1040
0.0
1002
{
1002
}
1040
0.0
1002
}
1002
{
1002
{
1010
-1.0
1020
-1.0
1030
-1.0
1002
}
1040
0.2000000029802322
1000

1040
0.0
1002
{
1002
}
1040
0.0
1002
{
1002
}
1040
0.0
1002
}
1002
{
1070
     0
1002
{
1070
     1
1002
{
1040
1.0
1040
1.0
1000

1040
0.0
1002
{
1002
}
1040
0.0
1002
{
1002
}
1040
0.0
1002
}
1002
}
1040
1.0
1040
0.0
1040
0.0
1002
}
1002
{
1040
1.0
1040
1.0
1000

1040
0.0
1002
{
1002
}
1040
0.0
1002
{
1002
}
1040
0.0
1002
}
1002
{
1040
0.5
1040
1.0
1000

1040
0.0
1002
{
1002
}
1040
0.0
1002
{
1002
}
1040
0.0
1002
}
1002
{
1070
     0
1040
0.0
1002
{
1002
}
1040
1.0
1002
{
1002
}
1040
0.0
1002
}
1002
{
1040
0.0
1002
{
1002
{
1010
0.0
1020
0.0
1030
0.0
1002
}
1040
1.0
1000

1040
0.0
1002
{
1002
}
1040
0.0
1002
{
1002
}
1040
0.0
1002
}
1002
}
1002
{
1002
{
1070
     1
1002
{
1040
0.0
1040
1.0
1000

1040
0.0
1002
{
1002
}
1040
0.0
1002
{
1002
}
1040
0.0
1002
}
1002
}
1040
0.0
1002
{
1002
}
1010
1.0
1020
0.0
1030
0.0
1010
0.0
1020
1.0
1030
0.0
1010
0.0
1020
0.0
1030
1.0
1070
     0
1002
}
1002
{
1002
{
1040
1.0
1040
1.0
1002
{
1070
     1
1002
{
1040
1.0
1040
1.0
1000

1040
0.0
1002
{
1002
}
1040
0.0
1002
{
1002
}
1040
0.0
1002
}
1002
}
1002
}
1070
     0
1040
0.0
1002
{
1002
}
1002
}
1002
{
1002
}
1002
}
1002
{
1071
        3
1070
     3
1070
     0
1002
{
1070
     2
1070
     0
1070
     0
1040
0.0
1002
}
1070
     0
1070
     2
1002
{
1002
}
1002
}
1002
{
1040
8030.0
1040
190.3000030517578
1040
0.3050000071525574
1040
228.0
1040
545.0
1040
14.0
1040
17.39999961853027
1040
0.4560000002384186
1002
}
1002
}
  0
INSERT
  5
5B9A
330
2
100
AcDbEntity
  8
ASHADE
 62
     1
370
    13
100
AcDbBlockReference
  2
AVE_GLOBAL
 10
843.1567109583067
 20
1013.11371749914
 30
0.0
1001
AVE_MATERIAL
1002
{
1000
*GLOBAL*
1000
1
1000
Global finish.
1002
{
1002
}
1002
{
1070
    63
1002
{
1002
{
1010
-1.0
1020
-1.0
1030
-1.0
1002
}
1040
0.1000000014901161
1000

1040
0.0
1002
{
1002
}
1040
0.0
1002
{
1002
}
1040
0.0
1002
}
1002
{
1002
{
1010
-1.0
1020
-1.0
1030
-1.0
1002
}
1040
0.6999999880790711
1000

1040
0.0
1002
{
1002
}
1040
0.0
1002
{
1002
}
1040
0.0
1002
}
1002
{
1002
{
1010
-1.0
1020
-1.0
1030
-1.0
1002
}
1040
0.2000000029802322
1000

1040
0.0
1002
{
1002
}
1040
0.0
1002
{
1002
}
1040
0.0
1002
}
1002
{
1070
     0
1002
{
1070
     1
1002
{
1040
1.0
1040
1.0
1000

1040
0.0
1002
{
1002
}
1040
0.0
1002
{
1002
}
1040
0.0
1002
}
1002
}
1040
1.0
1040
0.0
1040
0.0
1002
}
1002
{
1040
1.0
1040
1.0
1000

1040
0.0
1002
{
1002
}
1040
0.0
1002
{
1002
}
1040
0.0
1002
}
1002
{
1040
0.5
1040
1.0
1000

1040
0.0
1002
{
1002
}
1040
0.0
1002
{
1002
}
1040
0.0
1002
}
1002
{
1070
     0
1040
0.0
1002
{
1002
}
1040
1.0
1002
{
1002
}
1040
0.0
1002
}
1002
{
1040
0.0
1002
{
1002
{
1010
0.0
1020
0.0
1030
0.0
1002
}
1040
1.0
1000

1040
0.0
1002
{
1002
}
1040
0.0
1002
{
1002
}
1040
0.0
1002
}
1002
}
1002
{
1002
{
1070
     1
1002
{
1040
0.0
1040
1.0
1000

1040
0.0
1002
{
1002
}
1040
0.0
1002
{
1002
}
1040
0.0
1002
}
1002
}
1040
0.0
1002
{
1002
}
1010
1.0
1020
0.0
1030
0.0
1010
0.0
1020
1.0
1030
0.0
1010
0.0
1020
0.0
1030
1.0
1070
     0
1002
}
1002
{
1002
{
1040
1.0
1040
1.0
1002
{
1070
     1
1002
{
1040
1.0
1040
1.0
1000

1040
0.0
1002
{
1002
}
1040
0.0
1002
{
1002
}
1040
0.0
1002
}
1002
}
1002
}
1070
     0
1040
0.0
1002
{
1002
}
1002
}
1002
{
1002
}
1002
}
1002
{
1071
        3
1070
     3
1070
     0
1002
{
1070
     2
1070
     0
1070
     0
1040
0.0
1002
}
1070
     0
1070
     2
1002
{
1002
}
1002
}
1002
{
1040
8030.0
1040
190.3000030517578
1040
0.3050000071525574
1040
228.0
1040
545.0
1040
14.0
1040
17.39999961853027
1040
0.4560000002384186
1002
}
1002
}
  0
INSERT
  5
5B9B
330
2
100
AcDbEntity
  8
ASHADE
 62
     1
370
    13
100
AcDbBlockReference
  2
AVE_GLOBAL
 10
843.0709820108573
 20
957.2501823934862
 30
0.0
1001
AVE_MATERIAL
1002
{
1000
*GLOBAL*
1000
1
1000
Global finish.
1002
{
1002
}
1002
{
1070
    63
1002
{
1002
{
1010
-1.0
1020
-1.0
1030
-1.0
1002
}
1040
0.1000000014901161
1000

1040
0.0
1002
{
1002
}
1040
0.0
1002
{
1002
}
1040
0.0
1002
}
1002
{
1002
{
1010
-1.0
1020
-1.0
1030
-1.0
1002
}
1040
0.6999999880790711
1000

1040
0.0
1002
{
1002
}
1040
0.0
1002
{
1002
}
1040
0.0
1002
}
1002
{
1002
{
1010
-1.0
1020
-1.0
1030
-1.0
1002
}
1040
0.2000000029802322
1000

1040
0.0
1002
{
1002
}
1040
0.0
1002
{
1002
}
1040
0.0
1002
}
1002
{
1070
     0
1002
{
1070
     1
1002
{
1040
1.0
1040
1.0
1000

1040
0.0
1002
{
1002
}
1040
0.0
1002
{
1002
}
1040
0.0
1002
}
1002
}
1040
1.0
1040
0.0
1040
0.0
1002
}
1002
{
1040
1.0
1040
1.0
1000

1040
0.0
1002
{
1002
}
1040
0.0
1002
{
1002
}
1040
0.0
1002
}
1002
{
1040
0.5
1040
1.0
1000

1040
0.0
1002
{
1002
}
1040
0.0
1002
{
1002
}
1040
0.0
1002
}
1002
{
1070
     0
1040
0.0
1002
{
1002
}
1040
1.0
1002
{
1002
}
1040
0.0
1002
}
1002
{
1040
0.0
1002
{
1002
{
1010
0.0
1020
0.0
1030
0.0
1002
}
1040
1.0
1000

1040
0.0
1002
{
1002
}
1040
0.0
1002
{
1002
}
1040
0.0
1002
}
1002
}
1002
{
1002
{
1070
     1
1002
{
1040
0.0
1040
1.0
1000

1040
0.0
1002
{
1002
}
1040
0.0
1002
{
1002
}
1040
0.0
1002
}
1002
}
1040
0.0
1002
{
1002
}
1010
1.0
1020
0.0
1030
0.0
1010
0.0
1020
1.0
1030
0.0
1010
0.0
1020
0.0
1030
1.0
1070
     0
1002
}
1002
{
1002
{
1040
1.0
1040
1.0
1002
{
1070
     1
1002
{
1040
1.0
1040
1.0
1000

1040
0.0
1002
{
1002
}
1040
0.0
1002
{
1002
}
1040
0.0
1002
}
1002
}
1002
}
1070
     0
1040
0.0
1002
{
1002
}
1002
}
1002
{
1002
}
1002
}
1002
{
1071
        3
1070
     3
1070
     0
1002
{
1070
     2
1070
     0
1070
     0
1040
0.0
1002
}
1070
     0
1070
     2
1002
{
1002
}
1002
}
1002
{
1040
8030.0
1040
190.3000030517578
1040
0.3050000071525574
1040
228.0
1040
545.0
1040
14.0
1040
17.39999961853027
1040
0.4560000002384186
1002
}
1002
}
  0
INSERT
  5
5B9C
330
2
100
AcDbEntity
  8
0
370
    13
100
AcDbBlockReference
  2
*U31
 10
1018.587310646714
 20
484.2426743234063
 30
0.0
  0
INSERT
  5
5B9D
330
2
100
AcDbEntity
  8
0
370
    13
100
AcDbBlockReference
  2
*U32
 10
1018.274805091741
 20
490.8021187935466
 30
0.0
  0
INSERT
  5
5B9E
330
2
100
AcDbEntity
  8
0
370
    13
100
AcDbBlockReference
  2
*U33
 10
1018.837315402098
 20
486.8664519145934
 30
0.0
  0
INSERT
  5
5B9F
330
2
100
AcDbEntity
  8
0
370
    13
100
AcDbBlockReference
  2
*U34
 10
1019.837334423637
 20
473.5601502189176
 30
0.0
  0
INSERT
  5
5BA0
330
2
100
AcDbEntity
  8
0
370
    13
100
AcDbBlockReference
  2
*U35
 10
251.755316702505
 20
598.1543380595635
 30
0.0
  0
INSERT
  5
5BA1
330
2
100
AcDbEntity
  8
0
370
    13
100
AcDbBlockReference
  2
*U36
 10
265.471854320323
 20
603.4768273917184
 30
0.0
  0
INSERT
  5
5BA2
330
2
100
AcDbEntity
  8
0
370
    13
100
AcDbBlockReference
  2
*U37
 10
263.7372687404079
 20
597.5711383138955
 30
0.0
  0
INSERT
  5
5BA3
330
2
100
AcDbEntity
  8
0
370
    13
100
AcDbBlockReference
  2
*U38
 10
944.9860748101807
 20
1008.275447426917
 30
0.0
  0
INSERT
  5
5BA4
330
2
100
AcDbEntity
  8
0
370
    13
100
AcDbBlockReference
  2
*U39
 10
944.673569255208
 20
1014.834891897057
 30
0.0
  0
INSERT
  5
5BA5
330
2
100
AcDbEntity
  8
0
370
    13
100
AcDbBlockReference
  2
*U40
 10
945.2360795655653
 20
1010.899225018104
 30
0.0
  0
INSERT
  5
5BA6
330
2
100
AcDbEntity
  8
0
370
    13
100
AcDbBlockReference
  2
*U41
 10
946.2360985871038
 20
997.5929233224288
 30
0.0
  0
INSERT
  5
5BA7
330
2
100
AcDbEntity
  8
0
370
    13
100
AcDbBlockReference
  2
*U42
 10
178.1540808659715
 20
1122.187111163074
 30
0.0
  0
INSERT
  5
5BA8
330
2
100
AcDbEntity
  8
0
370
    13
100
AcDbBlockReference
  2
*U43
 10
191.8706184837894
 20
1127.509600495229
 30
0.0
  0
INSERT
  5
5BA9
330
2
100
AcDbEntity
  8
0
370
    13
100
AcDbBlockReference
  2
*U44
 10
190.1360329038743
 20
1121.603911417406
 30
0.0
  0
INSERT
  5
5BAA
330
2
100
AcDbEntity
  8
ASHADE
 62
     1
370
    13
100
AcDbBlockReference
  2
AVE_GLOBAL
 10
481.4543953166445
 20
996.8924983511467
 30
0.0
1001
AVE_MATERIAL
1002
{
1000
*GLOBAL*
1000
1
1000
Global finish.
1002
{
1002
}
1002
{
1070
    63
1002
{
1002
{
1010
-1.0
1020
-1.0
1030
-1.0
1002
}
1040
0.1000000014901161
1000

1040
0.0
1002
{
1002
}
1040
0.0
1002
{
1002
}
1040
0.0
1002
}
1002
{
1002
{
1010
-1.0
1020
-1.0
1030
-1.0
1002
}
1040
0.6999999880790711
1000

1040
0.0
1002
{
1002
}
1040
0.0
1002
{
1002
}
1040
0.0
1002
}
1002
{
1002
{
1010
-1.0
1020
-1.0
1030
-1.0
1002
}
1040
0.2000000029802322
1000

1040
0.0
1002
{
1002
}
1040
0.0
1002
{
1002
}
1040
0.0
1002
}
1002
{
1070
     0
1002
{
1070
     1
1002
{
1040
1.0
1040
1.0
1000

1040
0.0
1002
{
1002
}
1040
0.0
1002
{
1002
}
1040
0.0
1002
}
1002
}
1040
1.0
1040
0.0
1040
0.0
1002
}
1002
{
1040
1.0
1040
1.0
1000

1040
0.0
1002
{
1002
}
1040
0.0
1002
{
1002
}
1040
0.0
1002
}
1002
{
1040
0.5
1040
1.0
1000

1040
0.0
1002
{
1002
}
1040
0.0
1002
{
1002
}
1040
0.0
1002
}
1002
{
1070
     0
1040
0.0
1002
{
1002
}
1040
1.0
1002
{
1002
}
1040
0.0
1002
}
1002
{
1040
0.0
1002
{
1002
{
1010
0.0
1020
0.0
1030
0.0
1002
}
1040
1.0
1000

1040
0.0
1002
{
1002
}
1040
0.0
1002
{
1002
}
1040
0.0
1002
}
1002
}
1002
{
1002
{
1070
     1
1002
{
1040
0.0
1040
1.0
1000

1040
0.0
1002
{
1002
}
1040
0.0
1002
{
1002
}
1040
0.0
1002
}
1002
}
1040
0.0
1002
{
1002
}
1010
1.0
1020
0.0
1030
0.0
1010
0.0
1020
1.0
1030
0.0
1010
0.0
1020
0.0
1030
1.0
1070
     0
1002
}
1002
{
1002
{
1040
1.0
1040
1.0
1002
{
1070
     1
1002
{
1040
1.0
1040
1.0
1000

1040
0.0
1002
{
1002
}
1040
0.0
1002
{
1002
}
1040
0.0
1002
}
1002
}
1002
}
1070
     0
1040
0.0
1002
{
1002
}
1002
}
1002
{
1002
}
1002
}
1002
{
1071
        3
1070
     3
1070
     0
1002
{
1070
     2
1070
     0
1070
     0
1040
0.0
1002
}
1070
     0
1070
     2
1002
{
1002
}
1002
}
1002
{
1040
8030.0
1040
190.3000030517578
1040
0.3050000071525574
1040
228.0
1040
545.0
1040
14.0
1040
17.39999961853027
1040
0.4560000002384186
1002
}
1002
}
  0
INSERT
  5
5BAB
330
2
100
AcDbEntity
  8
ASHADE
 62
     1
370
    13
100
AcDbBlockReference
  2
AVE_GLOBAL
 10
481.3686663691951
 20
941.0289632454929
 30
0.0
1001
AVE_MATERIAL
1002
{
1000
*GLOBAL*
1000
1
1000
Global finish.
1002
{
1002
}
1002
{
1070
    63
1002
{
1002
{
1010
-1.0
1020
-1.0
1030
-1.0
1002
}
1040
0.1000000014901161
1000

1040
0.0
1002
{
1002
}
1040
0.0
1002
{
1002
}
1040
0.0
1002
}
1002
{
1002
{
1010
-1.0
1020
-1.0
1030
-1.0
1002
}
1040
0.6999999880790711
1000

1040
0.0
1002
{
1002
}
1040
0.0
1002
{
1002
}
1040
0.0
1002
}
1002
{
1002
{
1010
-1.0
1020
-1.0
1030
-1.0
1002
}
1040
0.2000000029802322
1000

1040
0.0
1002
{
1002
}
1040
0.0
1002
{
1002
}
1040
0.0
1002
}
1002
{
1070
     0
1002
{
1070
     1
1002
{
1040
1.0
1040
1.0
1000

1040
0.0
1002
{
1002
}
1040
0.0
1002
{
1002
}
1040
0.0
1002
}
1002
}
1040
1.0
1040
0.0
1040
0.0
1002
}
1002
{
1040
1.0
1040
1.0
1000

1040
0.0
1002
{
1002
}
1040
0.0
1002
{
1002
}
1040
0.0
1002
}
1002
{
1040
0.5
1040
1.0
1000

1040
0.0
1002
{
1002
}
1040
0.0
1002
{
1002
}
1040
0.0
1002
}
1002
{
1070
     0
1040
0.0
1002
{
1002
}
1040
1.0
1002
{
1002
}
1040
0.0
1002
}
1002
{
1040
0.0
1002
{
1002
{
1010
0.0
1020
0.0
1030
0.0
1002
}
1040
1.0
1000

1040
0.0
1002
{
1002
}
1040
0.0
1002
{
1002
}
1040
0.0
1002
}
1002
}
1002
{
1002
{
1070
     1
1002
{
1040
0.0
1040
1.0
1000

1040
0.0
1002
{
1002
}
1040
0.0
1002
{
1002
}
1040
0.0
1002
}
1002
}
1040
0.0
1002
{
1002
}
1010
1.0
1020
0.0
1030
0.0
1010
0.0
1020
1.0
1030
0.0
1010
0.0
1020
0.0
1030
1.0
1070
     0
1002
}
1002
{
1002
{
1040
1.0
1040
1.0
1002
{
1070
     1
1002
{
1040
1.0
1040
1.0
1000

1040
0.0
1002
{
1002
}
1040
0.0
1002
{
1002
}
1040
0.0
1002
}
1002
}
1002
}
1070
     0
1040
0.0
1002
{
1002
}
1002
}
1002
{
1002
}
1002
}
1002
{
1071
        3
1070
     3
1070
     0
1002
{
1070
     2
1070
     0
1070
     0
1040
0.0
1002
}
1070
     0
1070
     2
1002
{
1002
}
1002
}
1002
{
1040
8030.0
1040
190.3000030517578
1040
0.3050000071525574
1040
228.0
1040
545.0
1040
14.0
1040
17.39999961853027
1040
0.4560000002384186
1002
}
1002
}
  0
INSERT
  5
5BAC
330
2
100
AcDbEntity
  8
ASHADE
 62
     1
370
    13
100
AcDbBlockReference
  2
AVE_GLOBAL
 10
482.5448429965433
 20
997.4926537899596
 30
0.0
1001
AVE_MATERIAL
1002
{
1000
*GLOBAL*
1000
1
1000
Global finish.
1002
{
1002
}
1002
{
1070
    63
1002
{
1002
{
1010
-1.0
1020
-1.0
1030
-1.0
1002
}
1040
0.1000000014901161
1000

1040
0.0
1002
{
1002
}
1040
0.0
1002
{
1002
}
1040
0.0
1002
}
1002
{
1002
{
1010
-1.0
1020
-1.0
1030
-1.0
1002
}
1040
0.6999999880790711
1000

1040
0.0
1002
{
1002
}
1040
0.0
1002
{
1002
}
1040
0.0
1002
}
1002
{
1002
{
1010
-1.0
1020
-1.0
1030
-1.0
1002
}
1040
0.2000000029802322
1000

1040
0.0
1002
{
1002
}
1040
0.0
1002
{
1002
}
1040
0.0
1002
}
1002
{
1070
     0
1002
{
1070
     1
1002
{
1040
1.0
1040
1.0
1000

1040
0.0
1002
{
1002
}
1040
0.0
1002
{
1002
}
1040
0.0
1002
}
1002
}
1040
1.0
1040
0.0
1040
0.0
1002
}
1002
{
1040
1.0
1040
1.0
1000

1040
0.0
1002
{
1002
}
1040
0.0
1002
{
1002
}
1040
0.0
1002
}
1002
{
1040
0.5
1040
1.0
1000

1040
0.0
1002
{
1002
}
1040
0.0
1002
{
1002
}
1040
0.0
1002
}
1002
{
1070
     0
1040
0.0
1002
{
1002
}
1040
1.0
1002
{
1002
}
1040
0.0
1002
}
1002
{
1040
0.0
1002
{
1002
{
1010
0.0
1020
0.0
1030
0.0
1002
}
1040
1.0
1000

1040
0.0
1002
{
1002
}
1040
0.0
1002
{
1002
}
1040
0.0
1002
}
1002
}
1002
{
1002
{
1070
     1
1002
{
1040
0.0
1040
1.0
1000

1040
0.0
1002
{
1002
}
1040
0.0
1002
{
1002
}
1040
0.0
1002
}
1002
}
1040
0.0
1002
{
1002
}
1010
1.0
1020
0.0
1030
0.0
1010
0.0
1020
1.0
1030
0.0
1010
0.0
1020
0.0
1030
1.0
1070
     0
1002
}
1002
{
1002
{
1040
1.0
1040
1.0
1002
{
1070
     1
1002
{
1040
1.0
1040
1.0
1000

1040
0.0
1002
{
1002
}
1040
0.0
1002
{
1002
}
1040
0.0
1002
}
1002
}
1002
}
1070
     0
1040
0.0
1002
{
1002
}
1002
}
1002
{
1002
}
1002
}
1002
{
1071
        3
1070
     3
1070
     0
1002
{
1070
     2
1070
     0
1070
     0
1040
0.0
1002
}
1070
     0
1070
     2
1002
{
1002
}
1002
}
1002
{
1040
8030.0
1040
190.3000030517578
1040
0.3050000071525574
1040
228.0
1040
545.0
1040
14.0
1040
17.39999961853027
1040
0.4560000002384186
1002
}
1002
}
  0
INSERT
  5
5BAD
330
2
100
AcDbEntity
  8
ASHADE
 62
     1
370
    13
100
AcDbBlockReference
  2
AVE_GLOBAL
 10
482.4591140490939
 20
941.6291186843059
 30
0.0
1001
AVE_MATERIAL
1002
{
1000
*GLOBAL*
1000
1
1000
Global finish.
1002
{
1002
}
1002
{
1070
    63
1002
{
1002
{
1010
-1.0
1020
-1.0
1030
-1.0
1002
}
1040
0.1000000014901161
1000

1040
0.0
1002
{
1002
}
1040
0.0
1002
{
1002
}
1040
0.0
1002
}
1002
{
1002
{
1010
-1.0
1020
-1.0
1030
-1.0
1002
}
1040
0.6999999880790711
1000

1040
0.0
1002
{
1002
}
1040
0.0
1002
{
1002
}
1040
0.0
1002
}
1002
{
1002
{
1010
-1.0
1020
-1.0
1030
-1.0
1002
}
1040
0.2000000029802322
1000

1040
0.0
1002
{
1002
}
1040
0.0
1002
{
1002
}
1040
0.0
1002
}
1002
{
1070
     0
1002
{
1070
     1
1002
{
1040
1.0
1040
1.0
1000

1040
0.0
1002
{
1002
}
1040
0.0
1002
{
1002
}
1040
0.0
1002
}
1002
}
1040
1.0
1040
0.0
1040
0.0
1002
}
1002
{
1040
1.0
1040
1.0
1000

1040
0.0
1002
{
1002
}
1040
0.0
1002
{
1002
}
1040
0.0
1002
}
1002
{
1040
0.5
1040
1.0
1000

1040
0.0
1002
{
1002
}
1040
0.0
1002
{
1002
}
1040
0.0
1002
}
1002
{
1070
     0
1040
0.0
1002
{
1002
}
1040
1.0
1002
{
1002
}
1040
0.0
1002
}
1002
{
1040
0.0
1002
{
1002
{
1010
0.0
1020
0.0
1030
0.0
1002
}
1040
1.0
1000

1040
0.0
1002
{
1002
}
1040
0.0
1002
{
1002
}
1040
0.0
1002
}
1002
}
1002
{
1002
{
1070
     1
1002
{
1040
0.0
1040
1.0
1000

1040
0.0
1002
{
1002
}
1040
0.0
1002
{
1002
}
1040
0.0
1002
}
1002
}
1040
0.0
1002
{
1002
}
1010
1.0
1020
0.0
1030
0.0
1010
0.0
1020
1.0
1030
0.0
1010
0.0
1020
0.0
1030
1.0
1070
     0
1002
}
1002
{
1002
{
1040
1.0
1040
1.0
1002
{
1070
     1
1002
{
1040
1.0
1040
1.0
1000

1040
0.0
1002
{
1002
}
1040
0.0
1002
{
1002
}
1040
0.0
1002
}
1002
}
1002
}
1070
     0
1040
0.0
1002
{
1002
}
1002
}
1002
{
1002
}
1002
}
1002
{
1071
        3
1070
     3
1070
     0
1002
{
1070
     2
1070
     0
1070
     0
1040
0.0
1002
}
1070
     0
1070
     2
1002
{
1002
}
1002
}
1002
{
1040
8030.0
1040
190.3000030517578
1040
0.3050000071525574
1040
228.0
1040
545.0
1040
14.0
1040
17.39999961853027
1040
0.4560000002384186
1002
}
1002
}
  0
INSERT
  5
5BAE
330
2
100
AcDbEntity
  8
ASHADE
 62
     1
370
    13
100
AcDbBlockReference
  2
AVE_GLOBAL
 10
503.489874348147
 20
932.9064838489889
 30
0.0
1001
AVE_MATERIAL
1002
{
1000
*GLOBAL*
1000
1
1000
Global finish.
1002
{
1002
}
1002
{
1070
    63
1002
{
1002
{
1010
-1.0
1020
-1.0
1030
-1.0
1002
}
1040
0.1000000014901161
1000

1040
0.0
1002
{
1002
}
1040
0.0
1002
{
1002
}
1040
0.0
1002
}
1002
{
1002
{
1010
-1.0
1020
-1.0
1030
-1.0
1002
}
1040
0.6999999880790711
1000

1040
0.0
1002
{
1002
}
1040
0.0
1002
{
1002
}
1040
0.0
1002
}
1002
{
1002
{
1010
-1.0
1020
-1.0
1030
-1.0
1002
}
1040
0.2000000029802322
1000

1040
0.0
1002
{
1002
}
1040
0.0
1002
{
1002
}
1040
0.0
1002
}
1002
{
1070
     0
1002
{
1070
     1
1002
{
1040
1.0
1040
1.0
1000

1040
0.0
1002
{
1002
}
1040
0.0
1002
{
1002
}
1040
0.0
1002
}
1002
}
1040
1.0
1040
0.0
1040
0.0
1002
}
1002
{
1040
1.0
1040
1.0
1000

1040
0.0
1002
{
1002
}
1040
0.0
1002
{
1002
}
1040
0.0
1002
}
1002
{
1040
0.5
1040
1.0
1000

1040
0.0
1002
{
1002
}
1040
0.0
1002
{
1002
}
1040
0.0
1002
}
1002
{
1070
     0
1040
0.0
1002
{
1002
}
1040
1.0
1002
{
1002
}
1040
0.0
1002
}
1002
{
1040
0.0
1002
{
1002
{
1010
0.0
1020
0.0
1030
0.0
1002
}
1040
1.0
1000

1040
0.0
1002
{
1002
}
1040
0.0
1002
{
1002
}
1040
0.0
1002
}
1002
}
1002
{
1002
{
1070
     1
1002
{
1040
0.0
1040
1.0
1000

1040
0.0
1002
{
1002
}
1040
0.0
1002
{
1002
}
1040
0.0
1002
}
1002
}
1040
0.0
1002
{
1002
}
1010
1.0
1020
0.0
1030
0.0
1010
0.0
1020
1.0
1030
0.0
1010
0.0
1020
0.0
1030
1.0
1070
     0
1002
}
1002
{
1002
{
1040
1.0
1040
1.0
1002
{
1070
     1
1002
{
1040
1.0
1040
1.0
1000

1040
0.0
1002
{
1002
}
1040
0.0
1002
{
1002
}
1040
0.0
1002
}
1002
}
1002
}
1070
     0
1040
0.0
1002
{
1002
}
1002
}
1002
{
1002
}
1002
}
1002
{
1071
        3
1070
     3
1070
     0
1002
{
1070
     2
1070
     0
1070
     0
1040
0.0
1002
}
1070
     0
1070
     2
1002
{
1002
}
1002
}
1002
{
1040
8030.0
1040
190.3000030517578
1040
0.3050000071525574
1040
228.0
1040
545.0
1040
14.0
1040
17.39999961853027
1040
0.4560000002384186
1002
}
1002
}
  0
INSERT
  5
5BAF
330
2
100
AcDbEntity
  8
ASHADE
 62
     1
370
    13
100
AcDbBlockReference
  2
AVE_GLOBAL
 10
503.4041454006976
 20
877.0429487433352
 30
0.0
1001
AVE_MATERIAL
1002
{
1000
*GLOBAL*
1000
1
1000
Global finish.
1002
{
1002
}
1002
{
1070
    63
1002
{
1002
{
1010
-1.0
1020
-1.0
1030
-1.0
1002
}
1040
0.1000000014901161
1000

1040
0.0
1002
{
1002
}
1040
0.0
1002
{
1002
}
1040
0.0
1002
}
1002
{
1002
{
1010
-1.0
1020
-1.0
1030
-1.0
1002
}
1040
0.6999999880790711
1000

1040
0.0
1002
{
1002
}
1040
0.0
1002
{
1002
}
1040
0.0
1002
}
1002
{
1002
{
1010
-1.0
1020
-1.0
1030
-1.0
1002
}
1040
0.2000000029802322
1000

1040
0.0
1002
{
1002
}
1040
0.0
1002
{
1002
}
1040
0.0
1002
}
1002
{
1070
     0
1002
{
1070
     1
1002
{
1040
1.0
1040
1.0
1000

1040
0.0
1002
{
1002
}
1040
0.0
1002
{
1002
}
1040
0.0
1002
}
1002
}
1040
1.0
1040
0.0
1040
0.0
1002
}
1002
{
1040
1.0
1040
1.0
1000

1040
0.0
1002
{
1002
}
1040
0.0
1002
{
1002
}
1040
0.0
1002
}
1002
{
1040
0.5
1040
1.0
1000

1040
0.0
1002
{
1002
}
1040
0.0
1002
{
1002
}
1040
0.0
1002
}
1002
{
1070
     0
1040
0.0
1002
{
1002
}
1040
1.0
1002
{
1002
}
1040
0.0
1002
}
1002
{
1040
0.0
1002
{
1002
{
1010
0.0
1020
0.0
1030
0.0
1002
}
1040
1.0
1000

1040
0.0
1002
{
1002
}
1040
0.0
1002
{
1002
}
1040
0.0
1002
}
1002
}
1002
{
1002
{
1070
     1
1002
{
1040
0.0
1040
1.0
1000

1040
0.0
1002
{
1002
}
1040
0.0
1002
{
1002
}
1040
0.0
1002
}
1002
}
1040
0.0
1002
{
1002
}
1010
1.0
1020
0.0
1030
0.0
1010
0.0
1020
1.0
1030
0.0
1010
0.0
1020
0.0
1030
1.0
1070
     0
1002
}
1002
{
1002
{
1040
1.0
1040
1.0
1002
{
1070
     1
1002
{
1040
1.0
1040
1.0
1000

1040
0.0
1002
{
1002
}
1040
0.0
1002
{
1002
}
1040
0.0
1002
}
1002
}
1002
}
1070
     0
1040
0.0
1002
{
1002
}
1002
}
1002
{
1002
}
1002
}
1002
{
1071
        3
1070
     3
1070
     0
1002
{
1070
     2
1070
     0
1070
     0
1040
0.0
1002
}
1070
     0
1070
     2
1002
{
1002
}
1002
}
1002
{
1040
8030.0
1040
190.3000030517578
1040
0.3050000071525574
1040
228.0
1040
545.0
1040
14.0
1040
17.39999961853027
1040
0.4560000002384186
1002
}
1002
}
  0
INSERT
  5
5BB0
330
2
100
AcDbEntity
  8
ASHADE
 62
     1
370
    13
100
AcDbBlockReference
  2
AVE_GLOBAL
 10
439.4820525213538
 20
900.9134769291129
 30
0.0
1001
AVE_MATERIAL
1002
{
1000
*GLOBAL*
1000
1
1000
Global finish.
1002
{
1002
}
1002
{
1070
    63
1002
{
1002
{
1010
-1.0
1020
-1.0
1030
-1.0
1002
}
1040
0.1000000014901161
1000

1040
0.0
1002
{
1002
}
1040
0.0
1002
{
1002
}
1040
0.0
1002
}
1002
{
1002
{
1010
-1.0
1020
-1.0
1030
-1.0
1002
}
1040
0.6999999880790711
1000

1040
0.0
1002
{
1002
}
1040
0.0
1002
{
1002
}
1040
0.0
1002
}
1002
{
1002
{
1010
-1.0
1020
-1.0
1030
-1.0
1002
}
1040
0.2000000029802322
1000

1040
0.0
1002
{
1002
}
1040
0.0
1002
{
1002
}
1040
0.0
1002
}
1002
{
1070
     0
1002
{
1070
     1
1002
{
1040
1.0
1040
1.0
1000

1040
0.0
1002
{
1002
}
1040
0.0
1002
{
1002
}
1040
0.0
1002
}
1002
}
1040
1.0
1040
0.0
1040
0.0
1002
}
1002
{
1040
1.0
1040
1.0
1000

1040
0.0
1002
{
1002
}
1040
0.0
1002
{
1002
}
1040
0.0
1002
}
1002
{
1040
0.5
1040
1.0
1000

1040
0.0
1002
{
1002
}
1040
0.0
1002
{
1002
}
1040
0.0
1002
}
1002
{
1070
     0
1040
0.0
1002
{
1002
}
1040
1.0
1002
{
1002
}
1040
0.0
1002
}
1002
{
1040
0.0
1002
{
1002
{
1010
0.0
1020
0.0
1030
0.0
1002
}
1040
1.0
1000

1040
0.0
1002
{
1002
}
1040
0.0
1002
{
1002
}
1040
0.0
1002
}
1002
}
1002
{
1002
{
1070
     1
1002
{
1040
0.0
1040
1.0
1000

1040
0.0
1002
{
1002
}
1040
0.0
1002
{
1002
}
1040
0.0
1002
}
1002
}
1040
0.0
1002
{
1002
}
1010
1.0
1020
0.0
1030
0.0
1010
0.0
1020
1.0
1030
0.0
1010
0.0
1020
0.0
1030
1.0
1070
     0
1002
}
1002
{
1002
{
1040
1.0
1040
1.0
1002
{
1070
     1
1002
{
1040
1.0
1040
1.0
1000

1040
0.0
1002
{
1002
}
1040
0.0
1002
{
1002
}
1040
0.0
1002
}
1002
}
1002
}
1070
     0
1040
0.0
1002
{
1002
}
1002
}
1002
{
1002
}
1002
}
1002
{
1071
        3
1070
     3
1070
     0
1002
{
1070
     2
1070
     0
1070
     0
1040
0.0
1002
}
1070
     0
1070
     2
1002
{
1002
}
1002
}
1002
{
1040
8030.0
1040
190.3000030517578
1040
0.3050000071525574
1040
228.0
1040
545.0
1040
14.0
1040
17.39999961853027
1040
0.4560000002384186
1002
}
1002
}
  0
INSERT
  5
5BB1
330
2
100
AcDbEntity
  8
ASHADE
 62
     1
370
    13
100
AcDbBlockReference
  2
AVE_GLOBAL
 10
439.3963235739044
 20
845.0499418234594
 30
0.0
1001
AVE_MATERIAL
1002
{
1000
*GLOBAL*
1000
1
1000
Global finish.
1002
{
1002
}
1002
{
1070
    63
1002
{
1002
{
1010
-1.0
1020
-1.0
1030
-1.0
1002
}
1040
0.1000000014901161
1000

1040
0.0
1002
{
1002
}
1040
0.0
1002
{
1002
}
1040
0.0
1002
}
1002
{
1002
{
1010
-1.0
1020
-1.0
1030
-1.0
1002
}
1040
0.6999999880790711
1000

1040
0.0
1002
{
1002
}
1040
0.0
1002
{
1002
}
1040
0.0
1002
}
1002
{
1002
{
1010
-1.0
1020
-1.0
1030
-1.0
1002
}
1040
0.2000000029802322
1000

1040
0.0
1002
{
1002
}
1040
0.0
1002
{
1002
}
1040
0.0
1002
}
1002
{
1070
     0
1002
{
1070
     1
1002
{
1040
1.0
1040
1.0
1000

1040
0.0
1002
{
1002
}
1040
0.0
1002
{
1002
}
1040
0.0
1002
}
1002
}
1040
1.0
1040
0.0
1040
0.0
1002
}
1002
{
1040
1.0
1040
1.0
1000

1040
0.0
1002
{
1002
}
1040
0.0
1002
{
1002
}
1040
0.0
1002
}
1002
{
1040
0.5
1040
1.0
1000

1040
0.0
1002
{
1002
}
1040
0.0
1002
{
1002
}
1040
0.0
1002
}
1002
{
1070
     0
1040
0.0
1002
{
1002
}
1040
1.0
1002
{
1002
}
1040
0.0
1002
}
1002
{
1040
0.0
1002
{
1002
{
1010
0.0
1020
0.0
1030
0.0
1002
}
1040
1.0
1000

1040
0.0
1002
{
1002
}
1040
0.0
1002
{
1002
}
1040
0.0
1002
}
1002
}
1002
{
1002
{
1070
     1
1002
{
1040
0.0
1040
1.0
1000

1040
0.0
1002
{
1002
}
1040
0.0
1002
{
1002
}
1040
0.0
1002
}
1002
}
1040
0.0
1002
{
1002
}
1010
1.0
1020
0.0
1030
0.0
1010
0.0
1020
1.0
1030
0.0
1010
0.0
1020
0.0
1030
1.0
1070
     0
1002
}
1002
{
1002
{
1040
1.0
1040
1.0
1002
{
1070
     1
1002
{
1040
1.0
1040
1.0
1000

1040
0.0
1002
{
1002
}
1040
0.0
1002
{
1002
}
1040
0.0
1002
}
1002
}
1002
}
1070
     0
1040
0.0
1002
{
1002
}
1002
}
1002
{
1002
}
1002
}
1002
{
1071
        3
1070
     3
1070
     0
1002
{
1070
     2
1070
     0
1070
     0
1040
0.0
1002
}
1070
     0
1070
     2
1002
{
1002
}
1002
}
1002
{
1040
8030.0
1040
190.3000030517578
1040
0.3050000071525574
1040
228.0
1040
545.0
1040
14.0
1040
17.39999961853027
1040
0.4560000002384186
1002
}
1002
}
  0
INSERT
  5
5BB2
330
2
100
AcDbEntity
  8
0
370
    13
100
AcDbBlockReference
  2
*U45
 10
396.3544679146169
 20
610.5474720546638
 30
0.0
  0
INSERT
  5
5BB3
330
2
100
AcDbEntity
  8
0
370
    13
100
AcDbBlockReference
  2
*U46
 10
396.0419623596441
 20
617.1069165248041
 30
0.0
  0
INSERT
  5
5BB4
330
2
100
AcDbEntity
  8
0
370
    13
100
AcDbBlockReference
  2
*U47
 10
396.6044726700015
 20
613.1712496458508
 30
0.0
  0
INSERT
  5
5BB5
330
2
100
AcDbEntity
  8
0
370
    13
100
AcDbBlockReference
  2
*U48
 10
397.60449169154
 20
599.864947950175
 30
0.0
  0
INSERT
  5
5BB6
330
2
100
AcDbEntity
  8
0
370
    13
100
AcDbBlockReference
  2
*U49
 10
-370.4775260295922
 20
724.4591357908209
 30
0.0
  0
INSERT
  5
5BB7
330
2
100
AcDbEntity
  8
0
370
    13
100
AcDbBlockReference
  2
*U50
 10
-356.7609884117743
 20
729.7816251229757
 30
0.0
  0
INSERT
  5
5BB8
330
2
100
AcDbEntity
  8
0
370
    13
100
AcDbBlockReference
  2
*U51
 10
-358.4955739916894
 20
723.8759360451529
 30
0.0
  0
INSERT
  5
5BB9
330
2
100
AcDbEntity
  8
ASHADE
 62
     1
370
    13
100
AcDbBlockReference
  2
AVE_RENDER
 10
334.4641744737113
 20
1045.984457032369
 30
0.0
1001
AVE_RENDER
1002
{
1070
     7
1000
Pref
1070
    30
1070
    20
1070
     1
1070
     0
1000

1070
    10
1070
     1
1070
    10
1040
1.0
1070
     1
1040
0.3
1040
0.7
1040
0.0
1040
10.0
1010
-1.0
1020
-1.0
1030
-1.0
1040
0.3
1070
    49
1070
     0
1070
     0
1010
1.0
1020
1.0
1030
1.0
1040
45.0
1070
     1
1070
     0
1000
WCS
1040
0.0
1070
     0
1040
10.0
1002
}
  0
INSERT
  5
5BBA
330
2
100
AcDbEntity
  8
ASHADE
 62
     3
370
    13
100
AcDbBlockReference
  2
AVE_RENDER
 10
334.4641744737113
 20
1045.984457032369
 30
0.0
1001
AVE_RENDER
1002
{
1070
     0
1000
Full Opt
1070
     0
1070
     1
1070
     1
1070
     1
1070
     0
1070
     0
1070
     0
1070
     1
1070
     1
1040
0.0001
1040
0.0001
1002
}
  0
INSERT
  5
5BBB
330
2
100
AcDbEntity
  8
ASHADE
 62
     4
370
    13
100
AcDbBlockReference
  2
AVE_RENDER
 10
334.4641744737113
 20
1045.984457032369
 30
0.0
1001
AVE_RENDER
1002
{
1070
     0
1000
Quick Opt
1070
     0
1070
     1
1070
     1
1070
     1
1070
     0
1070
     0
1070
     1
1002
}
  0
INSERT
  5
5BBC
330
2
100
AcDbEntity
  8
ASHADE
 62
     5
370
    13
100
AcDbBlockReference
  2
AVE_RENDER
 10
334.4641744737113
 20
1045.984457032369
 30
0.0
1001
AVE_RENDER
1002
{
1070
     1
1000
Scanl Opt
1070
     2
1070
     0
1070
     2
1040
2.0
1040
4.0
1070
     0
1070
     1
1070
     0
1040
0.03
1002
}
  0
INSERT
  5
5BBD
330
2
100
AcDbEntity
  8
ASHADE
 62
     6
370
    13
100
AcDbBlockReference
  2
AVE_RENDER
 10
334.4641744737113
 20
1045.984457032369
 30
0.0
1001
AVE_RENDER
1002
{
1070
     2
1000
Raytr Opt
1070
     2
1070
     0
1070
     2
1040
2.0
1040
4.0
1070
     0
1070
     1
1070
     1
1040
0.03
1070
     3
1040
0.03
1002
}
  0
INSERT
  5
5BBE
330
2
100
AcDbEntity
  8
ASHADE
 62
     7
370
    13
100
AcDbBlockReference
  2
AVE_RENDER
 10
334.4641744737113
 20
1045.984457032369
 30
0.0
1001
AVE_RENDER
1002
{
1070
     0
1000
RFile Opt
1070
     1
1070
   640
1070
   480
1070
 10000
1070
     1
1070
     8
1070
     8
1070
     0
1070
     0
1070
     0
1070
     0
1070
     0
1070
     0
1070
     0
1002
}
  0
INSERT
  5
5BBF
330
2
100
AcDbEntity
  8
ASHADE
 62
     8
370
    13
100
AcDbBlockReference
  2
AVE_RENDER
 10
334.4641744737113
 20
1045.984457032369
 30
0.0
1001
AVE_RENDER
1002
{
1070
     0
1000
Fog Opt
1070
     0
1070
     0
1040
0.0
1040
1.0
1040
0.0
1040
1.0
1010
0.5
1020
0.5
1030
0.5
1002
}
  0
INSERT
  5
5BC0
330
2
100
AcDbEntity
  8
ASHADE
 62
     9
370
    13
100
AcDbBlockReference
  2
AVE_RENDER
 10
334.4641744737113
 20
1045.984457032369
 30
0.0
1001
AVE_RENDER
1002
{
1070
     0
1000
BG Opt
1070
     0
1070
     1
1010
0.0
1020
0.0
1030
0.0
1010
1.0
1020
0.0
1030
0.0
1010
0.0
1020
1.0
1030
0.0
1010
0.0
1020
0.0
1030
1.0
1040
0.5
1040
0.33
1040
0.0
1000

1070
     1
1000

1070
     1
1070
     1
1040
1.0
1040
1.0
1040
0.0
1040
0.0
1070
     0
1002
}
  0
INSERT
  5
5BC1
330
2
100
AcDbEntity
  8
ASHADE
 62
     1
370
    13
100
AcDbBlockReference
  2
AVE_GLOBAL
 10
334.4641744737113
 20
1045.984457032369
 30
0.0
1001
AVE_MATERIAL
1002
{
1000
*GLOBAL*
1000
1
1000
Global finish.
1002
{
1002
}
1002
{
1070
    63
1002
{
1002
{
1010
-1.0
1020
-1.0
1030
-1.0
1002
}
1040
0.1000000014901161
1000

1040
0.0
1002
{
1002
}
1040
0.0
1002
{
1002
}
1040
0.0
1002
}
1002
{
1002
{
1010
-1.0
1020
-1.0
1030
-1.0
1002
}
1040
0.6999999880790711
1000

1040
0.0
1002
{
1002
}
1040
0.0
1002
{
1002
}
1040
0.0
1002
}
1002
{
1002
{
1010
-1.0
1020
-1.0
1030
-1.0
1002
}
1040
0.2000000029802322
1000

1040
0.0
1002
{
1002
}
1040
0.0
1002
{
1002
}
1040
0.0
1002
}
1002
{
1070
     0
1002
{
1070
     1
1002
{
1040
1.0
1040
1.0
1000

1040
0.0
1002
{
1002
}
1040
0.0
1002
{
1002
}
1040
0.0
1002
}
1002
}
1040
1.0
1040
0.0
1040
0.0
1002
}
1002
{
1040
1.0
1040
1.0
1000

1040
0.0
1002
{
1002
}
1040
0.0
1002
{
1002
}
1040
0.0
1002
}
1002
{
1040
0.5
1040
1.0
1000

1040
0.0
1002
{
1002
}
1040
0.0
1002
{
1002
}
1040
0.0
1002
}
1002
{
1070
     0
1040
0.0
1002
{
1002
}
1040
1.0
1002
{
1002
}
1040
0.0
1002
}
1002
{
1040
0.0
1002
{
1002
{
1010
0.0
1020
0.0
1030
0.0
1002
}
1040
1.0
1000

1040
0.0
1002
{
1002
}
1040
0.0
1002
{
1002
}
1040
0.0
1002
}
1002
}
1002
{
1002
{
1070
     1
1002
{
1040
0.0
1040
1.0
1000

1040
0.0
1002
{
1002
}
1040
0.0
1002
{
1002
}
1040
0.0
1002
}
1002
}
1040
0.0
1002
{
1002
}
1010
1.0
1020
0.0
1030
0.0
1010
0.0
1020
1.0
1030
0.0
1010
0.0
1020
0.0
1030
1.0
1070
     0
1002
}
1002
{
1002
{
1040
1.0
1040
1.0
1002
{
1070
     1
1002
{
1040
1.0
1040
1.0
1000

1040
0.0
1002
{
1002
}
1040
0.0
1002
{
1002
}
1040
0.0
1002
}
1002
}
1002
}
1070
     0
1040
0.0
1002
{
1002
}
1002
}
1002
{
1002
}
1002
}
1002
{
1071
        3
1070
     3
1070
     0
1002
{
1070
     2
1070
     0
1070
     0
1040
0.0
1002
}
1070
     0
1070
     2
1002
{
1002
}
1002
}
1002
{
1040
8030.0
1040
190.3000030517578
1040
0.3050000071525574
1040
228.0
1040
545.0
1040
14.0
1040
17.39999961853027
1040
0.4560000002384186
1002
}
1002
}
  0
INSERT
  5
5BC2
330
2
100
AcDbEntity
  8
ASHADE
 62
     1
370
    13
100
AcDbBlockReference
  2
AVE_RENDER
 10
334.3784455262619
 20
990.1209219267157
 30
0.0
1001
AVE_RENDER
1002
{
1070
     7
1000
Pref
1070
    60
1070
    20
1070
     1
1070
     0
1000

1070
    10
1070
     1
1070
    10
1040
1.0
1070
     1
1040
0.3
1040
0.7
1040
0.0
1040
10.0
1010
-1.0
1020
-1.0
1030
-1.0
1040
0.3
1070
    49
1070
     0
1070
     0
1010
1.0
1020
1.0
1030
1.0
1040
45.0
1070
     1
1070
     0
1000
WCS
1040
0.0
1070
     0
1040
10.0
1002
}
  0
INSERT
  5
5BC3
330
2
100
AcDbEntity
  8
ASHADE
 62
     3
370
    13
100
AcDbBlockReference
  2
AVE_RENDER
 10
334.3784455262619
 20
990.1209219267157
 30
0.0
1001
AVE_RENDER
1002
{
1070
     0
1000
Full Opt
1070
     0
1070
     1
1070
     1
1070
     1
1070
     0
1070
     0
1070
     0
1070
     1
1070
     1
1040
0.0001
1040
0.0001
1002
}
  0
INSERT
  5
5BC4
330
2
100
AcDbEntity
  8
ASHADE
 62
     4
370
    13
100
AcDbBlockReference
  2
AVE_RENDER
 10
334.3784455262619
 20
990.1209219267157
 30
0.0
1001
AVE_RENDER
1002
{
1070
     0
1000
Quick Opt
1070
     0
1070
     1
1070
     1
1070
     1
1070
     0
1070
     0
1070
     1
1002
}
  0
INSERT
  5
5BC5
330
2
100
AcDbEntity
  8
ASHADE
 62
     5
370
    13
100
AcDbBlockReference
  2
AVE_RENDER
 10
334.3784455262619
 20
990.1209219267157
 30
0.0
1001
AVE_RENDER
1002
{
1070
     1
1000
Scanl Opt
1070
     2
1070
     0
1070
     2
1040
2.0
1040
4.0
1070
     0
1070
     1
1070
     0
1040
0.03
1002
}
  0
INSERT
  5
5BC6
330
2
100
AcDbEntity
  8
ASHADE
 62
     6
370
    13
100
AcDbBlockReference
  2
AVE_RENDER
 10
334.3784455262619
 20
990.1209219267157
 30
0.0
1001
AVE_RENDER
1002
{
1070
     2
1000
Raytr Opt
1070
     2
1070
     0
1070
     2
1040
2.0
1040
4.0
1070
     0
1070
     1
1070
     1
1040
0.03
1070
     3
1040
0.03
1002
}
  0
INSERT
  5
5BC7
330
2
100
AcDbEntity
  8
ASHADE
 62
     7
370
    13
100
AcDbBlockReference
  2
AVE_RENDER
 10
334.3784455262619
 20
990.1209219267157
 30
0.0
1001
AVE_RENDER
1002
{
1070
     0
1000
RFile Opt
1070
     1
1070
   640
1070
   480
1070
 10000
1070
     1
1070
     8
1070
     8
1070
     0
1070
     0
1070
     0
1070
     0
1070
     0
1070
     0
1070
     0
1002
}
  0
INSERT
  5
5BC8
330
2
100
AcDbEntity
  8
ASHADE
 62
     8
370
    13
100
AcDbBlockReference
  2
AVE_RENDER
 10
334.3784455262619
 20
990.1209219267157
 30
0.0
1001
AVE_RENDER
1002
{
1070
     0
1000
Fog Opt
1070
     0
1070
     0
1040
0.0
1040
1.0
1040
0.0
1040
1.0
1010
0.5
1020
0.5
1030
0.5
1002
}
  0
INSERT
  5
5BC9
330
2
100
AcDbEntity
  8
ASHADE
 62
     9
370
    13
100
AcDbBlockReference
  2
AVE_RENDER
 10
334.3784455262619
 20
990.1209219267157
 30
0.0
1001
AVE_RENDER
1002
{
1070
     0
1000
BG Opt
1070
     0
1070
     1
1010
0.0
1020
0.0
1030
0.0
1010
1.0
1020
0.0
1030
0.0
1010
0.0
1020
1.0
1030
0.0
1010
0.0
1020
0.0
1030
1.0
1040
0.5
1040
0.33
1040
0.0
1000

1070
     1
1000

1070
     1
1070
     1
1040
1.0
1040
1.0
1040
0.0
1040
0.0
1070
     0
1002
}
  0
INSERT
  5
5BCA
330
2
100
AcDbEntity
  8
ASHADE
 62
     1
370
    13
100
AcDbBlockReference
  2
AVE_GLOBAL
 10
334.3784455262619
 20
990.1209219267157
 30
0.0
1001
AVE_MATERIAL
1002
{
1000
*GLOBAL*
1000
1
1000
Global finish.
1002
{
1002
}
1002
{
1070
    63
1002
{
1002
{
1010
-1.0
1020
-1.0
1030
-1.0
1002
}
1040
0.1000000014901161
1000

1040
0.0
1002
{
1002
}
1040
0.0
1002
{
1002
}
1040
0.0
1002
}
1002
{
1002
{
1010
-1.0
1020
-1.0
1030
-1.0
1002
}
1040
0.6999999880790711
1000

1040
0.0
1002
{
1002
}
1040
0.0
1002
{
1002
}
1040
0.0
1002
}
1002
{
1002
{
1010
-1.0
1020
-1.0
1030
-1.0
1002
}
1040
0.2000000029802322
1000

1040
0.0
1002
{
1002
}
1040
0.0
1002
{
1002
}
1040
0.0
1002
}
1002
{
1070
     0
1002
{
1070
     1
1002
{
1040
1.0
1040
1.0
1000

1040
0.0
1002
{
1002
}
1040
0.0
1002
{
1002
}
1040
0.0
1002
}
1002
}
1040
1.0
1040
0.0
1040
0.0
1002
}
1002
{
1040
1.0
1040
1.0
1000

1040
0.0
1002
{
1002
}
1040
0.0
1002
{
1002
}
1040
0.0
1002
}
1002
{
1040
0.5
1040
1.0
1000

1040
0.0
1002
{
1002
}
1040
0.0
1002
{
1002
}
1040
0.0
1002
}
1002
{
1070
     0
1040
0.0
1002
{
1002
}
1040
1.0
1002
{
1002
}
1040
0.0
1002
}
1002
{
1040
0.0
1002
{
1002
{
1010
0.0
1020
0.0
1030
0.0
1002
}
1040
1.0
1000

1040
0.0
1002
{
1002
}
1040
0.0
1002
{
1002
}
1040
0.0
1002
}
1002
}
1002
{
1002
{
1070
     1
1002
{
1040
0.0
1040
1.0
1000

1040
0.0
1002
{
1002
}
1040
0.0
1002
{
1002
}
1040
0.0
1002
}
1002
}
1040
0.0
1002
{
1002
}
1010
1.0
1020
0.0
1030
0.0
1010
0.0
1020
1.0
1030
0.0
1010
0.0
1020
0.0
1030
1.0
1070
     0
1002
}
1002
{
1002
{
1040
1.0
1040
1.0
1002
{
1070
     1
1002
{
1040
1.0
1040
1.0
1000

1040
0.0
1002
{
1002
}
1040
0.0
1002
{
1002
}
1040
0.0
1002
}
1002
}
1002
}
1070
     0
1040
0.0
1002
{
1002
}
1002
}
1002
{
1002
}
1002
}
1002
{
1071
        3
1070
     3
1070
     0
1002
{
1070
     2
1070
     0
1070
     0
1040
0.0
1002
}
1070
     0
1070
     2
1002
{
1002
}
1002
}
1002
{
1040
8030.0
1040
190.3000030517578
1040
0.3050000071525574
1040
228.0
1040
545.0
1040
14.0
1040
17.39999961853027
1040
0.4560000002384186
1002
}
1002
}
  0
INSERT
  5
5BCB
330
2
100
AcDbEntity
  8
ASHADE
 62
     1
370
    13
100
AcDbBlockReference
  2
AVE_RENDER
 10
385.5613524138941
 20
978.3304479470643
 30
0.0
1001
AVE_RENDER
1002
{
1070
     7
1000
Pref
1070
    30
1070
    20
1070
     1
1070
     0
1000

1070
    10
1070
     1
1070
    10
1040
1.0
1070
     1
1040
0.3
1040
0.7
1040
0.0
1040
10.0
1010
-1.0
1020
-1.0
1030
-1.0
1040
0.3
1070
    49
1070
     0
1070
     0
1010
1.0
1020
1.0
1030
1.0
1040
45.0
1070
     1
1070
     0
1000
WCS
1040
0.0
1070
     0
1040
10.0
1002
}
  0
INSERT
  5
5BCC
330
2
100
AcDbEntity
  8
ASHADE
 62
     3
370
    13
100
AcDbBlockReference
  2
AVE_RENDER
 10
385.5613524138941
 20
978.3304479470643
 30
0.0
1001
AVE_RENDER
1002
{
1070
     0
1000
Full Opt
1070
     0
1070
     1
1070
     1
1070
     1
1070
     0
1070
     0
1070
     0
1070
     1
1070
     1
1040
0.0001
1040
0.0001
1002
}
  0
INSERT
  5
5BCD
330
2
100
AcDbEntity
  8
ASHADE
 62
     4
370
    13
100
AcDbBlockReference
  2
AVE_RENDER
 10
385.5613524138941
 20
978.3304479470643
 30
0.0
1001
AVE_RENDER
1002
{
1070
     0
1000
Quick Opt
1070
     0
1070
     1
1070
     1
1070
     1
1070
     0
1070
     0
1070
     1
1002
}
  0
INSERT
  5
5BCE
330
2
100
AcDbEntity
  8
ASHADE
 62
     5
370
    13
100
AcDbBlockReference
  2
AVE_RENDER
 10
385.5613524138941
 20
978.3304479470643
 30
0.0
1001
AVE_RENDER
1002
{
1070
     1
1000
Scanl Opt
1070
     2
1070
     0
1070
     2
1040
2.0
1040
4.0
1070
     0
1070
     1
1070
     0
1040
0.03
1002
}
  0
INSERT
  5
5BCF
330
2
100
AcDbEntity
  8
ASHADE
 62
     6
370
    13
100
AcDbBlockReference
  2
AVE_RENDER
 10
385.5613524138941
 20
978.3304479470643
 30
0.0
1001
AVE_RENDER
1002
{
1070
     2
1000
Raytr Opt
1070
     2
1070
     0
1070
     2
1040
2.0
1040
4.0
1070
     0
1070
     1
1070
     1
1040
0.03
1070
     3
1040
0.03
1002
}
  0
INSERT
  5
5BD0
330
2
100
AcDbEntity
  8
ASHADE
 62
     7
370
    13
100
AcDbBlockReference
  2
AVE_RENDER
 10
385.5613524138941
 20
978.3304479470643
 30
0.0
1001
AVE_RENDER
1002
{
1070
     0
1000
RFile Opt
1070
     1
1070
   640
1070
   480
1070
 10000
1070
     1
1070
     8
1070
     8
1070
     0
1070
     0
1070
     0
1070
     0
1070
     0
1070
     0
1070
     0
1002
}
  0
INSERT
  5
5BD1
330
2
100
AcDbEntity
  8
ASHADE
 62
     8
370
    13
100
AcDbBlockReference
  2
AVE_RENDER
 10
385.5613524138941
 20
978.3304479470643
 30
0.0
1001
AVE_RENDER
1002
{
1070
     0
1000
Fog Opt
1070
     0
1070
     0
1040
0.0
1040
1.0
1040
0.0
1040
1.0
1010
0.5
1020
0.5
1030
0.5
1002
}
  0
INSERT
  5
5BD2
330
2
100
AcDbEntity
  8
ASHADE
 62
     9
370
    13
100
AcDbBlockReference
  2
AVE_RENDER
 10
385.5613524138941
 20
978.3304479470643
 30
0.0
1001
AVE_RENDER
1002
{
1070
     0
1000
BG Opt
1070
     0
1070
     1
1010
0.0
1020
0.0
1030
0.0
1010
1.0
1020
0.0
1030
0.0
1010
0.0
1020
1.0
1030
0.0
1010
0.0
1020
0.0
1030
1.0
1040
0.5
1040
0.33
1040
0.0
1000

1070
     1
1000

1070
     1
1070
     1
1040
1.0
1040
1.0
1040
0.0
1040
0.0
1070
     0
1002
}
  0
INSERT
  5
5BD3
330
2
100
AcDbEntity
  8
ASHADE
 62
     1
370
    13
100
AcDbBlockReference
  2
AVE_GLOBAL
 10
385.5613524138941
 20
978.3304479470643
 30
0.0
1001
AVE_MATERIAL
1002
{
1000
*GLOBAL*
1000
1
1000
Global finish.
1002
{
1002
}
1002
{
1070
    63
1002
{
1002
{
1010
-1.0
1020
-1.0
1030
-1.0
1002
}
1040
0.1000000014901161
1000

1040
0.0
1002
{
1002
}
1040
0.0
1002
{
1002
}
1040
0.0
1002
}
1002
{
1002
{
1010
-1.0
1020
-1.0
1030
-1.0
1002
}
1040
0.6999999880790711
1000

1040
0.0
1002
{
1002
}
1040
0.0
1002
{
1002
}
1040
0.0
1002
}
1002
{
1002
{
1010
-1.0
1020
-1.0
1030
-1.0
1002
}
1040
0.2000000029802322
1000

1040
0.0
1002
{
1002
}
1040
0.0
1002
{
1002
}
1040
0.0
1002
}
1002
{
1070
     0
1002
{
1070
     1
1002
{
1040
1.0
1040
1.0
1000

1040
0.0
1002
{
1002
}
1040
0.0
1002
{
1002
}
1040
0.0
1002
}
1002
}
1040
1.0
1040
0.0
1040
0.0
1002
}
1002
{
1040
1.0
1040
1.0
1000

1040
0.0
1002
{
1002
}
1040
0.0
1002
{
1002
}
1040
0.0
1002
}
1002
{
1040
0.5
1040
1.0
1000

1040
0.0
1002
{
1002
}
1040
0.0
1002
{
1002
}
1040
0.0
1002
}
1002
{
1070
     0
1040
0.0
1002
{
1002
}
1040
1.0
1002
{
1002
}
1040
0.0
1002
}
1002
{
1040
0.0
1002
{
1002
{
1010
0.0
1020
0.0
1030
0.0
1002
}
1040
1.0
1000

1040
0.0
1002
{
1002
}
1040
0.0
1002
{
1002
}
1040
0.0
1002
}
1002
}
1002
{
1002
{
1070
     1
1002
{
1040
0.0
1040
1.0
1000

1040
0.0
1002
{
1002
}
1040
0.0
1002
{
1002
}
1040
0.0
1002
}
1002
}
1040
0.0
1002
{
1002
}
1010
1.0
1020
0.0
1030
0.0
1010
0.0
1020
1.0
1030
0.0
1010
0.0
1020
0.0
1030
1.0
1070
     0
1002
}
1002
{
1002
{
1040
1.0
1040
1.0
1002
{
1070
     1
1002
{
1040
1.0
1040
1.0
1000

1040
0.0
1002
{
1002
}
1040
0.0
1002
{
1002
}
1040
0.0
1002
}
1002
}
1002
}
1070
     0
1040
0.0
1002
{
1002
}
1002
}
1002
{
1002
}
1002
}
1002
{
1071
        3
1070
     3
1070
     0
1002
{
1070
     2
1070
     0
1070
     0
1040
0.0
1002
}
1070
     0
1070
     2
1002
{
1002
}
1002
}
1002
{
1040
8030.0
1040
190.3000030517578
1040
0.3050000071525574
1040
228.0
1040
545.0
1040
14.0
1040
17.39999961853027
1040
0.4560000002384186
1002
}
1002
}
  0
INSERT
  5
5BD4
330
2
100
AcDbEntity
  8
ASHADE
 62
     1
370
    13
100
AcDbBlockReference
  2
AVE_RENDER
 10
385.4756234664447
 20
922.4669128414106
 30
0.0
1001
AVE_RENDER
1002
{
1070
     7
1000
Pref
1070
    60
1070
    20
1070
     1
1070
     0
1000

1070
    10
1070
     1
1070
    10
1040
1.0
1070
     1
1040
0.3
1040
0.7
1040
0.0
1040
10.0
1010
-1.0
1020
-1.0
1030
-1.0
1040
0.3
1070
    49
1070
     0
1070
     0
1010
1.0
1020
1.0
1030
1.0
1040
45.0
1070
     1
1070
     0
1000
WCS
1040
0.0
1070
     0
1040
10.0
1002
}
  0
INSERT
  5
5BD5
330
2
100
AcDbEntity
  8
ASHADE
 62
     3
370
    13
100
AcDbBlockReference
  2
AVE_RENDER
 10
385.4756234664447
 20
922.4669128414106
 30
0.0
1001
AVE_RENDER
1002
{
1070
     0
1000
Full Opt
1070
     0
1070
     1
1070
     1
1070
     1
1070
     0
1070
     0
1070
     0
1070
     1
1070
     1
1040
0.0001
1040
0.0001
1002
}
  0
INSERT
  5
5BD6
330
2
100
AcDbEntity
  8
ASHADE
 62
     4
370
    13
100
AcDbBlockReference
  2
AVE_RENDER
 10
385.4756234664447
 20
922.4669128414106
 30
0.0
1001
AVE_RENDER
1002
{
1070
     0
1000
Quick Opt
1070
     0
1070
     1
1070
     1
1070
     1
1070
     0
1070
     0
1070
     1
1002
}
  0
INSERT
  5
5BD7
330
2
100
AcDbEntity
  8
ASHADE
 62
     5
370
    13
100
AcDbBlockReference
  2
AVE_RENDER
 10
385.4756234664447
 20
922.4669128414106
 30
0.0
1001
AVE_RENDER
1002
{
1070
     1
1000
Scanl Opt
1070
     2
1070
     0
1070
     2
1040
2.0
1040
4.0
1070
     0
1070
     1
1070
     0
1040
0.03
1002
}
  0
INSERT
  5
5BD8
330
2
100
AcDbEntity
  8
ASHADE
 62
     6
370
    13
100
AcDbBlockReference
  2
AVE_RENDER
 10
385.4756234664447
 20
922.4669128414106
 30
0.0
1001
AVE_RENDER
1002
{
1070
     2
1000
Raytr Opt
1070
     2
1070
     0
1070
     2
1040
2.0
1040
4.0
1070
     0
1070
     1
1070
     1
1040
0.03
1070
     3
1040
0.03
1002
}
  0
INSERT
  5
5BD9
330
2
100
AcDbEntity
  8
ASHADE
 62
     7
370
    13
100
AcDbBlockReference
  2
AVE_RENDER
 10
385.4756234664447
 20
922.4669128414106
 30
0.0
1001
AVE_RENDER
1002
{
1070
     0
1000
RFile Opt
1070
     1
1070
   640
1070
   480
1070
 10000
1070
     1
1070
     8
1070
     8
1070
     0
1070
     0
1070
     0
1070
     0
1070
     0
1070
     0
1070
     0
1002
}
  0
INSERT
  5
5BDA
330
2
100
AcDbEntity
  8
ASHADE
 62
     8
370
    13
100
AcDbBlockReference
  2
AVE_RENDER
 10
385.4756234664447
 20
922.4669128414106
 30
0.0
1001
AVE_RENDER
1002
{
1070
     0
1000
Fog Opt
1070
     0
1070
     0
1040
0.0
1040
1.0
1040
0.0
1040
1.0
1010
0.5
1020
0.5
1030
0.5
1002
}
  0
INSERT
  5
5BDB
330
2
100
AcDbEntity
  8
ASHADE
 62
     9
370
    13
100
AcDbBlockReference
  2
AVE_RENDER
 10
385.4756234664447
 20
922.4669128414106
 30
0.0
1001
AVE_RENDER
1002
{
1070
     0
1000
BG Opt
1070
     0
1070
     1
1010
0.0
1020
0.0
1030
0.0
1010
1.0
1020
0.0
1030
0.0
1010
0.0
1020
1.0
1030
0.0
1010
0.0
1020
0.0
1030
1.0
1040
0.5
1040
0.33
1040
0.0
1000

1070
     1
1000

1070
     1
1070
     1
1040
1.0
1040
1.0
1040
0.0
1040
0.0
1070
     0
1002
}
  0
INSERT
  5
5BDC
330
2
100
AcDbEntity
  8
ASHADE
 62
     1
370
    13
100
AcDbBlockReference
  2
AVE_GLOBAL
 10
385.4756234664447
 20
922.4669128414106
 30
0.0
1001
AVE_MATERIAL
1002
{
1000
*GLOBAL*
1000
1
1000
Global finish.
1002
{
1002
}
1002
{
1070
    63
1002
{
1002
{
1010
-1.0
1020
-1.0
1030
-1.0
1002
}
1040
0.1000000014901161
1000

1040
0.0
1002
{
1002
}
1040
0.0
1002
{
1002
}
1040
0.0
1002
}
1002
{
1002
{
1010
-1.0
1020
-1.0
1030
-1.0
1002
}
1040
0.6999999880790711
1000

1040
0.0
1002
{
1002
}
1040
0.0
1002
{
1002
}
1040
0.0
1002
}
1002
{
1002
{
1010
-1.0
1020
-1.0
1030
-1.0
1002
}
1040
0.2000000029802322
1000

1040
0.0
1002
{
1002
}
1040
0.0
1002
{
1002
}
1040
0.0
1002
}
1002
{
1070
     0
1002
{
1070
     1
1002
{
1040
1.0
1040
1.0
1000

1040
0.0
1002
{
1002
}
1040
0.0
1002
{
1002
}
1040
0.0
1002
}
1002
}
1040
1.0
1040
0.0
1040
0.0
1002
}
1002
{
1040
1.0
1040
1.0
1000

1040
0.0
1002
{
1002
}
1040
0.0
1002
{
1002
}
1040
0.0
1002
}
1002
{
1040
0.5
1040
1.0
1000

1040
0.0
1002
{
1002
}
1040
0.0
1002
{
1002
}
1040
0.0
1002
}
1002
{
1070
     0
1040
0.0
1002
{
1002
}
1040
1.0
1002
{
1002
}
1040
0.0
1002
}
1002
{
1040
0.0
1002
{
1002
{
1010
0.0
1020
0.0
1030
0.0
1002
}
1040
1.0
1000

1040
0.0
1002
{
1002
}
1040
0.0
1002
{
1002
}
1040
0.0
1002
}
1002
}
1002
{
1002
{
1070
     1
1002
{
1040
0.0
1040
1.0
1000

1040
0.0
1002
{
1002
}
1040
0.0
1002
{
1002
}
1040
0.0
1002
}
1002
}
1040
0.0
1002
{
1002
}
1010
1.0
1020
0.0
1030
0.0
1010
0.0
1020
1.0
1030
0.0
1010
0.0
1020
0.0
1030
1.0
1070
     0
1002
}
1002
{
1002
{
1040
1.0
1040
1.0
1002
{
1070
     1
1002
{
1040
1.0
1040
1.0
1000

1040
0.0
1002
{
1002
}
1040
0.0
1002
{
1002
}
1040
0.0
1002
}
1002
}
1002
}
1070
     0
1040
0.0
1002
{
1002
}
1002
}
1002
{
1002
}
1002
}
1002
{
1071
        3
1070
     3
1070
     0
1002
{
1070
     2
1070
     0
1070
     0
1040
0.0
1002
}
1070
     0
1070
     2
1002
{
1002
}
1002
}
1002
{
1040
8030.0
1040
190.3000030517578
1040
0.3050000071525574
1040
228.0
1040
545.0
1040
14.0
1040
17.39999961853027
1040
0.4560000002384186
1002
}
1002
}
  0
INSERT
  5
5BDD
330
2
100
AcDbEntity
  8
ASHADE
 62
     1
370
    13
100
AcDbBlockReference
  2
AVE_RENDER
 10
397.4935421942586
 20
1059.445296159091
 30
0.0
1001
AVE_RENDER
1002
{
1070
     7
1000
Pref
1070
    30
1070
    20
1070
     1
1070
     0
1000

1070
    10
1070
     1
1070
    10
1040
1.0
1070
     1
1040
0.3
1040
0.7
1040
0.0
1040
10.0
1010
-1.0
1020
-1.0
1030
-1.0
1040
0.3
1070
    49
1070
     0
1070
     0
1010
1.0
1020
1.0
1030
1.0
1040
45.0
1070
     1
1070
     0
1000
WCS
1040
0.0
1070
     0
1040
10.0
1002
}
  0
INSERT
  5
5BDE
330
2
100
AcDbEntity
  8
ASHADE
 62
     3
370
    13
100
AcDbBlockReference
  2
AVE_RENDER
 10
397.4935421942586
 20
1059.445296159091
 30
0.0
1001
AVE_RENDER
1002
{
1070
     0
1000
Full Opt
1070
     0
1070
     1
1070
     1
1070
     1
1070
     0
1070
     0
1070
     0
1070
     1
1070
     1
1040
0.0001
1040
0.0001
1002
}
  0
INSERT
  5
5BDF
330
2
100
AcDbEntity
  8
ASHADE
 62
     4
370
    13
100
AcDbBlockReference
  2
AVE_RENDER
 10
397.4935421942586
 20
1059.445296159091
 30
0.0
1001
AVE_RENDER
1002
{
1070
     0
1000
Quick Opt
1070
     0
1070
     1
1070
     1
1070
     1
1070
     0
1070
     0
1070
     1
1002
}
  0
INSERT
  5
5BE0
330
2
100
AcDbEntity
  8
ASHADE
 62
     5
370
    13
100
AcDbBlockReference
  2
AVE_RENDER
 10
397.4935421942586
 20
1059.445296159091
 30
0.0
1001
AVE_RENDER
1002
{
1070
     1
1000
Scanl Opt
1070
     2
1070
     0
1070
     2
1040
2.0
1040
4.0
1070
     0
1070
     1
1070
     0
1040
0.03
1002
}
  0
INSERT
  5
5BE1
330
2
100
AcDbEntity
  8
ASHADE
 62
     6
370
    13
100
AcDbBlockReference
  2
AVE_RENDER
 10
397.4935421942586
 20
1059.445296159091
 30
0.0
1001
AVE_RENDER
1002
{
1070
     2
1000
Raytr Opt
1070
     2
1070
     0
1070
     2
1040
2.0
1040
4.0
1070
     0
1070
     1
1070
     1
1040
0.03
1070
     3
1040
0.03
1002
}
  0
INSERT
  5
5BE2
330
2
100
AcDbEntity
  8
ASHADE
 62
     7
370
    13
100
AcDbBlockReference
  2
AVE_RENDER
 10
397.4935421942586
 20
1059.445296159091
 30
0.0
1001
AVE_RENDER
1002
{
1070
     0
1000
RFile Opt
1070
     1
1070
   640
1070
   480
1070
 10000
1070
     1
1070
     8
1070
     8
1070
     0
1070
     0
1070
     0
1070
     0
1070
     0
1070
     0
1070
     0
1002
}
  0
INSERT
  5
5BE3
330
2
100
AcDbEntity
  8
ASHADE
 62
     8
370
    13
100
AcDbBlockReference
  2
AVE_RENDER
 10
397.4935421942586
 20
1059.445296159091
 30
0.0
1001
AVE_RENDER
1002
{
1070
     0
1000
Fog Opt
1070
     0
1070
     0
1040
0.0
1040
1.0
1040
0.0
1040
1.0
1010
0.5
1020
0.5
1030
0.5
1002
}
  0
INSERT
  5
5BE4
330
2
100
AcDbEntity
  8
ASHADE
 62
     9
370
    13
100
AcDbBlockReference
  2
AVE_RENDER
 10
397.4935421942586
 20
1059.445296159091
 30
0.0
1001
AVE_RENDER
1002
{
1070
     0
1000
BG Opt
1070
     0
1070
     1
1010
0.0
1020
0.0
1030
0.0
1010
1.0
1020
0.0
1030
0.0
1010
0.0
1020
1.0
1030
0.0
1010
0.0
1020
0.0
1030
1.0
1040
0.5
1040
0.33
1040
0.0
1000

1070
     1
1000

1070
     1
1070
     1
1040
1.0
1040
1.0
1040
0.0
1040
0.0
1070
     0
1002
}
  0
INSERT
  5
5BE5
330
2
100
AcDbEntity
  8
ASHADE
 62
     1
370
    13
100
AcDbBlockReference
  2
AVE_GLOBAL
 10
397.4935421942586
 20
1059.445296159091
 30
0.0
1001
AVE_MATERIAL
1002
{
1000
*GLOBAL*
1000
1
1000
Global finish.
1002
{
1002
}
1002
{
1070
    63
1002
{
1002
{
1010
-1.0
1020
-1.0
1030
-1.0
1002
}
1040
0.1000000014901161
1000

1040
0.0
1002
{
1002
}
1040
0.0
1002
{
1002
}
1040
0.0
1002
}
1002
{
1002
{
1010
-1.0
1020
-1.0
1030
-1.0
1002
}
1040
0.6999999880790711
1000

1040
0.0
1002
{
1002
}
1040
0.0
1002
{
1002
}
1040
0.0
1002
}
1002
{
1002
{
1010
-1.0
1020
-1.0
1030
-1.0
1002
}
1040
0.2000000029802322
1000

1040
0.0
1002
{
1002
}
1040
0.0
1002
{
1002
}
1040
0.0
1002
}
1002
{
1070
     0
1002
{
1070
     1
1002
{
1040
1.0
1040
1.0
1000

1040
0.0
1002
{
1002
}
1040
0.0
1002
{
1002
}
1040
0.0
1002
}
1002
}
1040
1.0
1040
0.0
1040
0.0
1002
}
1002
{
1040
1.0
1040
1.0
1000

1040
0.0
1002
{
1002
}
1040
0.0
1002
{
1002
}
1040
0.0
1002
}
1002
{
1040
0.5
1040
1.0
1000

1040
0.0
1002
{
1002
}
1040
0.0
1002
{
1002
}
1040
0.0
1002
}
1002
{
1070
     0
1040
0.0
1002
{
1002
}
1040
1.0
1002
{
1002
}
1040
0.0
1002
}
1002
{
1040
0.0
1002
{
1002
{
1010
0.0
1020
0.0
1030
0.0
1002
}
1040
1.0
1000

1040
0.0
1002
{
1002
}
1040
0.0
1002
{
1002
}
1040
0.0
1002
}
1002
}
1002
{
1002
{
1070
     1
1002
{
1040
0.0
1040
1.0
1000

1040
0.0
1002
{
1002
}
1040
0.0
1002
{
1002
}
1040
0.0
1002
}
1002
}
1040
0.0
1002
{
1002
}
1010
1.0
1020
0.0
1030
0.0
1010
0.0
1020
1.0
1030
0.0
1010
0.0
1020
0.0
1030
1.0
1070
     0
1002
}
1002
{
1002
{
1040
1.0
1040
1.0
1002
{
1070
     1
1002
{
1040
1.0
1040
1.0
1000

1040
0.0
1002
{
1002
}
1040
0.0
1002
{
1002
}
1040
0.0
1002
}
1002
}
1002
}
1070
     0
1040
0.0
1002
{
1002
}
1002
}
1002
{
1002
}
1002
}
1002
{
1071
        3
1070
     3
1070
     0
1002
{
1070
     2
1070
     0
1070
     0
1040
0.0
1002
}
1070
     0
1070
     2
1002
{
1002
}
1002
}
1002
{
1040
8030.0
1040
190.3000030517578
1040
0.3050000071525574
1040
228.0
1040
545.0
1040
14.0
1040
17.39999961853027
1040
0.4560000002384186
1002
}
1002
}
  0
INSERT
  5
5BE6
330
2
100
AcDbEntity
  8
ASHADE
 62
     1
370
    13
100
AcDbBlockReference
  2
AVE_RENDER
 10
397.4078132468092
 20
1003.581761053438
 30
0.0
1001
AVE_RENDER
1002
{
1070
     7
1000
Pref
1070
    60
1070
    20
1070
     1
1070
     0
1000

1070
    10
1070
     1
1070
    10
1040
1.0
1070
     1
1040
0.3
1040
0.7
1040
0.0
1040
10.0
1010
-1.0
1020
-1.0
1030
-1.0
1040
0.3
1070
    49
1070
     0
1070
     0
1010
1.0
1020
1.0
1030
1.0
1040
45.0
1070
     1
1070
     0
1000
WCS
1040
0.0
1070
     0
1040
10.0
1002
}
  0
INSERT
  5
5BE7
330
2
100
AcDbEntity
  8
ASHADE
 62
     3
370
    13
100
AcDbBlockReference
  2
AVE_RENDER
 10
397.4078132468092
 20
1003.581761053438
 30
0.0
1001
AVE_RENDER
1002
{
1070
     0
1000
Full Opt
1070
     0
1070
     1
1070
     1
1070
     1
1070
     0
1070
     0
1070
     0
1070
     1
1070
     1
1040
0.0001
1040
0.0001
1002
}
  0
INSERT
  5
5BE8
330
2
100
AcDbEntity
  8
ASHADE
 62
     4
370
    13
100
AcDbBlockReference
  2
AVE_RENDER
 10
397.4078132468092
 20
1003.581761053438
 30
0.0
1001
AVE_RENDER
1002
{
1070
     0
1000
Quick Opt
1070
     0
1070
     1
1070
     1
1070
     1
1070
     0
1070
     0
1070
     1
1002
}
  0
INSERT
  5
5BE9
330
2
100
AcDbEntity
  8
ASHADE
 62
     5
370
    13
100
AcDbBlockReference
  2
AVE_RENDER
 10
397.4078132468092
 20
1003.581761053438
 30
0.0
1001
AVE_RENDER
1002
{
1070
     1
1000
Scanl Opt
1070
     2
1070
     0
1070
     2
1040
2.0
1040
4.0
1070
     0
1070
     1
1070
     0
1040
0.03
1002
}
  0
INSERT
  5
5BEA
330
2
100
AcDbEntity
  8
ASHADE
 62
     6
370
    13
100
AcDbBlockReference
  2
AVE_RENDER
 10
397.4078132468092
 20
1003.581761053438
 30
0.0
1001
AVE_RENDER
1002
{
1070
     2
1000
Raytr Opt
1070
     2
1070
     0
1070
     2
1040
2.0
1040
4.0
1070
     0
1070
     1
1070
     1
1040
0.03
1070
     3
1040
0.03
1002
}
  0
INSERT
  5
5BEB
330
2
100
AcDbEntity
  8
ASHADE
 62
     7
370
    13
100
AcDbBlockReference
  2
AVE_RENDER
 10
397.4078132468092
 20
1003.581761053438
 30
0.0
1001
AVE_RENDER
1002
{
1070
     0
1000
RFile Opt
1070
     1
1070
   640
1070
   480
1070
 10000
1070
     1
1070
     8
1070
     8
1070
     0
1070
     0
1070
     0
1070
     0
1070
     0
1070
     0
1070
     0
1002
}
  0
INSERT
  5
5BEC
330
2
100
AcDbEntity
  8
ASHADE
 62
     8
370
    13
100
AcDbBlockReference
  2
AVE_RENDER
 10
397.4078132468092
 20
1003.581761053438
 30
0.0
1001
AVE_RENDER
1002
{
1070
     0
1000
Fog Opt
1070
     0
1070
     0
1040
0.0
1040
1.0
1040
0.0
1040
1.0
1010
0.5
1020
0.5
1030
0.5
1002
}
  0
INSERT
  5
5BED
330
2
100
AcDbEntity
  8
ASHADE
 62
     9
370
    13
100
AcDbBlockReference
  2
AVE_RENDER
 10
397.4078132468092
 20
1003.581761053438
 30
0.0
1001
AVE_RENDER
1002
{
1070
     0
1000
BG Opt
1070
     0
1070
     1
1010
0.0
1020
0.0
1030
0.0
1010
1.0
1020
0.0
1030
0.0
1010
0.0
1020
1.0
1030
0.0
1010
0.0
1020
0.0
1030
1.0
1040
0.5
1040
0.33
1040
0.0
1000

1070
     1
1000

1070
     1
1070
     1
1040
1.0
1040
1.0
1040
0.0
1040
0.0
1070
     0
1002
}
  0
INSERT
  5
5BEE
330
2
100
AcDbEntity
  8
ASHADE
 62
     1
370
    13
100
AcDbBlockReference
  2
AVE_GLOBAL
 10
397.4078132468092
 20
1003.581761053438
 30
0.0
1001
AVE_MATERIAL
1002
{
1000
*GLOBAL*
1000
1
1000
Global finish.
1002
{
1002
}
1002
{
1070
    63
1002
{
1002
{
1010
-1.0
1020
-1.0
1030
-1.0
1002
}
1040
0.1000000014901161
1000

1040
0.0
1002
{
1002
}
1040
0.0
1002
{
1002
}
1040
0.0
1002
}
1002
{
1002
{
1010
-1.0
1020
-1.0
1030
-1.0
1002
}
1040
0.6999999880790711
1000

1040
0.0
1002
{
1002
}
1040
0.0
1002
{
1002
}
1040
0.0
1002
}
1002
{
1002
{
1010
-1.0
1020
-1.0
1030
-1.0
1002
}
1040
0.2000000029802322
1000

1040
0.0
1002
{
1002
}
1040
0.0
1002
{
1002
}
1040
0.0
1002
}
1002
{
1070
     0
1002
{
1070
     1
1002
{
1040
1.0
1040
1.0
1000

1040
0.0
1002
{
1002
}
1040
0.0
1002
{
1002
}
1040
0.0
1002
}
1002
}
1040
1.0
1040
0.0
1040
0.0
1002
}
1002
{
1040
1.0
1040
1.0
1000

1040
0.0
1002
{
1002
}
1040
0.0
1002
{
1002
}
1040
0.0
1002
}
1002
{
1040
0.5
1040
1.0
1000

1040
0.0
1002
{
1002
}
1040
0.0
1002
{
1002
}
1040
0.0
1002
}
1002
{
1070
     0
1040
0.0
1002
{
1002
}
1040
1.0
1002
{
1002
}
1040
0.0
1002
}
1002
{
1040
0.0
1002
{
1002
{
1010
0.0
1020
0.0
1030
0.0
1002
}
1040
1.0
1000

1040
0.0
1002
{
1002
}
1040
0.0
1002
{
1002
}
1040
0.0
1002
}
1002
}
1002
{
1002
{
1070
     1
1002
{
1040
0.0
1040
1.0
1000

1040
0.0
1002
{
1002
}
1040
0.0
1002
{
1002
}
1040
0.0
1002
}
1002
}
1040
0.0
1002
{
1002
}
1010
1.0
1020
0.0
1030
0.0
1010
0.0
1020
1.0
1030
0.0
1010
0.0
1020
0.0
1030
1.0
1070
     0
1002
}
1002
{
1002
{
1040
1.0
1040
1.0
1002
{
1070
     1
1002
{
1040
1.0
1040
1.0
1000

1040
0.0
1002
{
1002
}
1040
0.0
1002
{
1002
}
1040
0.0
1002
}
1002
}
1002
}
1070
     0
1040
0.0
1002
{
1002
}
1002
}
1002
{
1002
}
1002
}
1002
{
1071
        3
1070
     3
1070
     0
1002
{
1070
     2
1070
     0
1070
     0
1040
0.0
1002
}
1070
     0
1070
     2
1002
{
1002
}
1002
}
1002
{
1040
8030.0
1040
190.3000030517578
1040
0.3050000071525574
1040
228.0
1040
545.0
1040
14.0
1040
17.39999961853027
1040
0.4560000002384186
1002
}
1002
}
  0
INSERT
  5
5BEF
330
2
100
AcDbEntity
  8
ASHADE
 62
     1
370
    13
100
AcDbBlockReference
  2
AVE_RENDER
 10
670.0181145949884
 20
965.1490122203293
 30
0.0
1001
AVE_RENDER
1002
{
1070
     7
1000
Pref
1070
    30
1070
    20
1070
     1
1070
     0
1000

1070
    10
1070
     1
1070
    10
1040
1.0
1070
     1
1040
0.3
1040
0.7
1040
0.0
1040
10.0
1010
-1.0
1020
-1.0
1030
-1.0
1040
0.3
1070
    49
1070
     0
1070
     0
1010
1.0
1020
1.0
1030
1.0
1040
45.0
1070
     1
1070
     0
1000
WCS
1040
0.0
1070
     0
1040
10.0
1002
}
  0
INSERT
  5
5BF0
330
2
100
AcDbEntity
  8
ASHADE
 62
     3
370
    13
100
AcDbBlockReference
  2
AVE_RENDER
 10
670.0181145949884
 20
965.1490122203293
 30
0.0
1001
AVE_RENDER
1002
{
1070
     0
1000
Full Opt
1070
     0
1070
     1
1070
     1
1070
     1
1070
     0
1070
     0
1070
     0
1070
     1
1070
     1
1040
0.0001
1040
0.0001
1002
}
  0
INSERT
  5
5BF1
330
2
100
AcDbEntity
  8
ASHADE
 62
     4
370
    13
100
AcDbBlockReference
  2
AVE_RENDER
 10
670.0181145949884
 20
965.1490122203293
 30
0.0
1001
AVE_RENDER
1002
{
1070
     0
1000
Quick Opt
1070
     0
1070
     1
1070
     1
1070
     1
1070
     0
1070
     0
1070
     1
1002
}
  0
INSERT
  5
5BF2
330
2
100
AcDbEntity
  8
ASHADE
 62
     5
370
    13
100
AcDbBlockReference
  2
AVE_RENDER
 10
670.0181145949884
 20
965.1490122203293
 30
0.0
1001
AVE_RENDER
1002
{
1070
     1
1000
Scanl Opt
1070
     2
1070
     0
1070
     2
1040
2.0
1040
4.0
1070
     0
1070
     1
1070
     0
1040
0.03
1002
}
  0
INSERT
  5
5BF3
330
2
100
AcDbEntity
  8
ASHADE
 62
     6
370
    13
100
AcDbBlockReference
  2
AVE_RENDER
 10
670.0181145949884
 20
965.1490122203293
 30
0.0
1001
AVE_RENDER
1002
{
1070
     2
1000
Raytr Opt
1070
     2
1070
     0
1070
     2
1040
2.0
1040
4.0
1070
     0
1070
     1
1070
     1
1040
0.03
1070
     3
1040
0.03
1002
}
  0
INSERT
  5
5BF4
330
2
100
AcDbEntity
  8
ASHADE
 62
     7
370
    13
100
AcDbBlockReference
  2
AVE_RENDER
 10
670.0181145949884
 20
965.1490122203293
 30
0.0
1001
AVE_RENDER
1002
{
1070
     0
1000
RFile Opt
1070
     1
1070
   640
1070
   480
1070
 10000
1070
     1
1070
     8
1070
     8
1070
     0
1070
     0
1070
     0
1070
     0
1070
     0
1070
     0
1070
     0
1002
}
  0
INSERT
  5
5BF5
330
2
100
AcDbEntity
  8
ASHADE
 62
     8
370
    13
100
AcDbBlockReference
  2
AVE_RENDER
 10
670.0181145949884
 20
965.1490122203293
 30
0.0
1001
AVE_RENDER
1002
{
1070
     0
1000
Fog Opt
1070
     0
1070
     0
1040
0.0
1040
1.0
1040
0.0
1040
1.0
1010
0.5
1020
0.5
1030
0.5
1002
}
  0
INSERT
  5
5BF6
330
2
100
AcDbEntity
  8
ASHADE
 62
     9
370
    13
100
AcDbBlockReference
  2
AVE_RENDER
 10
670.0181145949884
 20
965.1490122203293
 30
0.0
1001
AVE_RENDER
1002
{
1070
     0
1000
BG Opt
1070
     0
1070
     1
1010
0.0
1020
0.0
1030
0.0
1010
1.0
1020
0.0
1030
0.0
1010
0.0
1020
1.0
1030
0.0
1010
0.0
1020
0.0
1030
1.0
1040
0.5
1040
0.33
1040
0.0
1000

1070
     1
1000

1070
     1
1070
     1
1040
1.0
1040
1.0
1040
0.0
1040
0.0
1070
     0
1002
}
  0
INSERT
  5
5BF7
330
2
100
AcDbEntity
  8
ASHADE
 62
     1
370
    13
100
AcDbBlockReference
  2
AVE_GLOBAL
 10
670.0181145949884
 20
965.1490122203293
 30
0.0
1001
AVE_MATERIAL
1002
{
1000
*GLOBAL*
1000
1
1000
Global finish.
1002
{
1002
}
1002
{
1070
    63
1002
{
1002
{
1010
-1.0
1020
-1.0
1030
-1.0
1002
}
1040
0.1000000014901161
1000

1040
0.0
1002
{
1002
}
1040
0.0
1002
{
1002
}
1040
0.0
1002
}
1002
{
1002
{
1010
-1.0
1020
-1.0
1030
-1.0
1002
}
1040
0.6999999880790711
1000

1040
0.0
1002
{
1002
}
1040
0.0
1002
{
1002
}
1040
0.0
1002
}
1002
{
1002
{
1010
-1.0
1020
-1.0
1030
-1.0
1002
}
1040
0.2000000029802322
1000

1040
0.0
1002
{
1002
}
1040
0.0
1002
{
1002
}
1040
0.0
1002
}
1002
{
1070
     0
1002
{
1070
     1
1002
{
1040
1.0
1040
1.0
1000

1040
0.0
1002
{
1002
}
1040
0.0
1002
{
1002
}
1040
0.0
1002
}
1002
}
1040
1.0
1040
0.0
1040
0.0
1002
}
1002
{
1040
1.0
1040
1.0
1000

1040
0.0
1002
{
1002
}
1040
0.0
1002
{
1002
}
1040
0.0
1002
}
1002
{
1040
0.5
1040
1.0
1000

1040
0.0
1002
{
1002
}
1040
0.0
1002
{
1002
}
1040
0.0
1002
}
1002
{
1070
     0
1040
0.0
1002
{
1002
}
1040
1.0
1002
{
1002
}
1040
0.0
1002
}
1002
{
1040
0.0
1002
{
1002
{
1010
0.0
1020
0.0
1030
0.0
1002
}
1040
1.0
1000

1040
0.0
1002
{
1002
}
1040
0.0
1002
{
1002
}
1040
0.0
1002
}
1002
}
1002
{
1002
{
1070
     1
1002
{
1040
0.0
1040
1.0
1000

1040
0.0
1002
{
1002
}
1040
0.0
1002
{
1002
}
1040
0.0
1002
}
1002
}
1040
0.0
1002
{
1002
}
1010
1.0
1020
0.0
1030
0.0
1010
0.0
1020
1.0
1030
0.0
1010
0.0
1020
0.0
1030
1.0
1070
     0
1002
}
1002
{
1002
{
1040
1.0
1040
1.0
1002
{
1070
     1
1002
{
1040
1.0
1040
1.0
1000

1040
0.0
1002
{
1002
}
1040
0.0
1002
{
1002
}
1040
0.0
1002
}
1002
}
1002
}
1070
     0
1040
0.0
1002
{
1002
}
1002
}
1002
{
1002
}
1002
}
1002
{
1071
        3
1070
     3
1070
     0
1002
{
1070
     2
1070
     0
1070
     0
1040
0.0
1002
}
1070
     0
1070
     2
1002
{
1002
}
1002
}
1002
{
1040
8030.0
1040
190.3000030517578
1040
0.3050000071525574
1040
228.0
1040
545.0
1040
14.0
1040
17.39999961853027
1040
0.4560000002384186
1002
}
1002
}
  0
INSERT
  5
5BF8
330
2
100
AcDbEntity
  8
ASHADE
 62
     1
370
    13
100
AcDbBlockReference
  2
AVE_RENDER
 10
669.9323856475388
 20
909.2854771146756
 30
0.0
1001
AVE_RENDER
1002
{
1070
     7
1000
Pref
1070
    60
1070
    20
1070
     1
1070
     0
1000

1070
    10
1070
     1
1070
    10
1040
1.0
1070
     1
1040
0.3
1040
0.7
1040
0.0
1040
10.0
1010
-1.0
1020
-1.0
1030
-1.0
1040
0.3
1070
    49
1070
     0
1070
     0
1010
1.0
1020
1.0
1030
1.0
1040
45.0
1070
     1
1070
     0
1000
WCS
1040
0.0
1070
     0
1040
10.0
1002
}
  0
INSERT
  5
5BF9
330
2
100
AcDbEntity
  8
ASHADE
 62
     3
370
    13
100
AcDbBlockReference
  2
AVE_RENDER
 10
669.9323856475388
 20
909.2854771146756
 30
0.0
1001
AVE_RENDER
1002
{
1070
     0
1000
Full Opt
1070
     0
1070
     1
1070
     1
1070
     1
1070
     0
1070
     0
1070
     0
1070
     1
1070
     1
1040
0.0001
1040
0.0001
1002
}
  0
INSERT
  5
5BFA
330
2
100
AcDbEntity
  8
ASHADE
 62
     4
370
    13
100
AcDbBlockReference
  2
AVE_RENDER
 10
669.9323856475388
 20
909.2854771146756
 30
0.0
1001
AVE_RENDER
1002
{
1070
     0
1000
Quick Opt
1070
     0
1070
     1
1070
     1
1070
     1
1070
     0
1070
     0
1070
     1
1002
}
  0
INSERT
  5
5BFB
330
2
100
AcDbEntity
  8
ASHADE
 62
     5
370
    13
100
AcDbBlockReference
  2
AVE_RENDER
 10
669.9323856475388
 20
909.2854771146756
 30
0.0
1001
AVE_RENDER
1002
{
1070
     1
1000
Scanl Opt
1070
     2
1070
     0
1070
     2
1040
2.0
1040
4.0
1070
     0
1070
     1
1070
     0
1040
0.03
1002
}
  0
INSERT
  5
5BFC
330
2
100
AcDbEntity
  8
ASHADE
 62
     6
370
    13
100
AcDbBlockReference
  2
AVE_RENDER
 10
669.9323856475388
 20
909.2854771146756
 30
0.0
1001
AVE_RENDER
1002
{
1070
     2
1000
Raytr Opt
1070
     2
1070
     0
1070
     2
1040
2.0
1040
4.0
1070
     0
1070
     1
1070
     1
1040
0.03
1070
     3
1040
0.03
1002
}
  0
INSERT
  5
5BFD
330
2
100
AcDbEntity
  8
ASHADE
 62
     7
370
    13
100
AcDbBlockReference
  2
AVE_RENDER
 10
669.9323856475388
 20
909.2854771146756
 30
0.0
1001
AVE_RENDER
1002
{
1070
     0
1000
RFile Opt
1070
     1
1070
   640
1070
   480
1070
 10000
1070
     1
1070
     8
1070
     8
1070
     0
1070
     0
1070
     0
1070
     0
1070
     0
1070
     0
1070
     0
1002
}
  0
INSERT
  5
5BFE
330
2
100
AcDbEntity
  8
ASHADE
 62
     8
370
    13
100
AcDbBlockReference
  2
AVE_RENDER
 10
669.9323856475388
 20
909.2854771146756
 30
0.0
1001
AVE_RENDER
1002
{
1070
     0
1000
Fog Opt
1070
     0
1070
     0
1040
0.0
1040
1.0
1040
0.0
1040
1.0
1010
0.5
1020
0.5
1030
0.5
1002
}
  0
INSERT
  5
5BFF
330
2
100
AcDbEntity
  8
ASHADE
 62
     9
370
    13
100
AcDbBlockReference
  2
AVE_RENDER
 10
669.9323856475388
 20
909.2854771146756
 30
0.0
1001
AVE_RENDER
1002
{
1070
     0
1000
BG Opt
1070
     0
1070
     1
1010
0.0
1020
0.0
1030
0.0
1010
1.0
1020
0.0
1030
0.0
1010
0.0
1020
1.0
1030
0.0
1010
0.0
1020
0.0
1030
1.0
1040
0.5
1040
0.33
1040
0.0
1000

1070
     1
1000

1070
     1
1070
     1
1040
1.0
1040
1.0
1040
0.0
1040
0.0
1070
     0
1002
}
  0
INSERT
  5
5C00
330
2
100
AcDbEntity
  8
ASHADE
 62
     1
370
    13
100
AcDbBlockReference
  2
AVE_GLOBAL
 10
669.9323856475388
 20
909.2854771146756
 30
0.0
1001
AVE_MATERIAL
1002
{
1000
*GLOBAL*
1000
1
1000
Global finish.
1002
{
1002
}
1002
{
1070
    63
1002
{
1002
{
1010
-1.0
1020
-1.0
1030
-1.0
1002
}
1040
0.1000000014901161
1000

1040
0.0
1002
{
1002
}
1040
0.0
1002
{
1002
}
1040
0.0
1002
}
1002
{
1002
{
1010
-1.0
1020
-1.0
1030
-1.0
1002
}
1040
0.6999999880790711
1000

1040
0.0
1002
{
1002
}
1040
0.0
1002
{
1002
}
1040
0.0
1002
}
1002
{
1002
{
1010
-1.0
1020
-1.0
1030
-1.0
1002
}
1040
0.2000000029802322
1000

1040
0.0
1002
{
1002
}
1040
0.0
1002
{
1002
}
1040
0.0
1002
}
1002
{
1070
     0
1002
{
1070
     1
1002
{
1040
1.0
1040
1.0
1000

1040
0.0
1002
{
1002
}
1040
0.0
1002
{
1002
}
1040
0.0
1002
}
1002
}
1040
1.0
1040
0.0
1040
0.0
1002
}
1002
{
1040
1.0
1040
1.0
1000

1040
0.0
1002
{
1002
}
1040
0.0
1002
{
1002
}
1040
0.0
1002
}
1002
{
1040
0.5
1040
1.0
1000

1040
0.0
1002
{
1002
}
1040
0.0
1002
{
1002
}
1040
0.0
1002
}
1002
{
1070
     0
1040
0.0
1002
{
1002
}
1040
1.0
1002
{
1002
}
1040
0.0
1002
}
1002
{
1040
0.0
1002
{
1002
{
1010
0.0
1020
0.0
1030
0.0
1002
}
1040
1.0
1000

1040
0.0
1002
{
1002
}
1040
0.0
1002
{
1002
}
1040
0.0
1002
}
1002
}
1002
{
1002
{
1070
     1
1002
{
1040
0.0
1040
1.0
1000

1040
0.0
1002
{
1002
}
1040
0.0
1002
{
1002
}
1040
0.0
1002
}
1002
}
1040
0.0
1002
{
1002
}
1010
1.0
1020
0.0
1030
0.0
1010
0.0
1020
1.0
1030
0.0
1010
0.0
1020
0.0
1030
1.0
1070
     0
1002
}
1002
{
1002
{
1040
1.0
1040
1.0
1002
{
1070
     1
1002
{
1040
1.0
1040
1.0
1000

1040
0.0
1002
{
1002
}
1040
0.0
1002
{
1002
}
1040
0.0
1002
}
1002
}
1002
}
1070
     0
1040
0.0
1002
{
1002
}
1002
}
1002
{
1002
}
1002
}
1002
{
1071
        3
1070
     3
1070
     0
1002
{
1070
     2
1070
     0
1070
     0
1040
0.0
1002
}
1070
     0
1070
     2
1002
{
1002
}
1002
}
1002
{
1040
8030.0
1040
190.3000030517578
1040
0.3050000071525574
1040
228.0
1040
545.0
1040
14.0
1040
17.39999961853027
1040
0.4560000002384186
1002
}
1002
}
  0
INSERT
  5
5C01
330
2
100
AcDbEntity
  8
0
370
    13
100
AcDbBlockReference
  2
*U52
 10
845.4487142833958
 20
436.2779690445957
 30
0.0
  0
INSERT
  5
5C02
330
2
100
AcDbEntity
  8
0
370
    13
100
AcDbBlockReference
  2
*U53
 10
845.1362087284229
 20
442.8374135147359
 30
0.0
  0
INSERT
  5
5C03
330
2
100
AcDbEntity
  8
0
370
    13
100
AcDbBlockReference
  2
*U54
 10
845.6987190387804
 20
438.9017466357826
 30
0.0
  0
INSERT
  5
5C04
330
2
100
AcDbEntity
  8
0
370
    13
100
AcDbBlockReference
  2
*U55
 10
846.6987380603189
 20
425.595444940107
 30
0.0
  0
INSERT
  5
5C05
330
2
100
AcDbEntity
  8
0
370
    13
100
AcDbBlockReference
  2
*U56
 10
78.61672033918671
 20
550.1896327807528
 30
0.0
  0
INSERT
  5
5C06
330
2
100
AcDbEntity
  8
0
370
    13
100
AcDbBlockReference
  2
*U57
 10
92.33325795700466
 20
555.5121221129077
 30
0.0
  0
INSERT
  5
5C07
330
2
100
AcDbEntity
  8
0
370
    13
100
AcDbBlockReference
  2
*U58
 10
90.59867237708955
 20
549.6064330350848
 30
0.0
  0
INSERT
  5
5C08
330
2
100
AcDbEntity
  8
0
370
    13
100
AcDbBlockReference
  2
*U59
 10
771.8474784468623
 20
960.3107421481068
 30
0.0
  0
INSERT
  5
5C09
330
2
100
AcDbEntity
  8
0
370
    13
100
AcDbBlockReference
  2
*U60
 10
771.5349728918895
 20
966.8701866182471
 30
0.0
  0
INSERT
  5
5C0A
330
2
100
AcDbEntity
  8
0
370
    13
100
AcDbBlockReference
  2
*U61
 10
772.0974832022469
 20
962.9345197392938
 30
0.0
  0
INSERT
  5
5C0B
330
2
100
AcDbEntity
  8
0
370
    13
100
AcDbBlockReference
  2
*U62
 10
773.0975022237855
 20
949.628218043618
 30
0.0
  0
INSERT
  5
5C0C
330
2
100
AcDbEntity
  8
0
370
    13
100
AcDbBlockReference
  2
*U63
 10
5.01548450265318
 20
1074.222405884264
 30
0.0
  0
INSERT
  5
5C0D
330
2
100
AcDbEntity
  8
0
370
    13
100
AcDbBlockReference
  2
*U64
 10
18.73202212047113
 20
1079.544895216419
 30
0.0
  0
INSERT
  5
5C0E
330
2
100
AcDbEntity
  8
0
370
    13
100
AcDbBlockReference
  2
*U65
 10
16.99743654055601
 20
1073.639206138596
 30
0.0
  0
INSERT
  5
5C0F
330
2
100
AcDbEntity
  8
ASHADE
 62
     1
370
    13
100
AcDbBlockReference
  2
AVE_RENDER
 10
468.5293826169718
 20
1016.337126194204
 30
0.0
1001
AVE_RENDER
1002
{
1070
     7
1000
Pref
1070
    30
1070
    20
1070
     1
1070
     0
1000

1070
    10
1070
     1
1070
    10
1040
1.0
1070
     1
1040
0.3
1040
0.7
1040
0.0
1040
10.0
1010
-1.0
1020
-1.0
1030
-1.0
1040
0.3
1070
    49
1070
     0
1070
     0
1010
1.0
1020
1.0
1030
1.0
1040
45.0
1070
     1
1070
     0
1000
WCS
1040
0.0
1070
     0
1040
10.0
1002
}
  0
INSERT
  5
5C10
330
2
100
AcDbEntity
  8
ASHADE
 62
     3
370
    13
100
AcDbBlockReference
  2
AVE_RENDER
 10
468.5293826169718
 20
1016.337126194204
 30
0.0
1001
AVE_RENDER
1002
{
1070
     0
1000
Full Opt
1070
     0
1070
     1
1070
     1
1070
     1
1070
     0
1070
     0
1070
     0
1070
     1
1070
     1
1040
0.0001
1040
0.0001
1002
}
  0
INSERT
  5
5C11
330
2
100
AcDbEntity
  8
ASHADE
 62
     4
370
    13
100
AcDbBlockReference
  2
AVE_RENDER
 10
468.5293826169718
 20
1016.337126194204
 30
0.0
1001
AVE_RENDER
1002
{
1070
     0
1000
Quick Opt
1070
     0
1070
     1
1070
     1
1070
     1
1070
     0
1070
     0
1070
     1
1002
}
  0
INSERT
  5
5C12
330
2
100
AcDbEntity
  8
ASHADE
 62
     5
370
    13
100
AcDbBlockReference
  2
AVE_RENDER
 10
468.5293826169718
 20
1016.337126194204
 30
0.0
1001
AVE_RENDER
1002
{
1070
     1
1000
Scanl Opt
1070
     2
1070
     0
1070
     2
1040
2.0
1040
4.0
1070
     0
1070
     1
1070
     0
1040
0.03
1002
}
  0
INSERT
  5
5C13
330
2
100
AcDbEntity
  8
ASHADE
 62
     6
370
    13
100
AcDbBlockReference
  2
AVE_RENDER
 10
468.5293826169718
 20
1016.337126194204
 30
0.0
1001
AVE_RENDER
1002
{
1070
     2
1000
Raytr Opt
1070
     2
1070
     0
1070
     2
1040
2.0
1040
4.0
1070
     0
1070
     1
1070
     1
1040
0.03
1070
     3
1040
0.03
1002
}
  0
INSERT
  5
5C14
330
2
100
AcDbEntity
  8
ASHADE
 62
     7
370
    13
100
AcDbBlockReference
  2
AVE_RENDER
 10
468.5293826169718
 20
1016.337126194204
 30
0.0
1001
AVE_RENDER
1002
{
1070
     0
1000
RFile Opt
1070
     1
1070
   640
1070
   480
1070
 10000
1070
     1
1070
     8
1070
     8
1070
     0
1070
     0
1070
     0
1070
     0
1070
     0
1070
     0
1070
     0
1002
}
  0
INSERT
  5
5C15
330
2
100
AcDbEntity
  8
ASHADE
 62
     8
370
    13
100
AcDbBlockReference
  2
AVE_RENDER
 10
468.5293826169718
 20
1016.337126194204
 30
0.0
1001
AVE_RENDER
1002
{
1070
     0
1000
Fog Opt
1070
     0
1070
     0
1040
0.0
1040
1.0
1040
0.0
1040
1.0
1010
0.5
1020
0.5
1030
0.5
1002
}
  0
INSERT
  5
5C16
330
2
100
AcDbEntity
  8
ASHADE
 62
     9
370
    13
100
AcDbBlockReference
  2
AVE_RENDER
 10
468.5293826169718
 20
1016.337126194204
 30
0.0
1001
AVE_RENDER
1002
{
1070
     0
1000
BG Opt
1070
     0
1070
     1
1010
0.0
1020
0.0
1030
0.0
1010
1.0
1020
0.0
1030
0.0
1010
0.0
1020
1.0
1030
0.0
1010
0.0
1020
0.0
1030
1.0
1040
0.5
1040
0.33
1040
0.0
1000

1070
     1
1000

1070
     1
1070
     1
1040
1.0
1040
1.0
1040
0.0
1040
0.0
1070
     0
1002
}
  0
INSERT
  5
5C17
330
2
100
AcDbEntity
  8
ASHADE
 62
     1
370
    13
100
AcDbBlockReference
  2
AVE_GLOBAL
 10
468.5293826169718
 20
1016.337126194204
 30
0.0
1001
AVE_MATERIAL
1002
{
1000
*GLOBAL*
1000
1
1000
Global finish.
1002
{
1002
}
1002
{
1070
    63
1002
{
1002
{
1010
-1.0
1020
-1.0
1030
-1.0
1002
}
1040
0.1000000014901161
1000

1040
0.0
1002
{
1002
}
1040
0.0
1002
{
1002
}
1040
0.0
1002
}
1002
{
1002
{
1010
-1.0
1020
-1.0
1030
-1.0
1002
}
1040
0.6999999880790711
1000

1040
0.0
1002
{
1002
}
1040
0.0
1002
{
1002
}
1040
0.0
1002
}
1002
{
1002
{
1010
-1.0
1020
-1.0
1030
-1.0
1002
}
1040
0.2000000029802322
1000

1040
0.0
1002
{
1002
}
1040
0.0
1002
{
1002
}
1040
0.0
1002
}
1002
{
1070
     0
1002
{
1070
     1
1002
{
1040
1.0
1040
1.0
1000

1040
0.0
1002
{
1002
}
1040
0.0
1002
{
1002
}
1040
0.0
1002
}
1002
}
1040
1.0
1040
0.0
1040
0.0
1002
}
1002
{
1040
1.0
1040
1.0
1000

1040
0.0
1002
{
1002
}
1040
0.0
1002
{
1002
}
1040
0.0
1002
}
1002
{
1040
0.5
1040
1.0
1000

1040
0.0
1002
{
1002
}
1040
0.0
1002
{
1002
}
1040
0.0
1002
}
1002
{
1070
     0
1040
0.0
1002
{
1002
}
1040
1.0
1002
{
1002
}
1040
0.0
1002
}
1002
{
1040
0.0
1002
{
1002
{
1010
0.0
1020
0.0
1030
0.0
1002
}
1040
1.0
1000

1040
0.0
1002
{
1002
}
1040
0.0
1002
{
1002
}
1040
0.0
1002
}
1002
}
1002
{
1002
{
1070
     1
1002
{
1040
0.0
1040
1.0
1000

1040
0.0
1002
{
1002
}
1040
0.0
1002
{
1002
}
1040
0.0
1002
}
1002
}
1040
0.0
1002
{
1002
}
1010
1.0
1020
0.0
1030
0.0
1010
0.0
1020
1.0
1030
0.0
1010
0.0
1020
0.0
1030
1.0
1070
     0
1002
}
1002
{
1002
{
1040
1.0
1040
1.0
1002
{
1070
     1
1002
{
1040
1.0
1040
1.0
1000

1040
0.0
1002
{
1002
}
1040
0.0
1002
{
1002
}
1040
0.0
1002
}
1002
}
1002
}
1070
     0
1040
0.0
1002
{
1002
}
1002
}
1002
{
1002
}
1002
}
1002
{
1071
        3
1070
     3
1070
     0
1002
{
1070
     2
1070
     0
1070
     0
1040
0.0
1002
}
1070
     0
1070
     2
1002
{
1002
}
1002
}
1002
{
1040
8030.0
1040
190.3000030517578
1040
0.3050000071525574
1040
228.0
1040
545.0
1040
14.0
1040
17.39999961853027
1040
0.4560000002384186
1002
}
1002
}
  0
INSERT
  5
5C18
330
2
100
AcDbEntity
  8
ASHADE
 62
     1
370
    13
100
AcDbBlockReference
  2
AVE_RENDER
 10
468.4436536695224
 20
960.4735910885509
 30
0.0
1001
AVE_RENDER
1002
{
1070
     7
1000
Pref
1070
    60
1070
    20
1070
     1
1070
     0
1000

1070
    10
1070
     1
1070
    10
1040
1.0
1070
     1
1040
0.3
1040
0.7
1040
0.0
1040
10.0
1010
-1.0
1020
-1.0
1030
-1.0
1040
0.3
1070
    49
1070
     0
1070
     0
1010
1.0
1020
1.0
1030
1.0
1040
45.0
1070
     1
1070
     0
1000
WCS
1040
0.0
1070
     0
1040
10.0
1002
}
  0
INSERT
  5
5C19
330
2
100
AcDbEntity
  8
ASHADE
 62
     3
370
    13
100
AcDbBlockReference
  2
AVE_RENDER
 10
468.4436536695224
 20
960.4735910885509
 30
0.0
1001
AVE_RENDER
1002
{
1070
     0
1000
Full Opt
1070
     0
1070
     1
1070
     1
1070
     1
1070
     0
1070
     0
1070
     0
1070
     1
1070
     1
1040
0.0001
1040
0.0001
1002
}
  0
INSERT
  5
5C1A
330
2
100
AcDbEntity
  8
ASHADE
 62
     4
370
    13
100
AcDbBlockReference
  2
AVE_RENDER
 10
468.4436536695224
 20
960.4735910885509
 30
0.0
1001
AVE_RENDER
1002
{
1070
     0
1000
Quick Opt
1070
     0
1070
     1
1070
     1
1070
     1
1070
     0
1070
     0
1070
     1
1002
}
  0
INSERT
  5
5C1B
330
2
100
AcDbEntity
  8
ASHADE
 62
     5
370
    13
100
AcDbBlockReference
  2
AVE_RENDER
 10
468.4436536695224
 20
960.4735910885509
 30
0.0
1001
AVE_RENDER
1002
{
1070
     1
1000
Scanl Opt
1070
     2
1070
     0
1070
     2
1040
2.0
1040
4.0
1070
     0
1070
     1
1070
     0
1040
0.03
1002
}
  0
INSERT
  5
5C1C
330
2
100
AcDbEntity
  8
ASHADE
 62
     6
370
    13
100
AcDbBlockReference
  2
AVE_RENDER
 10
468.4436536695224
 20
960.4735910885509
 30
0.0
1001
AVE_RENDER
1002
{
1070
     2
1000
Raytr Opt
1070
     2
1070
     0
1070
     2
1040
2.0
1040
4.0
1070
     0
1070
     1
1070
     1
1040
0.03
1070
     3
1040
0.03
1002
}
  0
INSERT
  5
5C1D
330
2
100
AcDbEntity
  8
ASHADE
 62
     7
370
    13
100
AcDbBlockReference
  2
AVE_RENDER
 10
468.4436536695224
 20
960.4735910885509
 30
0.0
1001
AVE_RENDER
1002
{
1070
     0
1000
RFile Opt
1070
     1
1070
   640
1070
   480
1070
 10000
1070
     1
1070
     8
1070
     8
1070
     0
1070
     0
1070
     0
1070
     0
1070
     0
1070
     0
1070
     0
1002
}
  0
INSERT
  5
5C1E
330
2
100
AcDbEntity
  8
ASHADE
 62
     8
370
    13
100
AcDbBlockReference
  2
AVE_RENDER
 10
468.4436536695224
 20
960.4735910885509
 30
0.0
1001
AVE_RENDER
1002
{
1070
     0
1000
Fog Opt
1070
     0
1070
     0
1040
0.0
1040
1.0
1040
0.0
1040
1.0
1010
0.5
1020
0.5
1030
0.5
1002
}
  0
INSERT
  5
5C1F
330
2
100
AcDbEntity
  8
ASHADE
 62
     9
370
    13
100
AcDbBlockReference
  2
AVE_RENDER
 10
468.4436536695224
 20
960.4735910885509
 30
0.0
1001
AVE_RENDER
1002
{
1070
     0
1000
BG Opt
1070
     0
1070
     1
1010
0.0
1020
0.0
1030
0.0
1010
1.0
1020
0.0
1030
0.0
1010
0.0
1020
1.0
1030
0.0
1010
0.0
1020
0.0
1030
1.0
1040
0.5
1040
0.33
1040
0.0
1000

1070
     1
1000

1070
     1
1070
     1
1040
1.0
1040
1.0
1040
0.0
1040
0.0
1070
     0
1002
}
  0
INSERT
  5
5C20
330
2
100
AcDbEntity
  8
ASHADE
 62
     1
370
    13
100
AcDbBlockReference
  2
AVE_GLOBAL
 10
468.4436536695224
 20
960.4735910885509
 30
0.0
1001
AVE_MATERIAL
1002
{
1000
*GLOBAL*
1000
1
1000
Global finish.
1002
{
1002
}
1002
{
1070
    63
1002
{
1002
{
1010
-1.0
1020
-1.0
1030
-1.0
1002
}
1040
0.1000000014901161
1000

1040
0.0
1002
{
1002
}
1040
0.0
1002
{
1002
}
1040
0.0
1002
}
1002
{
1002
{
1010
-1.0
1020
-1.0
1030
-1.0
1002
}
1040
0.6999999880790711
1000

1040
0.0
1002
{
1002
}
1040
0.0
1002
{
1002
}
1040
0.0
1002
}
1002
{
1002
{
1010
-1.0
1020
-1.0
1030
-1.0
1002
}
1040
0.2000000029802322
1000

1040
0.0
1002
{
1002
}
1040
0.0
1002
{
1002
}
1040
0.0
1002
}
1002
{
1070
     0
1002
{
1070
     1
1002
{
1040
1.0
1040
1.0
1000

1040
0.0
1002
{
1002
}
1040
0.0
1002
{
1002
}
1040
0.0
1002
}
1002
}
1040
1.0
1040
0.0
1040
0.0
1002
}
1002
{
1040
1.0
1040
1.0
1000

1040
0.0
1002
{
1002
}
1040
0.0
1002
{
1002
}
1040
0.0
1002
}
1002
{
1040
0.5
1040
1.0
1000

1040
0.0
1002
{
1002
}
1040
0.0
1002
{
1002
}
1040
0.0
1002
}
1002
{
1070
     0
1040
0.0
1002
{
1002
}
1040
1.0
1002
{
1002
}
1040
0.0
1002
}
1002
{
1040
0.0
1002
{
1002
{
1010
0.0
1020
0.0
1030
0.0
1002
}
1040
1.0
1000

1040
0.0
1002
{
1002
}
1040
0.0
1002
{
1002
}
1040
0.0
1002
}
1002
}
1002
{
1002
{
1070
     1
1002
{
1040
0.0
1040
1.0
1000

1040
0.0
1002
{
1002
}
1040
0.0
1002
{
1002
}
1040
0.0
1002
}
1002
}
1040
0.0
1002
{
1002
}
1010
1.0
1020
0.0
1030
0.0
1010
0.0
1020
1.0
1030
0.0
1010
0.0
1020
0.0
1030
1.0
1070
     0
1002
}
1002
{
1002
{
1040
1.0
1040
1.0
1002
{
1070
     1
1002
{
1040
1.0
1040
1.0
1000

1040
0.0
1002
{
1002
}
1040
0.0
1002
{
1002
}
1040
0.0
1002
}
1002
}
1002
}
1070
     0
1040
0.0
1002
{
1002
}
1002
}
1002
{
1002
}
1002
}
1002
{
1071
        3
1070
     3
1070
     0
1002
{
1070
     2
1070
     0
1070
     0
1040
0.0
1002
}
1070
     0
1070
     2
1002
{
1002
}
1002
}
1002
{
1040
8030.0
1040
190.3000030517578
1040
0.3050000071525574
1040
228.0
1040
545.0
1040
14.0
1040
17.39999961853027
1040
0.4560000002384186
1002
}
1002
}
  0
INSERT
  5
5C21
330
2
100
AcDbEntity
  8
ASHADE
 62
     1
370
    13
100
AcDbBlockReference
  2
AVE_RENDER
 10
230.1644707339329
 20
931.4604281739764
 30
0.0
1001
AVE_RENDER
1002
{
1070
     7
1000
Pref
1070
    30
1070
    20
1070
     1
1070
     0
1000

1070
    10
1070
     1
1070
    10
1040
1.0
1070
     1
1040
0.3
1040
0.7
1040
0.0
1040
10.0
1010
-1.0
1020
-1.0
1030
-1.0
1040
0.3
1070
    49
1070
     0
1070
     0
1010
1.0
1020
1.0
1030
1.0
1040
45.0
1070
     1
1070
     0
1000
WCS
1040
0.0
1070
     0
1040
10.0
1002
}
  0
INSERT
  5
5C22
330
2
100
AcDbEntity
  8
ASHADE
 62
     3
370
    13
100
AcDbBlockReference
  2
AVE_RENDER
 10
230.1644707339329
 20
931.4604281739764
 30
0.0
1001
AVE_RENDER
1002
{
1070
     0
1000
Full Opt
1070
     0
1070
     1
1070
     1
1070
     1
1070
     0
1070
     0
1070
     0
1070
     1
1070
     1
1040
0.0001
1040
0.0001
1002
}
  0
INSERT
  5
5C23
330
2
100
AcDbEntity
  8
ASHADE
 62
     4
370
    13
100
AcDbBlockReference
  2
AVE_RENDER
 10
230.1644707339329
 20
931.4604281739764
 30
0.0
1001
AVE_RENDER
1002
{
1070
     0
1000
Quick Opt
1070
     0
1070
     1
1070
     1
1070
     1
1070
     0
1070
     0
1070
     1
1002
}
  0
INSERT
  5
5C24
330
2
100
AcDbEntity
  8
ASHADE
 62
     5
370
    13
100
AcDbBlockReference
  2
AVE_RENDER
 10
230.1644707339329
 20
931.4604281739764
 30
0.0
1001
AVE_RENDER
1002
{
1070
     1
1000
Scanl Opt
1070
     2
1070
     0
1070
     2
1040
2.0
1040
4.0
1070
     0
1070
     1
1070
     0
1040
0.03
1002
}
  0
INSERT
  5
5C25
330
2
100
AcDbEntity
  8
ASHADE
 62
     6
370
    13
100
AcDbBlockReference
  2
AVE_RENDER
 10
230.1644707339329
 20
931.4604281739764
 30
0.0
1001
AVE_RENDER
1002
{
1070
     2
1000
Raytr Opt
1070
     2
1070
     0
1070
     2
1040
2.0
1040
4.0
1070
     0
1070
     1
1070
     1
1040
0.03
1070
     3
1040
0.03
1002
}
  0
INSERT
  5
5C26
330
2
100
AcDbEntity
  8
ASHADE
 62
     7
370
    13
100
AcDbBlockReference
  2
AVE_RENDER
 10
230.1644707339329
 20
931.4604281739764
 30
0.0
1001
AVE_RENDER
1002
{
1070
     0
1000
RFile Opt
1070
     1
1070
   640
1070
   480
1070
 10000
1070
     1
1070
     8
1070
     8
1070
     0
1070
     0
1070
     0
1070
     0
1070
     0
1070
     0
1070
     0
1002
}
  0
INSERT
  5
5C27
330
2
100
AcDbEntity
  8
ASHADE
 62
     8
370
    13
100
AcDbBlockReference
  2
AVE_RENDER
 10
230.1644707339329
 20
931.4604281739764
 30
0.0
1001
AVE_RENDER
1002
{
1070
     0
1000
Fog Opt
1070
     0
1070
     0
1040
0.0
1040
1.0
1040
0.0
1040
1.0
1010
0.5
1020
0.5
1030
0.5
1002
}
  0
INSERT
  5
5C28
330
2
100
AcDbEntity
  8
ASHADE
 62
     9
370
    13
100
AcDbBlockReference
  2
AVE_RENDER
 10
230.1644707339329
 20
931.4604281739764
 30
0.0
1001
AVE_RENDER
1002
{
1070
     0
1000
BG Opt
1070
     0
1070
     1
1010
0.0
1020
0.0
1030
0.0
1010
1.0
1020
0.0
1030
0.0
1010
0.0
1020
1.0
1030
0.0
1010
0.0
1020
0.0
1030
1.0
1040
0.5
1040
0.33
1040
0.0
1000

1070
     1
1000

1070
     1
1070
     1
1040
1.0
1040
1.0
1040
0.0
1040
0.0
1070
     0
1002
}
  0
INSERT
  5
5C29
330
2
100
AcDbEntity
  8
ASHADE
 62
     1
370
    13
100
AcDbBlockReference
  2
AVE_GLOBAL
 10
230.1644707339329
 20
931.4604281739764
 30
0.0
1001
AVE_MATERIAL
1002
{
1000
*GLOBAL*
1000
1
1000
Global finish.
1002
{
1002
}
1002
{
1070
    63
1002
{
1002
{
1010
-1.0
1020
-1.0
1030
-1.0
1002
}
1040
0.1000000014901161
1000

1040
0.0
1002
{
1002
}
1040
0.0
1002
{
1002
}
1040
0.0
1002
}
1002
{
1002
{
1010
-1.0
1020
-1.0
1030
-1.0
1002
}
1040
0.6999999880790711
1000

1040
0.0
1002
{
1002
}
1040
0.0
1002
{
1002
}
1040
0.0
1002
}
1002
{
1002
{
1010
-1.0
1020
-1.0
1030
-1.0
1002
}
1040
0.2000000029802322
1000

1040
0.0
1002
{
1002
}
1040
0.0
1002
{
1002
}
1040
0.0
1002
}
1002
{
1070
     0
1002
{
1070
     1
1002
{
1040
1.0
1040
1.0
1000

1040
0.0
1002
{
1002
}
1040
0.0
1002
{
1002
}
1040
0.0
1002
}
1002
}
1040
1.0
1040
0.0
1040
0.0
1002
}
1002
{
1040
1.0
1040
1.0
1000

1040
0.0
1002
{
1002
}
1040
0.0
1002
{
1002
}
1040
0.0
1002
}
1002
{
1040
0.5
1040
1.0
1000

1040
0.0
1002
{
1002
}
1040
0.0
1002
{
1002
}
1040
0.0
1002
}
1002
{
1070
     0
1040
0.0
1002
{
1002
}
1040
1.0
1002
{
1002
}
1040
0.0
1002
}
1002
{
1040
0.0
1002
{
1002
{
1010
0.0
1020
0.0
1030
0.0
1002
}
1040
1.0
1000

1040
0.0
1002
{
1002
}
1040
0.0
1002
{
1002
}
1040
0.0
1002
}
1002
}
1002
{
1002
{
1070
     1
1002
{
1040
0.0
1040
1.0
1000

1040
0.0
1002
{
1002
}
1040
0.0
1002
{
1002
}
1040
0.0
1002
}
1002
}
1040
0.0
1002
{
1002
}
1010
1.0
1020
0.0
1030
0.0
1010
0.0
1020
1.0
1030
0.0
1010
0.0
1020
0.0
1030
1.0
1070
     0
1002
}
1002
{
1002
{
1040
1.0
1040
1.0
1002
{
1070
     1
1002
{
1040
1.0
1040
1.0
1000

1040
0.0
1002
{
1002
}
1040
0.0
1002
{
1002
}
1040
0.0
1002
}
1002
}
1002
}
1070
     0
1040
0.0
1002
{
1002
}
1002
}
1002
{
1002
}
1002
}
1002
{
1071
        3
1070
     3
1070
     0
1002
{
1070
     2
1070
     0
1070
     0
1040
0.0
1002
}
1070
     0
1070
     2
1002
{
1002
}
1002
}
1002
{
1040
8030.0
1040
190.3000030517578
1040
0.3050000071525574
1040
228.0
1040
545.0
1040
14.0
1040
17.39999961853027
1040
0.4560000002384186
1002
}
1002
}
  0
INSERT
  5
5C2A
330
2
100
AcDbEntity
  8
ASHADE
 62
     1
370
    13
100
AcDbBlockReference
  2
AVE_RENDER
 10
230.0787417864835
 20
875.5968930683229
 30
0.0
1001
AVE_RENDER
1002
{
1070
     7
1000
Pref
1070
    60
1070
    20
1070
     1
1070
     0
1000

1070
    10
1070
     1
1070
    10
1040
1.0
1070
     1
1040
0.3
1040
0.7
1040
0.0
1040
10.0
1010
-1.0
1020
-1.0
1030
-1.0
1040
0.3
1070
    49
1070
     0
1070
     0
1010
1.0
1020
1.0
1030
1.0
1040
45.0
1070
     1
1070
     0
1000
WCS
1040
0.0
1070
     0
1040
10.0
1002
}
  0
INSERT
  5
5C2B
330
2
100
AcDbEntity
  8
ASHADE
 62
     3
370
    13
100
AcDbBlockReference
  2
AVE_RENDER
 10
230.0787417864835
 20
875.5968930683229
 30
0.0
1001
AVE_RENDER
1002
{
1070
     0
1000
Full Opt
1070
     0
1070
     1
1070
     1
1070
     1
1070
     0
1070
     0
1070
     0
1070
     1
1070
     1
1040
0.0001
1040
0.0001
1002
}
  0
INSERT
  5
5C2C
330
2
100
AcDbEntity
  8
ASHADE
 62
     4
370
    13
100
AcDbBlockReference
  2
AVE_RENDER
 10
230.0787417864835
 20
875.5968930683229
 30
0.0
1001
AVE_RENDER
1002
{
1070
     0
1000
Quick Opt
1070
     0
1070
     1
1070
     1
1070
     1
1070
     0
1070
     0
1070
     1
1002
}
  0
INSERT
  5
5C2D
330
2
100
AcDbEntity
  8
ASHADE
 62
     5
370
    13
100
AcDbBlockReference
  2
AVE_RENDER
 10
230.0787417864835
 20
875.5968930683229
 30
0.0
1001
AVE_RENDER
1002
{
1070
     1
1000
Scanl Opt
1070
     2
1070
     0
1070
     2
1040
2.0
1040
4.0
1070
     0
1070
     1
1070
     0
1040
0.03
1002
}
  0
INSERT
  5
5C2E
330
2
100
AcDbEntity
  8
ASHADE
 62
     6
370
    13
100
AcDbBlockReference
  2
AVE_RENDER
 10
230.0787417864835
 20
875.5968930683229
 30
0.0
1001
AVE_RENDER
1002
{
1070
     2
1000
Raytr Opt
1070
     2
1070
     0
1070
     2
1040
2.0
1040
4.0
1070
     0
1070
     1
1070
     1
1040
0.03
1070
     3
1040
0.03
1002
}
  0
INSERT
  5
5C2F
330
2
100
AcDbEntity
  8
ASHADE
 62
     7
370
    13
100
AcDbBlockReference
  2
AVE_RENDER
 10
230.0787417864835
 20
875.5968930683229
 30
0.0
1001
AVE_RENDER
1002
{
1070
     0
1000
RFile Opt
1070
     1
1070
   640
1070
   480
1070
 10000
1070
     1
1070
     8
1070
     8
1070
     0
1070
     0
1070
     0
1070
     0
1070
     0
1070
     0
1070
     0
1002
}
  0
INSERT
  5
5C30
330
2
100
AcDbEntity
  8
ASHADE
 62
     8
370
    13
100
AcDbBlockReference
  2
AVE_RENDER
 10
230.0787417864835
 20
875.5968930683229
 30
0.0
1001
AVE_RENDER
1002
{
1070
     0
1000
Fog Opt
1070
     0
1070
     0
1040
0.0
1040
1.0
1040
0.0
1040
1.0
1010
0.5
1020
0.5
1030
0.5
1002
}
  0
INSERT
  5
5C31
330
2
100
AcDbEntity
  8
ASHADE
 62
     9
370
    13
100
AcDbBlockReference
  2
AVE_RENDER
 10
230.0787417864835
 20
875.5968930683229
 30
0.0
1001
AVE_RENDER
1002
{
1070
     0
1000
BG Opt
1070
     0
1070
     1
1010
0.0
1020
0.0
1030
0.0
1010
1.0
1020
0.0
1030
0.0
1010
0.0
1020
1.0
1030
0.0
1010
0.0
1020
0.0
1030
1.0
1040
0.5
1040
0.33
1040
0.0
1000

1070
     1
1000

1070
     1
1070
     1
1040
1.0
1040
1.0
1040
0.0
1040
0.0
1070
     0
1002
}
  0
INSERT
  5
5C32
330
2
100
AcDbEntity
  8
ASHADE
 62
     1
370
    13
100
AcDbBlockReference
  2
AVE_GLOBAL
 10
230.0787417864835
 20
875.5968930683229
 30
0.0
1001
AVE_MATERIAL
1002
{
1000
*GLOBAL*
1000
1
1000
Global finish.
1002
{
1002
}
1002
{
1070
    63
1002
{
1002
{
1010
-1.0
1020
-1.0
1030
-1.0
1002
}
1040
0.1000000014901161
1000

1040
0.0
1002
{
1002
}
1040
0.0
1002
{
1002
}
1040
0.0
1002
}
1002
{
1002
{
1010
-1.0
1020
-1.0
1030
-1.0
1002
}
1040
0.6999999880790711
1000

1040
0.0
1002
{
1002
}
1040
0.0
1002
{
1002
}
1040
0.0
1002
}
1002
{
1002
{
1010
-1.0
1020
-1.0
1030
-1.0
1002
}
1040
0.2000000029802322
1000

1040
0.0
1002
{
1002
}
1040
0.0
1002
{
1002
}
1040
0.0
1002
}
1002
{
1070
     0
1002
{
1070
     1
1002
{
1040
1.0
1040
1.0
1000

1040
0.0
1002
{
1002
}
1040
0.0
1002
{
1002
}
1040
0.0
1002
}
1002
}
1040
1.0
1040
0.0
1040
0.0
1002
}
1002
{
1040
1.0
1040
1.0
1000

1040
0.0
1002
{
1002
}
1040
0.0
1002
{
1002
}
1040
0.0
1002
}
1002
{
1040
0.5
1040
1.0
1000

1040
0.0
1002
{
1002
}
1040
0.0
1002
{
1002
}
1040
0.0
1002
}
1002
{
1070
     0
1040
0.0
1002
{
1002
}
1040
1.0
1002
{
1002
}
1040
0.0
1002
}
1002
{
1040
0.0
1002
{
1002
{
1010
0.0
1020
0.0
1030
0.0
1002
}
1040
1.0
1000

1040
0.0
1002
{
1002
}
1040
0.0
1002
{
1002
}
1040
0.0
1002
}
1002
}
1002
{
1002
{
1070
     1
1002
{
1040
0.0
1040
1.0
1000

1040
0.0
1002
{
1002
}
1040
0.0
1002
{
1002
}
1040
0.0
1002
}
1002
}
1040
0.0
1002
{
1002
}
1010
1.0
1020
0.0
1030
0.0
1010
0.0
1020
1.0
1030
0.0
1010
0.0
1020
0.0
1030
1.0
1070
     0
1002
}
1002
{
1002
{
1040
1.0
1040
1.0
1002
{
1070
     1
1002
{
1040
1.0
1040
1.0
1000

1040
0.0
1002
{
1002
}
1040
0.0
1002
{
1002
}
1040
0.0
1002
}
1002
}
1002
}
1070
     0
1040
0.0
1002
{
1002
}
1002
}
1002
{
1002
}
1002
}
1002
{
1071
        3
1070
     3
1070
     0
1002
{
1070
     2
1070
     0
1070
     0
1040
0.0
1002
}
1070
     0
1070
     2
1002
{
1002
}
1002
}
1002
{
1040
8030.0
1040
190.3000030517578
1040
0.3050000071525574
1040
228.0
1040
545.0
1040
14.0
1040
17.39999961853027
1040
0.4560000002384186
1002
}
1002
}
  0
INSERT
  5
6CB8
330
2
100
AcDbEntity
  8
ASHADE
 62
     1
370
    13
100
AcDbBlockReference
  2
AVE_RENDER
 10
863.9462711706373
 20
767.7613195281826
 30
0.0
1001
AVE_RENDER
1002
{
1070
     7
1000
Pref
1070
    30
1070
    20
1070
     1
1070
     0
1000

1070
    10
1070
     1
1070
    10
1040
1.0
1070
     1
1040
0.3
1040
0.7
1040
0.0
1040
10.0
1010
-1.0
1020
-1.0
1030
-1.0
1040
0.3
1070
    49
1070
     0
1070
     0
1010
1.0
1020
1.0
1030
1.0
1040
45.0
1070
     1
1070
     0
1000
WCS
1040
0.0
1070
     0
1040
10.0
1002
}
  0
INSERT
  5
6CB9
330
2
100
AcDbEntity
  8
ASHADE
 62
     3
370
    13
100
AcDbBlockReference
  2
AVE_RENDER
 10
863.9462711706373
 20
767.7613195281826
 30
0.0
1001
AVE_RENDER
1002
{
1070
     0
1000
Full Opt
1070
     0
1070
     1
1070
     1
1070
     1
1070
     0
1070
     0
1070
     0
1070
     1
1070
     1
1040
0.0001
1040
0.0001
1002
}
  0
INSERT
  5
6CBA
330
2
100
AcDbEntity
  8
ASHADE
 62
     4
370
    13
100
AcDbBlockReference
  2
AVE_RENDER
 10
863.9462711706373
 20
767.7613195281826
 30
0.0
1001
AVE_RENDER
1002
{
1070
     0
1000
Quick Opt
1070
     0
1070
     1
1070
     1
1070
     1
1070
     0
1070
     0
1070
     1
1002
}
  0
INSERT
  5
6CBB
330
2
100
AcDbEntity
  8
ASHADE
 62
     5
370
    13
100
AcDbBlockReference
  2
AVE_RENDER
 10
863.9462711706373
 20
767.7613195281826
 30
0.0
1001
AVE_RENDER
1002
{
1070
     1
1000
Scanl Opt
1070
     2
1070
     0
1070
     2
1040
2.0
1040
4.0
1070
     0
1070
     1
1070
     0
1040
0.03
1002
}
  0
INSERT
  5
6CBC
330
2
100
AcDbEntity
  8
ASHADE
 62
     6
370
    13
100
AcDbBlockReference
  2
AVE_RENDER
 10
863.9462711706373
 20
767.7613195281826
 30
0.0
1001
AVE_RENDER
1002
{
1070
     2
1000
Raytr Opt
1070
     2
1070
     0
1070
     2
1040
2.0
1040
4.0
1070
     0
1070
     1
1070
     1
1040
0.03
1070
     3
1040
0.03
1002
}
  0
INSERT
  5
6CBD
330
2
100
AcDbEntity
  8
ASHADE
 62
     7
370
    13
100
AcDbBlockReference
  2
AVE_RENDER
 10
863.9462711706373
 20
767.7613195281826
 30
0.0
1001
AVE_RENDER
1002
{
1070
     0
1000
RFile Opt
1070
     1
1070
   640
1070
   480
1070
 10000
1070
     1
1070
     8
1070
     8
1070
     0
1070
     0
1070
     0
1070
     0
1070
     0
1070
     0
1070
     0
1002
}
  0
INSERT
  5
6CBE
330
2
100
AcDbEntity
  8
ASHADE
 62
     8
370
    13
100
AcDbBlockReference
  2
AVE_RENDER
 10
863.9462711706373
 20
767.7613195281826
 30
0.0
1001
AVE_RENDER
1002
{
1070
     0
1000
Fog Opt
1070
     0
1070
     0
1040
0.0
1040
1.0
1040
0.0
1040
1.0
1010
0.5
1020
0.5
1030
0.5
1002
}
  0
INSERT
  5
6CBF
330
2
100
AcDbEntity
  8
ASHADE
 62
     9
370
    13
100
AcDbBlockReference
  2
AVE_RENDER
 10
863.9462711706373
 20
767.7613195281826
 30
0.0
1001
AVE_RENDER
1002
{
1070
     0
1000
BG Opt
1070
     0
1070
     1
1010
0.0
1020
0.0
1030
0.0
1010
1.0
1020
0.0
1030
0.0
1010
0.0
1020
1.0
1030
0.0
1010
0.0
1020
0.0
1030
1.0
1040
0.5
1040
0.33
1040
0.0
1000

1070
     1
1000

1070
     1
1070
     1
1040
1.0
1040
1.0
1040
0.0
1040
0.0
1070
     0
1002
}
  0
INSERT
  5
6CC0
330
2
100
AcDbEntity
  8
ASHADE
 62
     1
370
    13
100
AcDbBlockReference
  2
AVE_GLOBAL
 10
863.9462711706373
 20
767.7613195281826
 30
0.0
1001
AVE_MATERIAL
1002
{
1000
*GLOBAL*
1000
1
1000
Global finish.
1002
{
1002
}
1002
{
1070
    63
1002
{
1002
{
1010
-1.0
1020
-1.0
1030
-1.0
1002
}
1040
0.1000000014901161
1000

1040
0.0
1002
{
1002
}
1040
0.0
1002
{
1002
}
1040
0.0
1002
}
1002
{
1002
{
1010
-1.0
1020
-1.0
1030
-1.0
1002
}
1040
0.6999999880790711
1000

1040
0.0
1002
{
1002
}
1040
0.0
1002
{
1002
}
1040
0.0
1002
}
1002
{
1002
{
1010
-1.0
1020
-1.0
1030
-1.0
1002
}
1040
0.2000000029802322
1000

1040
0.0
1002
{
1002
}
1040
0.0
1002
{
1002
}
1040
0.0
1002
}
1002
{
1070
     0
1002
{
1070
     1
1002
{
1040
1.0
1040
1.0
1000

1040
0.0
1002
{
1002
}
1040
0.0
1002
{
1002
}
1040
0.0
1002
}
1002
}
1040
1.0
1040
0.0
1040
0.0
1002
}
1002
{
1040
1.0
1040
1.0
1000

1040
0.0
1002
{
1002
}
1040
0.0
1002
{
1002
}
1040
0.0
1002
}
1002
{
1040
0.5
1040
1.0
1000

1040
0.0
1002
{
1002
}
1040
0.0
1002
{
1002
}
1040
0.0
1002
}
1002
{
1070
     0
1040
0.0
1002
{
1002
}
1040
1.0
1002
{
1002
}
1040
0.0
1002
}
1002
{
1040
0.0
1002
{
1002
{
1010
0.0
1020
0.0
1030
0.0
1002
}
1040
1.0
1000

1040
0.0
1002
{
1002
}
1040
0.0
1002
{
1002
}
1040
0.0
1002
}
1002
}
1002
{
1002
{
1070
     1
1002
{
1040
0.0
1040
1.0
1000

1040
0.0
1002
{
1002
}
1040
0.0
1002
{
1002
}
1040
0.0
1002
}
1002
}
1040
0.0
1002
{
1002
}
1010
1.0
1020
0.0
1030
0.0
1010
0.0
1020
1.0
1030
0.0
1010
0.0
1020
0.0
1030
1.0
1070
     0
1002
}
1002
{
1002
{
1040
1.0
1040
1.0
1002
{
1070
     1
1002
{
1040
1.0
1040
1.0
1000

1040
0.0
1002
{
1002
}
1040
0.0
1002
{
1002
}
1040
0.0
1002
}
1002
}
1002
}
1070
     0
1040
0.0
1002
{
1002
}
1002
}
1002
{
1002
}
1002
}
1002
{
1071
        3
1070
     3
1070
     0
1002
{
1070
     2
1070
     0
1070
     0
1040
0.0
1002
}
1070
     0
1070
     2
1002
{
1002
}
1002
}
1002
{
1040
8030.0
1040
190.3000030517578
1040
0.3050000071525574
1040
228.0
1040
545.0
1040
14.0
1040
17.39999961853027
1040
0.4560000002384186
1002
}
1002
}
  0
INSERT
  5
6CC1
330
2
100
AcDbEntity
  8
ASHADE
 62
     1
370
    13
100
AcDbBlockReference
  2
AVE_RENDER
 10
863.8605422231881
 20
711.8977844225289
 30
0.0
1001
AVE_RENDER
1002
{
1070
     7
1000
Pref
1070
    60
1070
    20
1070
     1
1070
     0
1000

1070
    10
1070
     1
1070
    10
1040
1.0
1070
     1
1040
0.3
1040
0.7
1040
0.0
1040
10.0
1010
-1.0
1020
-1.0
1030
-1.0
1040
0.3
1070
    49
1070
     0
1070
     0
1010
1.0
1020
1.0
1030
1.0
1040
45.0
1070
     1
1070
     0
1000
WCS
1040
0.0
1070
     0
1040
10.0
1002
}
  0
INSERT
  5
6CC2
330
2
100
AcDbEntity
  8
ASHADE
 62
     3
370
    13
100
AcDbBlockReference
  2
AVE_RENDER
 10
863.8605422231881
 20
711.8977844225289
 30
0.0
1001
AVE_RENDER
1002
{
1070
     0
1000
Full Opt
1070
     0
1070
     1
1070
     1
1070
     1
1070
     0
1070
     0
1070
     0
1070
     1
1070
     1
1040
0.0001
1040
0.0001
1002
}
  0
INSERT
  5
6CC3
330
2
100
AcDbEntity
  8
ASHADE
 62
     4
370
    13
100
AcDbBlockReference
  2
AVE_RENDER
 10
863.8605422231881
 20
711.8977844225289
 30
0.0
1001
AVE_RENDER
1002
{
1070
     0
1000
Quick Opt
1070
     0
1070
     1
1070
     1
1070
     1
1070
     0
1070
     0
1070
     1
1002
}
  0
INSERT
  5
6CC4
330
2
100
AcDbEntity
  8
ASHADE
 62
     5
370
    13
100
AcDbBlockReference
  2
AVE_RENDER
 10
863.8605422231881
 20
711.8977844225289
 30
0.0
1001
AVE_RENDER
1002
{
1070
     1
1000
Scanl Opt
1070
     2
1070
     0
1070
     2
1040
2.0
1040
4.0
1070
     0
1070
     1
1070
     0
1040
0.03
1002
}
  0
INSERT
  5
6CC5
330
2
100
AcDbEntity
  8
ASHADE
 62
     6
370
    13
100
AcDbBlockReference
  2
AVE_RENDER
 10
863.8605422231881
 20
711.8977844225289
 30
0.0
1001
AVE_RENDER
1002
{
1070
     2
1000
Raytr Opt
1070
     2
1070
     0
1070
     2
1040
2.0
1040
4.0
1070
     0
1070
     1
1070
     1
1040
0.03
1070
     3
1040
0.03
1002
}
  0
INSERT
  5
6CC6
330
2
100
AcDbEntity
  8
ASHADE
 62
     7
370
    13
100
AcDbBlockReference
  2
AVE_RENDER
 10
863.8605422231881
 20
711.8977844225289
 30
0.0
1001
AVE_RENDER
1002
{
1070
     0
1000
RFile Opt
1070
     1
1070
   640
1070
   480
1070
 10000
1070
     1
1070
     8
1070
     8
1070
     0
1070
     0
1070
     0
1070
     0
1070
     0
1070
     0
1070
     0
1002
}
  0
INSERT
  5
6CC7
330
2
100
AcDbEntity
  8
ASHADE
 62
     8
370
    13
100
AcDbBlockReference
  2
AVE_RENDER
 10
863.8605422231881
 20
711.8977844225289
 30
0.0
1001
AVE_RENDER
1002
{
1070
     0
1000
Fog Opt
1070
     0
1070
     0
1040
0.0
1040
1.0
1040
0.0
1040
1.0
1010
0.5
1020
0.5
1030
0.5
1002
}
  0
INSERT
  5
6CC8
330
2
100
AcDbEntity
  8
ASHADE
 62
     9
370
    13
100
AcDbBlockReference
  2
AVE_RENDER
 10
863.8605422231881
 20
711.8977844225289
 30
0.0
1001
AVE_RENDER
1002
{
1070
     0
1000
BG Opt
1070
     0
1070
     1
1010
0.0
1020
0.0
1030
0.0
1010
1.0
1020
0.0
1030
0.0
1010
0.0
1020
1.0
1030
0.0
1010
0.0
1020
0.0
1030
1.0
1040
0.5
1040
0.33
1040
0.0
1000

1070
     1
1000

1070
     1
1070
     1
1040
1.0
1040
1.0
1040
0.0
1040
0.0
1070
     0
1002
}
  0
INSERT
  5
6CC9
330
2
100
AcDbEntity
  8
ASHADE
 62
     1
370
    13
100
AcDbBlockReference
  2
AVE_GLOBAL
 10
863.8605422231881
 20
711.8977844225289
 30
0.0
1001
AVE_MATERIAL
1002
{
1000
*GLOBAL*
1000
1
1000
Global finish.
1002
{
1002
}
1002
{
1070
    63
1002
{
1002
{
1010
-1.0
1020
-1.0
1030
-1.0
1002
}
1040
0.1000000014901161
1000

1040
0.0
1002
{
1002
}
1040
0.0
1002
{
1002
}
1040
0.0
1002
}
1002
{
1002
{
1010
-1.0
1020
-1.0
1030
-1.0
1002
}
1040
0.6999999880790711
1000

1040
0.0
1002
{
1002
}
1040
0.0
1002
{
1002
}
1040
0.0
1002
}
1002
{
1002
{
1010
-1.0
1020
-1.0
1030
-1.0
1002
}
1040
0.2000000029802322
1000

1040
0.0
1002
{
1002
}
1040
0.0
1002
{
1002
}
1040
0.0
1002
}
1002
{
1070
     0
1002
{
1070
     1
1002
{
1040
1.0
1040
1.0
1000

1040
0.0
1002
{
1002
}
1040
0.0
1002
{
1002
}
1040
0.0
1002
}
1002
}
1040
1.0
1040
0.0
1040
0.0
1002
}
1002
{
1040
1.0
1040
1.0
1000

1040
0.0
1002
{
1002
}
1040
0.0
1002
{
1002
}
1040
0.0
1002
}
1002
{
1040
0.5
1040
1.0
1000

1040
0.0
1002
{
1002
}
1040
0.0
1002
{
1002
}
1040
0.0
1002
}
1002
{
1070
     0
1040
0.0
1002
{
1002
}
1040
1.0
1002
{
1002
}
1040
0.0
1002
}
1002
{
1040
0.0
1002
{
1002
{
1010
0.0
1020
0.0
1030
0.0
1002
}
1040
1.0
1000

1040
0.0
1002
{
1002
}
1040
0.0
1002
{
1002
}
1040
0.0
1002
}
1002
}
1002
{
1002
{
1070
     1
1002
{
1040
0.0
1040
1.0
1000

1040
0.0
1002
{
1002
}
1040
0.0
1002
{
1002
}
1040
0.0
1002
}
1002
}
1040
0.0
1002
{
1002
}
1010
1.0
1020
0.0
1030
0.0
1010
0.0
1020
1.0
1030
0.0
1010
0.0
1020
0.0
1030
1.0
1070
     0
1002
}
1002
{
1002
{
1040
1.0
1040
1.0
1002
{
1070
     1
1002
{
1040
1.0
1040
1.0
1000

1040
0.0
1002
{
1002
}
1040
0.0
1002
{
1002
}
1040
0.0
1002
}
1002
}
1002
}
1070
     0
1040
0.0
1002
{
1002
}
1002
}
1002
{
1002
}
1002
}
1002
{
1071
        3
1070
     3
1070
     0
1002
{
1070
     2
1070
     0
1070
     0
1040
0.0
1002
}
1070
     0
1070
     2
1002
{
1002
}
1002
}
1002
{
1040
8030.0
1040
190.3000030517578
1040
0.3050000071525574
1040
228.0
1040
545.0
1040
14.0
1040
17.39999961853027
1040
0.4560000002384186
1002
}
1002
}
  0
INSERT
  5
6CCE
330
2
100
AcDbEntity
  8
ASHADE
 62
     1
370
    13
100
AcDbBlockReference
  2
AVE_RENDER
 10
860.8067827237219
 20
765.6310894457913
 30
0.0
1001
AVE_RENDER
1002
{
1070
     7
1000
Pref
1070
    30
1070
    20
1070
     1
1070
     0
1000

1070
    10
1070
     1
1070
    10
1040
1.0
1070
     1
1040
0.3
1040
0.7
1040
0.0
1040
10.0
1010
-1.0
1020
-1.0
1030
-1.0
1040
0.3
1070
    49
1070
     0
1070
     0
1010
1.0
1020
1.0
1030
1.0
1040
45.0
1070
     1
1070
     0
1000
WCS
1040
0.0
1070
     0
1040
10.0
1002
}
  0
INSERT
  5
6CCF
330
2
100
AcDbEntity
  8
ASHADE
 62
     3
370
    13
100
AcDbBlockReference
  2
AVE_RENDER
 10
860.8067827237219
 20
765.6310894457913
 30
0.0
1001
AVE_RENDER
1002
{
1070
     0
1000
Full Opt
1070
     0
1070
     1
1070
     1
1070
     1
1070
     0
1070
     0
1070
     0
1070
     1
1070
     1
1040
0.0001
1040
0.0001
1002
}
  0
INSERT
  5
6CD0
330
2
100
AcDbEntity
  8
ASHADE
 62
     4
370
    13
100
AcDbBlockReference
  2
AVE_RENDER
 10
860.8067827237219
 20
765.6310894457913
 30
0.0
1001
AVE_RENDER
1002
{
1070
     0
1000
Quick Opt
1070
     0
1070
     1
1070
     1
1070
     1
1070
     0
1070
     0
1070
     1
1002
}
  0
INSERT
  5
6CD1
330
2
100
AcDbEntity
  8
ASHADE
 62
     5
370
    13
100
AcDbBlockReference
  2
AVE_RENDER
 10
860.8067827237219
 20
765.6310894457913
 30
0.0
1001
AVE_RENDER
1002
{
1070
     1
1000
Scanl Opt
1070
     2
1070
     0
1070
     2
1040
2.0
1040
4.0
1070
     0
1070
     1
1070
     0
1040
0.03
1002
}
  0
INSERT
  5
6CD2
330
2
100
AcDbEntity
  8
ASHADE
 62
     6
370
    13
100
AcDbBlockReference
  2
AVE_RENDER
 10
860.8067827237219
 20
765.6310894457913
 30
0.0
1001
AVE_RENDER
1002
{
1070
     2
1000
Raytr Opt
1070
     2
1070
     0
1070
     2
1040
2.0
1040
4.0
1070
     0
1070
     1
1070
     1
1040
0.03
1070
     3
1040
0.03
1002
}
  0
INSERT
  5
6CD3
330
2
100
AcDbEntity
  8
ASHADE
 62
     7
370
    13
100
AcDbBlockReference
  2
AVE_RENDER
 10
860.8067827237219
 20
765.6310894457913
 30
0.0
1001
AVE_RENDER
1002
{
1070
     0
1000
RFile Opt
1070
     1
1070
   640
1070
   480
1070
 10000
1070
     1
1070
     8
1070
     8
1070
     0
1070
     0
1070
     0
1070
     0
1070
     0
1070
     0
1070
     0
1002
}
  0
INSERT
  5
6CD4
330
2
100
AcDbEntity
  8
ASHADE
 62
     8
370
    13
100
AcDbBlockReference
  2
AVE_RENDER
 10
860.8067827237219
 20
765.6310894457913
 30
0.0
1001
AVE_RENDER
1002
{
1070
     0
1000
Fog Opt
1070
     0
1070
     0
1040
0.0
1040
1.0
1040
0.0
1040
1.0
1010
0.5
1020
0.5
1030
0.5
1002
}
  0
INSERT
  5
6CD5
330
2
100
AcDbEntity
  8
ASHADE
 62
     9
370
    13
100
AcDbBlockReference
  2
AVE_RENDER
 10
860.8067827237219
 20
765.6310894457913
 30
0.0
1001
AVE_RENDER
1002
{
1070
     0
1000
BG Opt
1070
     0
1070
     1
1010
0.0
1020
0.0
1030
0.0
1010
1.0
1020
0.0
1030
0.0
1010
0.0
1020
1.0
1030
0.0
1010
0.0
1020
0.0
1030
1.0
1040
0.5
1040
0.33
1040
0.0
1000

1070
     1
1000

1070
     1
1070
     1
1040
1.0
1040
1.0
1040
0.0
1040
0.0
1070
     0
1002
}
  0
INSERT
  5
6CD6
330
2
100
AcDbEntity
  8
ASHADE
 62
     1
370
    13
100
AcDbBlockReference
  2
AVE_GLOBAL
 10
860.8067827237219
 20
765.6310894457913
 30
0.0
1001
AVE_MATERIAL
1002
{
1000
*GLOBAL*
1000
1
1000
Global finish.
1002
{
1002
}
1002
{
1070
    63
1002
{
1002
{
1010
-1.0
1020
-1.0
1030
-1.0
1002
}
1040
0.1000000014901161
1000

1040
0.0
1002
{
1002
}
1040
0.0
1002
{
1002
}
1040
0.0
1002
}
1002
{
1002
{
1010
-1.0
1020
-1.0
1030
-1.0
1002
}
1040
0.6999999880790711
1000

1040
0.0
1002
{
1002
}
1040
0.0
1002
{
1002
}
1040
0.0
1002
}
1002
{
1002
{
1010
-1.0
1020
-1.0
1030
-1.0
1002
}
1040
0.2000000029802322
1000

1040
0.0
1002
{
1002
}
1040
0.0
1002
{
1002
}
1040
0.0
1002
}
1002
{
1070
     0
1002
{
1070
     1
1002
{
1040
1.0
1040
1.0
1000

1040
0.0
1002
{
1002
}
1040
0.0
1002
{
1002
}
1040
0.0
1002
}
1002
}
1040
1.0
1040
0.0
1040
0.0
1002
}
1002
{
1040
1.0
1040
1.0
1000

1040
0.0
1002
{
1002
}
1040
0.0
1002
{
1002
}
1040
0.0
1002
}
1002
{
1040
0.5
1040
1.0
1000

1040
0.0
1002
{
1002
}
1040
0.0
1002
{
1002
}
1040
0.0
1002
}
1002
{
1070
     0
1040
0.0
1002
{
1002
}
1040
1.0
1002
{
1002
}
1040
0.0
1002
}
1002
{
1040
0.0
1002
{
1002
{
1010
0.0
1020
0.0
1030
0.0
1002
}
1040
1.0
1000

1040
0.0
1002
{
1002
}
1040
0.0
1002
{
1002
}
1040
0.0
1002
}
1002
}
1002
{
1002
{
1070
     1
1002
{
1040
0.0
1040
1.0
1000

1040
0.0
1002
{
1002
}
1040
0.0
1002
{
1002
}
1040
0.0
1002
}
1002
}
1040
0.0
1002
{
1002
}
1010
1.0
1020
0.0
1030
0.0
1010
0.0
1020
1.0
1030
0.0
1010
0.0
1020
0.0
1030
1.0
1070
     0
1002
}
1002
{
1002
{
1040
1.0
1040
1.0
1002
{
1070
     1
1002
{
1040
1.0
1040
1.0
1000

1040
0.0
1002
{
1002
}
1040
0.0
1002
{
1002
}
1040
0.0
1002
}
1002
}
1002
}
1070
     0
1040
0.0
1002
{
1002
}
1002
}
1002
{
1002
}
1002
}
1002
{
1071
        3
1070
     3
1070
     0
1002
{
1070
     2
1070
     0
1070
     0
1040
0.0
1002
}
1070
     0
1070
     2
1002
{
1002
}
1002
}
1002
{
1040
8030.0
1040
190.3000030517578
1040
0.3050000071525574
1040
228.0
1040
545.0
1040
14.0
1040
17.39999961853027
1040
0.4560000002384186
1002
}
1002
}
  0
INSERT
  5
6CD7
330
2
100
AcDbEntity
  8
ASHADE
 62
     1
370
    13
100
AcDbBlockReference
  2
AVE_RENDER
 10
860.7210537762723
 20
709.7675543401376
 30
0.0
1001
AVE_RENDER
1002
{
1070
     7
1000
Pref
1070
    60
1070
    20
1070
     1
1070
     0
1000

1070
    10
1070
     1
1070
    10
1040
1.0
1070
     1
1040
0.3
1040
0.7
1040
0.0
1040
10.0
1010
-1.0
1020
-1.0
1030
-1.0
1040
0.3
1070
    49
1070
     0
1070
     0
1010
1.0
1020
1.0
1030
1.0
1040
45.0
1070
     1
1070
     0
1000
WCS
1040
0.0
1070
     0
1040
10.0
1002
}
  0
INSERT
  5
6CD8
330
2
100
AcDbEntity
  8
ASHADE
 62
     3
370
    13
100
AcDbBlockReference
  2
AVE_RENDER
 10
860.7210537762723
 20
709.7675543401376
 30
0.0
1001
AVE_RENDER
1002
{
1070
     0
1000
Full Opt
1070
     0
1070
     1
1070
     1
1070
     1
1070
     0
1070
     0
1070
     0
1070
     1
1070
     1
1040
0.0001
1040
0.0001
1002
}
  0
INSERT
  5
6CD9
330
2
100
AcDbEntity
  8
ASHADE
 62
     4
370
    13
100
AcDbBlockReference
  2
AVE_RENDER
 10
860.7210537762723
 20
709.7675543401376
 30
0.0
1001
AVE_RENDER
1002
{
1070
     0
1000
Quick Opt
1070
     0
1070
     1
1070
     1
1070
     1
1070
     0
1070
     0
1070
     1
1002
}
  0
INSERT
  5
6CDA
330
2
100
AcDbEntity
  8
ASHADE
 62
     5
370
    13
100
AcDbBlockReference
  2
AVE_RENDER
 10
860.7210537762723
 20
709.7675543401376
 30
0.0
1001
AVE_RENDER
1002
{
1070
     1
1000
Scanl Opt
1070
     2
1070
     0
1070
     2
1040
2.0
1040
4.0
1070
     0
1070
     1
1070
     0
1040
0.03
1002
}
  0
INSERT
  5
6CDB
330
2
100
AcDbEntity
  8
ASHADE
 62
     6
370
    13
100
AcDbBlockReference
  2
AVE_RENDER
 10
860.7210537762723
 20
709.7675543401376
 30
0.0
1001
AVE_RENDER
1002
{
1070
     2
1000
Raytr Opt
1070
     2
1070
     0
1070
     2
1040
2.0
1040
4.0
1070
     0
1070
     1
1070
     1
1040
0.03
1070
     3
1040
0.03
1002
}
  0
INSERT
  5
6CDC
330
2
100
AcDbEntity
  8
ASHADE
 62
     7
370
    13
100
AcDbBlockReference
  2
AVE_RENDER
 10
860.7210537762723
 20
709.7675543401376
 30
0.0
1001
AVE_RENDER
1002
{
1070
     0
1000
RFile Opt
1070
     1
1070
   640
1070
   480
1070
 10000
1070
     1
1070
     8
1070
     8
1070
     0
1070
     0
1070
     0
1070
     0
1070
     0
1070
     0
1070
     0
1002
}
  0
INSERT
  5
6CDD
330
2
100
AcDbEntity
  8
ASHADE
 62
     8
370
    13
100
AcDbBlockReference
  2
AVE_RENDER
 10
860.7210537762723
 20
709.7675543401376
 30
0.0
1001
AVE_RENDER
1002
{
1070
     0
1000
Fog Opt
1070
     0
1070
     0
1040
0.0
1040
1.0
1040
0.0
1040
1.0
1010
0.5
1020
0.5
1030
0.5
1002
}
  0
INSERT
  5
6CDE
330
2
100
AcDbEntity
  8
ASHADE
 62
     9
370
    13
100
AcDbBlockReference
  2
AVE_RENDER
 10
860.7210537762723
 20
709.7675543401376
 30
0.0
1001
AVE_RENDER
1002
{
1070
     0
1000
BG Opt
1070
     0
1070
     1
1010
0.0
1020
0.0
1030
0.0
1010
1.0
1020
0.0
1030
0.0
1010
0.0
1020
1.0
1030
0.0
1010
0.0
1020
0.0
1030
1.0
1040
0.5
1040
0.33
1040
0.0
1000

1070
     1
1000

1070
     1
1070
     1
1040
1.0
1040
1.0
1040
0.0
1040
0.0
1070
     0
1002
}
  0
INSERT
  5
6CDF
330
2
100
AcDbEntity
  8
ASHADE
 62
     1
370
    13
100
AcDbBlockReference
  2
AVE_GLOBAL
 10
860.7210537762723
 20
709.7675543401376
 30
0.0
1001
AVE_MATERIAL
1002
{
1000
*GLOBAL*
1000
1
1000
Global finish.
1002
{
1002
}
1002
{
1070
    63
1002
{
1002
{
1010
-1.0
1020
-1.0
1030
-1.0
1002
}
1040
0.1000000014901161
1000

1040
0.0
1002
{
1002
}
1040
0.0
1002
{
1002
}
1040
0.0
1002
}
1002
{
1002
{
1010
-1.0
1020
-1.0
1030
-1.0
1002
}
1040
0.6999999880790711
1000

1040
0.0
1002
{
1002
}
1040
0.0
1002
{
1002
}
1040
0.0
1002
}
1002
{
1002
{
1010
-1.0
1020
-1.0
1030
-1.0
1002
}
1040
0.2000000029802322
1000

1040
0.0
1002
{
1002
}
1040
0.0
1002
{
1002
}
1040
0.0
1002
}
1002
{
1070
     0
1002
{
1070
     1
1002
{
1040
1.0
1040
1.0
1000

1040
0.0
1002
{
1002
}
1040
0.0
1002
{
1002
}
1040
0.0
1002
}
1002
}
1040
1.0
1040
0.0
1040
0.0
1002
}
1002
{
1040
1.0
1040
1.0
1000

1040
0.0
1002
{
1002
}
1040
0.0
1002
{
1002
}
1040
0.0
1002
}
1002
{
1040
0.5
1040
1.0
1000

1040
0.0
1002
{
1002
}
1040
0.0
1002
{
1002
}
1040
0.0
1002
}
1002
{
1070
     0
1040
0.0
1002
{
1002
}
1040
1.0
1002
{
1002
}
1040
0.0
1002
}
1002
{
1040
0.0
1002
{
1002
{
1010
0.0
1020
0.0
1030
0.0
1002
}
1040
1.0
1000

1040
0.0
1002
{
1002
}
1040
0.0
1002
{
1002
}
1040
0.0
1002
}
1002
}
1002
{
1002
{
1070
     1
1002
{
1040
0.0
1040
1.0
1000

1040
0.0
1002
{
1002
}
1040
0.0
1002
{
1002
}
1040
0.0
1002
}
1002
}
1040
0.0
1002
{
1002
}
1010
1.0
1020
0.0
1030
0.0
1010
0.0
1020
1.0
1030
0.0
1010
0.0
1020
0.0
1030
1.0
1070
     0
1002
}
1002
{
1002
{
1040
1.0
1040
1.0
1002
{
1070
     1
1002
{
1040
1.0
1040
1.0
1000

1040
0.0
1002
{
1002
}
1040
0.0
1002
{
1002
}
1040
0.0
1002
}
1002
}
1002
}
1070
     0
1040
0.0
1002
{
1002
}
1002
}
1002
{
1002
}
1002
}
1002
{
1071
        3
1070
     3
1070
     0
1002
{
1070
     2
1070
     0
1070
     0
1040
0.0
1002
}
1070
     0
1070
     2
1002
{
1002
}
1002
}
1002
{
1040
8030.0
1040
190.3000030517578
1040
0.3050000071525574
1040
228.0
1040
545.0
1040
14.0
1040
17.39999961853027
1040
0.4560000002384186
1002
}
1002
}
  0
INSERT
  5
6CE0
330
2
100
AcDbEntity
  8
ASHADE
 62
     1
370
    13
100
AcDbBlockReference
  2
AVE_RENDER
 10
861.8972304036205
 20
766.2312448846043
 30
0.0
1001
AVE_RENDER
1002
{
1070
     7
1000
Pref
1070
    30
1070
    20
1070
     1
1070
     0
1000

1070
    10
1070
     1
1070
    10
1040
1.0
1070
     1
1040
0.3
1040
0.7
1040
0.0
1040
10.0
1010
-1.0
1020
-1.0
1030
-1.0
1040
0.3
1070
    49
1070
     0
1070
     0
1010
1.0
1020
1.0
1030
1.0
1040
45.0
1070
     1
1070
     0
1000
WCS
1040
0.0
1070
     0
1040
10.0
1002
}
  0
INSERT
  5
6CE1
330
2
100
AcDbEntity
  8
ASHADE
 62
     3
370
    13
100
AcDbBlockReference
  2
AVE_RENDER
 10
861.8972304036205
 20
766.2312448846043
 30
0.0
1001
AVE_RENDER
1002
{
1070
     0
1000
Full Opt
1070
     0
1070
     1
1070
     1
1070
     1
1070
     0
1070
     0
1070
     0
1070
     1
1070
     1
1040
0.0001
1040
0.0001
1002
}
  0
INSERT
  5
6CE2
330
2
100
AcDbEntity
  8
ASHADE
 62
     4
370
    13
100
AcDbBlockReference
  2
AVE_RENDER
 10
861.8972304036205
 20
766.2312448846043
 30
0.0
1001
AVE_RENDER
1002
{
1070
     0
1000
Quick Opt
1070
     0
1070
     1
1070
     1
1070
     1
1070
     0
1070
     0
1070
     1
1002
}
  0
INSERT
  5
6CE3
330
2
100
AcDbEntity
  8
ASHADE
 62
     5
370
    13
100
AcDbBlockReference
  2
AVE_RENDER
 10
861.8972304036205
 20
766.2312448846043
 30
0.0
1001
AVE_RENDER
1002
{
1070
     1
1000
Scanl Opt
1070
     2
1070
     0
1070
     2
1040
2.0
1040
4.0
1070
     0
1070
     1
1070
     0
1040
0.03
1002
}
  0
INSERT
  5
6CE4
330
2
100
AcDbEntity
  8
ASHADE
 62
     6
370
    13
100
AcDbBlockReference
  2
AVE_RENDER
 10
861.8972304036205
 20
766.2312448846043
 30
0.0
1001
AVE_RENDER
1002
{
1070
     2
1000
Raytr Opt
1070
     2
1070
     0
1070
     2
1040
2.0
1040
4.0
1070
     0
1070
     1
1070
     1
1040
0.03
1070
     3
1040
0.03
1002
}
  0
INSERT
  5
6CE5
330
2
100
AcDbEntity
  8
ASHADE
 62
     7
370
    13
100
AcDbBlockReference
  2
AVE_RENDER
 10
861.8972304036205
 20
766.2312448846043
 30
0.0
1001
AVE_RENDER
1002
{
1070
     0
1000
RFile Opt
1070
     1
1070
   640
1070
   480
1070
 10000
1070
     1
1070
     8
1070
     8
1070
     0
1070
     0
1070
     0
1070
     0
1070
     0
1070
     0
1070
     0
1002
}
  0
INSERT
  5
6CE6
330
2
100
AcDbEntity
  8
ASHADE
 62
     8
370
    13
100
AcDbBlockReference
  2
AVE_RENDER
 10
861.8972304036205
 20
766.2312448846043
 30
0.0
1001
AVE_RENDER
1002
{
1070
     0
1000
Fog Opt
1070
     0
1070
     0
1040
0.0
1040
1.0
1040
0.0
1040
1.0
1010
0.5
1020
0.5
1030
0.5
1002
}
  0
INSERT
  5
6CE7
330
2
100
AcDbEntity
  8
ASHADE
 62
     9
370
    13
100
AcDbBlockReference
  2
AVE_RENDER
 10
861.8972304036205
 20
766.2312448846043
 30
0.0
1001
AVE_RENDER
1002
{
1070
     0
1000
BG Opt
1070
     0
1070
     1
1010
0.0
1020
0.0
1030
0.0
1010
1.0
1020
0.0
1030
0.0
1010
0.0
1020
1.0
1030
0.0
1010
0.0
1020
0.0
1030
1.0
1040
0.5
1040
0.33
1040
0.0
1000

1070
     1
1000

1070
     1
1070
     1
1040
1.0
1040
1.0
1040
0.0
1040
0.0
1070
     0
1002
}
  0
INSERT
  5
6CE8
330
2
100
AcDbEntity
  8
ASHADE
 62
     1
370
    13
100
AcDbBlockReference
  2
AVE_GLOBAL
 10
861.8972304036205
 20
766.2312448846043
 30
0.0
1001
AVE_MATERIAL
1002
{
1000
*GLOBAL*
1000
1
1000
Global finish.
1002
{
1002
}
1002
{
1070
    63
1002
{
1002
{
1010
-1.0
1020
-1.0
1030
-1.0
1002
}
1040
0.1000000014901161
1000

1040
0.0
1002
{
1002
}
1040
0.0
1002
{
1002
}
1040
0.0
1002
}
1002
{
1002
{
1010
-1.0
1020
-1.0
1030
-1.0
1002
}
1040
0.6999999880790711
1000

1040
0.0
1002
{
1002
}
1040
0.0
1002
{
1002
}
1040
0.0
1002
}
1002
{
1002
{
1010
-1.0
1020
-1.0
1030
-1.0
1002
}
1040
0.2000000029802322
1000

1040
0.0
1002
{
1002
}
1040
0.0
1002
{
1002
}
1040
0.0
1002
}
1002
{
1070
     0
1002
{
1070
     1
1002
{
1040
1.0
1040
1.0
1000

1040
0.0
1002
{
1002
}
1040
0.0
1002
{
1002
}
1040
0.0
1002
}
1002
}
1040
1.0
1040
0.0
1040
0.0
1002
}
1002
{
1040
1.0
1040
1.0
1000

1040
0.0
1002
{
1002
}
1040
0.0
1002
{
1002
}
1040
0.0
1002
}
1002
{
1040
0.5
1040
1.0
1000

1040
0.0
1002
{
1002
}
1040
0.0
1002
{
1002
}
1040
0.0
1002
}
1002
{
1070
     0
1040
0.0
1002
{
1002
}
1040
1.0
1002
{
1002
}
1040
0.0
1002
}
1002
{
1040
0.0
1002
{
1002
{
1010
0.0
1020
0.0
1030
0.0
1002
}
1040
1.0
1000

1040
0.0
1002
{
1002
}
1040
0.0
1002
{
1002
}
1040
0.0
1002
}
1002
}
1002
{
1002
{
1070
     1
1002
{
1040
0.0
1040
1.0
1000

1040
0.0
1002
{
1002
}
1040
0.0
1002
{
1002
}
1040
0.0
1002
}
1002
}
1040
0.0
1002
{
1002
}
1010
1.0
1020
0.0
1030
0.0
1010
0.0
1020
1.0
1030
0.0
1010
0.0
1020
0.0
1030
1.0
1070
     0
1002
}
1002
{
1002
{
1040
1.0
1040
1.0
1002
{
1070
     1
1002
{
1040
1.0
1040
1.0
1000

1040
0.0
1002
{
1002
}
1040
0.0
1002
{
1002
}
1040
0.0
1002
}
1002
}
1002
}
1070
     0
1040
0.0
1002
{
1002
}
1002
}
1002
{
1002
}
1002
}
1002
{
1071
        3
1070
     3
1070
     0
1002
{
1070
     2
1070
     0
1070
     0
1040
0.0
1002
}
1070
     0
1070
     2
1002
{
1002
}
1002
}
1002
{
1040
8030.0
1040
190.3000030517578
1040
0.3050000071525574
1040
228.0
1040
545.0
1040
14.0
1040
17.39999961853027
1040
0.4560000002384186
1002
}
1002
}
  0
INSERT
  5
6CE9
330
2
100
AcDbEntity
  8
ASHADE
 62
     1
370
    13
100
AcDbBlockReference
  2
AVE_RENDER
 10
861.8115014561711
 20
710.3677097789506
 30
0.0
1001
AVE_RENDER
1002
{
1070
     7
1000
Pref
1070
    60
1070
    20
1070
     1
1070
     0
1000

1070
    10
1070
     1
1070
    10
1040
1.0
1070
     1
1040
0.3
1040
0.7
1040
0.0
1040
10.0
1010
-1.0
1020
-1.0
1030
-1.0
1040
0.3
1070
    49
1070
     0
1070
     0
1010
1.0
1020
1.0
1030
1.0
1040
45.0
1070
     1
1070
     0
1000
WCS
1040
0.0
1070
     0
1040
10.0
1002
}
  0
INSERT
  5
6CEA
330
2
100
AcDbEntity
  8
ASHADE
 62
     3
370
    13
100
AcDbBlockReference
  2
AVE_RENDER
 10
861.8115014561711
 20
710.3677097789506
 30
0.0
1001
AVE_RENDER
1002
{
1070
     0
1000
Full Opt
1070
     0
1070
     1
1070
     1
1070
     1
1070
     0
1070
     0
1070
     0
1070
     1
1070
     1
1040
0.0001
1040
0.0001
1002
}
  0
INSERT
  5
6CEB
330
2
100
AcDbEntity
  8
ASHADE
 62
     4
370
    13
100
AcDbBlockReference
  2
AVE_RENDER
 10
861.8115014561711
 20
710.3677097789506
 30
0.0
1001
AVE_RENDER
1002
{
1070
     0
1000
Quick Opt
1070
     0
1070
     1
1070
     1
1070
     1
1070
     0
1070
     0
1070
     1
1002
}
  0
INSERT
  5
6CEC
330
2
100
AcDbEntity
  8
ASHADE
 62
     5
370
    13
100
AcDbBlockReference
  2
AVE_RENDER
 10
861.8115014561711
 20
710.3677097789506
 30
0.0
1001
AVE_RENDER
1002
{
1070
     1
1000
Scanl Opt
1070
     2
1070
     0
1070
     2
1040
2.0
1040
4.0
1070
     0
1070
     1
1070
     0
1040
0.03
1002
}
  0
INSERT
  5
6CED
330
2
100
AcDbEntity
  8
ASHADE
 62
     6
370
    13
100
AcDbBlockReference
  2
AVE_RENDER
 10
861.8115014561711
 20
710.3677097789506
 30
0.0
1001
AVE_RENDER
1002
{
1070
     2
1000
Raytr Opt
1070
     2
1070
     0
1070
     2
1040
2.0
1040
4.0
1070
     0
1070
     1
1070
     1
1040
0.03
1070
     3
1040
0.03
1002
}
  0
INSERT
  5
6CEE
330
2
100
AcDbEntity
  8
ASHADE
 62
     7
370
    13
100
AcDbBlockReference
  2
AVE_RENDER
 10
861.8115014561711
 20
710.3677097789506
 30
0.0
1001
AVE_RENDER
1002
{
1070
     0
1000
RFile Opt
1070
     1
1070
   640
1070
   480
1070
 10000
1070
     1
1070
     8
1070
     8
1070
     0
1070
     0
1070
     0
1070
     0
1070
     0
1070
     0
1070
     0
1002
}
  0
INSERT
  5
6CEF
330
2
100
AcDbEntity
  8
ASHADE
 62
     8
370
    13
100
AcDbBlockReference
  2
AVE_RENDER
 10
861.8115014561711
 20
710.3677097789506
 30
0.0
1001
AVE_RENDER
1002
{
1070
     0
1000
Fog Opt
1070
     0
1070
     0
1040
0.0
1040
1.0
1040
0.0
1040
1.0
1010
0.5
1020
0.5
1030
0.5
1002
}
  0
INSERT
  5
6CF0
330
2
100
AcDbEntity
  8
ASHADE
 62
     9
370
    13
100
AcDbBlockReference
  2
AVE_RENDER
 10
861.8115014561711
 20
710.3677097789506
 30
0.0
1001
AVE_RENDER
1002
{
1070
     0
1000
BG Opt
1070
     0
1070
     1
1010
0.0
1020
0.0
1030
0.0
1010
1.0
1020
0.0
1030
0.0
1010
0.0
1020
1.0
1030
0.0
1010
0.0
1020
0.0
1030
1.0
1040
0.5
1040
0.33
1040
0.0
1000

1070
     1
1000

1070
     1
1070
     1
1040
1.0
1040
1.0
1040
0.0
1040
0.0
1070
     0
1002
}
  0
INSERT
  5
6CF1
330
2
100
AcDbEntity
  8
ASHADE
 62
     1
370
    13
100
AcDbBlockReference
  2
AVE_GLOBAL
 10
861.8115014561711
 20
710.3677097789506
 30
0.0
1001
AVE_MATERIAL
1002
{
1000
*GLOBAL*
1000
1
1000
Global finish.
1002
{
1002
}
1002
{
1070
    63
1002
{
1002
{
1010
-1.0
1020
-1.0
1030
-1.0
1002
}
1040
0.1000000014901161
1000

1040
0.0
1002
{
1002
}
1040
0.0
1002
{
1002
}
1040
0.0
1002
}
1002
{
1002
{
1010
-1.0
1020
-1.0
1030
-1.0
1002
}
1040
0.6999999880790711
1000

1040
0.0
1002
{
1002
}
1040
0.0
1002
{
1002
}
1040
0.0
1002
}
1002
{
1002
{
1010
-1.0
1020
-1.0
1030
-1.0
1002
}
1040
0.2000000029802322
1000

1040
0.0
1002
{
1002
}
1040
0.0
1002
{
1002
}
1040
0.0
1002
}
1002
{
1070
     0
1002
{
1070
     1
1002
{
1040
1.0
1040
1.0
1000

1040
0.0
1002
{
1002
}
1040
0.0
1002
{
1002
}
1040
0.0
1002
}
1002
}
1040
1.0
1040
0.0
1040
0.0
1002
}
1002
{
1040
1.0
1040
1.0
1000

1040
0.0
1002
{
1002
}
1040
0.0
1002
{
1002
}
1040
0.0
1002
}
1002
{
1040
0.5
1040
1.0
1000

1040
0.0
1002
{
1002
}
1040
0.0
1002
{
1002
}
1040
0.0
1002
}
1002
{
1070
     0
1040
0.0
1002
{
1002
}
1040
1.0
1002
{
1002
}
1040
0.0
1002
}
1002
{
1040
0.0
1002
{
1002
{
1010
0.0
1020
0.0
1030
0.0
1002
}
1040
1.0
1000

1040
0.0
1002
{
1002
}
1040
0.0
1002
{
1002
}
1040
0.0
1002
}
1002
}
1002
{
1002
{
1070
     1
1002
{
1040
0.0
1040
1.0
1000

1040
0.0
1002
{
1002
}
1040
0.0
1002
{
1002
}
1040
0.0
1002
}
1002
}
1040
0.0
1002
{
1002
}
1010
1.0
1020
0.0
1030
0.0
1010
0.0
1020
1.0
1030
0.0
1010
0.0
1020
0.0
1030
1.0
1070
     0
1002
}
1002
{
1002
{
1040
1.0
1040
1.0
1002
{
1070
     1
1002
{
1040
1.0
1040
1.0
1000

1040
0.0
1002
{
1002
}
1040
0.0
1002
{
1002
}
1040
0.0
1002
}
1002
}
1002
}
1070
     0
1040
0.0
1002
{
1002
}
1002
}
1002
{
1002
}
1002
}
1002
{
1071
        3
1070
     3
1070
     0
1002
{
1070
     2
1070
     0
1070
     0
1040
0.0
1002
}
1070
     0
1070
     2
1002
{
1002
}
1002
}
1002
{
1040
8030.0
1040
190.3000030517578
1040
0.3050000071525574
1040
228.0
1040
545.0
1040
14.0
1040
17.39999961853027
1040
0.4560000002384186
1002
}
1002
}
  0
INSERT
  5
7C2D
330
2
100
AcDbEntity
  8
ASHADE
 62
     1
370
    13
100
AcDbBlockReference
  2
AVE_RENDER
 10
415.5412520149466
 20
762.5798903892731
 30
0.0
1001
AVE_RENDER
1002
{
1070
     7
1000
Pref
1070
    30
1070
    20
1070
     1
1070
     0
1000

1070
    10
1070
     1
1070
    10
1040
1.0
1070
     1
1040
0.3
1040
0.7
1040
0.0
1040
10.0
1010
-1.0
1020
-1.0
1030
-1.0
1040
0.3
1070
    49
1070
     0
1070
     0
1010
1.0
1020
1.0
1030
1.0
1040
45.0
1070
     1
1070
     0
1000
WCS
1040
0.0
1070
     0
1040
10.0
1002
}
  0
INSERT
  5
7C2E
330
2
100
AcDbEntity
  8
ASHADE
 62
     3
370
    13
100
AcDbBlockReference
  2
AVE_RENDER
 10
415.5412520149466
 20
762.5798903892731
 30
0.0
1001
AVE_RENDER
1002
{
1070
     0
1000
Full Opt
1070
     0
1070
     1
1070
     1
1070
     1
1070
     0
1070
     0
1070
     0
1070
     1
1070
     1
1040
0.0001
1040
0.0001
1002
}
  0
INSERT
  5
7C2F
330
2
100
AcDbEntity
  8
ASHADE
 62
     4
370
    13
100
AcDbBlockReference
  2
AVE_RENDER
 10
415.5412520149466
 20
762.5798903892731
 30
0.0
1001
AVE_RENDER
1002
{
1070
     0
1000
Quick Opt
1070
     0
1070
     1
1070
     1
1070
     1
1070
     0
1070
     0
1070
     1
1002
}
  0
INSERT
  5
7C30
330
2
100
AcDbEntity
  8
ASHADE
 62
     5
370
    13
100
AcDbBlockReference
  2
AVE_RENDER
 10
415.5412520149466
 20
762.5798903892731
 30
0.0
1001
AVE_RENDER
1002
{
1070
     1
1000
Scanl Opt
1070
     2
1070
     0
1070
     2
1040
2.0
1040
4.0
1070
     0
1070
     1
1070
     0
1040
0.03
1002
}
  0
INSERT
  5
7C31
330
2
100
AcDbEntity
  8
ASHADE
 62
     6
370
    13
100
AcDbBlockReference
  2
AVE_RENDER
 10
415.5412520149466
 20
762.5798903892731
 30
0.0
1001
AVE_RENDER
1002
{
1070
     2
1000
Raytr Opt
1070
     2
1070
     0
1070
     2
1040
2.0
1040
4.0
1070
     0
1070
     1
1070
     1
1040
0.03
1070
     3
1040
0.03
1002
}
  0
INSERT
  5
7C32
330
2
100
AcDbEntity
  8
ASHADE
 62
     7
370
    13
100
AcDbBlockReference
  2
AVE_RENDER
 10
415.5412520149466
 20
762.5798903892731
 30
0.0
1001
AVE_RENDER
1002
{
1070
     0
1000
RFile Opt
1070
     1
1070
   640
1070
   480
1070
 10000
1070
     1
1070
     8
1070
     8
1070
     0
1070
     0
1070
     0
1070
     0
1070
     0
1070
     0
1070
     0
1002
}
  0
INSERT
  5
7C33
330
2
100
AcDbEntity
  8
ASHADE
 62
     8
370
    13
100
AcDbBlockReference
  2
AVE_RENDER
 10
415.5412520149466
 20
762.5798903892731
 30
0.0
1001
AVE_RENDER
1002
{
1070
     0
1000
Fog Opt
1070
     0
1070
     0
1040
0.0
1040
1.0
1040
0.0
1040
1.0
1010
0.5
1020
0.5
1030
0.5
1002
}
  0
INSERT
  5
7C34
330
2
100
AcDbEntity
  8
ASHADE
 62
     9
370
    13
100
AcDbBlockReference
  2
AVE_RENDER
 10
415.5412520149466
 20
762.5798903892731
 30
0.0
1001
AVE_RENDER
1002
{
1070
     0
1000
BG Opt
1070
     0
1070
     1
1010
0.0
1020
0.0
1030
0.0
1010
1.0
1020
0.0
1030
0.0
1010
0.0
1020
1.0
1030
0.0
1010
0.0
1020
0.0
1030
1.0
1040
0.5
1040
0.33
1040
0.0
1000

1070
     1
1000

1070
     1
1070
     1
1040
1.0
1040
1.0
1040
0.0
1040
0.0
1070
     0
1002
}
  0
INSERT
  5
7C35
330
2
100
AcDbEntity
  8
ASHADE
 62
     1
370
    13
100
AcDbBlockReference
  2
AVE_GLOBAL
 10
415.5412520149466
 20
762.5798903892731
 30
0.0
1001
AVE_MATERIAL
1002
{
1000
*GLOBAL*
1000
1
1000
Global finish.
1002
{
1002
}
1002
{
1070
    63
1002
{
1002
{
1010
-1.0
1020
-1.0
1030
-1.0
1002
}
1040
0.1000000014901161
1000

1040
0.0
1002
{
1002
}
1040
0.0
1002
{
1002
}
1040
0.0
1002
}
1002
{
1002
{
1010
-1.0
1020
-1.0
1030
-1.0
1002
}
1040
0.6999999880790711
1000

1040
0.0
1002
{
1002
}
1040
0.0
1002
{
1002
}
1040
0.0
1002
}
1002
{
1002
{
1010
-1.0
1020
-1.0
1030
-1.0
1002
}
1040
0.2000000029802322
1000

1040
0.0
1002
{
1002
}
1040
0.0
1002
{
1002
}
1040
0.0
1002
}
1002
{
1070
     0
1002
{
1070
     1
1002
{
1040
1.0
1040
1.0
1000

1040
0.0
1002
{
1002
}
1040
0.0
1002
{
1002
}
1040
0.0
1002
}
1002
}
1040
1.0
1040
0.0
1040
0.0
1002
}
1002
{
1040
1.0
1040
1.0
1000

1040
0.0
1002
{
1002
}
1040
0.0
1002
{
1002
}
1040
0.0
1002
}
1002
{
1040
0.5
1040
1.0
1000

1040
0.0
1002
{
1002
}
1040
0.0
1002
{
1002
}
1040
0.0
1002
}
1002
{
1070
     0
1040
0.0
1002
{
1002
}
1040
1.0
1002
{
1002
}
1040
0.0
1002
}
1002
{
1040
0.0
1002
{
1002
{
1010
0.0
1020
0.0
1030
0.0
1002
}
1040
1.0
1000

1040
0.0
1002
{
1002
}
1040
0.0
1002
{
1002
}
1040
0.0
1002
}
1002
}
1002
{
1002
{
1070
     1
1002
{
1040
0.0
1040
1.0
1000

1040
0.0
1002
{
1002
}
1040
0.0
1002
{
1002
}
1040
0.0
1002
}
1002
}
1040
0.0
1002
{
1002
}
1010
1.0
1020
0.0
1030
0.0
1010
0.0
1020
1.0
1030
0.0
1010
0.0
1020
0.0
1030
1.0
1070
     0
1002
}
1002
{
1002
{
1040
1.0
1040
1.0
1002
{
1070
     1
1002
{
1040
1.0
1040
1.0
1000

1040
0.0
1002
{
1002
}
1040
0.0
1002
{
1002
}
1040
0.0
1002
}
1002
}
1002
}
1070
     0
1040
0.0
1002
{
1002
}
1002
}
1002
{
1002
}
1002
}
1002
{
1071
        3
1070
     3
1070
     0
1002
{
1070
     2
1070
     0
1070
     0
1040
0.0
1002
}
1070
     0
1070
     2
1002
{
1002
}
1002
}
1002
{
1040
8030.0
1040
190.3000030517578
1040
0.3050000071525574
1040
228.0
1040
545.0
1040
14.0
1040
17.39999961853027
1040
0.4560000002384186
1002
}
1002
}
  0
INSERT
  5
7C36
330
2
100
AcDbEntity
  8
ASHADE
 62
     1
370
    13
100
AcDbBlockReference
  2
AVE_RENDER
 10
415.4555230674971
 20
706.7163552836194
 30
0.0
1001
AVE_RENDER
1002
{
1070
     7
1000
Pref
1070
    60
1070
    20
1070
     1
1070
     0
1000

1070
    10
1070
     1
1070
    10
1040
1.0
1070
     1
1040
0.3
1040
0.7
1040
0.0
1040
10.0
1010
-1.0
1020
-1.0
1030
-1.0
1040
0.3
1070
    49
1070
     0
1070
     0
1010
1.0
1020
1.0
1030
1.0
1040
45.0
1070
     1
1070
     0
1000
WCS
1040
0.0
1070
     0
1040
10.0
1002
}
  0
INSERT
  5
7C37
330
2
100
AcDbEntity
  8
ASHADE
 62
     3
370
    13
100
AcDbBlockReference
  2
AVE_RENDER
 10
415.4555230674971
 20
706.7163552836194
 30
0.0
1001
AVE_RENDER
1002
{
1070
     0
1000
Full Opt
1070
     0
1070
     1
1070
     1
1070
     1
1070
     0
1070
     0
1070
     0
1070
     1
1070
     1
1040
0.0001
1040
0.0001
1002
}
  0
INSERT
  5
7C38
330
2
100
AcDbEntity
  8
ASHADE
 62
     4
370
    13
100
AcDbBlockReference
  2
AVE_RENDER
 10
415.4555230674971
 20
706.7163552836194
 30
0.0
1001
AVE_RENDER
1002
{
1070
     0
1000
Quick Opt
1070
     0
1070
     1
1070
     1
1070
     1
1070
     0
1070
     0
1070
     1
1002
}
  0
INSERT
  5
7C39
330
2
100
AcDbEntity
  8
ASHADE
 62
     5
370
    13
100
AcDbBlockReference
  2
AVE_RENDER
 10
415.4555230674971
 20
706.7163552836194
 30
0.0
1001
AVE_RENDER
1002
{
1070
     1
1000
Scanl Opt
1070
     2
1070
     0
1070
     2
1040
2.0
1040
4.0
1070
     0
1070
     1
1070
     0
1040
0.03
1002
}
  0
INSERT
  5
7C3A
330
2
100
AcDbEntity
  8
ASHADE
 62
     6
370
    13
100
AcDbBlockReference
  2
AVE_RENDER
 10
415.4555230674971
 20
706.7163552836194
 30
0.0
1001
AVE_RENDER
1002
{
1070
     2
1000
Raytr Opt
1070
     2
1070
     0
1070
     2
1040
2.0
1040
4.0
1070
     0
1070
     1
1070
     1
1040
0.03
1070
     3
1040
0.03
1002
}
  0
INSERT
  5
7C3B
330
2
100
AcDbEntity
  8
ASHADE
 62
     7
370
    13
100
AcDbBlockReference
  2
AVE_RENDER
 10
415.4555230674971
 20
706.7163552836194
 30
0.0
1001
AVE_RENDER
1002
{
1070
     0
1000
RFile Opt
1070
     1
1070
   640
1070
   480
1070
 10000
1070
     1
1070
     8
1070
     8
1070
     0
1070
     0
1070
     0
1070
     0
1070
     0
1070
     0
1070
     0
1002
}
  0
INSERT
  5
7C3C
330
2
100
AcDbEntity
  8
ASHADE
 62
     8
370
    13
100
AcDbBlockReference
  2
AVE_RENDER
 10
415.4555230674971
 20
706.7163552836194
 30
0.0
1001
AVE_RENDER
1002
{
1070
     0
1000
Fog Opt
1070
     0
1070
     0
1040
0.0
1040
1.0
1040
0.0
1040
1.0
1010
0.5
1020
0.5
1030
0.5
1002
}
  0
INSERT
  5
7C3D
330
2
100
AcDbEntity
  8
ASHADE
 62
     9
370
    13
100
AcDbBlockReference
  2
AVE_RENDER
 10
415.4555230674971
 20
706.7163552836194
 30
0.0
1001
AVE_RENDER
1002
{
1070
     0
1000
BG Opt
1070
     0
1070
     1
1010
0.0
1020
0.0
1030
0.0
1010
1.0
1020
0.0
1030
0.0
1010
0.0
1020
1.0
1030
0.0
1010
0.0
1020
0.0
1030
1.0
1040
0.5
1040
0.33
1040
0.0
1000

1070
     1
1000

1070
     1
1070
     1
1040
1.0
1040
1.0
1040
0.0
1040
0.0
1070
     0
1002
}
  0
INSERT
  5
7C3E
330
2
100
AcDbEntity
  8
ASHADE
 62
     1
370
    13
100
AcDbBlockReference
  2
AVE_GLOBAL
 10
415.4555230674971
 20
706.7163552836194
 30
0.0
1001
AVE_MATERIAL
1002
{
1000
*GLOBAL*
1000
1
1000
Global finish.
1002
{
1002
}
1002
{
1070
    63
1002
{
1002
{
1010
-1.0
1020
-1.0
1030
-1.0
1002
}
1040
0.1000000014901161
1000

1040
0.0
1002
{
1002
}
1040
0.0
1002
{
1002
}
1040
0.0
1002
}
1002
{
1002
{
1010
-1.0
1020
-1.0
1030
-1.0
1002
}
1040
0.6999999880790711
1000

1040
0.0
1002
{
1002
}
1040
0.0
1002
{
1002
}
1040
0.0
1002
}
1002
{
1002
{
1010
-1.0
1020
-1.0
1030
-1.0
1002
}
1040
0.2000000029802322
1000

1040
0.0
1002
{
1002
}
1040
0.0
1002
{
1002
}
1040
0.0
1002
}
1002
{
1070
     0
1002
{
1070
     1
1002
{
1040
1.0
1040
1.0
1000

1040
0.0
1002
{
1002
}
1040
0.0
1002
{
1002
}
1040
0.0
1002
}
1002
}
1040
1.0
1040
0.0
1040
0.0
1002
}
1002
{
1040
1.0
1040
1.0
1000

1040
0.0
1002
{
1002
}
1040
0.0
1002
{
1002
}
1040
0.0
1002
}
1002
{
1040
0.5
1040
1.0
1000

1040
0.0
1002
{
1002
}
1040
0.0
1002
{
1002
}
1040
0.0
1002
}
1002
{
1070
     0
1040
0.0
1002
{
1002
}
1040
1.0
1002
{
1002
}
1040
0.0
1002
}
1002
{
1040
0.0
1002
{
1002
{
1010
0.0
1020
0.0
1030
0.0
1002
}
1040
1.0
1000

1040
0.0
1002
{
1002
}
1040
0.0
1002
{
1002
}
1040
0.0
1002
}
1002
}
1002
{
1002
{
1070
     1
1002
{
1040
0.0
1040
1.0
1000

1040
0.0
1002
{
1002
}
1040
0.0
1002
{
1002
}
1040
0.0
1002
}
1002
}
1040
0.0
1002
{
1002
}
1010
1.0
1020
0.0
1030
0.0
1010
0.0
1020
1.0
1030
0.0
1010
0.0
1020
0.0
1030
1.0
1070
     0
1002
}
1002
{
1002
{
1040
1.0
1040
1.0
1002
{
1070
     1
1002
{
1040
1.0
1040
1.0
1000

1040
0.0
1002
{
1002
}
1040
0.0
1002
{
1002
}
1040
0.0
1002
}
1002
}
1002
}
1070
     0
1040
0.0
1002
{
1002
}
1002
}
1002
{
1002
}
1002
}
1002
{
1071
        3
1070
     3
1070
     0
1002
{
1070
     2
1070
     0
1070
     0
1040
0.0
1002
}
1070
     0
1070
     2
1002
{
1002
}
1002
}
1002
{
1040
8030.0
1040
190.3000030517578
1040
0.3050000071525574
1040
228.0
1040
545.0
1040
14.0
1040
17.39999961853027
1040
0.4560000002384186
1002
}
1002
}
  0
LINE
  5
8E39
330
2
100
AcDbEntity
  8
MOLDING
370
    30
100
AcDbLine
 10
783.8491632637092
 20
1057.116778165774
 30
0.0
 11
757.3572112287483
 21
1057.116778165774
 31
0.0
  0
LINE
  5
8E3A
330
2
100
AcDbEntity
  8
MOLDING
370
    30
100
AcDbLine
 10
783.8491632637096
 20
1059.054278165774
 30
0.0
 11
757.3572112287483
 21
1059.054278165774
 31
0.0
  0
LINE
  5
8E3B
330
2
100
AcDbEntity
  8
BALLASTR
370
    30
100
AcDbLine
 10
783.8491632637092
 20
1059.429278165774
 30
0.0
 11
757.3572112287483
 21
1059.429278165774
 31
0.0
  0
LINE
  5
8E3C
330
2
100
AcDbEntity
  8
BALLASTR
370
    30
100
AcDbLine
 10
783.8491632637092
 20
1056.054278165774
 30
0.0
 11
757.3572112287483
 21
1056.054278165774
 31
0.0
  0
LINE
  5
8E3D
330
2
100
AcDbEntity
  8
BALLASTR
370
    30
100
AcDbLine
 10
757.3572112287483
 20
1026.710832762413
 30
0.0
 11
783.8491632637096
 21
1026.710832762413
 31
0.0
  0
LINE
  5
8E3E
330
2
100
AcDbEntity
  8
BALLASTR
370
    30
100
AcDbLine
 10
757.3572112287483
 20
1029.210832762413
 30
0.0
 11
783.8491632637096
 21
1029.210832762413
 31
0.0
  0
LINE
  5
8E3F
330
2
100
AcDbEntity
  8
BALLASTR
370
    30
100
AcDbLine
 10
757.3572112287483
 20
1029.710832762413
 30
0.0
 11
783.8491632637096
 21
1029.710832762413
 31
0.0
  0
LINE
  5
8E40
330
2
100
AcDbEntity
  8
BALLASTR
370
    30
100
AcDbLine
 10
783.8491632637096
 20
1023.210832762413
 30
0.0
 11
757.3572112287483
 21
1023.210832762413
 31
0.0
  0
LINE
  5
8E41
330
2
100
AcDbEntity
  8
BALLASTR
370
    30
100
AcDbLine
 10
757.3572112287483
 20
1026.210832762413
 30
0.0
 11
783.8491632637096
 21
1026.210832762413
 31
0.0
  0
INSERT
  5
8E42
330
2
100
AcDbEntity
  8
LINEWORK
 62
     7
370
    13
100
AcDbBlockReference
 66
     1
  2
TSFORMB
 10
694.587835746993
 20
926.8263437096347
 30
0.0
 41
2.575364077439974
 42
2.575364077439974
 43
2.57536407744
  0
ATTRIB
  5
8E43
330
8E42
100
AcDbEntity
  8
A1
 62
     1
100
AcDbText
 10
788.3349882276823
 20
929.1866240672046
 30
0.0
 40
2.641266614036059
  1
BALUSTRADE
 72
     1
 11
800.8477782216752
 21
929.1866240672046
 31
0.0
100
AcDbAttribute
  2
XXXXXX
 70
     0
  0
ATTRIB
  5
8E44
330
8E42
100
AcDbEntity
  8
A1
 62
     1
100
AcDbText
 10
738.2266995693312
 20
931.6551995247166
 30
0.0
 40
2.1633058250496
  1
TSB016
 72
     2
 11
750.0965179233595
 21
931.6551995247166
 31
0.0
100
AcDbAttribute
  2
XXXXXX
 70
     0
  0
ATTRIB
  5
8E45
330
8E42
100
AcDbEntity
  8
A1
 62
     1
100
AcDbText
 10
712.0914759286712
 20
934.8562331059159
 30
0.0
 40
15.79213252286209
  1
TSB016
  7
barcoder
 72
     1
 11
727.6862067949975
 21
934.8562331059159
 31
0.0
100
AcDbAttribute
  2
BARCODE
 70
     0
  0
ATTRIB
  5
8E46
330
8E42
100
AcDbEntity
  8
A1
 62
     1
100
AcDbText
 10
935.3824980687202
 20
1115.858109055731
 30
0.0
 40
5.354181916997762
  1
TSB016
 72
     1
 11
950.0713982818302
 21
1115.858109055731
 31
0.0
100
AcDbAttribute
  2
TS00XX
 70
     0
  0
ATTRIB
  5
8E47
330
8E42
100
AcDbEntity
  8
A1
 62
     1
100
AcDbText
 10
955.1528028938939
 20
952.7834496170831
 30
0.0
 40
2.433719053180801
  1

 72
     1
 11
955.1528028938939
 21
952.7834496170831
 31
0.0
100
AcDbAttribute
  2
XXXXX
 70
     0
  0
ATTRIB
  5
8E48
330
8E42
100
AcDbEntity
  8
A1
 62
     1
100
AcDbText
 10
955.0648102420549
 20
945.4192841157201
 30
0.0
 40
2.433719053180801
  1

 72
     1
 11
955.0648102420549
 21
945.4192841157201
 31
0.0
100
AcDbAttribute
  2
XXXXX
 70
     0
  0
SEQEND
  5
8E49
330
8E42
100
AcDbEntity
  8
LINEWORK
 62
     7
  0
LINE
  5
8E4A
330
2
100
AcDbEntity
  8
0
370
    30
100
AcDbLine
 10
926.0206260688015
 20
1038.062596537429
 30
0.0
 11
926.0206260688015
 21
1030.062596537429
 31
0.0
  0
LINE
  5
8E4B
330
2
100
AcDbEntity
  8
0
370
    30
100
AcDbLine
 10
920.0206260688016
 20
1030.062596537429
 30
0.0
 11
920.0206260688016
 21
1038.062596537429
 31
0.0
  0
LINE
  5
8E4C
330
2
100
AcDbEntity
  8
0
370
    30
100
AcDbLine
 10
927.1456260688015
 20
1029.68759653743
 30
0.0
 11
918.8956260688016
 21
1029.68759653743
 31
0.0
  0
LINE
  5
8E4D
330
2
100
AcDbEntity
  8
0
370
    30
100
AcDbLine
 10
926.0206260688015
 20
1030.062596537429
 30
0.0
 11
920.0206260688016
 21
1030.062596537429
 31
0.0
  0
LINE
  5
8E4E
330
2
100
AcDbEntity
  8
0
370
    30
100
AcDbLine
 10
929.1456260688015
 20
1020.31259653743
 30
0.0
 11
916.8956260688016
 21
1020.31259653743
 31
0.0
  0
LINE
  5
8E4F
330
2
100
AcDbEntity
  8
0
370
    30
100
AcDbLine
 10
929.1456260688015
 20
1022.812596537429
 30
0.0
 11
916.8956260688016
 21
1022.812596537429
 31
0.0
  0
LINE
  5
8E50
330
2
100
AcDbEntity
  8
0
370
    30
100
AcDbLine
 10
916.8956260688016
 20
1023.187596537429
 30
0.0
 11
929.1456260688015
 21
1023.187596537429
 31
0.0
  0
LINE
  5
8E51
330
2
100
AcDbEntity
  8
0
  6
HIDDEN
 48
5.299999999999999
370
    30
100
AcDbLine
 10
923.3956260688016
 20
1020.812596537429
 30
0.0
 11
923.3956260688016
 21
1022.812596537429
 31
0.0
  0
LINE
  5
8E52
330
2
100
AcDbEntity
  8
0
  6
HIDDEN
 48
5.299999999999999
370
    30
100
AcDbLine
 10
922.6456260688015
 20
1020.812596537429
 30
0.0
 11
922.6456260688015
 21
1022.812596537429
 31
0.0
  0
LINE
  5
8E53
330
2
100
AcDbEntity
  8
0
370
    30
100
AcDbLine
 10
916.8956260688016
 20
1020.31259653743
 30
0.0
 11
916.8956260688016
 21
1022.812596537429
 31
0.0
  0
LINE
  5
8E54
330
2
100
AcDbEntity
  8
0
  6
CENTER
 48
5.299999999999999
370
    30
100
AcDbLine
 10
923.0206260688015
 20
1018.780452823065
 30
0.0
 11
923.0206260688015
 21
1033.673243338044
 31
0.0
  0
LINE
  5
8E55
330
2
100
AcDbEntity
  8
0
  6
HIDDEN
 48
5.299999999999999
370
    30
100
AcDbLine
 10
923.3956260688016
 20
1020.812596537429
 30
0.0
 11
922.6456260688015
 21
1020.812596537429
 31
0.0
  0
LINE
  5
8E56
330
2
100
AcDbEntity
  8
0
 48
5.299999999999999
370
    30
100
AcDbLine
 10
923.3956260688016
 20
1032.062596537429
 30
0.0
 11
922.6456260688015
 21
1032.062596537429
 31
0.0
  0
LINE
  5
8E57
330
2
100
AcDbEntity
  8
0
  6
HIDDEN
 48
5.299999999999999
370
    30
100
AcDbLine
 10
922.6456260688015
 20
1030.062596537429
 30
0.0
 11
922.6456260688015
 21
1032.062596537429
 31
0.0
  0
LINE
  5
8E58
330
2
100
AcDbEntity
  8
0
  6
HIDDEN
 48
5.299999999999999
370
    30
100
AcDbLine
 10
923.3956260688016
 20
1030.062596537429
 30
0.0
 11
923.3956260688016
 21
1032.062596537429
 31
0.0
  0
LINE
  5
8E59
330
2
100
AcDbEntity
  8
0
370
    30
100
AcDbLine
 10
918.8956260688016
 20
1029.187596537429
 30
0.0
 11
918.8956260688016
 21
1029.68759653743
 31
0.0
  0
LINE
  5
8E5A
330
2
100
AcDbEntity
  8
0
  6
HIDDEN
 48
5.299999999999999
370
    30
100
AcDbLine
 10
923.3956260688016
 20
1027.68759653743
 30
0.0
 11
922.6456260688015
 21
1027.68759653743
 31
0.0
  0
CIRCLE
  5
8E5B
330
2
100
AcDbEntity
  8
0
 48
5.299999999999999
370
    30
100
AcDbCircle
 10
923.0206260688015
 20
1026.437596537429
 30
0.0
 40
0.375
  0
LINE
  5
8E5C
330
2
100
AcDbEntity
  8
0
  6
HIDDEN
 48
5.299999999999999
370
    30
100
AcDbLine
 10
922.6456260688015
 20
1025.187596537429
 30
0.0
 11
923.3956260688016
 21
1025.187596537429
 31
0.0
  0
LINE
  5
8E5D
330
2
100
AcDbEntity
  8
0
  6
HIDDEN
 48
5.299999999999999
370
    30
100
AcDbLine
 10
923.3956260688016
 20
1023.187596537429
 30
0.0
 11
923.3956260688016
 21
1025.187596537429
 31
0.0
  0
LINE
  5
8E5E
330
2
100
AcDbEntity
  8
0
  6
HIDDEN
 48
5.299999999999999
370
    30
100
AcDbLine
 10
922.6456260688015
 20
1023.187596537429
 30
0.0
 11
922.6456260688015
 21
1025.187596537429
 31
0.0
  0
LINE
  5
8E5F
330
2
100
AcDbEntity
  8
0
370
    30
100
AcDbLine
 10
917.3956260688015
 20
1026.18759653743
 30
0.0
 11
917.3956260688015
 21
1026.68759653743
 31
0.0
  0
LINE
  5
8E60
330
2
100
AcDbEntity
  8
0
370
    30
100
AcDbLine
 10
916.8956260688016
 20
1026.18759653743
 30
0.0
 11
917.3956260688015
 21
1026.18759653743
 31
0.0
  0
LINE
  5
8E61
330
2
100
AcDbEntity
  8
0
370
    30
100
AcDbLine
 10
916.8956260688016
 20
1026.18759653743
 30
0.0
 11
916.8956260688016
 21
1026.18759653743
 31
0.0
  0
ARC
  5
8E62
330
2
100
AcDbEntity
  8
0
370
    30
100
AcDbCircle
 10
916.6464433591382
 20
1027.987106163227
 30
0.0
 40
1.5
100
AcDbArc
 50
299.9639588799308
 51
358.1085280559141
  0
POINT
  5
8E63
330
2
100
AcDbEntity
  8
Defpoints
  6
ByBlock
 62
     0
370
    30
100
AcDbPoint
 10
918.2768050573328
 20
1028.503363937831
 30
0.0
  0
LINE
  5
8E64
330
2
100
AcDbEntity
  8
0
370
    30
100
AcDbLine
 10
916.8956260688016
 20
1023.187596537429
 30
0.0
 11
916.8956260688016
 21
1026.18759653743
 31
0.0
  0
ARC
  5
8E65
330
2
100
AcDbEntity
  8
0
370
    30
100
AcDbCircle
 10
919.6448087784649
 20
1027.888086911632
 30
0.0
 40
1.5
100
AcDbArc
 50
119.9639588799308
 51
178.1085280559011
  0
LINE
  5
8E66
330
2
100
AcDbEntity
  8
0
  6
HIDDEN
 48
5.299999999999999
370
    30
100
AcDbLine
 10
923.3956260688016
 20
1027.68759653743
 30
0.0
 11
923.3956260688016
 21
1029.68759653743
 31
0.0
  0
LINE
  5
8E67
330
2
100
AcDbEntity
  8
0
  6
HIDDEN
 48
5.299999999999999
370
    30
100
AcDbLine
 10
922.6456260688015
 20
1027.68759653743
 30
0.0
 11
922.6456260688015
 21
1029.68759653743
 31
0.0
  0
LINE
  5
8E68
330
2
100
AcDbEntity
  8
0
  6
HIDDEN
 48
5.299999999999999
370
    30
100
AcDbLine
 10
923.3956260688016
 20
1027.68759653743
 30
0.0
 11
923.3956260688016
 21
1029.68759653743
 31
0.0
  0
LINE
  5
8E69
330
2
100
AcDbEntity
  8
0
370
    30
100
AcDbLine
 10
929.1456260688015
 20
1020.31259653743
 30
0.0
 11
929.1456260688015
 21
1022.812596537429
 31
0.0
  0
LINE
  5
8E6A
330
2
100
AcDbEntity
  8
0
370
    30
100
AcDbLine
 10
927.1456260688015
 20
1029.187596537429
 30
0.0
 11
927.1456260688015
 21
1029.68759653743
 31
0.0
  0
LINE
  5
8E6B
330
2
100
AcDbEntity
  8
0
370
    30
100
AcDbLine
 10
929.1456260688015
 20
1026.18759653743
 30
0.0
 11
929.1456260688015
 21
1026.18759653743
 31
0.0
  0
LINE
  5
8E6C
330
2
100
AcDbEntity
  8
0
370
    30
100
AcDbLine
 10
929.1456260688015
 20
1026.18759653743
 30
0.0
 11
928.6456260688016
 21
1026.18759653743
 31
0.0
  0
LINE
  5
8E6D
330
2
100
AcDbEntity
  8
0
370
    30
100
AcDbLine
 10
928.6456260688016
 20
1026.18759653743
 30
0.0
 11
928.6456260688016
 21
1026.68759653743
 31
0.0
  0
ARC
  5
8E6E
330
2
100
AcDbEntity
  8
0
370
    30
100
AcDbCircle
 10
929.3948087784649
 20
1027.987106163227
 30
0.0
 40
1.5
100
AcDbArc
 50
181.8914719440858
 51
240.0360411200691
  0
LINE
  5
8E6F
330
2
100
AcDbEntity
  8
0
370
    30
100
AcDbLine
 10
929.1456260688015
 20
1023.187596537429
 30
0.0
 11
929.1456260688015
 21
1026.18759653743
 31
0.0
  0
ARC
  5
8E70
330
2
100
AcDbEntity
  8
0
370
    30
100
AcDbCircle
 10
926.3964433591382
 20
1027.888086911632
 30
0.0
 40
1.5
100
AcDbArc
 50
1.891471944098906
 51
60.03604112006918
  0
ARC
  5
8E71
330
2
100
AcDbEntity
  8
0
370
    30
100
AcDbCircle
 10
923.0206260688015
 20
1010.125096537429
 30
0.0
 40
49.0625
100
AcDbArc
 50
85.90918302223624
 51
94.09081697776377
  0
LINE
  5
8E72
330
2
100
AcDbEntity
  8
0
370
    30
100
AcDbLine
 10
926.3331260688016
 20
1055.43759653743
 30
0.0
 11
919.7081260688015
 21
1055.43759653743
 31
0.0
  0
LINE
  5
8E73
330
2
100
AcDbEntity
  8
0
370
    30
100
AcDbLine
 10
918.6456260688016
 20
1055.81259653743
 30
0.0
 11
927.3956260688015
 21
1055.81259653743
 31
0.0
  0
LINE
  5
8E74
330
2
100
AcDbEntity
  8
0
370
    30
100
AcDbLine
 10
919.7706260688015
 20
1038.062596537429
 30
0.0
 11
926.2706260688016
 21
1038.062596537429
 31
0.0
  0
LINE
  5
8E75
330
2
100
AcDbEntity
  8
0
370
    30
100
AcDbLine
 10
926.2706260688016
 20
1044.56259653743
 30
0.0
 11
919.7706260688015
 21
1044.56259653743
 31
0.0
  0
LINE
  5
8E76
330
2
100
AcDbEntity
  8
0
370
    30
100
AcDbLine
 10
926.2706260688016
 20
1041.31259653743
 30
0.0
 11
919.7706260688015
 21
1041.31259653743
 31
0.0
  0
LINE
  5
8E77
330
2
100
AcDbEntity
  8
0
370
    30
100
AcDbLine
 10
920.0206260688016
 20
1052.56259653743
 30
0.0
 11
926.0206260688015
 21
1052.56259653743
 31
0.0
  0
LINE
  5
8E78
330
2
100
AcDbEntity
  8
0
370
    30
100
AcDbLine
 10
926.3331260688016
 20
1052.93759653743
 30
0.0
 11
919.7081260688015
 21
1052.93759653743
 31
0.0
  0
LINE
  5
8E79
330
2
100
AcDbEntity
  8
0
370
    30
100
AcDbLine
 10
920.0206260688016
 20
1044.56259653743
 30
0.0
 11
920.0206260688016
 21
1052.56259653743
 31
0.0
  0
LINE
  5
8E7A
330
2
100
AcDbEntity
  8
0
370
    30
100
AcDbLine
 10
919.7706260688015
 20
1044.56259653743
 30
0.0
 11
919.7706260688015
 21
1038.062596537429
 31
0.0
  0
LINE
  5
8E7B
330
2
100
AcDbEntity
  8
0
  6
HIDDEN
 48
5.299999999999999
370
    30
100
AcDbLine
 10
922.6456260688015
 20
1057.81259653743
 30
0.0
 11
923.3956260688016
 21
1057.81259653743
 31
0.0
  0
LINE
  5
8E7C
330
2
100
AcDbEntity
  8
0
  6
HIDDEN
 48
5.299999999999999
370
    30
100
AcDbLine
 10
923.3956260688016
 20
1055.81259653743
 30
0.0
 11
923.3956260688016
 21
1057.81259653743
 31
0.0
  0
LINE
  5
8E7D
330
2
100
AcDbEntity
  8
0
  6
HIDDEN
 48
5.299999999999999
370
    30
100
AcDbLine
 10
922.6456260688015
 20
1055.81259653743
 30
0.0
 11
922.6456260688015
 21
1057.81259653743
 31
0.0
  0
LINE
  5
8E7E
330
2
100
AcDbEntity
  8
0
370
    30
100
AcDbLine
 10
919.3956260688015
 20
1058.812596537429
 30
0.0
 11
918.7364107695067
 21
1058.662707914614
 31
0.0
  0
LINE
  5
8E7F
330
2
100
AcDbEntity
  8
0
370
    30
100
AcDbLine
 10
919.3956260688015
 20
1058.812596537429
 30
0.0
 11
919.5206260688015
 21
1059.06259653743
 31
0.0
  0
ARC
  5
8E80
330
2
100
AcDbEntity
  8
0
370
    30
100
AcDbCircle
 10
918.4539359931561
 20
1057.623001499607
 30
0.0
 40
0.5
100
AcDbArc
 50
202.0242901235179
 51
235.2254721654938
  0
LINE
  5
8E81
330
2
100
AcDbEntity
  8
0
370
    30
100
AcDbLine
 10
918.1687617679555
 20
1057.212300073652
 30
0.0
 11
918.2525664032519
 21
1057.154109572162
 31
0.0
  0
LINE
  5
8E82
330
2
100
AcDbEntity
  8
0
370
    30
100
AcDbLine
 10
918.3331260688015
 20
1056.87509653743
 30
0.0
 11
918.3331260688015
 21
1057.000096537429
 31
0.0
  0
ARC
  5
8E83
330
2
100
AcDbEntity
  8
0
370
    30
100
AcDbCircle
 10
918.3331260688015
 20
1056.56259653743
 30
0.0
 40
0.3125
100
AcDbArc
 50
0.0
 51
90.0
  0
LINE
  5
8E84
330
2
100
AcDbEntity
  8
0
370
    30
100
AcDbLine
 10
918.6456260688016
 20
1055.81259653743
 30
0.0
 11
918.6456260688016
 21
1056.56259653743
 31
0.0
  0
ARC
  5
8E85
330
2
100
AcDbEntity
  8
0
370
    30
100
AcDbCircle
 10
918.1456260688015
 20
1057.000096537429
 30
0.0
 40
0.1875
100
AcDbArc
 50
0.0
 51
55.22547216549381
  0
ARC
  5
8E86
330
2
100
AcDbEntity
  8
0
370
    30
100
AcDbCircle
 10
918.9581260599799
 20
1057.687596469716
 30
0.0
 40
1.0
100
AcDbArc
 50
102.8098002549732
 51
194.6015055440761
  0
LINE
  5
8E87
330
2
100
AcDbEntity
  8
0
  6
HIDDEN
 48
5.299999999999999
370
    30
100
AcDbLine
 10
922.6456260688015
 20
1050.56259653743
 30
0.0
 11
923.3956260688016
 21
1050.56259653743
 31
0.0
  0
LINE
  5
8E88
330
2
100
AcDbEntity
  8
0
  6
HIDDEN
 48
5.299999999999999
370
    30
100
AcDbLine
 10
922.6456260688015
 20
1050.56259653743
 30
0.0
 11
922.6456260688015
 21
1052.56259653743
 31
0.0
  0
LINE
  5
8E89
330
2
100
AcDbEntity
  8
0
  6
HIDDEN
 48
5.299999999999999
370
    30
100
AcDbLine
 10
923.3956260688016
 20
1050.56259653743
 30
0.0
 11
923.3956260688016
 21
1052.56259653743
 31
0.0
  0
LINE
  5
8E8A
330
2
100
AcDbEntity
  8
0
  6
CENTER
 48
5.299999999999999
370
    30
100
AcDbLine
 10
923.0206260688015
 20
1049.487616745386
 30
0.0
 11
923.0206260688015
 21
1058.9435920003
 31
0.0
  0
LINE
  5
8E8B
330
2
100
AcDbEntity
  8
0
370
    30
100
AcDbLine
 10
919.7081260688015
 20
1055.43759653743
 30
0.0
 11
919.7081260688015
 21
1052.93759653743
 31
0.0
  0
LINE
  5
8E8C
330
2
100
AcDbEntity
  8
0
  6
HIDDEN
 48
5.299999999999999
370
    30
100
AcDbLine
 10
922.6456260688015
 20
1052.93759653743
 30
0.0
 11
922.6456260688015
 21
1055.43759653743
 31
0.0
  0
LINE
  5
8E8D
330
2
100
AcDbEntity
  8
0
  6
HIDDEN
 48
5.299999999999999
370
    30
100
AcDbLine
 10
923.3956260688016
 20
1052.93759653743
 30
0.0
 11
923.3956260688016
 21
1055.43759653743
 31
0.0
  0
LINE
  5
8E8E
330
2
100
AcDbEntity
  8
0
370
    30
100
AcDbLine
 10
926.0206260688015
 20
1052.56259653743
 30
0.0
 11
926.0206260688015
 21
1044.56259653743
 31
0.0
  0
LINE
  5
8E8F
330
2
100
AcDbEntity
  8
0
370
    30
100
AcDbLine
 10
926.2706260688016
 20
1038.062596537429
 30
0.0
 11
926.2706260688016
 21
1044.56259653743
 31
0.0
  0
LINE
  5
8E90
330
2
100
AcDbEntity
  8
0
370
    30
100
AcDbLine
 10
926.6456260688014
 20
1058.812596537429
 30
0.0
 11
927.3048413680964
 21
1058.662707914614
 31
0.0
  0
LINE
  5
8E91
330
2
100
AcDbEntity
  8
0
370
    30
100
AcDbLine
 10
926.6456260688014
 20
1058.812596537429
 30
0.0
 11
926.5206260688016
 21
1059.06259653743
 31
0.0
  0
ARC
  5
8E92
330
2
100
AcDbEntity
  8
0
370
    30
100
AcDbCircle
 10
927.587316144447
 20
1057.623001499607
 30
0.0
 40
0.5
100
AcDbArc
 50
304.7745278345062
 51
337.975709876482
  0
LINE
  5
8E93
330
2
100
AcDbEntity
  8
0
370
    30
100
AcDbLine
 10
927.8724903696476
 20
1057.212300073652
 30
0.0
 11
927.7886857343512
 21
1057.154109572162
 31
0.0
  0
LINE
  5
8E94
330
2
100
AcDbEntity
  8
0
370
    30
100
AcDbLine
 10
927.3956260688015
 20
1055.81259653743
 30
0.0
 11
927.3956260688015
 21
1056.56259653743
 31
0.0
  0
ARC
  5
8E95
330
2
100
AcDbEntity
  8
0
370
    30
100
AcDbCircle
 10
927.7081260688015
 20
1056.56259653743
 30
0.0
 40
0.3125
100
AcDbArc
 50
90.0
 51
180.0
  0
LINE
  5
8E96
330
2
100
AcDbEntity
  8
0
370
    30
100
AcDbLine
 10
927.7081260688015
 20
1056.87509653743
 30
0.0
 11
927.7081260688015
 21
1057.000096537429
 31
0.0
  0
ARC
  5
8E97
330
2
100
AcDbEntity
  8
0
370
    30
100
AcDbCircle
 10
927.8956260688016
 20
1057.000096537429
 30
0.0
 40
0.1875
100
AcDbArc
 50
124.7745278345061
 51
180.0
  0
ARC
  5
8E98
330
2
100
AcDbEntity
  8
0
370
    30
100
AcDbCircle
 10
927.0831260776231
 20
1057.687596469716
 30
0.0
 40
1.0
100
AcDbArc
 50
345.3984944559238
 51
77.19019974502677
  0
LINE
  5
8E99
330
2
100
AcDbEntity
  8
0
370
    30
100
AcDbLine
 10
926.3331260688016
 20
1055.43759653743
 30
0.0
 11
926.3331260688016
 21
1052.93759653743
 31
0.0
  0
LINE
  5
8E9B
330
2
100
AcDbEntity
  8
BALLASTR
370
    30
100
AcDbLine
 10
757.3572112287483
 20
1023.210832762413
 30
0.0
 11
757.3572112287483
 21
1029.710832762413
 31
0.0
  0
LINE
  5
8EA7
330
2
100
AcDbEntity
  8
BALLASTR
370
    30
100
AcDbLine
 10
757.3572112287483
 20
1056.054278165774
 30
0.0
 11
757.3572112287483
 21
1059.429278165774
 31
0.0
  0
LINE
  5
8EA8
330
2
100
AcDbEntity
  8
MOLDING
370
    30
100
AcDbLine
 10
858.4822112287483
 20
1059.054278165774
 30
0.0
 11
837.9822112287483
 21
1059.054278165774
 31
0.0
  0
LINE
  5
8EA9
330
2
100
AcDbEntity
  8
BALLASTR
370
    30
100
AcDbLine
 10
837.9822112287483
 20
1059.429278165774
 30
0.0
 11
858.4822112287483
 21
1059.429278165774
 31
0.0
  0
LINE
  5
8EAA
330
2
100
AcDbEntity
  8
BALLASTR
370
    30
100
AcDbLine
 10
858.4822112287483
 20
1056.054278165774
 30
0.0
 11
837.9822112287483
 21
1056.054278165774
 31
0.0
  0
LINE
  5
8EAB
330
2
100
AcDbEntity
  8
MOLDING
370
    30
100
AcDbLine
 10
858.4822112287483
 20
1057.116778165774
 30
0.0
 11
837.9822112287483
 21
1057.116778165774
 31
0.0
  0
LINE
  5
8EAC
330
2
100
AcDbEntity
  8
MOLDING
370
    30
100
AcDbLine
 10
837.9822112287483
 20
1055.679278165774
 30
0.0
 11
857.4822112287483
 21
1055.679278165774
 31
0.0
  0
LINE
  5
8EAD
330
2
100
AcDbEntity
  8
BALLASTR
370
    30
100
AcDbLine
 10
853.7322112287483
 20
1020.335832762413
 30
0.0
 11
843.8572112287484
 21
1020.335832762413
 31
0.0
  0
LINE
  5
8EAE
330
2
100
AcDbEntity
  8
BALLASTR
370
    30
100
AcDbLine
 10
843.8572112287484
 20
1020.335832762413
 30
0.0
 11
857.4822112287483
 21
1020.335832762413
 31
0.0
  0
LINE
  5
8EAF
330
2
100
AcDbEntity
  8
BALLASTR
370
    30
100
AcDbLine
 10
837.9822112287483
 20
1020.335832762413
 30
0.0
 11
837.9822112287483
 21
1055.679278165774
 31
0.0
  0
LINE
  5
8EB0
330
2
100
AcDbEntity
  8
BALLASTR
370
    30
100
AcDbLine
 10
837.9822112287483
 20
1020.335832762413
 30
0.0
 11
837.9822112287483
 21
1055.679278165774
 31
0.0
  0
LINE
  5
8EB1
330
2
100
AcDbEntity
  8
BALLASTR
370
    30
100
AcDbLine
 10
837.6072112287484
 20
1029.710832762413
 30
0.0
 11
837.6072112287484
 21
1023.210832762413
 31
0.0
  0
LINE
  5
8EB2
330
2
100
AcDbEntity
  8
BALLASTR
370
    30
100
AcDbLine
 10
783.8491632637096
 20
1023.210832762413
 30
0.0
 11
783.8491632637092
 21
1029.710832762413
 31
0.0
  0
LINE
  5
8EB3
330
2
100
AcDbEntity
  8
BALLASTR
370
    30
100
AcDbLine
 10
784.2241632637096
 20
1023.210832762413
 30
0.0
 11
784.2241632637092
 21
1029.710832762413
 31
0.0
  0
LINE
  5
8EB4
330
2
100
AcDbEntity
  8
BALLASTR
370
    30
100
AcDbLine
 10
810.7241632637096
 20
1023.210832762413
 30
0.0
 11
810.7241632637093
 21
1029.710832762413
 31
0.0
  0
LINE
  5
8EB5
330
2
100
AcDbEntity
  8
BALLASTR
370
    30
100
AcDbLine
 10
811.0991632637091
 20
1023.210832762413
 30
0.0
 11
811.0991632637091
 21
1029.710832762413
 31
0.0
  0
LINE
  5
8EB6
330
2
100
AcDbEntity
  8
BALLASTR
370
    30
100
AcDbLine
 10
810.7241632637096
 20
1023.210832762413
 30
0.0
 11
784.2241632637096
 21
1023.210832762413
 31
0.0
  0
LINE
  5
8EB7
330
2
100
AcDbEntity
  8
BALLASTR
370
    30
100
AcDbLine
 10
837.6072112287484
 20
1023.210832762413
 30
0.0
 11
811.0991632637091
 21
1023.210832762413
 31
0.0
  0
LINE
  5
8EB8
330
2
100
AcDbEntity
  8
BALLASTR
370
    30
100
AcDbLine
 10
814.2322112287484
 20
1020.335832762413
 30
0.0
 11
807.6072112287484
 21
1020.335832762413
 31
0.0
  0
LINE
  5
8EB9
330
2
100
AcDbEntity
  8
BALLASTR
370
    30
100
AcDbLine
 10
814.2322112287484
 20
1022.835832762413
 30
0.0
 11
807.6072112287484
 21
1022.835832762413
 31
0.0
  0
LINE
  5
8EBA
330
2
100
AcDbEntity
  8
BALLASTR
370
    30
100
AcDbLine
 10
807.6072112287484
 20
1020.335832762413
 30
0.0
 11
807.6072112287484
 21
1022.835832762413
 31
0.0
  0
LINE
  5
8EBB
330
2
100
AcDbEntity
  8
BALLASTR
370
    30
100
AcDbLine
 10
814.2322112287484
 20
1020.335832762413
 30
0.0
 11
814.2322112287484
 21
1022.835832762413
 31
0.0
  0
LINE
  5
8EBC
330
2
100
AcDbEntity
  8
BALLASTR
370
    30
100
AcDbLine
 10
837.9822112287483
 20
1020.335832762413
 30
0.0
 11
843.4822112287484
 21
1020.335832762413
 31
0.0
  0
LINE
  5
8EBD
330
2
100
AcDbEntity
  8
BALLASTR
370
    30
100
AcDbLine
 10
843.4822112287479
 20
1020.335832762413
 30
0.0
 11
837.9822112287483
 21
1020.335832762413
 31
0.0
  0
LINE
  5
8EBE
330
2
100
AcDbEntity
  8
BALLASTR
370
    30
100
AcDbLine
 10
837.6072112287484
 20
1020.335832762413
 30
0.0
 11
837.6072112287484
 21
1022.835832762413
 31
0.0
  0
LINE
  5
8EBF
330
2
100
AcDbEntity
  8
BALLASTR
370
    30
100
AcDbLine
 10
837.6072112287484
 20
1022.835832762413
 30
0.0
 11
834.4822112287484
 21
1022.835832762413
 31
0.0
  0
LINE
  5
8EC0
330
2
100
AcDbEntity
  8
BALLASTR
370
    30
100
AcDbLine
 10
837.6072112287484
 20
1020.335832762413
 30
0.0
 11
834.4822112287484
 21
1020.335832762413
 31
0.0
  0
LINE
  5
8EC1
330
2
100
AcDbEntity
  8
BALLASTR
370
    30
100
AcDbLine
 10
834.4822112287484
 20
1020.335832762413
 30
0.0
 11
834.4822112287484
 21
1022.835832762413
 31
0.0
  0
LINE
  5
8EC2
330
2
100
AcDbEntity
  8
MOLDING
370
    30
100
AcDbLine
 10
810.7241632637096
 20
1057.116778165774
 30
0.0
 11
784.2241632637092
 21
1057.116778165774
 31
0.0
  0
LINE
  5
8EC3
330
2
100
AcDbEntity
  8
MOLDING
370
    30
100
AcDbLine
 10
810.7241632637096
 20
1059.054278165774
 30
0.0
 11
784.2241632637088
 21
1059.054278165774
 31
0.0
  0
LINE
  5
8EC4
330
2
100
AcDbEntity
  8
BALLASTR
370
    30
100
AcDbLine
 10
810.7241632637093
 20
1059.429278165774
 30
0.0
 11
784.2241632637092
 21
1059.429278165774
 31
0.0
  0
LINE
  5
8EC5
330
2
100
AcDbEntity
  8
BALLASTR
370
    30
100
AcDbLine
 10
810.7241632637093
 20
1056.054278165774
 30
0.0
 11
784.2241632637092
 21
1056.054278165774
 31
0.0
  0
LINE
  5
8EC6
330
2
100
AcDbEntity
  8
BALLASTR
370
    30
100
AcDbLine
 10
784.2241632637092
 20
1029.710832762413
 30
0.0
 11
810.7241632637093
 21
1029.710832762413
 31
0.0
  0
LINE
  5
8EC7
330
2
100
AcDbEntity
  8
BALLASTR
370
    30
100
AcDbLine
 10
784.2241632637096
 20
1029.210832762413
 30
0.0
 11
810.7241632637093
 21
1029.210832762413
 31
0.0
  0
LINE
  5
8EC8
330
2
100
AcDbEntity
  8
BALLASTR
370
    30
100
AcDbLine
 10
784.2241632637096
 20
1026.710832762413
 30
0.0
 11
810.7241632637093
 21
1026.710832762413
 31
0.0
  0
LINE
  5
8EC9
330
2
100
AcDbEntity
  8
BALLASTR
370
    30
100
AcDbLine
 10
784.2241632637096
 20
1026.210832762413
 30
0.0
 11
810.7241632637093
 21
1026.210832762413
 31
0.0
  0
LINE
  5
8ECA
330
2
100
AcDbEntity
  8
BALLASTR
370
    30
100
AcDbLine
 10
784.2241632637092
 20
1056.054278165774
 30
0.0
 11
784.2241632637092
 21
1059.429278165774
 31
0.0
  0
LINE
  5
8ECB
330
2
100
AcDbEntity
  8
BALLASTR
370
    30
100
AcDbLine
 10
783.8491632637092
 20
1056.054278165774
 30
0.0
 11
783.8491632637092
 21
1059.429278165774
 31
0.0
  0
LINE
  5
8ECC
330
2
100
AcDbEntity
  8
BALLASTR
370
    30
100
AcDbLine
 10
811.0991632637091
 20
1029.710832762413
 30
0.0
 11
837.6072112287484
 21
1029.710832762413
 31
0.0
  0
LINE
  5
8ECD
330
2
100
AcDbEntity
  8
BALLASTR
370
    30
100
AcDbLine
 10
811.0991632637091
 20
1029.210832762413
 30
0.0
 11
837.6072112287484
 21
1029.210832762413
 31
0.0
  0
LINE
  5
8ECE
330
2
100
AcDbEntity
  8
BALLASTR
370
    30
100
AcDbLine
 10
811.0991632637091
 20
1026.710832762413
 30
0.0
 11
837.6072112287484
 21
1026.710832762413
 31
0.0
  0
LINE
  5
8ECF
330
2
100
AcDbEntity
  8
BALLASTR
370
    30
100
AcDbLine
 10
811.0991632637091
 20
1026.210832762413
 30
0.0
 11
837.6072112287484
 21
1026.210832762413
 31
0.0
  0
LINE
  5
8ED0
330
2
100
AcDbEntity
  8
MOLDING
370
    30
100
AcDbLine
 10
837.6072112287484
 20
1056.054278165774
 30
0.0
 11
811.0991632637091
 21
1056.054278165774
 31
0.0
  0
LINE
  5
8ED1
330
2
100
AcDbEntity
  8
MOLDING
370
    30
100
AcDbLine
 10
837.6072112287484
 20
1057.116778165774
 30
0.0
 11
811.0991632637091
 21
1057.116778165774
 31
0.0
  0
LINE
  5
8ED2
330
2
100
AcDbEntity
  8
MOLDING
370
    30
100
AcDbLine
 10
837.6072112287484
 20
1059.054278165774
 30
0.0
 11
811.0991632637096
 21
1059.054278165774
 31
0.0
  0
LINE
  5
8ED3
330
2
100
AcDbEntity
  8
MOLDING
370
    30
100
AcDbLine
 10
837.6072112287484
 20
1059.429278165774
 30
0.0
 11
811.0991632637096
 21
1059.429278165774
 31
0.0
  0
LINE
  5
8ED4
330
2
100
AcDbEntity
  8
BALLASTR
370
    30
100
AcDbLine
 10
814.2322112287484
 20
1053.179278165774
 30
0.0
 11
807.6072112287484
 21
1053.179278165774
 31
0.0
  0
LINE
  5
8ED5
330
2
100
AcDbEntity
  8
BALLASTR
370
    30
100
AcDbLine
 10
814.2322112287484
 20
1055.679278165774
 30
0.0
 11
807.6072112287484
 21
1055.679278165774
 31
0.0
  0
LINE
  5
8ED6
330
2
100
AcDbEntity
  8
BALLASTR
370
    30
100
AcDbLine
 10
810.7241632637093
 20
1056.054278165774
 30
0.0
 11
810.7241632637093
 21
1059.429278165774
 31
0.0
  0
LINE
  5
8ED7
330
2
100
AcDbEntity
  8
BALLASTR
370
    30
100
AcDbLine
 10
811.0991632637091
 20
1056.054278165774
 30
0.0
 11
811.0991632637091
 21
1059.429278165774
 31
0.0
  0
LINE
  5
8ED8
330
2
100
AcDbEntity
  8
BALLASTR
370
    30
100
AcDbLine
 10
807.6072112287484
 20
1055.679278165774
 30
0.0
 11
807.6072112287484
 21
1053.179278165774
 31
0.0
  0
LINE
  5
8ED9
330
2
100
AcDbEntity
  8
BALLASTR
370
    30
100
AcDbLine
 10
814.2322112287484
 20
1055.679278165774
 30
0.0
 11
814.2322112287484
 21
1053.179278165774
 31
0.0
  0
LINE
  5
8EDB
330
2
100
AcDbEntity
  8
BALLASTR
370
    30
100
AcDbLine
 10
837.9822112287483
 20
1056.054278165774
 30
0.0
 11
837.9822112287483
 21
1059.429278165774
 31
0.0
  0
LINE
  5
8EDC
330
2
100
AcDbEntity
  8
BALLASTR
370
    30
100
AcDbLine
 10
837.6072112287484
 20
1056.054278165774
 30
0.0
 11
837.6072112287484
 21
1059.429278165774
 31
0.0
  0
LINE
  5
8EDD
330
2
100
AcDbEntity
  8
BALLASTR
370
    30
100
AcDbLine
 10
837.6072112287484
 20
1055.679278165774
 30
0.0
 11
834.4822112287484
 21
1055.679278165774
 31
0.0
  0
LINE
  5
8EDE
330
2
100
AcDbEntity
  8
BALLASTR
370
    30
100
AcDbLine
 10
837.6072112287484
 20
1053.179278165774
 30
0.0
 11
834.4822112287484
 21
1053.179278165774
 31
0.0
  0
LINE
  5
8EDF
330
2
100
AcDbEntity
  8
BALLASTR
370
    30
100
AcDbLine
 10
837.6072112287484
 20
1053.179278165774
 30
0.0
 11
837.6072112287484
 21
1055.679278165774
 31
0.0
  0
LINE
  5
8EE0
330
2
100
AcDbEntity
  8
BALLASTR
370
    30
100
AcDbLine
 10
834.4822112287484
 20
1053.179278165774
 30
0.0
 11
834.4822112287484
 21
1055.679278165774
 31
0.0
  0
LINE
  5
8EE1
330
2
100
AcDbEntity
  8
BALLASTR
370
    30
100
AcDbLine
 10
856.9822112287484
 20
1020.335832762413
 30
0.0
 11
856.9822112287484
 21
1055.679278165774
 31
0.0
  0
LINE
  5
8EE2
330
2
100
AcDbEntity
  8
BALLASTR
370
    30
100
AcDbLine
 10
857.4822112287483
 20
1020.335832762413
 30
0.0
 11
857.4822112287483
 21
1055.679278165774
 31
0.0
  0
LINE
  5
8EE3
330
2
100
AcDbEntity
  8
BALLASTR
370
    30
100
AcDbLine
 10
858.4822112287483
 20
1056.054278165774
 30
0.0
 11
858.4822112287483
 21
1059.429278165774
 31
0.0
  0
LINE
  5
8EE4
330
2
100
AcDbEntity
  8
BALLASTR
370
    30
100
AcDbLine
 10
874.3600060169827
 20
1020.335832762413
 30
0.0
 11
874.3600060169827
 21
1055.679278165774
 31
0.0
  0
LINE
  5
8EE5
330
2
100
AcDbEntity
  8
BALLASTR
370
    30
100
AcDbLine
 10
887.9850060169827
 20
1020.335832762413
 30
0.0
 11
887.9850060169827
 21
1055.679278165774
 31
0.0
  0
LINE
  5
8EE6
330
2
100
AcDbEntity
  8
BALLASTR
370
    30
100
AcDbLine
 10
887.4850060169828
 20
1020.335832762413
 30
0.0
 11
887.4850060169828
 21
1055.679278165774
 31
0.0
  0
LINE
  5
8EE7
330
2
100
AcDbEntity
  8
BALLASTR
370
    30
100
AcDbLine
 10
874.8600060169827
 20
1020.335832762413
 30
0.0
 11
874.8600060169827
 21
1055.679278165774
 31
0.0
  0
LINE
  5
8EE8
330
2
100
AcDbEntity
  8
BALLASTR
370
    30
100
AcDbLine
 10
874.3600060169827
 20
1020.335832762413
 30
0.0
 11
887.9850060169827
 21
1020.335832762413
 31
0.0
  0
LINE
  5
8EE9
330
2
100
AcDbEntity
  8
BALLASTR
370
    30
100
AcDbLine
 10
888.9850060169827
 20
1056.054278165774
 30
0.0
 11
888.9850060169827
 21
1059.429278165774
 31
0.0
  0
LINE
  5
8EEA
330
2
100
AcDbEntity
  8
BALLASTR
370
    30
100
AcDbLine
 10
874.3439100869045
 20
1056.054278165774
 30
0.0
 11
874.3439100869045
 21
1059.429278165774
 31
0.0
  0
LINE
  5
8EEB
330
2
100
AcDbEntity
  8
MOLDING
370
    30
100
AcDbLine
 10
874.3569225583067
 20
1057.116778165774
 30
0.0
 11
888.9850060169832
 21
1057.116778165774
 31
0.0
  0
LINE
  5
8EEC
330
2
100
AcDbEntity
  8
MOLDING
370
    30
100
AcDbLine
 10
874.3439100869045
 20
1056.054278165774
 30
0.0
 11
888.9850060169827
 21
1056.054278165774
 31
0.0
  0
LINE
  5
8EED
330
2
100
AcDbEntity
  8
MOLDING
370
    30
100
AcDbLine
 10
874.3439100869045
 20
1055.679278165774
 30
0.0
 11
887.9850060169827
 21
1055.679278165774
 31
0.0
  0
LINE
  5
8EEE
330
2
100
AcDbEntity
  8
BALLASTR
370
    30
100
AcDbLine
 10
873.9850060169827
 20
1052.960832762413
 30
0.0
 11
873.9850060169827
 21
1055.460832762413
 31
0.0
  0
LINE
  5
8EEF
330
2
100
AcDbEntity
  8
MOLDING
370
    30
100
AcDbLine
 10
874.3569225583067
 20
1059.054278165774
 30
0.0
 11
888.9850060169827
 21
1059.054278165774
 31
0.0
  0
LINE
  5
8EF0
330
2
100
AcDbEntity
  8
MOLDING
370
    30
100
AcDbLine
 10
888.9850060169827
 20
1059.429278165774
 30
0.0
 11
874.3439100869045
 21
1059.429278165774
 31
0.0
  0
LINE
  5
8EF1
330
2
100
AcDbEntity
  8
0
 62
     1
370
    13
100
AcDbLine
 10
852.1338117502253
 20
1101.108903272971
 30
0.0
 11
918.4994275556737
 21
1101.108903272971
 31
0.0
  0
ATTDEF
  5
8EF2
330
2
100
AcDbEntity
  8
A1
 62
     1
370
     0
100
AcDbText
 10
880.1785872040975
 20
1102.810418984666
 30
0.0
 40
4.44528
  1

100
AcDbAttributeDefinition
  3
ADD LINK NUMBER (WMF)
  2
TSB016
 70
     0
  0
LINE
  5
8EF3
330
2
100
AcDbEntity
  8
0
 62
     1
370
     0
100
AcDbLine
 10
878.0144899899491
 20
1087.827395477614
 30
0.0
 11
878.0144899899491
 21
1108.07321770043
 31
0.0
  0
LINE
  5
8EF4
330
2
100
AcDbEntity
  8
MOLDING
370
    30
100
AcDbLine
 10
876.8569225583068
 20
1022.835832762413
 30
0.0
 11
876.8569225583068
 21
1053.179278165774
 31
0.0
  0
LINE
  5
8EF5
330
2
100
AcDbEntity
  8
MOLDING
370
    30
100
AcDbLine
 10
876.8569225583068
 20
1053.179278165774
 30
0.0
 11
885.4819225583067
 21
1053.179278165774
 31
0.0
  0
LINE
  5
8EF6
330
2
100
AcDbEntity
  8
MOLDING
370
    30
100
AcDbLine
 10
885.4819225583067
 20
1053.179278165774
 30
0.0
 11
885.4819225583067
 21
1022.835832762413
 31
0.0
  0
LINE
  5
8EF7
330
2
100
AcDbEntity
  8
MOLDING
370
    30
100
AcDbLine
 10
885.4819225583067
 20
1022.835832762413
 30
0.0
 11
876.8569225583068
 21
1022.835832762413
 31
0.0
  0
LINE
  5
8EF8
330
2
100
AcDbEntity
  8
MOLDING
370
    30
100
AcDbLine
 10
877.8569225583067
 20
1023.835832762413
 30
0.0
 11
877.8569225583067
 21
1052.179278165774
 31
0.0
  0
LINE
  5
8EF9
330
2
100
AcDbEntity
  8
MOLDING
370
    30
100
AcDbLine
 10
877.8569225583067
 20
1052.179278165774
 30
0.0
 11
884.4819225583067
 21
1052.179278165774
 31
0.0
  0
LINE
  5
8EFA
330
2
100
AcDbEntity
  8
MOLDING
370
    30
100
AcDbLine
 10
884.4819225583067
 20
1052.179278165774
 30
0.0
 11
884.4819225583067
 21
1023.835832762413
 31
0.0
  0
LINE
  5
8EFB
330
2
100
AcDbEntity
  8
MOLDING
370
    30
100
AcDbLine
 10
884.4819225583067
 20
1023.835832762413
 30
0.0
 11
877.8569225583067
 21
1023.835832762413
 31
0.0
  0
LINE
  5
8EFC
330
2
100
AcDbEntity
  8
BALLASTR
370
    30
100
AcDbLine
 10
870.8940961439678
 20
1020.335832762413
 30
0.0
 11
873.9850060169827
 21
1020.335832762413
 31
0.0
  0
LINE
  5
8EFD
330
2
100
AcDbEntity
  8
BALLASTR
370
    30
100
AcDbLine
 10
873.9850060169827
 20
1020.335832762413
 30
0.0
 11
873.9850060169827
 21
1022.835832762413
 31
0.0
  0
LINE
  5
8EFE
330
2
100
AcDbEntity
  8
BALLASTR
370
    30
100
AcDbLine
 10
873.9850060169827
 20
1022.835832762413
 30
0.0
 11
870.8940961439678
 21
1022.835832762413
 31
0.0
  0
LINE
  5
8EFF
330
2
100
AcDbEntity
  8
BALLASTR
370
    30
100
AcDbLine
 10
870.8940961439678
 20
1022.835832762413
 30
0.0
 11
870.8940961439678
 21
1020.335832762413
 31
0.0
  0
LINE
  5
8F00
330
2
100
AcDbEntity
  8
BALLASTR
370
    30
100
AcDbLine
 10
870.8940961439678
 20
1055.679278165774
 30
0.0
 11
873.9850060169827
 21
1055.679278165774
 31
0.0
  0
LINE
  5
8F01
330
2
100
AcDbEntity
  8
BALLASTR
370
    30
100
AcDbLine
 10
873.9850060169827
 20
1055.679278165774
 30
0.0
 11
873.9850060169827
 21
1053.179278165774
 31
0.0
  0
LINE
  5
8F02
330
2
100
AcDbEntity
  8
BALLASTR
370
    30
100
AcDbLine
 10
873.9850060169827
 20
1053.179278165774
 30
0.0
 11
870.8940961439678
 21
1053.179278165774
 31
0.0
  0
LINE
  5
8F03
330
2
100
AcDbEntity
  8
BALLASTR
370
    30
100
AcDbLine
 10
870.8940961439678
 20
1053.179278165774
 30
0.0
 11
870.8940961439678
 21
1055.679278165774
 31
0.0
  0
LINE
  5
8F04
330
2
100
AcDbEntity
  8
BALLASTR
  6
PHANTOM
 48
6.0
370
    30
100
AcDbLine
 10
736.471957361827
 20
1019.958832762413
 30
0.0
 11
858.2603951324689
 21
1019.958832762413
 31
0.0
  0
LINE
  5
8F05
330
2
100
AcDbEntity
  8
0
370
    30
100
AcDbLine
 10
821.3572112287483
 20
1038.304278165774
 30
0.0
 11
821.3572112287483
 21
1044.804278165774
 31
0.0
  0
LINE
  5
8F06
330
2
100
AcDbEntity
  8
0
370
    30
100
AcDbLine
 10
827.3572112287483
 20
1038.304278165774
 30
0.0
 11
827.3572112287483
 21
1044.804278165774
 31
0.0
  0
ARC
  5
8F07
330
2
100
AcDbEntity
  8
0
370
    30
100
AcDbCircle
 10
822.6072112287484
 20
1030.304278165774
 30
0.0
 40
11.5
100
AcDbArc
 50
101.9687455546815
 51
180.0
  0
ARC
  5
8F08
330
2
100
AcDbEntity
  8
0
370
    30
100
AcDbCircle
 10
822.6072112287484
 20
1052.804278165774
 30
0.0
 40
11.5
100
AcDbArc
 50
180.0
 51
258.031254445312
  0
ARC
  5
8F09
330
2
100
AcDbEntity
  8
0
370
    30
100
AcDbCircle
 10
826.1072112287484
 20
1052.804278165774
 30
0.0
 40
11.5
100
AcDbArc
 50
281.9687455546815
 51
0.0
  0
ARC
  5
8F0A
330
2
100
AcDbEntity
  8
0
370
    30
100
AcDbCircle
 10
826.1072112287484
 20
1030.304278165774
 30
0.0
 40
11.5
100
AcDbArc
 50
0.0
 51
78.03125444531204
  0
ARC
  5
8F0B
330
2
100
AcDbEntity
  8
0
370
    30
100
AcDbCircle
 10
822.6072112287484
 20
1030.304278165774
 30
0.0
 40
8.5
100
AcDbArc
 50
98.45651933526921
 51
180.0
  0
LINE
  5
8F0C
330
2
100
AcDbEntity
  8
0
370
    30
100
AcDbLine
 10
814.1072112287483
 20
1030.304278165774
 30
0.0
 11
811.1072112287484
 21
1030.304278165774
 31
0.0
  0
ARC
  5
8F0D
330
2
100
AcDbEntity
  8
0
370
    30
100
AcDbCircle
 10
826.1072112287484
 20
1030.304278165774
 30
0.0
 40
8.5
100
AcDbArc
 50
0.0
 51
81.5434806647308
  0
LINE
  5
8F0E
330
2
100
AcDbEntity
  8
0
370
    30
100
AcDbLine
 10
834.6072112287483
 20
1030.304278165774
 30
0.0
 11
837.6072112287484
 21
1030.304278165774
 31
0.0
  0
LINE
  5
8F0F
330
2
100
AcDbEntity
  8
0
370
    30
100
AcDbLine
 10
821.3572112287483
 20
1038.304278165774
 30
0.0
 11
827.3572112287483
 21
1038.304278165774
 31
0.0
  0
ARC
  5
8F10
330
2
100
AcDbEntity
  8
0
370
    30
100
AcDbCircle
 10
822.6072112287484
 20
1052.804278165774
 30
0.0
 40
8.5
100
AcDbArc
 50
180.0
 51
261.5434806647308
  0
LINE
  5
8F11
330
2
100
AcDbEntity
  8
0
370
    30
100
AcDbLine
 10
811.1072112287484
 20
1052.804278165774
 30
0.0
 11
814.1072112287483
 21
1052.804278165774
 31
0.0
  0
LINE
  5
8F12
330
2
100
AcDbEntity
  8
0
370
    30
100
AcDbLine
 10
834.6072112287483
 20
1052.804278165774
 30
0.0
 11
837.6072112287484
 21
1052.804278165774
 31
0.0
  0
ARC
  5
8F13
330
2
100
AcDbEntity
  8
0
370
    30
100
AcDbCircle
 10
826.1072112287484
 20
1052.804278165774
 30
0.0
 40
8.5
100
AcDbArc
 50
278.4565193352692
 51
0.0
  0
LINE
  5
8F14
330
2
100
AcDbEntity
  8
0
370
    30
100
AcDbLine
 10
821.3572112287483
 20
1044.804278165774
 30
0.0
 11
827.3572112287483
 21
1044.804278165774
 31
0.0
  0
LINE
  5
8F15
330
2
100
AcDbEntity
  8
0
370
    30
100
AcDbLine
 10
767.6072112287483
 20
1038.304278165774
 30
0.0
 11
767.6072112287483
 21
1044.804278165774
 31
0.0
  0
LINE
  5
8F16
330
2
100
AcDbEntity
  8
0
370
    30
100
AcDbLine
 10
773.6072112287484
 20
1038.304278165774
 30
0.0
 11
773.6072112287484
 21
1044.804278165774
 31
0.0
  0
ARC
  5
8F17
330
2
100
AcDbEntity
  8
0
370
    30
100
AcDbCircle
 10
768.8572112287483
 20
1030.304278165774
 30
0.0
 40
11.5
100
AcDbArc
 50
101.9687455546879
 51
180.0
  0
ARC
  5
8F18
330
2
100
AcDbEntity
  8
0
370
    30
100
AcDbCircle
 10
768.8572112287483
 20
1052.804278165774
 30
0.0
 40
11.5
100
AcDbArc
 50
180.0
 51
258.031254445312
  0
ARC
  5
8F19
330
2
100
AcDbEntity
  8
0
370
    30
100
AcDbCircle
 10
772.3572112287484
 20
1052.804278165774
 30
0.0
 40
11.5
100
AcDbArc
 50
281.9687455546879
 51
0.0
  0
ARC
  5
8F1A
330
2
100
AcDbEntity
  8
0
370
    30
100
AcDbCircle
 10
772.3572112287484
 20
1030.304278165774
 30
0.0
 40
11.5
100
AcDbArc
 50
0.0
 51
78.03125444531204
  0
ARC
  5
8F1B
330
2
100
AcDbEntity
  8
0
370
    30
100
AcDbCircle
 10
768.8572112287483
 20
1030.304278165774
 30
0.0
 40
8.5
100
AcDbArc
 50
98.45651933526921
 51
180.0
  0
LINE
  5
8F1C
330
2
100
AcDbEntity
  8
0
370
    30
100
AcDbLine
 10
760.3572112287483
 20
1030.304278165774
 30
0.0
 11
757.3572112287483
 21
1030.304278165774
 31
0.0
  0
ARC
  5
8F1D
330
2
100
AcDbEntity
  8
0
370
    30
100
AcDbCircle
 10
772.3572112287484
 20
1030.304278165774
 30
0.0
 40
8.5
100
AcDbArc
 50
0.0
 51
81.5434806647308
  0
LINE
  5
8F1E
330
2
100
AcDbEntity
  8
0
370
    30
100
AcDbLine
 10
780.8572112287484
 20
1030.304278165774
 30
0.0
 11
783.8572112287484
 21
1030.304278165774
 31
0.0
  0
LINE
  5
8F1F
330
2
100
AcDbEntity
  8
0
370
    30
100
AcDbLine
 10
767.6072112287483
 20
1038.304278165774
 30
0.0
 11
773.6072112287484
 21
1038.304278165774
 31
0.0
  0
ARC
  5
8F20
330
2
100
AcDbEntity
  8
0
370
    30
100
AcDbCircle
 10
768.8572112287483
 20
1052.804278165774
 30
0.0
 40
8.5
100
AcDbArc
 50
180.0
 51
261.5434806647308
  0
LINE
  5
8F21
330
2
100
AcDbEntity
  8
0
370
    30
100
AcDbLine
 10
757.3572112287483
 20
1052.804278165774
 30
0.0
 11
760.3572112287483
 21
1052.804278165774
 31
0.0
  0
LINE
  5
8F22
330
2
100
AcDbEntity
  8
0
370
    30
100
AcDbLine
 10
780.8572112287484
 20
1052.804278165774
 30
0.0
 11
783.8572112287484
 21
1052.804278165774
 31
0.0
  0
ARC
  5
8F23
330
2
100
AcDbEntity
  8
0
370
    30
100
AcDbCircle
 10
772.3572112287484
 20
1052.804278165774
 30
0.0
 40
8.5
100
AcDbArc
 50
278.4565193352692
 51
0.0
  0
LINE
  5
8F24
330
2
100
AcDbEntity
  8
0
370
    30
100
AcDbLine
 10
767.6072112287483
 20
1044.804278165774
 30
0.0
 11
773.6072112287484
 21
1044.804278165774
 31
0.0
  0
LINE
  5
8F2D
330
2
100
AcDbEntity
  8
0
370
    30
100
AcDbLine
 10
794.4822112287483
 20
1038.304278165774
 30
0.0
 11
794.4822112287483
 21
1044.804278165774
 31
0.0
  0
LINE
  5
8F2E
330
2
100
AcDbEntity
  8
0
370
    30
100
AcDbLine
 10
800.4822112287483
 20
1038.304278165774
 30
0.0
 11
800.4822112287483
 21
1044.804278165774
 31
0.0
  0
ARC
  5
8F2F
330
2
100
AcDbEntity
  8
0
370
    30
100
AcDbCircle
 10
795.7322112287483
 20
1030.304278165774
 30
0.0
 40
11.5
100
AcDbArc
 50
101.9687455546879
 51
180.0
  0
ARC
  5
8F30
330
2
100
AcDbEntity
  8
0
370
    30
100
AcDbCircle
 10
795.7322112287483
 20
1052.804278165774
 30
0.0
 40
11.5
100
AcDbArc
 50
180.0
 51
258.031254445312
  0
ARC
  5
8F31
330
2
100
AcDbEntity
  8
0
370
    30
100
AcDbCircle
 10
799.2322112287483
 20
1052.804278165774
 30
0.0
 40
11.5
100
AcDbArc
 50
281.9687455546879
 51
0.0
  0
ARC
  5
8F32
330
2
100
AcDbEntity
  8
0
370
    30
100
AcDbCircle
 10
799.2322112287483
 20
1030.304278165774
 30
0.0
 40
11.5
100
AcDbArc
 50
0.0
 51
78.03125444531204
  0
ARC
  5
8F33
330
2
100
AcDbEntity
  8
0
370
    30
100
AcDbCircle
 10
795.7322112287483
 20
1030.304278165774
 30
0.0
 40
8.5
100
AcDbArc
 50
98.45651933526921
 51
180.0
  0
LINE
  5
8F34
330
2
100
AcDbEntity
  8
0
370
    30
100
AcDbLine
 10
787.2322112287483
 20
1030.304278165774
 30
0.0
 11
784.2322112287484
 21
1030.304278165774
 31
0.0
  0
ARC
  5
8F35
330
2
100
AcDbEntity
  8
0
370
    30
100
AcDbCircle
 10
799.2322112287483
 20
1030.304278165774
 30
0.0
 40
8.5
100
AcDbArc
 50
0.0
 51
81.5434806647308
  0
LINE
  5
8F36
330
2
100
AcDbEntity
  8
0
370
    30
100
AcDbLine
 10
807.7322112287484
 20
1030.304278165774
 30
0.0
 11
810.7322112287484
 21
1030.304278165774
 31
0.0
  0
LINE
  5
8F37
330
2
100
AcDbEntity
  8
0
370
    30
100
AcDbLine
 10
794.4822112287483
 20
1038.304278165774
 30
0.0
 11
800.4822112287483
 21
1038.304278165774
 31
0.0
  0
ARC
  5
8F38
330
2
100
AcDbEntity
  8
0
370
    30
100
AcDbCircle
 10
795.7322112287483
 20
1052.804278165774
 30
0.0
 40
8.5
100
AcDbArc
 50
180.0
 51
261.5434806647308
  0
LINE
  5
8F39
330
2
100
AcDbEntity
  8
0
370
    30
100
AcDbLine
 10
784.2322112287484
 20
1052.804278165774
 30
0.0
 11
787.2322112287483
 21
1052.804278165774
 31
0.0
  0
LINE
  5
8F3A
330
2
100
AcDbEntity
  8
0
370
    30
100
AcDbLine
 10
807.7322112287484
 20
1052.804278165774
 30
0.0
 11
810.7322112287484
 21
1052.804278165774
 31
0.0
  0
ARC
  5
8F3B
330
2
100
AcDbEntity
  8
0
370
    30
100
AcDbCircle
 10
799.2322112287483
 20
1052.804278165774
 30
0.0
 40
8.5
100
AcDbArc
 50
278.4565193352692
 51
0.0
  0
LINE
  5
8F3C
330
2
100
AcDbEntity
  8
0
370
    30
100
AcDbLine
 10
794.4822112287483
 20
1044.804278165774
 30
0.0
 11
800.4822112287483
 21
1044.804278165774
 31
0.0
  0
LINE
  5
8F3D
330
2
100
AcDbEntity
  8
BALLASTR
370
    30
100
AcDbLine
 10
780.7322112287484
 20
1020.335832762413
 30
0.0
 11
787.3572112287484
 21
1020.335832762413
 31
0.0
  0
LINE
  5
8F3E
330
2
100
AcDbEntity
  8
BALLASTR
370
    30
100
AcDbLine
 10
787.3572112287484
 20
1020.335832762413
 30
0.0
 11
787.3572112287484
 21
1022.835832762413
 31
0.0
  0
LINE
  5
8F3F
330
2
100
AcDbEntity
  8
BALLASTR
370
    30
100
AcDbLine
 10
787.3572112287484
 20
1022.835832762413
 30
0.0
 11
780.7322112287484
 21
1022.835832762413
 31
0.0
  0
LINE
  5
8F40
330
2
100
AcDbEntity
  8
BALLASTR
370
    30
100
AcDbLine
 10
780.7322112287484
 20
1022.835832762413
 30
0.0
 11
780.7322112287484
 21
1020.335832762413
 31
0.0
  0
LINE
  5
8F41
330
2
100
AcDbEntity
  8
BALLASTR
370
    30
100
AcDbLine
 10
757.3572112287483
 20
1020.335832762413
 30
0.0
 11
760.5601086303608
 21
1020.335832762413
 31
0.0
  0
LINE
  5
8F42
330
2
100
AcDbEntity
  8
BALLASTR
370
    30
100
AcDbLine
 10
760.5601086303608
 20
1020.335832762413
 30
0.0
 11
760.5601086303608
 21
1022.835832762413
 31
0.0
  0
LINE
  5
8F43
330
2
100
AcDbEntity
  8
BALLASTR
370
    30
100
AcDbLine
 10
760.5601086303608
 20
1022.835832762413
 30
0.0
 11
757.3572112287483
 21
1022.835832762413
 31
0.0
  0
LINE
  5
8F44
330
2
100
AcDbEntity
  8
BALLASTR
370
    30
100
AcDbLine
 10
757.3572112287483
 20
1022.835832762413
 30
0.0
 11
757.3572112287483
 21
1020.335832762413
 31
0.0
  0
LINE
  5
8F45
330
2
100
AcDbEntity
  8
BALLASTR
370
    30
100
AcDbLine
 10
787.3572112287484
 20
1055.679278165774
 30
0.0
 11
787.3572112287484
 21
1053.179278165774
 31
0.0
  0
LINE
  5
8F46
330
2
100
AcDbEntity
  8
BALLASTR
370
    30
100
AcDbLine
 10
787.3572112287484
 20
1053.179278165774
 30
0.0
 11
780.7322112287484
 21
1053.179278165774
 31
0.0
  0
LINE
  5
8F47
330
2
100
AcDbEntity
  8
BALLASTR
370
    30
100
AcDbLine
 10
780.7322112287484
 20
1053.179278165774
 30
0.0
 11
780.7322112287484
 21
1055.679278165774
 31
0.0
  0
LINE
  5
8F48
330
2
100
AcDbEntity
  8
BALLASTR
370
    30
100
AcDbLine
 10
760.5601086303608
 20
1055.679278165774
 30
0.0
 11
760.5601086303608
 21
1053.179278165774
 31
0.0
  0
LINE
  5
8F49
330
2
100
AcDbEntity
  8
BALLASTR
370
    30
100
AcDbLine
 10
760.5601086303608
 20
1053.179278165774
 30
0.0
 11
757.3572112287483
 21
1053.179278165774
 31
0.0
  0
LINE
  5
8F4A
330
2
100
AcDbEntity
  8
BALLASTR
370
    30
100
AcDbLine
 10
757.3572112287483
 20
1053.179278165774
 30
0.0
 11
757.3572112287483
 21
1055.679278165774
 31
0.0
  0
LINE
  5
8F4B
330
2
100
AcDbEntity
  8
MOLDING
370
    30
100
AcDbLine
 10
852.4509612287484
 20
1022.835832762413
 30
0.0
 11
852.4509612287484
 21
1053.179278165774
 31
0.0
  0
LINE
  5
8F4C
330
2
100
AcDbEntity
  8
MOLDING
370
    30
100
AcDbLine
 10
852.4509612287484
 20
1053.179278165774
 30
0.0
 11
843.8259612287483
 21
1053.179278165774
 31
0.0
  0
LINE
  5
8F4D
330
2
100
AcDbEntity
  8
MOLDING
370
    30
100
AcDbLine
 10
843.8259612287483
 20
1053.179278165774
 30
0.0
 11
843.8259612287483
 21
1022.835832762413
 31
0.0
  0
LINE
  5
8F4E
330
2
100
AcDbEntity
  8
MOLDING
370
    30
100
AcDbLine
 10
843.8259612287483
 20
1022.835832762413
 30
0.0
 11
852.4509612287484
 21
1022.835832762413
 31
0.0
  0
LINE
  5
8F4F
330
2
100
AcDbEntity
  8
MOLDING
370
    30
100
AcDbLine
 10
851.4509612287483
 20
1023.835832762413
 30
0.0
 11
851.4509612287483
 21
1052.179278165774
 31
0.0
  0
LINE
  5
8F50
330
2
100
AcDbEntity
  8
MOLDING
370
    30
100
AcDbLine
 10
851.4509612287483
 20
1052.179278165774
 30
0.0
 11
844.8259612287483
 21
1052.179278165774
 31
0.0
  0
LINE
  5
8F51
330
2
100
AcDbEntity
  8
MOLDING
370
    30
100
AcDbLine
 10
844.8259612287483
 20
1052.179278165774
 30
0.0
 11
844.8259612287483
 21
1023.835832762413
 31
0.0
  0
LINE
  5
8F52
330
2
100
AcDbEntity
  8
MOLDING
370
    30
100
AcDbLine
 10
844.8259612287483
 20
1023.835832762413
 30
0.0
 11
851.4509612287483
 21
1023.835832762413
 31
0.0
  0
TEXT
  5
8F53
330
2
100
AcDbEntity
  8
leaders
 62
     1
370
    30
100
AcDbText
 10
880.1243765299769
 20
1094.955078881754
 30
0.0
 40
4.44528
  1
TannerStone
100
AcDbText
  0
TEXT
  5
8F54
330
2
100
AcDbEntity
  8
leaders
 62
     1
370
    30
100
AcDbText
 10
880.5734561746223
 20
1089.41188260257
 30
0.0
 40
3.283617204
  1
1-800-789-4841
100
AcDbText
  0
LINE
  5
8F57
330
2
100
AcDbEntity
  8
0
  6
PHANTOM
 48
4.0
370
    30
100
AcDbLine
 10
929.1456260688015
 20
1019.937596537429
 30
0.0
 11
916.8956260688016
 21
1019.937596537429
 31
0.0
  0
DIMENSION
  5
8F58
330
2
100
AcDbEntity
  8
leaders
 62
     7
370
    13
100
AcDbDimension
  2
*D66
 10
943.0193012084197
 20
1019.937596537429
 30
0.0
 11
943.0193012084197
 21
1039.88876529978
 31
0.0
 70
   160
  1
39 1/2"
 71
     5
 42
-1.0
  3
STANDARD
100
AcDbAlignedDimension
 13
923.006723864499
 23
1059.187594567786
 33
0.0
 14
929.1456260688015
 24
1019.937596537429
 34
0.0
 50
90.0
100
AcDbRotatedDimension
1001
ACAD
1000
DSTYLE
1002
{
1070
   287
1070
     4
1070
   287
1070
     4
1070
   287
1070
     4
1070
    40
1040
4.0
1070
    73
1070
     1
1070
    74
1070
     1
1070
    77
1070
     0
1070
   147
1040
0.5
1070
   279
1070
     1
1070
   288
1070
     1
1070
   289
1070
     3
1002
}
  0
DIMENSION
  5
8F5A
330
2
100
AcDbEntity
  8
leaders
 62
     7
370
    13
100
AcDbDimension
  2
*D67
 10
858.4822112287483
 20
1003.115157641679
 30
0.0
 11
873.8053811130436
 21
1003.115157641679
 31
0.0
 70
   160
 71
     5
 42
-1.0
  3
STANDARD
100
AcDbAlignedDimension
 13
837.6072112287484
 23
1020.335832762413
 33
0.0
 14
858.4822112287483
 24
1056.054278165774
 34
0.0
100
AcDbRotatedDimension
1001
ACAD
1000
DSTYLE
1002
{
1070
   287
1070
     4
1070
   287
1070
     4
1070
   287
1070
     4
1070
    40
1040
4.0
1070
    73
1070
     1
1070
    74
1070
     1
1070
    77
1070
     0
1070
   147
1040
0.5
1070
   279
1070
     1
1070
   288
1070
     1
1070
   289
1070
     3
1002
}
  0
DIMENSION
  5
8F5C
330
2
100
AcDbEntity
  8
leaders
 62
     7
370
    13
100
AcDbDimension
  2
*D68
 10
929.1456260688015
 20
1003.090104270651
 30
0.0
 11
946.4770456521646
 21
1003.090104270651
 31
0.0
 70
   160
 71
     5
 42
-1.0
  3
STANDARD
100
AcDbAlignedDimension
 13
916.8956260688016
 23
1019.937596537429
 33
0.0
 14
929.1456260688015
 24
1019.937596537429
 34
0.0
100
AcDbRotatedDimension
1001
ACAD
1000
DSTYLE
1002
{
1070
   287
1070
     4
1070
   287
1070
     4
1070
   287
1070
     4
1070
    40
1040
4.0
1070
    73
1070
     1
1070
    74
1070
     1
1070
    77
1070
     0
1070
   147
1040
0.5
1070
   279
1070
     1
1070
   288
1070
     1
1070
   289
1070
     3
1002
}
  0
SOLID
  5
8F5D
330
2
100
AcDbEntity
  8
leaders
 62
     1
370
    13
100
AcDbTrace
 10
837.6965209481781
 20
1061.185981470081
 30
0.0
 11
837.0720509846565
 21
1061.419394642596
 31
0.0
 12
836.684046448871
 22
1059.429278165774
 32
0.0
 13
836.684046448871
 23
1059.429278165774
 33
0.0
  0
LINE
  5
8F5E
330
2
100
AcDbEntity
  8
leaders
 62
     1
370
    13
100
AcDbLine
 10
837.3842859664174
 20
1061.302688056339
 30
0.0
 11
852.2629759311811
 21
1101.108903272971
 31
0.0
  0
DIMENSION
  5
8F5F
330
2
100
AcDbEntity
  8
leaders
 62
     7
370
    13
100
AcDbDimension
  2
*D69
 10
888.9850060169827
 20
1069.750949458175
 30
0.0
 11
910.9401557416717
 21
1069.750949458175
 31
0.0
 70
   160
 71
     5
 42
-1.0
  3
STANDARD
100
AcDbAlignedDimension
 13
874.3439100869045
 23
1059.429278165774
 33
0.0
 14
888.9850060169827
 24
1059.429278165774
 34
0.0
100
AcDbRotatedDimension
1001
ACAD
1000
DSTYLE
1002
{
1070
   287
1070
     4
1070
   287
1070
     4
1070
   287
1070
     4
1070
    40
1040
4.0
1070
    73
1070
     1
1070
    74
1070
     1
1070
    77
1070
     0
1070
   147
1040
0.5
1070
   279
1070
     1
1070
   288
1070
     1
1070
   289
1070
     3
1002
}
  0
LINE
  5
8F60
330
2
100
AcDbEntity
  8
BALLASTR
  6
PHANTOM
 48
5.0
370
    30
100
AcDbLine
 10
874.3600060169827
 20
1019.960832762413
 30
0.0
 11
887.9850060169827
 21
1019.960832762413
 31
0.0
  0
LINE
  5
8F61
330
2
100
AcDbEntity
  8
leaders
 62
     7
370
    30
100
AcDbLine
 10
757.3572112287483
 20
1055.679278165774
 30
0.0
 11
760.5601086303608
 21
1055.679278165774
 31
0.0
  0
LINE
  5
8F62
330
2
100
AcDbEntity
  8
leaders
 62
     7
370
    30
100
AcDbLine
 10
780.7322112287484
 20
1055.679278165774
 30
0.0
 11
787.3572112287484
 21
1055.679278165774
 31
0.0
  0
LINE
  5
96F4
330
2
100
AcDbEntity
  8
MOLDING
370
    30
100
AcDbLine
 10
736.46611529867
 20
1059.054278165774
 30
0.0
 11
756.96611529867
 21
1059.054278165774
 31
0.0
  0
LINE
  5
96F5
330
2
100
AcDbEntity
  8
BALLASTR
370
    30
100
AcDbLine
 10
756.96611529867
 20
1059.429278165774
 30
0.0
 11
736.46611529867
 21
1059.429278165774
 31
0.0
  0
LINE
  5
96F6
330
2
100
AcDbEntity
  8
BALLASTR
370
    30
100
AcDbLine
 10
736.46611529867
 20
1056.054278165774
 30
0.0
 11
756.96611529867
 21
1056.054278165774
 31
0.0
  0
LINE
  5
96F7
330
2
100
AcDbEntity
  8
MOLDING
370
    30
100
AcDbLine
 10
736.46611529867
 20
1057.116778165774
 30
0.0
 11
756.96611529867
 21
1057.116778165774
 31
0.0
  0
LINE
  5
96F9
330
2
100
AcDbEntity
  8
BALLASTR
370
    30
100
AcDbLine
 10
741.21611529867
 20
1020.335832762413
 30
0.0
 11
751.09111529867
 21
1020.335832762413
 31
0.0
  0
LINE
  5
96FA
330
2
100
AcDbEntity
  8
BALLASTR
370
    30
100
AcDbLine
 10
751.09111529867
 20
1020.335832762413
 30
0.0
 11
737.46611529867
 21
1020.335832762413
 31
0.0
  0
LINE
  5
96FB
330
2
100
AcDbEntity
  8
BALLASTR
370
    30
100
AcDbLine
 10
756.96611529867
 20
1020.335832762413
 30
0.0
 11
756.96611529867
 21
1055.679278165774
 31
0.0
  0
LINE
  5
96FC
330
2
100
AcDbEntity
  8
BALLASTR
370
    30
100
AcDbLine
 10
756.96611529867
 20
1020.335832762413
 30
0.0
 11
756.96611529867
 21
1055.679278165774
 31
0.0
  0
LINE
  5
96FD
330
2
100
AcDbEntity
  8
BALLASTR
370
    30
100
AcDbLine
 10
756.96611529867
 20
1020.335832762413
 30
0.0
 11
751.46611529867
 21
1020.335832762413
 31
0.0
  0
LINE
  5
96FE
330
2
100
AcDbEntity
  8
BALLASTR
370
    30
100
AcDbLine
 10
751.4661152986705
 20
1020.335832762413
 30
0.0
 11
756.96611529867
 21
1020.335832762413
 31
0.0
  0
LINE
  5
9700
330
2
100
AcDbEntity
  8
BALLASTR
370
    30
100
AcDbLine
 10
756.96611529867
 20
1056.054278165774
 30
0.0
 11
756.96611529867
 21
1059.429278165774
 31
0.0
  0
LINE
  5
9701
330
2
100
AcDbEntity
  8
BALLASTR
370
    30
100
AcDbLine
 10
737.96611529867
 20
1020.335832762413
 30
0.0
 11
737.96611529867
 21
1055.679278165774
 31
0.0
  0
LINE
  5
9702
330
2
100
AcDbEntity
  8
BALLASTR
370
    30
100
AcDbLine
 10
737.46611529867
 20
1020.335832762413
 30
0.0
 11
737.46611529867
 21
1055.679278165774
 31
0.0
  0
LINE
  5
9703
330
2
100
AcDbEntity
  8
BALLASTR
370
    30
100
AcDbLine
 10
736.46611529867
 20
1056.054278165774
 30
0.0
 11
736.46611529867
 21
1059.429278165774
 31
0.0
  0
LINE
  5
9704
330
2
100
AcDbEntity
  8
MOLDING
370
    30
100
AcDbLine
 10
742.49736529867
 20
1022.835832762413
 30
0.0
 11
742.49736529867
 21
1053.179278165774
 31
0.0
  0
LINE
  5
9705
330
2
100
AcDbEntity
  8
MOLDING
370
    30
100
AcDbLine
 10
742.49736529867
 20
1053.179278165774
 30
0.0
 11
751.12236529867
 21
1053.179278165774
 31
0.0
  0
LINE
  5
9706
330
2
100
AcDbEntity
  8
MOLDING
370
    30
100
AcDbLine
 10
751.12236529867
 20
1053.179278165774
 30
0.0
 11
751.12236529867
 21
1022.835832762413
 31
0.0
  0
LINE
  5
9707
330
2
100
AcDbEntity
  8
MOLDING
370
    30
100
AcDbLine
 10
751.12236529867
 20
1022.835832762413
 30
0.0
 11
742.49736529867
 21
1022.835832762413
 31
0.0
  0
LINE
  5
9708
330
2
100
AcDbEntity
  8
MOLDING
370
    30
100
AcDbLine
 10
743.49736529867
 20
1023.835832762413
 30
0.0
 11
743.49736529867
 21
1052.179278165774
 31
0.0
  0
LINE
  5
9709
330
2
100
AcDbEntity
  8
MOLDING
370
    30
100
AcDbLine
 10
743.49736529867
 20
1052.179278165774
 30
0.0
 11
750.12236529867
 21
1052.179278165774
 31
0.0
  0
LINE
  5
970A
330
2
100
AcDbEntity
  8
MOLDING
370
    30
100
AcDbLine
 10
750.12236529867
 20
1052.179278165774
 30
0.0
 11
750.12236529867
 21
1023.835832762413
 31
0.0
  0
LINE
  5
970B
330
2
100
AcDbEntity
  8
MOLDING
370
    30
100
AcDbLine
 10
750.12236529867
 20
1023.835832762413
 30
0.0
 11
743.49736529867
 21
1023.835832762413
 31
0.0
  0
LINE
  5
970C
330
2
100
AcDbEntity
  8
TEXT
 62
     7
370
    13
100
AcDbLine
 10
756.96611529867
 20
1055.679278165774
 30
0.0
 11
737.46611529867
 21
1055.679278165774
 31
0.0
  0
DIMENSION
  5
971D
330
2
100
AcDbEntity
  8
leaders
 62
     7
370
    13
100
AcDbDimension
  2
*D70
 10
904.3173201448182
 20
1055.81259653743
 30
0.0
 11
904.3173201448182
 21
1042.308350605134
 31
0.0
 70
   160
 71
     5
 42
-1.0
  3
STANDARD
100
AcDbAlignedDimension
 13
918.8956260688016
 23
1029.68759653743
 33
0.0
 14
918.6456260688016
 24
1055.81259653743
 34
0.0
 50
90.0
100
AcDbRotatedDimension
1001
ACAD
1000
DSTYLE
1002
{
1070
   287
1070
     4
1070
    40
1040
4.0
1070
    73
1070
     1
1070
    74
1070
     1
1070
    77
1070
     0
1070
   147
1040
0.5
1070
   279
1070
     1
1070
   288
1070
     1
1070
   289
1070
     3
1002
}
  0
DIMENSION
  5
9771
330
2
100
AcDbEntity
  8
leaders
 62
     7
370
    13
100
AcDbDimension
  2
*D71
 10
717.5727702205777
 20
1059.429278165774
 30
0.0
 11
717.5727702205777
 21
1039.993254329342
 31
0.0
 70
   160
 71
     5
 42
-1.0
  3
STANDARD
100
AcDbAlignedDimension
 13
736.471957361827
 23
1019.958832762413
 33
0.0
 14
736.46611529867
 24
1059.429278165774
 34
0.0
 50
90.0
100
AcDbRotatedDimension
1001
ACAD
1000
DSTYLE
1002
{
1070
   287
1070
     4
1070
    40
1040
4.0
1070
    73
1070
     1
1070
    74
1070
     1
1070
    77
1070
     0
1070
   147
1040
0.5
1070
   279
1070
     1
1070
   288
1070
     1
1070
   289
1070
     3
1002
}
  0
DIMENSION
  5
978A
330
2
100
AcDbEntity
  8
leaders
 62
     7
370
    13
100
AcDbDimension
  2
*D72
 10
810.9197112287484
 20
1011.685996645254
 30
0.0
 11
798.0523947279309
 21
1011.685996645254
 31
0.0
 70
   160
 71
     5
 42
-1.0
  3
STANDARD
100
AcDbAlignedDimension
 13
784.0447112287484
 23
1022.835832762413
 33
0.0
 14
810.9197112287484
 24
1022.835832762413
 34
0.0
100
AcDbRotatedDimension
1001
ACAD
1000
DSTYLE
1002
{
1070
   287
1070
     4
1070
    40
1040
4.0
1070
    73
1070
     1
1070
    74
1070
     1
1070
    77
1070
     0
1070
   147
1040
0.5
1070
   279
1070
     1
1070
   288
1070
     1
1070
   289
1070
     3
1002
}
  0
DIMENSION
  5
97A2
330
2
100
AcDbEntity
  8
leaders
 62
     7
370
    13
100
AcDbDimension
  2
*D73
 10
736.46611529867
 20
1003.115157641679
 30
0.0
 11
721.1429454143748
 21
1003.115157641679
 31
0.0
 70
   160
 71
     5
 42
-1.0
  3
STANDARD
100
AcDbAlignedDimension
 13
757.34111529867
 23
1020.335832762413
 33
0.0
 14
736.46611529867
 24
1056.054278165774
 34
0.0
 50
180.0
100
AcDbRotatedDimension
1001
ACAD
1000
DSTYLE
1002
{
1070
   287
1070
     4
1070
   287
1070
     4
1070
   287
1070
     4
1070
    40
1040
4.0
1070
    73
1070
     1
1070
    74
1070
     1
1070
    77
1070
     0
1070
   147
1040
0.5
1070
   279
1070
     1
1070
   288
1070
     1
1070
   289
1070
     3
1002
}
  0
DIMENSION
  5
97D3
330
2
100
AcDbEntity
  8
TEXT
 62
     7
370
    13
100
AcDbDimension
  2
*D75
 10
837.59111529867
 20
1003.115157641679
 30
0.0
 11
798.0114621705288
 21
1003.115157641679
 31
0.0
 70
   160
  1
VARIES
 71
     5
 42
-1.0
  3
STANDARD
100
AcDbAlignedDimension
 13
757.34111529867
 23
1020.484371697902
 33
0.0
 14
837.59111529867
 24
1020.484371697902
 34
0.0
100
AcDbRotatedDimension
1001
ACAD
1000
DSTYLE
1002
{
1070
    40
1040
4.0
1070
    73
1070
     1
1070
    74
1070
     1
1070
    77
1070
     0
1070
   147
1040
0.5
1070
   279
1070
     1
1070
   288
1070
     1
1070
   289
1070
     3
1002
}
  0
ENDSEC
  0
SECTION
  2
OBJECTS
  0
DICTIONARY
  5
8
330
0
100
AcDbDictionary
281
     1
  3
ACAD_GROUP
350
21
  3
ACAD_LAYOUT
350
C
  3
ACAD_MLINESTYLE
350
22
  3
ACAD_PLOTSETTINGS
350
23
  3
ACAD_PLOTSTYLENAME
350
7
  3
DWGPROPS
350
A5B
  0
DICTIONARY
  5
3
330
2
100
AcDbDictionary
280
     1
281
     1
  3
ACAD_LAYOUTSELFREF
360
98AA
  0
DICTIONARY
  5
A8B
330
D
100
AcDbDictionary
280
     1
281
     1
  3
ACAD_LAYOUTSELFREF
360
98AD
  0
DICTIONARY
  5
21
102
{ACAD_REACTORS
330
8
102
}
330
8
100
AcDbDictionary
281
     1
  0
DICTIONARY
  5
C
102
{ACAD_REACTORS
330
8
102
}
330
8
100
AcDbDictionary
281
     1
  3
Layout1
350
10
  3
Model
350
B
  0
DICTIONARY
  5
22
102
{ACAD_REACTORS
330
8
102
}
330
8
100
AcDbDictionary
281
     1
  3
STANDARD
350
25
  0
DICTIONARY
  5
23
102
{ACAD_REACTORS
330
8
102
}
330
8
100
AcDbDictionary
281
     1
  3
EXOT1
350
5482
  0
ACDBDICTIONARYWDFLT
  5
7
102
{ACAD_REACTORS
330
8
102
}
330
8
100
AcDbDictionary
281
     1
  3
Normal
350
6
100
AcDbDictionaryWithDefault
340
6
  0
XRECORD
  5
A5B
102
{ACAD_REACTORS
330
8
102
}
330
8
100
AcDbXrecord
280
     1
  1
DWGPROPS COOKIE
  2

  3

  4

  6

  7

  8
catalog
  9

300
=
301
=
302
=
303
=
304
=
305
=
306
=
307
=
308
=
309
=
 40
3.508515162037037
 41
2451085.66483831
 42
2451649.509986921
  1

 90
        0
  0
XRECORD
  5
98AA
102
{ACAD_REACTORS
330
3
102
}
330
3
100
AcDbXrecord
280
     1
340
2
  0
XRECORD
  5
98AD
102
{ACAD_REACTORS
330
A8B
102
}
330
A8B
100
AcDbXrecord
280
     1
340
D
  0
LAYOUT
  5
10
102
{ACAD_REACTORS
330
C
102
}
330
C
100
AcDbPlotSettings
  1

  2
None
  4

  6

 40
0.0
 41
0.0
 42
0.0
 43
0.0
 44
0.0
 45
0.0
 46
0.0
 47
0.0
 48
0.0
 49
0.0
140
0.0
141
0.0
142
1.0
143
1.0
 70
   688
 72
     0
 73
     0
 74
     5
  7

 75
    16
147
1.0
148
0.0
149
0.0
100
AcDbLayout
  1
Layout1
 70
     1
 71
     1
 10
0.0
 20
0.0
 11
12.0
 21
9.0
 12
0.0
 22
0.0
 32
0.0
 14
1.000000000000000E+20
 24
1.000000000000000E+20
 34
1.000000000000000E+20
 15
-1.000000000000000E+20
 25
-1.000000000000000E+20
 35
-1.000000000000000E+20
146
0.0
 13
0.0
 23
0.0
 33
0.0
 16
1.0
 26
0.0
 36
0.0
 17
0.0
 27
1.0
 37
0.0
 76
     0
330
D
  0
LAYOUT
  5
B
102
{ACAD_REACTORS
330
C
102
}
330
C
100
AcDbPlotSettings
  1

  2
HP LaserJet 5
  4
Letter
  6

 40
7.143749713897705
 41
6.381738662719726
 42
7.14373779296875
 43
6.381744384765625
 44
215.8999938964843
 45
279.3999938964843
 46
0.0
 47
0.0
 48
768.9230197229257
 49
905.839725940649
140
1017.076999867801
141
1090.442077024031
142
1.0
143
26.0112119363924
 70
 11952
 72
     0
 73
     1
 74
     1
  7

 75
     0
147
0.0384449599059587
148
-17641.14411839835
149
-23540.39931422579
100
AcDbLayout
  1
Model
 70
     1
 71
     0
 10
0.0
 20
0.0
 11
12.0
 21
9.0
 12
0.0
 22
0.0
 32
0.0
 14
0.0
 24
0.0
 34
0.0
 15
0.0
 25
0.0
 35
0.0
146
0.0
 13
0.0
 23
0.0
 33
0.0
 16
1.0
 26
0.0
 36
0.0
 17
0.0
 27
1.0
 37
0.0
 76
     0
330
2
  0
MLINESTYLE
  5
25
102
{ACAD_REACTORS
330
22
102
}
330
22
100
AcDbMlineStyle
  2
STANDARD
 70
     0
  3

 62
   256
 51
90.0
 52
90.0
 71
     2
 49
0.5
 62
   256
  6
BYLAYER
 49
-0.5
 62
   256
  6
BYLAYER
  0
PLOTSETTINGS
  5
5482
102
{ACAD_REACTORS
330
23
102
}
330
23
100
AcDbPlotSettings
  1
EXOT1
  2
none_device
  4
Letter_(8.50_x_11.00_Inches)
  6

 40
6.349999904632568
 41
6.349999904632568
 42
6.350006103515625
 43
6.350006103515625
 44
215.8999938964843
 45
279.3999938964843
 46
0.0
 47
0.0
 48
103.0850064956629
 49
-9.683547388295792
140
103.9154412227691
141
-9.137474670122287
142
1.0
143
6.008830949410951
 70
  1712
 72
     0
 73
     1
 74
     1
  7

 75
     0
147
0.1664217230305057
148
0.0244351407155108
149
0.0181773607759482
  0
ACDBPLACEHOLDER
  5
6
102
{ACAD_REACTORS
330
7
102
}
330
7
  0
ENDSEC
  0
EOF
