  0
SECTION
  2
HEADER
  9
$ACADVER
  1
AC1015
  9
$ACADMAINTVER
 70
     6
  9
$DWGCODEPAGE
  3
ANSI_1252
  9
$INSBASE
 10
0.0
 20
0.0
 30
0.0
  9
$EXTMIN
 10
697.5164016425818
 20
491.6906706800191
 30
0.0
  9
$EXTMAX
 10
876.9511714035026
 20
625.1726335509479
 30
0.0
  9
$LIMMIN
 10
0.0
 20
0.0
  9
$LIMMAX
 10
12.0
 20
9.0
  9
$ORTHOMODE
 70
     0
  9
$REGENMODE
 70
     1
  9
$FILLMODE
 70
     1
  9
$QTEXTMODE
 70
     0
  9
$MIRRTEXT
 70
     0
  9
$LTSCALE
 40
1.0
  9
$ATTMODE
 70
     2
  9
$TEXTSIZE
 40
1.0
  9
$TRACEWID
 40
0.05
  9
$TEXTSTYLE
  7
STANDARD
  9
$CLAYER
  8
TEXT
  9
$CELTYPE
  6
BYLAYER
  9
$CECOLOR
 62
     7
  9
$CELTSCALE
 40
1.0
  9
$DISPSILH
 70
     0
  9
$DIMSCALE
 40
2.399999999999999
  9
$DIMASZ
 40
0.5
  9
$DIMEXO
 40
1.0
  9
$DIMDLI
 40
0.0625
  9
$DIMRND
 40
0.0
  9
$DIMDLE
 40
0.0
  9
$DIMEXE
 40
0.25
  9
$DIMTP
 40
0.0
  9
$DIMTM
 40
0.0
  9
$DIMTXT
 40
1.0
  9
$DIMCEN
 40
0.0
  9
$DIMTSZ
 40
0.0
  9
$DIMTOL
 70
     0
  9
$DIMLIM
 70
     0
  9
$DIMTIH
 70
     1
  9
$DIMTOH
 70
     1
  9
$DIMSE1
 70
     0
  9
$DIMSE2
 70
     0
  9
$DIMTAD
 70
     0
  9
$DIMZIN
 70
     0
  9
$DIMBLK
  1

  9
$DIMASO
 70
     1
  9
$DIMSHO
 70
     1
  9
$DIMPOST
  1
"
  9
$DIMAPOST
  1

  9
$DIMALT
 70
     0
  9
$DIMALTD
 70
     0
  9
$DIMALTF
 40
25.4
  9
$DIMLFAC
 40
1.0
  9
$DIMTOFL
 70
     0
  9
$DIMTVP
 40
0.0
  9
$DIMTIX
 70
     0
  9
$DIMSOXD
 70
     0
  9
$DIMSAH
 70
     0
  9
$DIMBLK1
  1

  9
$DIMBLK2
  1

  9
$DIMSTYLE
  2
STANDARD
  9
$DIMCLRD
 70
     0
  9
$DIMCLRE
 70
     0
  9
$DIMCLRT
 70
     0
  9
$DIMTFAC
 40
0.125
  9
$DIMGAP
 40
0.5
  9
$DIMJUST
 70
     0
  9
$DIMSD1
 70
     0
  9
$DIMSD2
 70
     0
  9
$DIMTOLJ
 70
     1
  9
$DIMTZIN
 70
     0
  9
$DIMALTZ
 70
     2
  9
$DIMALTTZ
 70
     2
  9
$DIMUPT
 70
     1
  9
$DIMDEC
 70
     4
  9
$DIMTDEC
 70
     4
  9
$DIMALTU
 70
     2
  9
$DIMALTTD
 70
     0
  9
$DIMTXSTY
  7
STANDARD
  9
$DIMAUNIT
 70
     0
  9
$DIMADEC
 70
     0
  9
$DIMALTRND
 40
0.0
  9
$DIMAZIN
 70
     0
  9
$DIMDSEP
 70
    46
  9
$DIMATFIT
 70
     1
  9
$DIMFRAC
 70
     2
  9
$DIMLDRBLK
  1

  9
$DIMLUNIT
 70
     5
  9
$DIMLWD
 70
    -2
  9
$DIMLWE
 70
    -2
  9
$DIMTMOVE
 70
     1
  9
$LUNITS
 70
     5
  9
$LUPREC
 70
     4
  9
$SKETCHINC
 40
0.1
  9
$FILLETRAD
 40
0.03125
  9
$AUNITS
 70
     0
  9
$AUPREC
 70
     1
  9
$MENU
  1
acad
  9
$ELEVATION
 40
0.0
  9
$PELEVATION
 40
0.0
  9
$THICKNESS
 40
0.0
  9
$LIMCHECK
 70
     0
  9
$CHAMFERA
 40
0.75
  9
$CHAMFERB
 40
0.75
  9
$CHAMFERC
 40
0.0
  9
$CHAMFERD
 40
0.0
  9
$SKPOLY
 70
     0
  9
$TDCREATE
 40
2451085.664838310
  9
$TDUCREATE
 40
2451085.831504977
  9
$TDUPDATE
 40
2451661.332559143
  9
$TDUUPDATE
 40
2451661.499225810
  9
$TDINDWG
 40
3.6628331019
  9
$TDUSRTIMER
 40
3.6628331019
  9
$USRTIMER
 70
     1
  9
$ANGBASE
 50
0.0
  9
$ANGDIR
 70
     0
  9
$PDMODE
 70
     0
  9
$PDSIZE
 40
0.0
  9
$PLINEWID
 40
0.12
  9
$SPLFRAME
 70
     0
  9
$SPLINETYPE
 70
     6
  9
$SPLINESEGS
 70
     8
  9
$HANDSEED
  5
376F
  9
$SURFTAB1
 70
     6
  9
$SURFTAB2
 70
     6
  9
$SURFTYPE
 70
     6
  9
$SURFU
 70
     6
  9
$SURFV
 70
     6
  9
$UCSBASE
  2

  9
$UCSNAME
  2

  9
$UCSORG
 10
0.0
 20
0.0
 30
0.0
  9
$UCSXDIR
 10
1.0
 20
0.0
 30
0.0
  9
$UCSYDIR
 10
0.0
 20
1.0
 30
0.0
  9
$UCSORTHOREF
  2

  9
$UCSORTHOVIEW
 70
     0
  9
$UCSORGTOP
 10
0.0
 20
0.0
 30
0.0
  9
$UCSORGBOTTOM
 10
0.0
 20
0.0
 30
0.0
  9
$UCSORGLEFT
 10
0.0
 20
0.0
 30
0.0
  9
$UCSORGRIGHT
 10
0.0
 20
0.0
 30
0.0
  9
$UCSORGFRONT
 10
0.0
 20
0.0
 30
0.0
  9
$UCSORGBACK
 10
0.0
 20
0.0
 30
0.0
  9
$PUCSBASE
  2

  9
$PUCSNAME
  2

  9
$PUCSORG
 10
0.0
 20
0.0
 30
0.0
  9
$PUCSXDIR
 10
1.0
 20
0.0
 30
0.0
  9
$PUCSYDIR
 10
0.0
 20
1.0
 30
0.0
  9
$PUCSORTHOREF
  2

  9
$PUCSORTHOVIEW
 70
     0
  9
$PUCSORGTOP
 10
0.0
 20
0.0
 30
0.0
  9
$PUCSORGBOTTOM
 10
0.0
 20
0.0
 30
0.0
  9
$PUCSORGLEFT
 10
0.0
 20
0.0
 30
0.0
  9
$PUCSORGRIGHT
 10
0.0
 20
0.0
 30
0.0
  9
$PUCSORGFRONT
 10
0.0
 20
0.0
 30
0.0
  9
$PUCSORGBACK
 10
0.0
 20
0.0
 30
0.0
  9
$USERI1
 70
     0
  9
$USERI2
 70
     0
  9
$USERI3
 70
     0
  9
$USERI4
 70
     0
  9
$USERI5
 70
     0
  9
$USERR1
 40
0.0
  9
$USERR2
 40
0.0
  9
$USERR3
 40
0.0
  9
$USERR4
 40
0.0
  9
$USERR5
 40
0.0
  9
$WORLDVIEW
 70
     1
  9
$SHADEDGE
 70
     1
  9
$SHADEDIF
 70
    70
  9
$TILEMODE
 70
     1
  9
$MAXACTVP
 70
    16
  9
$PINSBASE
 10
0.0
 20
0.0
 30
0.0
  9
$PLIMCHECK
 70
     0
  9
$PEXTMIN
 10
1.000000000000000E+20
 20
1.000000000000000E+20
 30
1.000000000000000E+20
  9
$PEXTMAX
 10
-1.000000000000000E+20
 20
-1.000000000000000E+20
 30
-1.000000000000000E+20
  9
$PLIMMIN
 10
0.0
 20
0.0
  9
$PLIMMAX
 10
12.0
 20
9.0
  9
$UNITMODE
 70
     0
  9
$VISRETAIN
 70
     0
  9
$PLINEGEN
 70
     0
  9
$PSLTSCALE
 70
     1
  9
$TREEDEPTH
 70
  3020
  9
$CMLSTYLE
  2
STANDARD
  9
$CMLJUST
 70
     0
  9
$CMLSCALE
 40
1.0
  9
$PROXYGRAPHICS
 70
     1
  9
$MEASUREMENT
 70
     0
  9
$CELWEIGHT
370
    13
  9
$ENDCAPS
280
     0
  9
$JOINSTYLE
280
     0
  9
$LWDISPLAY
290
     0
  9
$INSUNITS
 70
     0
  9
$HYPERLINKBASE
  1

  9
$STYLESHEET
  1

  9
$XEDIT
290
     1
  9
$CEPSNTYPE
380
     0
  9
$PSTYLEMODE
290
     1
  9
$FINGERPRINTGUID
  2
{A6232B84-9B2E-11D3-8DA4-00A0C981A35F}
  9
$VERSIONGUID
  2
{9DB08437-1784-11D4-8DA4-00A0C981A35F}
  9
$EXTNAMES
290
     1
  9
$PSVPSCALE
 40
0.0
  9
$OLESTARTUP
290
     0
  0
ENDSEC
  0
SECTION
  2
CLASSES
  0
CLASS
  1
DICTIONARYVAR
  2
AcDbDictionaryVar
  3
AutoCAD 2000
 90
    32768
280
     0
281
     0
  0
CLASS
  1
LWPOLYLINE
  2
AcDbPolyline
  3
AutoCAD 2000
 90
    32768
280
     0
281
     1
  0
CLASS
  1
RASTERVARIABLES
  2
AcDbRasterVariables
  3
ISM
 90
    32768
280
     0
281
     0
  0
CLASS
  1
ACDBDICTIONARYWDFLT
  2
AcDbDictionaryWithDefault
  3
AutoCAD 2000
 90
        0
280
     0
281
     0
  0
CLASS
  1
ACDBPLACEHOLDER
  2
AcDbPlaceHolder
  3
AutoCAD 2000
 90
        0
280
     0
281
     0
  0
CLASS
  1
LAYOUT
  2
AcDbLayout
  3
AutoCAD 2000
 90
        0
280
     0
281
     0
  0
CLASS
  1
ACME_DOCUMENT
  2
AcMeDbDoc
  3
AcMeServices
 90
    32768
280
     1
281
     0
  0
CLASS
  1
ACMESCOPE
  2
AcMeScope
  3
AcMeServices
 90
    32768
280
     1
281
     0
  0
CLASS
  1
ACMECOMMANDHISTORY
  2
AcMeCommandHistory
  3
AcMeServices
 90
    32768
280
     1
281
     0
  0
CLASS
  1
ACIMSYSVARMAN
  2
AcImSysVarManager
  3
AcMeServices
 90
    32768
280
     1
281
     0
  0
CLASS
  1
ACIMREALSYSVAR
  2
AcImRealSysVar
  3
AcMeServices
 90
    32768
280
     1
281
     0
  0
CLASS
  1
ACIMINTSYSVAR
  2
AcImIntSysVar
  3
AcMeServices
 90
    32768
280
     1
281
     0
  0
CLASS
  1
ACMEDRAWINGMAN
  2
AcMeDrawingMan
  3
AcMeServices
 90
    32768
280
     1
281
     0
  0
CLASS
  1
ACMEVIEW
  2
AcMeView
  3
AcMeServices
 90
    32768
280
     1
281
     0
  0
CLASS
  1
ACDBENTITYCACHE
  2
AcMeEntityCache
  3
AcMeServices
 90
    32768
280
     1
281
     0
  0
CLASS
  1
GSMANAGER
  2
AcMeGSManager
  3
AcMeServices
 90
    32768
280
     1
281
     0
  0
CLASS
  1
AmdtInternalReactor
  2
AmdtInternalReactor
  3
AcMeServices
 90
    32768
280
     1
281
     0
  0
CLASS
  1
ACMESTATEMGR
  2
AcMeStateMgr
  3
AcMeServices
 90
    32768
280
     1
281
     0
  0
CLASS
  1
ACGREFMASTER
  2
AcGrefMaster
  3
AcAttribServices
 90
    32768
280
     1
281
     0
  0
CLASS
  1
AM_DRAWING_MGR
  2
AcDmDwgMgr
  3
AcMechDwgViewMgmt
 90
    32768
280
     1
281
     0
  0
CLASS
  1
AM_DWG_DOCUMENT
  2
AcDmDwgDocument
  3
AcMechDwgViewMgmt
 90
    32768
280
     1
281
     0
  0
CLASS
  1
AM_DWG_SHEET
  2
AcDmSheet
  3
AcMechDwgViewMgmt
 90
    32768
280
     1
281
     0
  0
CLASS
  1
AM_VIEWDIMPARMAP
  2
AcDmViewDimParMap
  3
AcMechDwgViewMgmt
 90
    32768
280
     1
281
     0
  0
CLASS
  1
AM_DWGMGR_NAME
  2
AcDmDwgMgrName
  3
AcMechDwgViewMgmt
 90
    32768
280
     1
281
     0
  0
CLASS
  1
ACME_DATABASE
  2
AcMeDbDatabase
  3
AcMeServices
 90
    32768
280
     1
281
     0
  0
CLASS
  1
ACRFINSADJUSTERMGR
  2
AcRfInsAdjusterMgr
  3
AcMeServices
 90
    32768
280
     1
281
     0
  0
CLASS
  1
ACGREFMASTER
  2
AcGrefacadMaster
  3
AcGrefServices
 90
    32768
280
     1
281
     0
  0
CLASS
  1
AMDTMENUSTATEMGR
  2
AmdtMenuStateMgr
  3
McadcomServices
 90
    32768
280
     1
281
     0
  0
CLASS
  1
AMDTMCOMMENUSTATE
  2
AmdtMcomMenuState
  3
McadcomServices
 90
    32768
280
     1
281
     0
  0
CLASS
  1
ASAPP
  2
AcAsAppObject
  3
AutoSurfServices
 90
    32768
280
     1
281
     0
  0
CLASS
  1
IM_STATIC_MAN
  2
AcImStaticVarManager
  3
AcMeServices
 90
    32768
280
     1
281
     0
  0
CLASS
  1
ACIMSTRSYSVAR
  2
AcImStrSysVar
  3
AcMeServices
 90
    32768
280
     1
281
     0
  0
CLASS
  1
ACIMDBLSTATICVAR
  2
AcImDblStaticVar
  3
AcMeServices
 90
    32768
280
     1
281
     0
  0
CLASS
  1
ACIMSTRSTATICVAR
  2
AcImStrStaticVar
  3
AcMeServices
 90
    32768
280
     1
281
     0
  0
CLASS
  1
ACIMINTSTATICVAR
  2
AcImIntStaticVar
  3
AcMeServices
 90
    32768
280
     1
281
     0
  0
CLASS
  1
ACADGREFMODULE
  2
AcAdGrefModule
  3
AdGrefServices
 90
    32768
280
     1
281
     0
  0
CLASS
  1
AMIMASTER
  2
AmiMaster
  3
AmiServices
 90
    32768
280
     1
281
     0
  0
CLASS
  1
ACASGREFMASTER
  2
AcAsGrefMaster
  3
AutoSurfResolverServices
 90
    32768
280
     1
281
     0
  0
CLASS
  1
MAPIAMMOUDLE
  2
MApiAmModule
  3
MApiAmServices
 90
    32768
280
     1
281
     0
  0
CLASS
  1
AMDTDMMENUSTATE
  2
AmdtDmMenuState
  3
AcMechDwgViewMgmt
 90
    32768
280
     1
281
     0
  0
CLASS
  1
AMDTADMENUSTATE
  2
AmdtAdMenuState
  3
DesignerServices
 90
    32768
280
     1
281
     0
  0
CLASS
  1
ADAPPL
  2
AcAdAppl
  3
DesignerServices
 90
    32768
280
     1
281
     0
  0
CLASS
  1
DEPMGR
  2
AcAdDepMgr
  3
DesignerServices
 90
    32768
280
     1
281
     0
  0
CLASS
  1
PARAMMGR
  2
AcAdParamMgr
  3
DesignerServices
 90
    32768
280
     1
281
     0
  0
CLASS
  1
PARAMSCOPE
  2
AcAdParamScope
  3
DesignerServices
 90
    32768
280
     1
281
     0
  0
CLASS
  1
NAMEDAPPL
  2
AcAdNamedAppl
  3
DesignerServices
 90
    32768
280
     1
281
     0
  0
CLASS
  1
ADHNTMPLT
  2
AdHoleNoteTemplateMgr
  3
DesignerServices
 90
    32768
280
     1
281
     0
  0
CLASS
  1
AM_HNTEMPLATE_MGR_NAME
  2
AdHoleNoteTemplateMgrName
  3
DesignerServices
 90
    32768
280
     1
281
     0
  0
CLASS
  1
AMDTAMMENUSTATE
  2
AmdtAmMenuState
  3
DesignerAssemblies
 90
    32768
280
     1
281
     0
  0
CLASS
  1
ACAMPROJECT
  2
AcAmProject
  3
DesignerAssemblies
 90
    32768
280
     1
281
     0
  0
CLASS
  1
ACAMGRCOMPDEF
  2
AcAmGrCompDef
  3
DesignerAssemblies
 90
    32768
280
     1
281
     0
  0
CLASS
  1
ACCMCONTEXT
  2
AcCmContext
  3
DesignerAssemblies
 90
    32768
280
     1
281
     0
  0
CLASS
  1
ACAMCOMPDEF
  2
AcAmCompDef
  3
DesignerAssemblies
 90
    32768
280
     1
281
     0
  0
CLASS
  1
ACAMCOMPDEFMGR
  2
AcAmCompDefMgr
  3
DesignerAssemblies
 90
    32768
280
     1
281
     0
  0
CLASS
  1
AMCONTEXTMGR
  2
AcAmContextMgr
  3
DesignerAssemblies
 90
    32768
280
     1
281
     0
  0
CLASS
  1
ACAMCONTEXTMODELER
  2
AcAmContextModeler
  3
DesignerAssemblies
 90
    32768
280
     1
281
     0
  0
CLASS
  1
MAPIADMODULE
  2
MApiAdModule
  3
MApiAdServices
 90
    32768
280
     1
281
     0
  0
CLASS
  1
ACMDATADICTIONARY
  2
AcmDataDictionary
  3
"AcmSymBB|Product Description: AutoCAD Mechanical 2000|Company: Autodesk"
 90
    32768
280
     1
281
     0
  0
CLASS
  1
ACMDATAENTRYBLOCK
  2
AcmDataEntryBlock
  3
"AcmSymBB|Product Description: AutoCAD Mechanical 2000|Company: Autodesk"
 90
    32768
280
     1
281
     0
  0
CLASS
  1
AMDTBROWSERDBTAB
  2
AmdtBrowserDbTab
  3
McadcomServices
 90
    32768
280
     1
281
     0
  0
CLASS
  1
CBROWSERAPPOBJECT
  2
CBrowserAppObject
  3
McadcomServices
 90
    32768
280
     1
281
     0
  0
CLASS
  1
DM_PLACEHOLDER
  2
AcDmSelsetPlaceholder
  3
AcMechDwgViewMgmt
 90
    32768
280
     1
281
     0
  0
CLASS
  1
CATALOGSTATE
  2
AcAmCatalogState
  3
DesignerAssemblies
 90
    32768
280
     1
281
     0
  0
CLASS
  1
ACAMGRCOMPDEFSET
  2
AcAmGrCompDefSet
  3
DesignerAssemblies
 90
    32768
280
     1
281
     0
  0
CLASS
  1
AMGOBJPROPCFG
  2
AmgObjPropCfg
  3
"AmgLay|Product Description: AutoCAD Mechanical 2000|Company: Autodesk"
 90
    32769
280
     1
281
     0
  0
CLASS
  1
LAYER_INDEX
  2
AcDbLayerIndex
  3
AutoCAD 2000
 90
    32768
280
     0
281
     0
  0
CLASS
  1
IDBUFFER
  2
AcDbIdBuffer
  3
AutoCAD 2000
 90
    32768
280
     0
281
     0
  0
CLASS
  1
ACRFATTGENMGR
  2
AcRfAttGeneralMgr
  3
AcAttribServices
 90
    32768
280
     1
281
     0
  0
CLASS
  1
PLOTSETTINGS
  2
AcDbPlotSettings
  3
AutoCAD 2000
 90
    32768
280
     0
281
     0
  0
CLASS
  1
VBA_PROJECT
  2
AcDbVbaProject
  3
acadvba
 90
    32768
280
     0
281
     0
  0
CLASS
  1
LONG_TRANSACTION
  2
AcDbLongTransaction
  3
AutoCAD 2000
 90
    32768
280
     0
281
     0
  0
CLASS
  1
LWPOLYLINE
  2
AcDbPolyline
  3
AutoCAD 2000
 90
    32768
280
     0
281
     1
  0
CLASS
  1
HATCH
  2
AcDbHatch
  3
AutoCAD 2000
 90
    32768
280
     0
281
     1
  0
CLASS
  1
XRECORD
  2
AcDbXrecord
  3
AutoCAD 2000
 90
    32768
280
     0
281
     0
  0
CLASS
  1
LONG_TRANSACTION
  2
AcDbLongTransaction
  3
AutoCAD 2000
 90
    32768
280
     0
281
     0
  0
CLASS
  1
LWPOLYLINE
  2
AcDbPolyline
  3
AutoCAD 2000
 90
    32768
280
     0
281
     1
  0
CLASS
  1
HATCH
  2
AcDbHatch
  3
AutoCAD 2000
 90
    32768
280
     0
281
     1
  0
CLASS
  1
XRECORD
  2
AcDbXrecord
  3
AutoCAD 2000
 90
    32768
280
     0
281
     0
  0
CLASS
  1
LONG_TRANSACTION
  2
AcDbLongTransaction
  3
AutoCAD 2000
 90
    32768
280
     0
281
     0
  0
CLASS
  1
LWPOLYLINE
  2
AcDbPolyline
  3
AutoCAD 2000
 90
    32768
280
     0
281
     1
  0
CLASS
  1
HATCH
  2
AcDbHatch
  3
AutoCAD 2000
 90
    32768
280
     0
281
     1
  0
CLASS
  1
XRECORD
  2
AcDbXrecord
  3
AutoCAD 2000
 90
    32768
280
     0
281
     0
  0
CLASS
  1
LONG_TRANSACTION
  2
AcDbLongTransaction
  3
AutoCAD 2000
 90
    32768
280
     0
281
     0
  0
CLASS
  1
LWPOLYLINE
  2
AcDbPolyline
  3
AutoCAD 2000
 90
    32768
280
     0
281
     1
  0
CLASS
  1
HATCH
  2
AcDbHatch
  3
AutoCAD 2000
 90
    32768
280
     0
281
     1
  0
CLASS
  1
XRECORD
  2
AcDbXrecord
  3
AutoCAD 2000
 90
    32768
280
     0
281
     0
  0
CLASS
  1
LONG_TRANSACTION
  2
AcDbLongTransaction
  3
AutoCAD 2000
 90
    32768
280
     0
281
     0
  0
CLASS
  1
LWPOLYLINE
  2
AcDbPolyline
  3
AutoCAD 2000
 90
    32768
280
     0
281
     1
  0
CLASS
  1
HATCH
  2
AcDbHatch
  3
AutoCAD 2000
 90
    32768
280
     0
281
     1
  0
CLASS
  1
XRECORD
  2
AcDbXrecord
  3
AutoCAD 2000
 90
    32768
280
     0
281
     0
  0
CLASS
  1
LONG_TRANSACTION
  2
AcDbLongTransaction
  3
AutoCAD 2000
 90
    32768
280
     0
281
     0
  0
CLASS
  1
LWPOLYLINE
  2
AcDbPolyline
  3
AutoCAD 2000
 90
    32768
280
     0
281
     1
  0
CLASS
  1
HATCH
  2
AcDbHatch
  3
AutoCAD 2000
 90
    32768
280
     0
281
     1
  0
CLASS
  1
XRECORD
  2
AcDbXrecord
  3
AutoCAD 2000
 90
    32768
280
     0
281
     0
  0
CLASS
  1
LONG_TRANSACTION
  2
AcDbLongTransaction
  3
AutoCAD 2000
 90
    32768
280
     0
281
     0
  0
CLASS
  1
LWPOLYLINE
  2
AcDbPolyline
  3
AutoCAD 2000
 90
    32768
280
     0
281
     1
  0
CLASS
  1
HATCH
  2
AcDbHatch
  3
AutoCAD 2000
 90
    32768
280
     0
281
     1
  0
CLASS
  1
XRECORD
  2
AcDbXrecord
  3
AutoCAD 2000
 90
    32768
280
     0
281
     0
  0
ENDSEC
  0
SECTION
  2
TABLES
  0
TABLE
  2
VPORT
  5
1B
330
0
100
AcDbSymbolTable
 70
     2
  0
VPORT
  5
376E
330
1B
100
AcDbSymbolTableRecord
100
AcDbViewportTableRecord
  2
*Active
 70
     0
 10
0.0
 20
0.0
 11
1.0
 21
1.0
 12
851.7192012680729
 22
531.423837470751
 13
0.0
 23
0.0
 14
1.0
 24
1.0
 15
0.0
 25
0.0
 16
0.0
 26
0.0
 36
1.0
 17
-64.46234487877643
 27
33.0238264231553
 37
6.148717398612387
 40
146.7252211228259
 41
1.413068844807467
 42
50.0
 43
-6.148717398612387
 44
-6.148717398612387
 50
0.0
 51
0.0
 71
     0
 72
 20000
 73
     1
 74
     1
 75
     0
 76
     0
 77
     0
 78
     2
281
     0
 65
     1
110
0.0
120
0.0
130
0.0
111
1.0
121
0.0
131
0.0
112
0.0
122
1.0
132
0.0
 79
     0
146
0.0
  0
ENDTAB
  0
TABLE
  2
LTYPE
  5
16
330
0
100
AcDbSymbolTable
 70
     3
  0
LTYPE
  5
17
330
16
100
AcDbSymbolTableRecord
100
AcDbLinetypeTableRecord
  2
BYBLOCK
 70
     0
  3

 72
    65
 73
     0
 40
0.0
  0
LTYPE
  5
18
330
16
100
AcDbSymbolTableRecord
100
AcDbLinetypeTableRecord
  2
BYLAYER
 70
     0
  3

 72
    65
 73
     0
 40
0.0
  0
LTYPE
  5
9
330
16
100
AcDbSymbolTableRecord
100
AcDbLinetypeTableRecord
  2
CONTINUOUS
 70
     0
  3
Solid line
 72
    65
 73
     0
 40
0.0
  0
LTYPE
  5
A8
330
16
100
AcDbSymbolTableRecord
100
AcDbLinetypeTableRecord
  2
DASHED
 70
     0
  3
Dashed __ __ __ __ __ __ __ __ __ __ __ __ __ _
 72
    65
 73
     2
 40
0.75
 49
0.5
 74
     0
 49
-0.25
 74
     0
  0
LTYPE
  5
6A
330
16
100
AcDbSymbolTableRecord
100
AcDbLinetypeTableRecord
  2
PHANTOM
 70
     0
  3
Phantom ______  __  __  ______  __  __  ______
 72
    65
 73
     6
 40
2.5
 49
1.25
 74
     0
 49
-0.25
 74
     0
 49
0.25
 74
     0
 49
-0.25
 74
     0
 49
0.25
 74
     0
 49
-0.25
 74
     0
  0
ENDTAB
  0
TABLE
  2
LAYER
  5
11
330
0
100
AcDbSymbolTable
 70
     9
  0
LAYER
  5
5
330
11
100
AcDbSymbolTableRecord
100
AcDbLayerTableRecord
  2
0
 70
     0
 62
     7
  6
CONTINUOUS
370
    -3
390
6
  0
LAYER
  5
28
330
11
100
AcDbSymbolTableRecord
100
AcDbLayerTableRecord
  2
BALUSTERS
 70
     0
 62
     7
  6
CONTINUOUS
370
    -3
390
6
  0
LAYER
  5
2F
330
11
100
AcDbSymbolTableRecord
100
AcDbLayerTableRecord
  2
LINEWORK
 70
     0
 62
     7
  6
CONTINUOUS
370
    -3
390
6
  0
LAYER
  5
83
330
11
100
AcDbSymbolTableRecord
100
AcDbLayerTableRecord
  2
Defpoints
 70
     0
 62
     7
  6
CONTINUOUS
290
     0
370
    -3
390
6
  0
LAYER
  5
24
330
11
100
AcDbSymbolTableRecord
100
AcDbLayerTableRecord
  2
leaders
 70
     0
 62
     1
  6
CONTINUOUS
370
    -3
390
6
  0
LAYER
  5
8D7
330
11
100
AcDbSymbolTableRecord
100
AcDbLayerTableRecord
  2
TEXT
 70
     0
 62
     7
  6
CONTINUOUS
370
    -3
390
6
  0
LAYER
  5
B8C
330
11
100
AcDbSymbolTableRecord
100
AcDbLayerTableRecord
  2
DIM
 70
     0
 62
     7
  6
CONTINUOUS
370
    -3
390
6
  0
LAYER
  5
11AD
330
11
100
AcDbSymbolTableRecord
100
AcDbLayerTableRecord
  2
A1
 70
     0
 62
     7
  6
CONTINUOUS
370
    -3
390
6
  0
LAYER
  5
11AE
330
11
100
AcDbSymbolTableRecord
100
AcDbLayerTableRecord
  2
ASHADE
 70
     4
 62
     7
  6
CONTINUOUS
370
    -3
390
6
  0
ENDTAB
  0
TABLE
  2
STYLE
  5
12
330
0
100
AcDbSymbolTable
 70
     3
  0
STYLE
  5
13
330
12
100
AcDbSymbolTableRecord
100
AcDbTextStyleTableRecord
  2
STANDARD
 70
     0
 40
0.0
 41
1.0
 50
0.0
 71
     0
 42
1.0
  3
unvr55w.ttf
  4

1001
ACAD
1000
Univers
1071
       34
  0
STYLE
  5
4B
330
12
100
AcDbSymbolTableRecord
100
AcDbTextStyleTableRecord
  2
ROMANC
 70
     0
 40
0.0
 41
1.0
 50
0.0
 71
     0
 42
0.5
  3
TIMESBD.TTF
  4

1001
ACAD
1000
Times New Roman
1071
 33554450
  0
STYLE
  5
2B
330
12
100
AcDbSymbolTableRecord
100
AcDbTextStyleTableRecord
  2
barcoder
 70
     0
 40
0.0
 41
1.0
 50
0.0
 71
     0
 42
4.5625
  3
cw_barcd.ttf
  4

1001
ACAD
1000
Barcoder
1071
 33554434
  0
ENDTAB
  0
TABLE
  2
VIEW
  5
19
330
0
100
AcDbSymbolTable
 70
     0
  0
ENDTAB
  0
TABLE
  2
UCS
  5
1A
330
0
100
AcDbSymbolTable
 70
     0
  0
ENDTAB
  0
TABLE
  2
APPID
  5
1D
330
0
100
AcDbSymbolTable
 70
     8
  0
APPID
  5
14
330
1D
100
AcDbSymbolTableRecord
100
AcDbRegAppTableRecord
  2
ACAD
 70
     0
  0
APPID
  5
11AF
330
1D
100
AcDbSymbolTableRecord
100
AcDbRegAppTableRecord
  2
DCO15
 70
     0
  0
APPID
  5
11B0
330
1D
100
AcDbSymbolTableRecord
100
AcDbRegAppTableRecord
  2
AVE_RENDER
 70
     0
  0
APPID
  5
11B1
330
1D
100
AcDbSymbolTableRecord
100
AcDbRegAppTableRecord
  2
AVE_ENTITY_MATERIAL
 70
     0
  0
APPID
  5
11B2
330
1D
100
AcDbSymbolTableRecord
100
AcDbRegAppTableRecord
  2
AVE_FINISH
 70
     0
  0
APPID
  5
11B3
330
1D
100
AcDbSymbolTableRecord
100
AcDbRegAppTableRecord
  2
AVE_MATERIAL
 70
     0
  0
APPID
  5
11B4
330
1D
100
AcDbSymbolTableRecord
100
AcDbRegAppTableRecord
  2
AVE_GLOBAL
 70
     0
  0
APPID
  5
160E
330
1D
100
AcDbSymbolTableRecord
100
AcDbRegAppTableRecord
  2
CONTENTBLOCKICON
 70
     0
  0
ENDTAB
  0
TABLE
  2
DIMSTYLE
  5
1E
330
0
100
AcDbSymbolTable
 70
     1
100
AcDbDimStyleTable
 71
     0
  0
DIMSTYLE
105
1F
102
{ACAD_REACTORS
330
1F11
330
1FBA
330
33D9
330
33E7
330
3445
330
3453
330
361E
102
}
330
1E
100
AcDbSymbolTableRecord
100
AcDbDimStyleTableRecord
  2
STANDARD
 70
     0
  3
"
 41
0.5
 42
1.0
 43
0.0625
 44
0.25
 73
     0
 74
     0
 77
     3
140
1.0
141
0.0
146
0.125
147
0.125
171
     0
274
     0
276
     2
277
     5
285
     2
286
     2
289
     0
340
13
  0
ENDTAB
  0
TABLE
  2
BLOCK_RECORD
  5
1
330
0
100
AcDbSymbolTable
 70
    11
  0
BLOCK_RECORD
  5
2
102
{ACAD_XDICTIONARY
360
3
102
}
330
1
100
AcDbSymbolTableRecord
100
AcDbBlockTableRecord
  2
*MODEL_SPACE
340
B
  0
BLOCK_RECORD
  5
D
102
{ACAD_XDICTIONARY
360
A8B
102
}
330
1
100
AcDbSymbolTableRecord
100
AcDbBlockTableRecord
  2
*PAPER_SPACE
340
10
  0
BLOCK_RECORD
  5
1F7
330
1
100
AcDbSymbolTableRecord
100
AcDbBlockTableRecord
  2
PROFILE LOGO
340
0
102
{BLKREFS
331
1F17
331
1FA7
102
}
  0
BLOCK_RECORD
  5
30
330
1
100
AcDbSymbolTableRecord
100
AcDbBlockTableRecord
  2
TSFORMB
340
0
102
{BLKREFS
331
1AEB
102
}
  0
BLOCK_RECORD
  5
1176
330
1
100
AcDbSymbolTableRecord
100
AcDbBlockTableRecord
  2
AVE_RENDER
340
0
102
{BLKREFS
331
1247
331
1248
331
1249
331
124A
331
124B
331
124C
331
124D
331
124E
331
1250
331
1251
331
1252
331
1253
331
1254
331
1255
331
1256
331
1257
331
1EFA
331
1EFB
331
1EFC
331
1EFD
331
1EFE
331
1EFF
331
1F00
331
1F01
331
1F03
331
1F04
331
1F05
331
1F06
331
1F07
331
1F08
331
1F09
331
1F0A
102
}
  0
BLOCK_RECORD
  5
1179
330
1
100
AcDbSymbolTableRecord
100
AcDbBlockTableRecord
  2
AVE_GLOBAL
340
0
102
{BLKREFS
331
124F
331
1258
331
1F02
331
1F0B
102
}
  0
BLOCK_RECORD
  5
1FE2
330
1
100
AcDbSymbolTableRecord
100
AcDbBlockTableRecord
  2
*D4
340
0
  0
BLOCK_RECORD
  5
2009
330
1
100
AcDbSymbolTableRecord
100
AcDbBlockTableRecord
  2
*D5
340
0
  0
BLOCK_RECORD
  5
33DA
330
1
100
AcDbSymbolTableRecord
100
AcDbBlockTableRecord
  2
*D6
340
0
  0
BLOCK_RECORD
  5
33E8
330
1
100
AcDbSymbolTableRecord
100
AcDbBlockTableRecord
  2
*D7
340
0
  0
BLOCK_RECORD
  5
3446
330
1
100
AcDbSymbolTableRecord
100
AcDbBlockTableRecord
  2
*D8
340
0
  0
BLOCK_RECORD
  5
3454
330
1
100
AcDbSymbolTableRecord
100
AcDbBlockTableRecord
  2
*D9
340
0
  0
BLOCK_RECORD
  5
361F
330
1
100
AcDbSymbolTableRecord
100
AcDbBlockTableRecord
  2
*D10
340
0
  0
ENDTAB
  0
ENDSEC
  0
SECTION
  2
BLOCKS
  0
BLOCK
  5
4
330
2
100
AcDbEntity
  8
0
100
AcDbBlockBegin
  2
*MODEL_SPACE
 70
     2
 10
0.0
 20
0.0
 30
0.0
  3
*MODEL_SPACE
  1

  0
ENDBLK
  5
A
330
2
100
AcDbEntity
  8
0
100
AcDbBlockEnd
  0
BLOCK
  5
E
330
D
100
AcDbEntity
 67
     1
  8
0
100
AcDbBlockBegin
  2
*PAPER_SPACE
 70
     0
 10
0.0
 20
0.0
 30
0.0
  3
*PAPER_SPACE
  1

  0
ENDBLK
  5
F
330
D
100
AcDbEntity
 67
     1
  8
0
100
AcDbBlockEnd
  0
BLOCK
  5
210
330
1F7
100
AcDbEntity
  8
0
 62
     7
100
AcDbBlockBegin
  2
PROFILE LOGO
 70
     2
 10
0.0
 20
0.0
 30
0.0
  3
PROFILE LOGO
  1

  0
LINE
  5
1F8
330
1F7
100
AcDbEntity
  8
0
 62
    22
100
AcDbLine
 10
0.7459516636765642
 20
-0.415894330395318
 30
0.0
 11
0.74595166367655
 21
-1.12746688439163
 31
0.0
  0
LINE
  5
1F9
330
1F7
100
AcDbEntity
  8
0
 62
    22
100
AcDbLine
 10
0.5841942848079072
 20
-0.415894330395318
 30
0.0
 11
0.5841942848079072
 21
-1.12746688439163
 31
0.0
  0
HATCH
  5
1FA
330
1F7
100
AcDbEntity
  8
0
 62
    22
100
AcDbHatch
 10
0.0
 20
0.0
 30
0.0
210
0.0
220
0.0
230
1.0
  2
LINE
 70
     0
 71
     0
 91
        1
 92
       33
 93
       38
 72
     1
 10
1.115683196411978
 20
-0.1706330859717084
 11
0.2177636962628071
 21
-0.1706330859717084
 72
     1
 10
0.2177636962628213
 20
-0.1706330859717084
 11
0.2078601968792952
 21
-0.4246889457533243
 72
     1
 10
0.2078601968792952
 20
-0.4246889457533243
 11
0.2375709173007294
 21
-0.4246889457533243
 72
     1
 10
0.2375709173007294
 20
-0.4246889457533243
 11
0.2441732502230991
 21
-0.3817964654080939
 72
     1
 10
0.2441732502230991
 20
-0.3817964654080939
 11
0.254076749606611
 21
-0.3422032805409501
 72
     1
 10
0.2540767496066252
 20
-0.3422032805409501
 11
0.2738837483736916
 21
-0.3092090964125091
 72
     1
 10
0.2738837483736916
 20
-0.3092090964125091
 11
0.2969919136019428
 21
-0.2861130719066693
 72
     1
 10
0.296991913601957
 20
-0.2861130719066764
 11
0.3267026340234338
 21
-0.2663164794731259
 72
     1
 10
0.3267026340234196
 20
-0.2663164794731259
 11
0.356413132174012
 21
-0.2498193191118219
 72
     1
 10
0.356413132174012
 20
-0.2498193191118148
 11
0.3828224638634481
 21
-0.243220591561446
 72
     1
 10
0.3828224638634623
 20
-0.243220591561446
 11
0.4092320178237401
 21
-0.243220591561446
 72
     1
 10
0.4092320178237401
 20
-0.243220591561446
 11
0.4719541805861525
 21
-0.2465198870395469
 72
     1
 10
0.4719541805861525
 20
-0.2465198870395469
 11
0.514869566852326
 21
-0.2729153436176332
 72
     1
 10
0.514869566852326
 20
-0.2729153436176332
 11
0.5742905631535394
 21
-0.3389038484686964
 72
     1
 10
0.5742905631535394
 20
-0.3389038484687106
 11
0.5907966177302626
 21
-0.3916947616248691
 72
     1
 10
0.5907966177302768
 20
-0.3916947616248691
 11
0.5907966177302768
 21
-1.157161773041991
 72
     1
 10
0.5907966177302768
 20
-1.157161773041984
 11
0.5643870637699991
 21
-1.203353685459461
 72
     1
 10
0.5643870637699849
 20
-1.203353685459468
 11
0.4983637345463876
 21
-1.226449709965308
 72
     1
 10
0.4983637345464019
 20
-1.226449709965301
 11
0.4389425159743326
 21
-1.226449709965301
 72
     1
 10
0.4389425159743326
 20
-1.226449709965301
 11
0.4323401830519913
 21
-1.249545734471119
 72
     1
 10
0.4323401830520055
 20
-1.249545734471134
 11
0.8945045989712809
 21
-1.249545734471134
 72
     1
 10
0.8945045989712667
 20
-1.249545734471134
 11
0.8945045989712667
 21
-1.226449709965315
 72
     1
 10
0.8945045989712667
 20
-1.226449709965301
 11
0.8152763816321311
 21
-1.226449709965301
 72
     1
 10
0.8152763816321311
 20
-1.226449709965301
 11
0.7525539965988913
 21
-1.186856661692324
 72
     1
 10
0.7525539965988913
 20
-1.186856661692324
 11
0.7426504972153794
 21
-1.140664612680659
 72
     1
 10
0.7426504972153652
 20
-1.140664612680673
 11
0.7393493307541803
 21
-0.394994193697137
 72
     1
 10
0.7393493307541803
 20
-0.394994193697137
 11
0.7558551630600619
 21
-0.3389038484687106
 72
     1
 10
0.7558551630600761
 20
-0.3389038484687106
 11
0.7987705493262496
 21
-0.2828136398344298
 72
     1
 10
0.7987705493262496
 20
-0.2828136398344227
 11
0.8614929343594894
 21
-0.2498193191118148
 72
     1
 10
0.8614929343594894
 20
-0.2498193191118148
 11
0.9374197629665985
 21
-0.2399211594891923
 72
     1
 10
0.9374197629665985
 20
-0.2399211594891923
 11
1.010045647383407
 21
-0.2663164794731117
 72
     1
 10
1.010045647383407
 20
-0.2663164794731259
 11
1.056262200110722
 21
-0.3092090964125234
 72
     1
 10
1.056262200110722
 20
-0.3092090964125091
 11
1.085972698261343
 21
-0.361999872974522
 72
     1
 10
1.085972698261358
 20
-0.3619998729745291
 11
1.092575031183727
 21
-0.4246889457533243
 72
     1
 10
1.092575031183727
 20
-0.4246889457533243
 11
1.115683196411993
 21
-0.4246889457533243
 72
     1
 10
1.115683196411978
 20
-0.4246889457533243
 11
1.109080863489609
 21
-0.17723195011623
 72
     1
 10
1.109080863489609
 20
-0.17723195011623
 11
1.109080863489609
 21
-0.1739325180439621
 72
     1
 10
1.109080863489609
 20
-0.1739325180439621
 11
1.105779697028424
 21
-0.1739325180439621
 97
        0
 75
     0
 76
     1
 52
0.0
 41
0.078125
 77
     0
 78
     1
 53
0.0
 43
-28.182772630023
 44
-32.9923404580304
 45
0.0
 46
0.009765625
 79
     0
 98
        1
 10
-28.182772630023
 20
-32.9923404580304
  0
LWPOLYLINE
  5
1FB
330
1F7
100
AcDbEntity
  8
0
 62
    22
100
AcDbPolyline
 90
        4
 70
     1
 43
0.0
 10
0.0262955969727301
 20
-0.0287577800528069
 10
1.307151517972869
 20
-0.0287577800528069
 10
1.307151517972869
 20
-1.731261997456265
 10
0.0262955969727301
 20
-1.731261997456265
  0
LINE
  5
1FC
330
1F7
100
AcDbEntity
  8
0
 62
    22
100
AcDbLine
 10
0.0262955969727443
 20
-1.4112176328236
 30
0.0
 11
1.307151517972869
 21
-1.4112176328236
 31
0.0
  0
ATTDEF
  5
1FD
330
1F7
100
AcDbEntity
  8
BALUSTERS
 62
    22
100
AcDbText
 10
0.6781304052809105
 20
-1.678298248906529
 30
0.0
 40
0.2126953125
  1

 72
     1
 11
0.6781304052809105
 21
-1.678298248906529
 31
0.0
100
AcDbAttributeDefinition
  3
ADD STONE MARKER
  2
XXXX
 70
     0
  0
LINE
  5
1FE
330
1F7
100
AcDbEntity
  8
0
 62
    22
100
AcDbLine
 10
0.7464576960363587
 20
-1.129021462591367
 30
0.0
 11
0.74595166367655
 21
-1.12746688439163
 31
0.0
  0
ARC
  5
1FF
330
1F7
100
AcDbEntity
  8
0
 62
    22
100
AcDbCircle
 10
0.8421255873066684
 20
-1.127299146756172
 30
0.0
 40
0.0956833935014068
100
AcDbArc
 50
181.0313885659746
 51
269.7936990713142
  0
LINE
  5
200
330
1F7
100
AcDbEntity
  8
0
 62
    22
100
AcDbLine
 10
0.9011069318936506
 20
-1.22315027789304
 30
0.0
 11
0.841781067510368
 21
-1.22315027789304
 31
0.0
  0
LINE
  5
201
330
1F7
100
AcDbEntity
  8
0
 62
    22
100
AcDbLine
 10
0.9011069318936506
 20
-1.256144598615648
 30
0.0
 11
0.9011069318936506
 21
-1.22315027789304
 31
0.0
  0
ARC
  5
202
330
1F7
100
AcDbEntity
  8
0
 62
    22
100
AcDbCircle
 10
0.4880203611777887
 20
-1.127299146756172
 30
0.0
 40
0.0956833935014068
100
AcDbArc
 50
270.2063009286848
 51
358.9686114340253
  0
LINE
  5
203
330
1F7
100
AcDbEntity
  8
0
 62
    22
100
AcDbLine
 10
0.4290390165908207
 20
-1.256144598615648
 30
0.0
 11
0.4290390165908207
 21
-1.22315027789304
 31
0.0
  0
LINE
  5
204
330
1F7
100
AcDbEntity
  8
0
 62
    22
100
AcDbLine
 10
0.4290390165908207
 20
-1.22315027789304
 30
0.0
 11
0.4883648809740891
 21
-1.22315027789304
 31
0.0
  0
LINE
  5
205
330
1F7
100
AcDbEntity
  8
0
 62
    22
100
AcDbLine
 10
0.5836882524480984
 20
-1.129021462591367
 30
0.0
 11
0.5841942848079072
 21
-1.12746688439163
 31
0.0
  0
LINE
  5
206
330
1F7
100
AcDbEntity
  8
0
 62
    22
100
AcDbLine
 10
0.4290390165908207
 20
-1.256144598615648
 30
0.0
 11
0.9011069318936506
 21
-1.256144598615648
 31
0.0
  0
LINE
  5
207
330
1F7
100
AcDbEntity
  8
0
 62
    22
100
AcDbLine
 10
1.085512597630156
 20
-0.415894330395318
 30
0.0
 11
1.085512597630156
 21
-0.4280723832374847
 31
0.0
  0
ARC
  5
208
330
1F7
100
AcDbEntity
  8
0
 62
    22
100
AcDbCircle
 10
0.9138550451562537
 20
-0.4147906495365632
 30
0.0
 40
0.1716611005230106
100
AcDbArc
 50
359.6316189828552
 51
90.00081606717127
  0
ARC
  5
209
330
1F7
100
AcDbEntity
  8
0
 62
    22
100
AcDbCircle
 10
0.9180888683309831
 20
-0.4147906495365632
 30
0.0
 40
0.1716611005230106
100
AcDbArc
 50
89.99918393282873
 51
180.3683810171443
  0
LINE
  5
20A
330
1F7
100
AcDbEntity
  8
0
 62
    22
100
AcDbLine
 10
0.2078601968792952
 20
-0.427988377825578
 30
0.0
 11
0.2441732502230991
 21
-0.427988377825578
 31
0.0
  0
LINE
  5
20B
330
1F7
100
AcDbEntity
  8
0
 62
    22
100
AcDbLine
 10
0.2446333508543006
 20
-0.415894330395318
 30
0.0
 11
0.2446333508543006
 21
-0.4280723832374847
 31
0.0
  0
ARC
  5
20C
330
1F7
100
AcDbEntity
  8
0
 62
    22
100
AcDbCircle
 10
0.4162909033282176
 20
-0.4147906495365632
 30
0.0
 40
0.1716611005230106
100
AcDbArc
 50
89.99918393282873
 51
180.3683810171443
  0
LINE
  5
20D
330
1F7
100
AcDbEntity
  8
0
 62
    22
100
AcDbLine
 10
0.2144627520724782
 20
-0.1706330859717156
 30
0.0
 11
0.2078601968792952
 21
-0.427988377825578
 31
0.0
  0
ARC
  5
20E
330
1F7
100
AcDbEntity
  8
0
 62
    22
100
AcDbCircle
 10
0.4120570801534882
 20
-0.4147906495365632
 30
0.0
 40
0.1716611005230106
100
AcDbArc
 50
359.6316189828552
 51
90.00081606717127
  0
LWPOLYLINE
  5
20F
330
1F7
100
AcDbEntity
  8
0
 62
    22
100
AcDbPolyline
 90
        4
 70
     0
 43
0.0
 10
0.224366029185191
 20
-0.1706330859717084
 10
1.115683196411978
 20
-0.1706330859717084
 10
1.122285751605161
 20
-0.427988377825578
 10
1.085972698261358
 20
-0.427988377825578
  0
ENDBLK
  5
211
330
1F7
100
AcDbEntity
  8
0
 62
     7
100
AcDbBlockEnd
  0
BLOCK
  5
5D
330
30
100
AcDbEntity
  8
0
 62
     7
100
AcDbBlockBegin
  2
TSFORMB
 70
     2
 10
0.0
 20
0.0
 30
0.0
  3
TSFORMB
  1

  0
LINE
  5
31
330
30
100
AcDbEntity
  8
0
100
AcDbLine
 10
105.9925392881563
 20
78.84810849484797
 30
0.0
 11
105.9925392881563
 21
70.31072004936999
 31
0.0
  0
LINE
  5
32
330
30
100
AcDbEntity
  8
0
100
AcDbLine
 10
105.9925392881563
 20
0.0
 30
0.0
 11
105.9925392881563
 21
78.84810849484797
 31
0.0
  0
LINE
  5
33
330
30
100
AcDbEntity
  8
0
100
AcDbLine
 10
0.0
 20
0.0
 30
0.0
 11
105.9925392881563
 21
0.0
 31
0.0
  0
LINE
  5
34
330
30
100
AcDbEntity
  8
0
100
AcDbLine
 10
0.0
 20
78.84810849484797
 30
0.0
 11
0.0
 21
0.0
 31
0.0
  0
LINE
  5
35
330
30
100
AcDbEntity
  8
0
100
AcDbLine
 10
56.87404547169354
 20
0.0
 30
0.0
 11
56.87404547169354
 21
12.46470592426129
 31
0.0
  0
TEXT
  5
36
330
30
100
AcDbEntity
  8
0
 62
     7
100
AcDbText
 10
39.28098221173831
 20
10.97304845086642
 30
0.0
 40
0.8085000000000002
  1
LEGEND
100
AcDbText
  0
TEXT
  5
37
330
30
100
AcDbEntity
  8
0
 62
     7
100
AcDbText
 10
38.18320344075362
 20
3.401999220949562
 30
0.0
 40
0.8400000000000002
  1
CATEGORY
 72
     1
 11
41.47652732452399
 21
3.401999220949562
 31
0.0
100
AcDbText
  0
LINE
  5
38
330
30
100
AcDbEntity
  8
0
 62
     7
100
AcDbLine
 10
26.78791925899645
 20
8.549200111339303
 30
0.0
 11
29.32320076794366
 21
8.549200111339303
 31
0.0
  0
TEXT
  5
39
330
30
100
AcDbEntity
  8
0
 62
     7
100
AcDbText
 10
30.56536100380196
 20
8.165961840384341
 30
0.0
 40
1.05
  1
- Unfinished Side
100
AcDbText
  0
LINE
  5
3A
330
30
100
AcDbEntity
  8
0
100
AcDbLine
 10
25.9704997615305
 20
0.0
 30
0.0
 11
25.9704997615305
 21
12.46470592426129
 31
0.0
  0
ATTDEF
  5
3B
330
30
100
AcDbEntity
  8
BALUSTERS
 62
     1
100
AcDbText
 10
41.26016333205519
 20
0.916484150045278
 30
0.0
 40
1.025589599999999
  1

 72
     1
 11
41.26016333205519
 21
0.916484150045278
 31
0.0
100
AcDbAttributeDefinition
  3
ADD CATEGORY NAMES
  2
XXXXXX
 70
     0
  0
ATTDEF
  5
3C
330
30
100
AcDbEntity
  8
BALUSTERS
 62
     1
100
AcDbText
 10
21.55372231158242
 20
1.875018704105684
 30
0.0
 40
0.8400000000000002
  1

 72
     2
 11
21.55372231158242
 21
1.875018704105684
 31
0.0
100
AcDbAttributeDefinition
  3
ADD BARCODE TEXT
  2
XXXXXX
 70
     0
  0
LINE
  5
3D
330
30
100
AcDbEntity
  8
0
 62
     7
100
AcDbLine
 10
25.9704997615305
 20
12.46470592426129
 30
0.0
 11
0.0
 21
12.46470592426129
 31
0.0
  0
ATTDEF
  5
3E
330
30
100
AcDbEntity
  8
BALUSTERS
 62
     1
100
AcDbText
 10
12.85191920549937
 20
3.11796280247222
 30
0.0
 40
6.132000000000001
  1

  7
barcoder
 72
     1
 11
12.85191920549937
 21
3.11796280247222
 31
0.0
100
AcDbAttributeDefinition
  3
ADD BARCODE NUMBER
  2
BARCODE
 70
     0
  0
LINE
  5
3F
330
30
100
AcDbEntity
  8
0
 62
     7
100
AcDbLine
 10
56.87404547169354
 20
10.31505184057846
 30
0.0
 11
25.9704997615305
 21
10.31505184057846
 31
0.0
  0
LINE
  5
40
330
30
100
AcDbEntity
  8
0
 62
     7
100
AcDbLine
 10
56.87404547169354
 20
2.864660228904256
 30
0.0
 11
25.9704997615305
 21
2.864660228904256
 31
0.0
  0
LINE
  5
41
330
30
100
AcDbEntity
  8
0
 62
     7
100
AcDbLine
 10
56.87404547169354
 20
4.753491724833224
 30
0.0
 11
25.9704997615305
 21
4.753491724833224
 31
0.0
  0
LINE
  5
42
330
30
100
AcDbEntity
  8
0
100
AcDbLine
 10
92.45878286761296
 20
70.31072004936999
 30
0.0
 11
92.45878286761296
 21
78.84810849484797
 31
0.0
  0
ATTDEF
  5
43
330
30
100
AcDbEntity
  8
BALUSTERS
 62
     1
100
AcDbText
 10
99.20289126219257
 20
73.40001633244828
 30
0.0
 40
2.079
  1

 72
     1
 11
99.20289126219257
 21
73.40001633244828
 31
0.0
100
AcDbAttributeDefinition
  3
ADD PAGE NUMBER
  2
TS00XX
 70
     0
  0
LINE
  5
44
330
30
100
AcDbEntity
  8
0
100
AcDbLine
 10
105.9925392881563
 20
70.31072004936999
 30
0.0
 11
92.45878286761296
 21
70.31072004936999
 31
0.0
  0
LINE
  5
45
330
30
100
AcDbEntity
  8
0
100
AcDbLine
 10
105.9925392881563
 20
78.84810849484797
 30
0.0
 11
0.0
 21
78.84810849484797
 31
0.0
  0
TEXT
  5
46
330
30
100
AcDbEntity
  8
0
 62
     7
100
AcDbText
 10
101.0916707105178
 20
4.784832420392319
 30
0.0
 40
0.8459472656250001
  1
1:1
100
AcDbText
  0
ARC
  5
47
330
30
100
AcDbEntity
  8
0
 62
     7
100
AcDbCircle
 10
92.02173719823599
 20
7.854684255185304
 30
0.0
 40
0.5838368232859321
100
AcDbArc
 50
297.5553548372056
 51
304.8408806463489
  0
LINE
  5
48
330
30
100
AcDbEntity
  8
0
 62
     7
100
AcDbLine
 10
96.44018670993672
 20
6.648784575743377
 30
0.0
 11
95.62662822118033
 21
6.648784575743377
 31
0.0
  0
ARC
  5
49
330
30
100
AcDbEntity
  8
0
 62
     7
100
AcDbCircle
 10
92.02173719823599
 20
7.854684255185304
 30
0.0
 40
0.5838368232859408
100
AcDbArc
 50
304.8408806463489
 51
297.5553548372056
  0
TEXT
  5
4A
330
30
100
AcDbEntity
  8
0
 62
     7
100
AcDbText
 10
91.5997577365548
 20
7.487990433787842
 30
0.0
 40
0.7875000000000002
  1
R
  7
ROMANC
 72
     1
 11
92.02565639984959
 21
7.487990433787842
 31
0.0
100
AcDbText
  0
LINE
  5
4C
330
30
100
AcDbEntity
  8
0
100
AcDbLine
 10
96.44018670993649
 20
0.0
 30
0.0
 11
96.44018670993695
 21
12.46470592426129
 31
0.0
  0
TEXT
  5
4D
330
30
100
AcDbEntity
  8
0
100
AcDbText
 10
57.83820509574335
 20
4.931128255646488
 30
0.0
 40
1.111564440985976
  1
ARCHITECTURAL CONCRETE CO., INC.
 41
1.25
 72
     4
 11
76.69038922088157
 21
5.404193065577089
 31
0.0
100
AcDbText
  0
TEXT
  5
4E
330
30
100
AcDbEntity
  8
0
100
AcDbText
 10
64.01730751652124
 20
0.6790765005606179
 30
0.0
 40
0.6552430415498756
  1
PHONE: 1-800-789-4841  FAX : 770-463-2635
 41
1.1875
 72
     4
 11
76.73327742292065
 21
1.005769257279496
 31
0.0
100
AcDbText
  0
TEXT
  5
4F
330
30
100
AcDbEntity
  8
0
 62
     7
100
AcDbText
 10
61.23651428794109
 20
7.899354841769707
 30
0.0
 40
3.572100000000002
  1
TannerStone
  7
ROMANC
 72
     1
 11
75.92109734429948
 21
7.899354841769707
 31
0.0
100
AcDbText
  0
TEXT
  5
50
330
30
100
AcDbEntity
  8
0
100
AcDbText
 10
61.57240842020546
 20
1.964543484004154
 30
0.0
 40
0.6552430415498756
  1
http://TannerStone.com ~ Email:Sales@TannerStone.com 
 41
1.1875
 72
     4
 11
77.08342119362362
 21
2.259193880788984
 31
0.0
100
AcDbText
  0
TEXT
  5
51
330
30
100
AcDbEntity
  8
0
100
AcDbText
 10
59.98363509556096
 20
3.260563711198551
 30
0.0
 40
0.74899296216962
  1
101 JOHNSTON CIRCLE, PALMETTO, GEORGIA 30268
 41
1.1875
 72
     4
 11
76.85158629384147
 21
3.579323650094977
 31
0.0
100
AcDbText
  0
LINE
  5
52
330
30
100
AcDbEntity
  8
0
100
AcDbLine
 10
56.87404547169354
 20
6.648784575743377
 30
0.0
 11
105.9925392881563
 21
6.648784575743377
 31
0.0
  0
LINE
  5
53
330
30
100
AcDbEntity
  8
0
 62
     7
100
AcDbLine
 10
96.44018670993682
 20
9.556745250002336
 30
0.0
 11
105.9925392881563
 21
9.556745250002336
 31
0.0
  0
TEXT
  5
54
330
30
100
AcDbEntity
  8
0
 62
     7
100
AcDbText
 10
96.66995560986686
 20
8.813345575893606
 30
0.0
 40
0.5414062500000001
  1
LBS/LINEAR FEET:
100
AcDbText
  0
LINE
  5
55
330
30
100
AcDbEntity
  8
LINEWORK
 62
     7
100
AcDbLine
 10
96.40991550469017
 20
3.757904136908962
 30
0.0
 11
105.9622680829099
 21
3.757904136909189
 31
0.0
  0
TEXT
  5
56
330
30
100
AcDbEntity
  8
0
 62
     7
100
AcDbText
 10
98.85330873086445
 20
1.524519923848686
 30
0.0
 40
0.8459472656250001
  1
1-1-2000
100
AcDbText
  0
TEXT
  5
57
330
30
100
AcDbEntity
  8
0
 62
     7
100
AcDbText
 10
96.68542089784603
 20
5.927566558083469
 30
0.0
 40
0.5414062500000001
  1
SCALE:
100
AcDbText
  0
TEXT
  5
58
330
30
100
AcDbEntity
  8
0
 62
     7
100
AcDbText
 10
96.74158717246577
 20
2.97910930546476
 30
0.0
 40
0.5414062500000001
  1
DATE:
100
AcDbText
  0
TEXT
  5
59
330
30
100
AcDbEntity
  8
0
 62
     7
100
AcDbText
 10
96.70022651293084
 20
11.66518473255649
 30
0.0
 40
0.5414062500000001
  1
PROFILE AREA:
100
AcDbText
  0
ATTDEF
  5
5A
330
30
100
AcDbEntity
  8
BALUSTERS
 62
     1
100
AcDbText
 10
101.1759733039033
 20
10.07900441527107
 30
0.0
 40
0.9450000000000002
  1

 72
     1
 11
101.1759733039033
 21
10.07900441527107
 31
0.0
100
AcDbAttributeDefinition
  3
ADD PROFILE AREA
  2
XXXXX
 70
     0
  0
ATTDEF
  5
5B
330
30
100
AcDbEntity
  8
BALUSTERS
 62
     1
100
AcDbText
 10
101.1418062311347
 20
7.21953861551384
 30
0.0
 40
0.9450000000000002
  1

 72
     1
 11
101.1418062311347
 21
7.21953861551384
 31
0.0
100
AcDbAttributeDefinition
  3
ADD #/LF
  2
XXXXX
 70
     0
  0
LINE
  5
5C
330
30
100
AcDbEntity
  8
0
100
AcDbLine
 10
25.9704997615305
 20
12.46470592426129
 30
0.0
 11
105.9925392881563
 21
12.46470592426129
 31
0.0
  0
ENDBLK
  5
5E
330
30
100
AcDbEntity
  8
0
 62
     7
100
AcDbBlockEnd
  0
BLOCK
  5
1177
330
1176
100
AcDbEntity
  8
ASHADE
100
AcDbBlockBegin
  2
AVE_RENDER
 70
     0
 10
0.0
 20
0.0
 30
0.0
  3
AVE_RENDER
  1
AVE_RENDER
  0
ENDBLK
  5
1178
330
1176
100
AcDbEntity
  8
0
100
AcDbBlockEnd
  0
BLOCK
  5
117A
330
1179
100
AcDbEntity
  8
ASHADE
100
AcDbBlockBegin
  2
AVE_GLOBAL
 70
     0
 10
0.0
 20
0.0
 30
0.0
  3
AVE_GLOBAL
  1
AVE_GLOBAL
  0
ENDBLK
  5
117B
330
1179
100
AcDbEntity
  8
0
100
AcDbBlockEnd
  0
BLOCK
  5
1FED
330
1FE2
100
AcDbEntity
  8
0
 62
     7
370
    13
100
AcDbBlockBegin
  2
*D4
 70
     1
 10
0.0
 20
0.0
 30
0.0
  3
*D4
  1

  0
LINE
  5
3723
330
1FE2
100
AcDbEntity
  8
DIM
 62
     0
100
AcDbLine
 10
840.737250545807
 20
547.9328359901664
 30
0.0
 11
840.737250545807
 21
541.0353379336874
 31
0.0
  0
LINE
  5
3724
330
1FE2
100
AcDbEntity
  8
DIM
 62
     0
100
AcDbLine
 10
833.113250545807
 20
547.9328359901663
 30
0.0
 11
833.113250545807
 21
541.0353379336874
 31
0.0
  0
LINE
  5
3725
330
1FE2
100
AcDbEntity
  8
DIM
 62
     0
100
AcDbLine
 10
839.537250545807
 20
541.6353379336874
 30
0.0
 11
834.313250545807
 21
541.6353379336874
 31
0.0
  0
LINE
  5
3726
330
1FE2
100
AcDbEntity
  8
DIM
 62
     0
100
AcDbLine
 10
845.9558725709436
 20
541.6353379336874
 30
0.0
 11
840.737250545807
 21
541.6353379336874
 31
0.0
  0
MTEXT
  5
3727
330
1FE2
100
AcDbEntity
  8
DIM
 62
     0
100
AcDbMText
 10
852.6124282052455
 20
541.6353379336874
 30
0.0
 40
2.399999999999999
 41
0.0
 71
     5
 72
     1
  1
\A1;7 5/8"
 73
     1
 44
1.0
  0
SOLID
  5
3728
330
1FE2
100
AcDbEntity
  8
DIM
 62
     0
100
AcDbTrace
 10
839.537250545807
 20
541.8353379336874
 30
0.0
 11
839.537250545807
 21
541.4353379336874
 31
0.0
 12
840.737250545807
 22
541.6353379336874
 32
0.0
 13
840.737250545807
 23
541.6353379336874
 33
0.0
  0
SOLID
  5
3729
330
1FE2
100
AcDbEntity
  8
DIM
 62
     0
100
AcDbTrace
 10
834.313250545807
 20
541.8353379336874
 30
0.0
 11
834.313250545807
 21
541.4353379336874
 31
0.0
 12
833.113250545807
 22
541.6353379336874
 32
0.0
 13
833.113250545807
 23
541.6353379336874
 33
0.0
  0
POINT
  5
372A
330
1FE2
100
AcDbEntity
  8
Defpoints
 62
     0
100
AcDbPoint
 10
840.737250545807
 20
550.3328359901664
 30
0.0
  0
POINT
  5
372B
330
1FE2
100
AcDbEntity
  8
Defpoints
 62
     0
100
AcDbPoint
 10
833.113250545807
 20
550.3328359901663
 30
0.0
  0
POINT
  5
372C
330
1FE2
100
AcDbEntity
  8
Defpoints
 62
     0
100
AcDbPoint
 10
833.113250545807
 20
541.6353379336874
 30
0.0
  0
ENDBLK
  5
1FEE
330
1FE2
100
AcDbEntity
  8
0
 62
     7
370
    13
100
AcDbBlockEnd
  0
BLOCK
  5
2014
330
2009
100
AcDbEntity
  8
0
 62
     7
370
    13
100
AcDbBlockBegin
  2
*D5
 70
     1
 10
0.0
 20
0.0
 30
0.0
  3
*D5
  1

  0
LINE
  5
372D
330
2009
100
AcDbEntity
  8
LINEWORK
 62
     0
100
AcDbLine
 10
830.7818789571031
 20
587.8328359901661
 30
0.0
 11
830.7818789571031
 21
593.3052054547443
 31
0.0
  0
LINE
  5
372E
330
2009
100
AcDbEntity
  8
LINEWORK
 62
     0
100
AcDbLine
 10
843.0686221345112
 20
587.8328359901661
 30
0.0
 11
843.0686221345112
 21
593.3052054547443
 31
0.0
  0
LINE
  5
372F
330
2009
100
AcDbEntity
  8
LINEWORK
 62
     0
100
AcDbLine
 10
831.9818789571032
 20
592.7052054547443
 30
0.0
 11
841.8686221345112
 21
592.7052054547443
 31
0.0
  0
LINE
  5
3730
330
2009
100
AcDbEntity
  8
LINEWORK
 62
     0
100
AcDbLine
 10
847.7762444827384
 20
592.7052054547443
 30
0.0
 11
843.0686221345112
 21
592.7052054547443
 31
0.0
  0
MTEXT
  5
3731
330
2009
100
AcDbEntity
  8
LINEWORK
 62
     0
100
AcDbMText
 10
855.3232324345456
 20
592.7052054547443
 30
0.0
 40
2.399999999999999
 41
0.0
 71
     5
 72
     1
  1
\A1;12 1/4"
 73
     1
 44
1.0
  0
SOLID
  5
3732
330
2009
100
AcDbEntity
  8
LINEWORK
 62
     0
100
AcDbTrace
 10
831.9818789571032
 20
592.9052054547444
 30
0.0
 11
831.9818789571032
 21
592.5052054547442
 31
0.0
 12
830.7818789571031
 22
592.7052054547443
 32
0.0
 13
830.7818789571031
 23
592.7052054547443
 33
0.0
  0
SOLID
  5
3733
330
2009
100
AcDbEntity
  8
LINEWORK
 62
     0
100
AcDbTrace
 10
841.8686221345112
 20
592.9052054547444
 30
0.0
 11
841.8686221345112
 21
592.5052054547442
 31
0.0
 12
843.0686221345112
 22
592.7052054547443
 32
0.0
 13
843.0686221345112
 23
592.7052054547443
 33
0.0
  0
POINT
  5
3734
330
2009
100
AcDbEntity
  8
Defpoints
 62
     0
100
AcDbPoint
 10
830.7818789571031
 20
585.4328359901662
 30
0.0
  0
POINT
  5
3735
330
2009
100
AcDbEntity
  8
Defpoints
 62
     0
100
AcDbPoint
 10
843.0686221345112
 20
585.4328359901662
 30
0.0
  0
POINT
  5
3736
330
2009
100
AcDbEntity
  8
Defpoints
 62
     0
100
AcDbPoint
 10
843.0686221345112
 20
592.7052054547443
 30
0.0
  0
ENDBLK
  5
2015
330
2009
100
AcDbEntity
  8
0
 62
     7
370
    13
100
AcDbBlockEnd
  0
BLOCK
  5
33E5
330
33DA
100
AcDbEntity
  8
0
 62
     7
370
    13
100
AcDbBlockBegin
  2
*D6
 70
     1
 10
0.0
 20
0.0
 30
0.0
  3
*D6
  1

  0
LINE
  5
3737
330
33DA
100
AcDbEntity
  8
TEXT
 62
     0
100
AcDbLine
 10
841.7281519961072
 20
555.3493970223959
 30
0.0
 11
848.9317870274209
 21
555.3493970223959
 31
0.0
  0
LINE
  5
3738
330
33DA
100
AcDbEntity
  8
TEXT
 62
     0
100
AcDbLine
 10
841.8143129930072
 20
581.360099595636
 30
0.0
 11
848.9317870274209
 21
581.360099595636
 31
0.0
  0
LINE
  5
3739
330
33DA
100
AcDbEntity
  8
TEXT
 62
     0
100
AcDbLine
 10
848.3317870274209
 20
556.5493970223959
 30
0.0
 11
848.3317870274209
 21
565.9427770679466
 31
0.0
  0
LINE
  5
373A
330
33DA
100
AcDbEntity
  8
TEXT
 62
     0
100
AcDbLine
 10
848.3317870274209
 20
580.1600995956359
 30
0.0
 11
848.3317870274209
 21
570.9587940771599
 31
0.0
  0
MTEXT
  5
373B
330
33DA
100
AcDbEntity
  8
TEXT
 62
     0
100
AcDbMText
 10
848.3317870274209
 20
568.4507855725534
 30
0.0
 40
2.399999999999999
 41
0.0
 71
     5
 72
     1
  1
\A1;26 1/8"
 73
     1
 44
1.0
  0
SOLID
  5
373C
330
33DA
100
AcDbEntity
  8
TEXT
 62
     0
100
AcDbTrace
 10
848.1317870274208
 20
556.5493970223959
 30
0.0
 11
848.531787027421
 21
556.5493970223959
 31
0.0
 12
848.3317870274209
 22
555.3493970223959
 32
0.0
 13
848.3317870274209
 23
555.3493970223959
 33
0.0
  0
SOLID
  5
373D
330
33DA
100
AcDbEntity
  8
TEXT
 62
     0
100
AcDbTrace
 10
848.1317870274208
 20
580.1600995956359
 30
0.0
 11
848.531787027421
 21
580.1600995956359
 31
0.0
 12
848.3317870274209
 22
581.360099595636
 32
0.0
 13
848.3317870274209
 23
581.360099595636
 33
0.0
  0
POINT
  5
373E
330
33DA
100
AcDbEntity
  8
Defpoints
 62
     0
100
AcDbPoint
 10
839.3281519961071
 20
555.3493970223959
 30
0.0
  0
POINT
  5
373F
330
33DA
100
AcDbEntity
  8
Defpoints
 62
     0
100
AcDbPoint
 10
839.4143129930071
 20
581.360099595636
 30
0.0
  0
POINT
  5
3740
330
33DA
100
AcDbEntity
  8
Defpoints
 62
     0
100
AcDbPoint
 10
848.3317870274209
 20
581.360099595636
 30
0.0
  0
ENDBLK
  5
33E6
330
33DA
100
AcDbEntity
  8
0
 62
     7
370
    13
100
AcDbBlockEnd
  0
BLOCK
  5
33F3
330
33E8
100
AcDbEntity
  8
0
 62
     7
370
    13
100
AcDbBlockBegin
  2
*D7
 70
     1
 10
0.0
 20
0.0
 30
0.0
  3
*D7
  1

  0
LINE
  5
3741
330
33E8
100
AcDbEntity
  8
TEXT
 62
     0
100
AcDbLine
 10
845.3252505458078
 20
550.4578359901666
 30
0.0
 11
865.257774703423
 21
550.4578359901666
 31
0.0
  0
LINE
  5
3742
330
33E8
100
AcDbEntity
  8
TEXT
 62
     0
100
AcDbLine
 10
845.268625157689
 20
586.2578359901663
 30
0.0
 11
865.257774703423
 21
586.2578359901663
 31
0.0
  0
LINE
  5
3743
330
33E8
100
AcDbEntity
  8
TEXT
 62
     0
100
AcDbLine
 10
864.657774703423
 20
551.6578359901666
 30
0.0
 11
864.657774703423
 21
565.9427770679466
 31
0.0
  0
LINE
  5
3744
330
33E8
100
AcDbEntity
  8
TEXT
 62
     0
100
AcDbLine
 10
864.657774703423
 20
585.0578359901662
 30
0.0
 11
864.657774703423
 21
570.9587940771599
 31
0.0
  0
MTEXT
  5
3745
330
33E8
100
AcDbEntity
  8
TEXT
 62
     0
100
AcDbMText
 10
864.657774703423
 20
568.4507855725534
 30
0.0
 40
2.399999999999999
 41
0.0
 71
     5
 72
     1
  1
\A1;36 5/16"
 73
     1
 44
1.0
  0
SOLID
  5
3746
330
33E8
100
AcDbEntity
  8
TEXT
 62
     0
100
AcDbTrace
 10
864.4577747034229
 20
551.6578359901666
 30
0.0
 11
864.8577747034231
 21
551.6578359901666
 31
0.0
 12
864.657774703423
 22
550.4578359901666
 32
0.0
 13
864.657774703423
 23
550.4578359901666
 33
0.0
  0
SOLID
  5
3747
330
33E8
100
AcDbEntity
  8
TEXT
 62
     0
100
AcDbTrace
 10
864.4577747034229
 20
585.0578359901662
 30
0.0
 11
864.8577747034231
 21
585.0578359901662
 31
0.0
 12
864.657774703423
 22
586.2578359901663
 32
0.0
 13
864.657774703423
 23
586.2578359901663
 33
0.0
  0
POINT
  5
3748
330
33E8
100
AcDbEntity
  8
Defpoints
 62
     0
100
AcDbPoint
 10
842.9252505458077
 20
550.4578359901666
 30
0.0
  0
POINT
  5
3749
330
33E8
100
AcDbEntity
  8
Defpoints
 62
     0
100
AcDbPoint
 10
842.8686251576891
 20
586.2578359901663
 30
0.0
  0
POINT
  5
374A
330
33E8
100
AcDbEntity
  8
Defpoints
 62
     0
100
AcDbPoint
 10
864.657774703423
 20
586.2578359901663
 30
0.0
  0
ENDBLK
  5
33F4
330
33E8
100
AcDbEntity
  8
0
 62
     7
370
    13
100
AcDbBlockEnd
  0
BLOCK
  5
3451
330
3446
100
AcDbEntity
  8
0
 62
     7
370
    13
100
AcDbBlockBegin
  2
*D8
 70
     1
 10
0.0
 20
0.0
 30
0.0
  3
*D8
  1

  0
LINE
  5
374B
330
3446
100
AcDbEntity
  8
TEXT
 62
     0
100
AcDbLine
 10
819.232110732193
 20
554.787501702135
 30
0.0
 11
826.7048394493905
 21
554.787501702135
 31
0.0
  0
LINE
  5
374C
330
3446
100
AcDbEntity
  8
TEXT
 62
     0
100
AcDbLine
 10
819.232110732193
 20
581.5385017021348
 30
0.0
 11
826.7048394493905
 21
581.5385017021348
 31
0.0
  0
LINE
  5
374D
330
3446
100
AcDbEntity
  8
TEXT
 62
     0
100
AcDbLine
 10
826.1048394493904
 20
555.9875017021351
 30
0.0
 11
826.1048394493904
 21
565.5495812809446
 31
0.0
  0
LINE
  5
374E
330
3446
100
AcDbEntity
  8
TEXT
 62
     0
100
AcDbLine
 10
826.1048394493904
 20
580.3385017021348
 30
0.0
 11
826.1048394493904
 21
570.5655982901579
 31
0.0
  0
MTEXT
  5
374F
330
3446
100
AcDbEntity
  8
TEXT
 62
     0
100
AcDbMText
 10
826.1048394493904
 20
568.0575897855515
 30
0.0
 40
2.399999999999999
 41
0.0
 71
     5
 72
     1
  1
\A1;26 3/4"
 73
     1
 44
1.0
  0
SOLID
  5
3750
330
3446
100
AcDbEntity
  8
TEXT
 62
     0
100
AcDbTrace
 10
825.9048394493904
 20
555.9875017021351
 30
0.0
 11
826.3048394493905
 21
555.9875017021351
 31
0.0
 12
826.1048394493904
 22
554.787501702135
 32
0.0
 13
826.1048394493904
 23
554.787501702135
 33
0.0
  0
SOLID
  5
3751
330
3446
100
AcDbEntity
  8
TEXT
 62
     0
100
AcDbTrace
 10
825.9048394493904
 20
580.3385017021348
 30
0.0
 11
826.3048394493905
 21
580.3385017021348
 31
0.0
 12
826.1048394493904
 22
581.5385017021348
 32
0.0
 13
826.1048394493904
 23
581.5385017021348
 33
0.0
  0
POINT
  5
3752
330
3446
100
AcDbEntity
  8
Defpoints
 62
     0
100
AcDbPoint
 10
816.8321107321931
 20
554.787501702135
 30
0.0
  0
POINT
  5
3753
330
3446
100
AcDbEntity
  8
Defpoints
 62
     0
100
AcDbPoint
 10
816.8321107321931
 20
581.5385017021348
 30
0.0
  0
POINT
  5
3754
330
3446
100
AcDbEntity
  8
Defpoints
 62
     0
100
AcDbPoint
 10
826.1048394493904
 20
581.5385017021348
 30
0.0
  0
ENDBLK
  5
3452
330
3446
100
AcDbEntity
  8
0
 62
     7
370
    13
100
AcDbBlockEnd
  0
BLOCK
  5
345F
330
3454
100
AcDbEntity
  8
0
 62
     7
370
    13
100
AcDbBlockBegin
  2
*D9
 70
     1
 10
0.0
 20
0.0
 30
0.0
  3
*D9
  1

  0
LINE
  5
3755
330
3454
100
AcDbEntity
  8
TEXT
 62
     0
100
AcDbLine
 10
753.9879740371682
 20
530.2414552196276
 30
0.0
 11
753.9879740371682
 21
524.9924164569396
 31
0.0
  0
LINE
  5
3756
330
3454
100
AcDbEntity
  8
TEXT
 62
     0
100
AcDbLine
 10
805.3321107321922
 20
548.4309954649156
 30
0.0
 11
805.3321107321922
 21
524.9924164569396
 31
0.0
  0
LINE
  5
3757
330
3454
100
AcDbEntity
  8
TEXT
 62
     0
100
AcDbLine
 10
755.1879740371682
 20
525.5924164569396
 30
0.0
 11
772.2770540427222
 21
525.5924164569396
 31
0.0
  0
LINE
  5
3758
330
3454
100
AcDbEntity
  8
TEXT
 62
     0
100
AcDbLine
 10
804.1321107321921
 20
525.5924164569396
 30
0.0
 11
786.6974650987108
 21
525.5924164569396
 31
0.0
  0
MTEXT
  5
3759
330
3454
100
AcDbEntity
  8
TEXT
 62
     0
100
AcDbMText
 10
779.4872595707166
 20
525.5924164569396
 30
0.0
 40
2.399999999999999
 41
0.0
 71
     5
 72
     1
  1
\A1;VARIES
 73
     1
 44
1.0
  0
SOLID
  5
375A
330
3454
100
AcDbEntity
  8
TEXT
 62
     0
100
AcDbTrace
 10
755.1879740371682
 20
525.7924164569397
 30
0.0
 11
755.1879740371682
 21
525.3924164569395
 31
0.0
 12
753.9879740371682
 22
525.5924164569396
 32
0.0
 13
753.9879740371682
 23
525.5924164569396
 33
0.0
  0
SOLID
  5
375B
330
3454
100
AcDbEntity
  8
TEXT
 62
     0
100
AcDbTrace
 10
804.1321107321921
 20
525.7924164569397
 30
0.0
 11
804.1321107321921
 21
525.3924164569395
 31
0.0
 12
805.3321107321922
 22
525.5924164569396
 32
0.0
 13
805.3321107321922
 23
525.5924164569396
 33
0.0
  0
POINT
  5
375C
330
3454
100
AcDbEntity
  8
Defpoints
 62
     0
100
AcDbPoint
 10
753.9879740371682
 20
532.6414552196276
 30
0.0
  0
POINT
  5
375D
330
3454
100
AcDbEntity
  8
Defpoints
 62
     0
100
AcDbPoint
 10
805.3321107321922
 20
550.8309954649156
 30
0.0
  0
POINT
  5
375E
330
3454
100
AcDbEntity
  8
Defpoints
 62
     0
100
AcDbPoint
 10
805.3321107321922
 20
525.5924164569396
 30
0.0
  0
ENDBLK
  5
3460
330
3454
100
AcDbEntity
  8
0
 62
     7
370
    13
100
AcDbBlockEnd
  0
BLOCK
  5
362A
330
361F
100
AcDbEntity
  8
0
 62
     7
370
    13
100
AcDbBlockBegin
  2
*D10
 70
     1
 10
0.0
 20
0.0
 30
0.0
  3
*D10
  1

  0
LINE
  5
375F
330
361F
100
AcDbEntity
  8
TEXT
 62
     0
100
AcDbLine
 10
768.5240174664372
 20
535.2630437287158
 30
0.0
 11
768.5240174664372
 21
530.2572397645263
 31
0.0
  0
LINE
  5
3760
330
361F
100
AcDbEntity
  8
TEXT
 62
     0
100
AcDbLine
 10
779.3333843873838
 20
541.5033727500783
 30
0.0
 11
779.3333843873838
 21
530.2572397645263
 31
0.0
  0
LINE
  5
3761
330
361F
100
AcDbEntity
  8
TEXT
 62
     0
100
AcDbLine
 10
767.3240174664371
 20
530.8572397645264
 30
0.0
 11
766.1240174664372
 21
530.8572397645264
 31
0.0
  0
LINE
  5
3762
330
361F
100
AcDbEntity
  8
TEXT
 62
     0
100
AcDbLine
 10
780.5333843873839
 20
530.8572397645264
 30
0.0
 11
781.7333843873838
 21
530.8572397645264
 31
0.0
  0
MTEXT
  5
3763
330
361F
100
AcDbEntity
  8
TEXT
 62
     0
100
AcDbMText
 10
774.169324503618
 20
530.8572397645264
 30
0.0
 40
2.399999999999999
 41
0.0
 71
     5
 72
     1
  1
\A1;12"
 73
     1
 44
1.0
  0
SOLID
  5
3764
330
361F
100
AcDbEntity
  8
TEXT
 62
     0
100
AcDbTrace
 10
767.3240174664371
 20
531.0572397645264
 30
0.0
 11
767.3240174664371
 21
530.6572397645263
 31
0.0
 12
768.5240174664372
 22
530.8572397645264
 32
0.0
 13
768.5240174664372
 23
530.8572397645264
 33
0.0
  0
SOLID
  5
3765
330
361F
100
AcDbEntity
  8
TEXT
 62
     0
100
AcDbTrace
 10
780.5333843873839
 20
531.0572397645264
 30
0.0
 11
780.5333843873839
 21
530.6572397645263
 31
0.0
 12
779.3333843873838
 22
530.8572397645264
 32
0.0
 13
779.3333843873838
 23
530.8572397645264
 33
0.0
  0
POINT
  5
3766
330
361F
100
AcDbEntity
  8
Defpoints
 62
     0
100
AcDbPoint
 10
768.5240174664372
 20
537.6630437287158
 30
0.0
  0
POINT
  5
3767
330
361F
100
AcDbEntity
  8
Defpoints
 62
     0
100
AcDbPoint
 10
779.3333843873838
 20
543.9033727500783
 30
0.0
  0
POINT
  5
3768
330
361F
100
AcDbEntity
  8
Defpoints
 62
     0
100
AcDbPoint
 10
779.3333843873838
 20
530.8572397645264
 30
0.0
  0
ENDBLK
  5
362B
330
361F
100
AcDbEntity
  8
0
 62
     7
370
    13
100
AcDbBlockEnd
  0
ENDSEC
  0
SECTION
  2
ENTITIES
  0
INSERT
  5
1247
330
2
100
AcDbEntity
  8
ASHADE
 62
     1
370
    13
100
AcDbBlockReference
  2
AVE_RENDER
 10
716.8802747180818
 20
428.996703363162
 30
0.0
1001
AVE_RENDER
1002
{
1070
     7
1000
Pref
1070
    30
1070
    20
1070
     1
1070
     0
1000

1070
    10
1070
     1
1070
    10
1040
1.0
1070
     1
1040
0.3
1040
0.7
1040
0.0
1040
10.0
1010
-1.0
1020
-1.0
1030
-1.0
1040
0.3
1070
    49
1070
     0
1070
     0
1010
1.0
1020
1.0
1030
1.0
1040
45.0
1070
     1
1070
     0
1000
WCS
1040
0.0
1070
     0
1040
10.0
1002
}
  0
INSERT
  5
1248
330
2
100
AcDbEntity
  8
ASHADE
 62
     3
370
    13
100
AcDbBlockReference
  2
AVE_RENDER
 10
716.8802747180818
 20
428.996703363162
 30
0.0
1001
AVE_RENDER
1002
{
1070
     0
1000
Full Opt
1070
     0
1070
     1
1070
     1
1070
     1
1070
     0
1070
     0
1070
     0
1070
     1
1070
     1
1040
0.0001
1040
0.0001
1002
}
  0
INSERT
  5
1249
330
2
100
AcDbEntity
  8
ASHADE
 62
     4
370
    13
100
AcDbBlockReference
  2
AVE_RENDER
 10
716.8802747180818
 20
428.996703363162
 30
0.0
1001
AVE_RENDER
1002
{
1070
     0
1000
Quick Opt
1070
     0
1070
     1
1070
     1
1070
     1
1070
     0
1070
     0
1070
     1
1002
}
  0
INSERT
  5
124A
330
2
100
AcDbEntity
  8
ASHADE
 62
     5
370
    13
100
AcDbBlockReference
  2
AVE_RENDER
 10
716.8802747180818
 20
428.996703363162
 30
0.0
1001
AVE_RENDER
1002
{
1070
     1
1000
Scanl Opt
1070
     2
1070
     0
1070
     2
1040
2.0
1040
4.0
1070
     0
1070
     1
1070
     0
1040
0.03
1002
}
  0
INSERT
  5
124B
330
2
100
AcDbEntity
  8
ASHADE
 62
     6
370
    13
100
AcDbBlockReference
  2
AVE_RENDER
 10
716.8802747180818
 20
428.996703363162
 30
0.0
1001
AVE_RENDER
1002
{
1070
     2
1000
Raytr Opt
1070
     2
1070
     0
1070
     2
1040
2.0
1040
4.0
1070
     0
1070
     1
1070
     1
1040
0.03
1070
     3
1040
0.03
1002
}
  0
INSERT
  5
124C
330
2
100
AcDbEntity
  8
ASHADE
 62
     7
370
    13
100
AcDbBlockReference
  2
AVE_RENDER
 10
716.8802747180818
 20
428.996703363162
 30
0.0
1001
AVE_RENDER
1002
{
1070
     0
1000
RFile Opt
1070
     1
1070
   640
1070
   480
1070
 10000
1070
     1
1070
     8
1070
     8
1070
     0
1070
     0
1070
     0
1070
     0
1070
     0
1070
     0
1070
     0
1002
}
  0
INSERT
  5
124D
330
2
100
AcDbEntity
  8
ASHADE
 62
     8
370
    13
100
AcDbBlockReference
  2
AVE_RENDER
 10
716.8802747180818
 20
428.996703363162
 30
0.0
1001
AVE_RENDER
1002
{
1070
     0
1000
Fog Opt
1070
     0
1070
     0
1040
0.0
1040
1.0
1040
0.0
1040
1.0
1010
0.5
1020
0.5
1030
0.5
1002
}
  0
INSERT
  5
124E
330
2
100
AcDbEntity
  8
ASHADE
 62
     9
370
    13
100
AcDbBlockReference
  2
AVE_RENDER
 10
716.8802747180818
 20
428.996703363162
 30
0.0
1001
AVE_RENDER
1002
{
1070
     0
1000
BG Opt
1070
     0
1070
     1
1010
0.0
1020
0.0
1030
0.0
1010
1.0
1020
0.0
1030
0.0
1010
0.0
1020
1.0
1030
0.0
1010
0.0
1020
0.0
1030
1.0
1040
0.5
1040
0.33
1040
0.0
1000

1070
     1
1000

1070
     1
1070
     1
1040
1.0
1040
1.0
1040
0.0
1040
0.0
1070
     0
1002
}
  0
INSERT
  5
124F
330
2
100
AcDbEntity
  8
ASHADE
 62
     1
370
    13
100
AcDbBlockReference
  2
AVE_GLOBAL
 10
716.8802747180818
 20
428.996703363162
 30
0.0
1001
AVE_MATERIAL
1002
{
1000
*GLOBAL*
1000
1
1000
Global finish.
1002
{
1002
}
1002
{
1070
    63
1002
{
1002
{
1010
-1.0
1020
-1.0
1030
-1.0
1002
}
1040
0.1000000014901161
1000

1040
0.0
1002
{
1002
}
1040
0.0
1002
{
1002
}
1040
0.0
1002
}
1002
{
1002
{
1010
-1.0
1020
-1.0
1030
-1.0
1002
}
1040
0.6999999880790711
1000

1040
0.0
1002
{
1002
}
1040
0.0
1002
{
1002
}
1040
0.0
1002
}
1002
{
1002
{
1010
-1.0
1020
-1.0
1030
-1.0
1002
}
1040
0.2000000029802322
1000

1040
0.0
1002
{
1002
}
1040
0.0
1002
{
1002
}
1040
0.0
1002
}
1002
{
1070
     0
1002
{
1070
     1
1002
{
1040
1.0
1040
1.0
1000

1040
0.0
1002
{
1002
}
1040
0.0
1002
{
1002
}
1040
0.0
1002
}
1002
}
1040
1.0
1040
0.0
1040
0.0
1002
}
1002
{
1040
1.0
1040
1.0
1000

1040
0.0
1002
{
1002
}
1040
0.0
1002
{
1002
}
1040
0.0
1002
}
1002
{
1040
0.5
1040
1.0
1000

1040
0.0
1002
{
1002
}
1040
0.0
1002
{
1002
}
1040
0.0
1002
}
1002
{
1070
     0
1040
0.0
1002
{
1002
}
1040
1.0
1002
{
1002
}
1040
0.0
1002
}
1002
{
1040
0.0
1002
{
1002
{
1010
0.0
1020
0.0
1030
0.0
1002
}
1040
1.0
1000

1040
0.0
1002
{
1002
}
1040
0.0
1002
{
1002
}
1040
0.0
1002
}
1002
}
1002
{
1002
{
1070
     1
1002
{
1040
0.0
1040
1.0
1000

1040
0.0
1002
{
1002
}
1040
0.0
1002
{
1002
}
1040
0.0
1002
}
1002
}
1040
0.0
1002
{
1002
}
1010
1.0
1020
0.0
1030
0.0
1010
0.0
1020
1.0
1030
0.0
1010
0.0
1020
0.0
1030
1.0
1070
     0
1002
}
1002
{
1002
{
1040
1.0
1040
1.0
1002
{
1070
     1
1002
{
1040
1.0
1040
1.0
1000

1040
0.0
1002
{
1002
}
1040
0.0
1002
{
1002
}
1040
0.0
1002
}
1002
}
1002
}
1070
     0
1040
0.0
1002
{
1002
}
1002
}
1002
{
1002
}
1002
}
1002
{
1071
        3
1070
     3
1070
     0
1002
{
1070
     2
1070
     0
1070
     0
1040
0.0
1002
}
1070
     0
1070
     2
1002
{
1002
}
1002
}
1002
{
1040
8030.0
1040
190.3000030517578
1040
0.3050000071525574
1040
228.0
1040
545.0
1040
14.0
1040
17.39999961853027
1040
0.4560000002384186
1002
}
1002
}
  0
INSERT
  5
1250
330
2
100
AcDbEntity
  8
ASHADE
 62
     1
370
    13
100
AcDbBlockReference
  2
AVE_RENDER
 10
716.7945457706323
 20
373.1331682575083
 30
0.0
1001
AVE_RENDER
1002
{
1070
     7
1000
Pref
1070
    60
1070
    20
1070
     1
1070
     0
1000

1070
    10
1070
     1
1070
    10
1040
1.0
1070
     1
1040
0.3
1040
0.7
1040
0.0
1040
10.0
1010
-1.0
1020
-1.0
1030
-1.0
1040
0.3
1070
    49
1070
     0
1070
     0
1010
1.0
1020
1.0
1030
1.0
1040
45.0
1070
     1
1070
     0
1000
WCS
1040
0.0
1070
     0
1040
10.0
1002
}
  0
INSERT
  5
1251
330
2
100
AcDbEntity
  8
ASHADE
 62
     3
370
    13
100
AcDbBlockReference
  2
AVE_RENDER
 10
716.7945457706323
 20
373.1331682575083
 30
0.0
1001
AVE_RENDER
1002
{
1070
     0
1000
Full Opt
1070
     0
1070
     1
1070
     1
1070
     1
1070
     0
1070
     0
1070
     0
1070
     1
1070
     1
1040
0.0001
1040
0.0001
1002
}
  0
INSERT
  5
1252
330
2
100
AcDbEntity
  8
ASHADE
 62
     4
370
    13
100
AcDbBlockReference
  2
AVE_RENDER
 10
716.7945457706323
 20
373.1331682575083
 30
0.0
1001
AVE_RENDER
1002
{
1070
     0
1000
Quick Opt
1070
     0
1070
     1
1070
     1
1070
     1
1070
     0
1070
     0
1070
     1
1002
}
  0
INSERT
  5
1253
330
2
100
AcDbEntity
  8
ASHADE
 62
     5
370
    13
100
AcDbBlockReference
  2
AVE_RENDER
 10
716.7945457706323
 20
373.1331682575083
 30
0.0
1001
AVE_RENDER
1002
{
1070
     1
1000
Scanl Opt
1070
     2
1070
     0
1070
     2
1040
2.0
1040
4.0
1070
     0
1070
     1
1070
     0
1040
0.03
1002
}
  0
INSERT
  5
1254
330
2
100
AcDbEntity
  8
ASHADE
 62
     6
370
    13
100
AcDbBlockReference
  2
AVE_RENDER
 10
716.7945457706323
 20
373.1331682575083
 30
0.0
1001
AVE_RENDER
1002
{
1070
     2
1000
Raytr Opt
1070
     2
1070
     0
1070
     2
1040
2.0
1040
4.0
1070
     0
1070
     1
1070
     1
1040
0.03
1070
     3
1040
0.03
1002
}
  0
INSERT
  5
1255
330
2
100
AcDbEntity
  8
ASHADE
 62
     7
370
    13
100
AcDbBlockReference
  2
AVE_RENDER
 10
716.7945457706323
 20
373.1331682575083
 30
0.0
1001
AVE_RENDER
1002
{
1070
     0
1000
RFile Opt
1070
     1
1070
   640
1070
   480
1070
 10000
1070
     1
1070
     8
1070
     8
1070
     0
1070
     0
1070
     0
1070
     0
1070
     0
1070
     0
1070
     0
1002
}
  0
INSERT
  5
1256
330
2
100
AcDbEntity
  8
ASHADE
 62
     8
370
    13
100
AcDbBlockReference
  2
AVE_RENDER
 10
716.7945457706323
 20
373.1331682575083
 30
0.0
1001
AVE_RENDER
1002
{
1070
     0
1000
Fog Opt
1070
     0
1070
     0
1040
0.0
1040
1.0
1040
0.0
1040
1.0
1010
0.5
1020
0.5
1030
0.5
1002
}
  0
INSERT
  5
1257
330
2
100
AcDbEntity
  8
ASHADE
 62
     9
370
    13
100
AcDbBlockReference
  2
AVE_RENDER
 10
716.7945457706323
 20
373.1331682575083
 30
0.0
1001
AVE_RENDER
1002
{
1070
     0
1000
BG Opt
1070
     0
1070
     1
1010
0.0
1020
0.0
1030
0.0
1010
1.0
1020
0.0
1030
0.0
1010
0.0
1020
1.0
1030
0.0
1010
0.0
1020
0.0
1030
1.0
1040
0.5
1040
0.33
1040
0.0
1000

1070
     1
1000

1070
     1
1070
     1
1040
1.0
1040
1.0
1040
0.0
1040
0.0
1070
     0
1002
}
  0
INSERT
  5
1258
330
2
100
AcDbEntity
  8
ASHADE
 62
     1
370
    13
100
AcDbBlockReference
  2
AVE_GLOBAL
 10
716.7945457706323
 20
373.1331682575083
 30
0.0
1001
AVE_MATERIAL
1002
{
1000
*GLOBAL*
1000
1
1000
Global finish.
1002
{
1002
}
1002
{
1070
    63
1002
{
1002
{
1010
-1.0
1020
-1.0
1030
-1.0
1002
}
1040
0.1000000014901161
1000

1040
0.0
1002
{
1002
}
1040
0.0
1002
{
1002
}
1040
0.0
1002
}
1002
{
1002
{
1010
-1.0
1020
-1.0
1030
-1.0
1002
}
1040
0.6999999880790711
1000

1040
0.0
1002
{
1002
}
1040
0.0
1002
{
1002
}
1040
0.0
1002
}
1002
{
1002
{
1010
-1.0
1020
-1.0
1030
-1.0
1002
}
1040
0.2000000029802322
1000

1040
0.0
1002
{
1002
}
1040
0.0
1002
{
1002
}
1040
0.0
1002
}
1002
{
1070
     0
1002
{
1070
     1
1002
{
1040
1.0
1040
1.0
1000

1040
0.0
1002
{
1002
}
1040
0.0
1002
{
1002
}
1040
0.0
1002
}
1002
}
1040
1.0
1040
0.0
1040
0.0
1002
}
1002
{
1040
1.0
1040
1.0
1000

1040
0.0
1002
{
1002
}
1040
0.0
1002
{
1002
}
1040
0.0
1002
}
1002
{
1040
0.5
1040
1.0
1000

1040
0.0
1002
{
1002
}
1040
0.0
1002
{
1002
}
1040
0.0
1002
}
1002
{
1070
     0
1040
0.0
1002
{
1002
}
1040
1.0
1002
{
1002
}
1040
0.0
1002
}
1002
{
1040
0.0
1002
{
1002
{
1010
0.0
1020
0.0
1030
0.0
1002
}
1040
1.0
1000

1040
0.0
1002
{
1002
}
1040
0.0
1002
{
1002
}
1040
0.0
1002
}
1002
}
1002
{
1002
{
1070
     1
1002
{
1040
0.0
1040
1.0
1000

1040
0.0
1002
{
1002
}
1040
0.0
1002
{
1002
}
1040
0.0
1002
}
1002
}
1040
0.0
1002
{
1002
}
1010
1.0
1020
0.0
1030
0.0
1010
0.0
1020
1.0
1030
0.0
1010
0.0
1020
0.0
1030
1.0
1070
     0
1002
}
1002
{
1002
{
1040
1.0
1040
1.0
1002
{
1070
     1
1002
{
1040
1.0
1040
1.0
1000

1040
0.0
1002
{
1002
}
1040
0.0
1002
{
1002
}
1040
0.0
1002
}
1002
}
1002
}
1070
     0
1040
0.0
1002
{
1002
}
1002
}
1002
{
1002
}
1002
}
1002
{
1071
        3
1070
     3
1070
     0
1002
{
1070
     2
1070
     0
1070
     0
1040
0.0
1002
}
1070
     0
1070
     2
1002
{
1002
}
1002
}
1002
{
1040
8030.0
1040
190.3000030517578
1040
0.3050000071525574
1040
228.0
1040
545.0
1040
14.0
1040
17.39999961853027
1040
0.4560000002384186
1002
}
1002
}
  0
ARC
  5
1259
330
2
100
AcDbEntity
  8
0
 62
     7
370
    30
100
AcDbCircle
 10
733.8498441619366
 20
554.6978288199068
 30
0.0
 40
23.89499949311999
100
AcDbArc
 50
341.7554698245592
 51
3.284369108363738
  0
ARC
  5
125A
330
2
100
AcDbEntity
  8
0
 62
     7
370
    30
100
AcDbCircle
 10
733.8498441619369
 20
554.6978288199077
 30
0.0
 40
23.8949994931199
100
AcDbArc
 50
341.7554698245592
 51
3.284369108363738
  0
ARC
  5
125B
330
2
100
AcDbEntity
  8
0
 62
     7
370
    30
100
AcDbCircle
 10
759.4871873680967
 20
546.4216961829667
 30
0.0
 40
3.049101497819999
100
AcDbArc
 50
159.336630481459
 51
235.1500954209545
  0
ARC
  5
125C
330
2
100
AcDbEntity
  8
0
 62
     7
370
    30
100
AcDbCircle
 10
759.4871873680972
 20
546.4216961829691
 30
0.0
 40
3.049101497820003
100
AcDbArc
 50
164.8815986023474
 51
235.1500954209383
  0
LINE
  5
125D
330
2
100
AcDbEntity
  8
0
 62
     7
370
    30
100
AcDbLine
 10
756.8353796730766
 20
536.9632588836068
 30
0.0
 11
759.6355749261767
 21
536.9632588836068
 31
0.0
  0
ARC
  5
125F
330
2
100
AcDbEntity
  8
0
 62
     7
370
    30
100
AcDbCircle
 10
757.1536913238466
 20
540.5723994320468
 30
0.0
 40
0.5311275301077292
100
AcDbArc
 50
107.0315588425923
 51
252.9684411574076
  0
LINE
  5
1260
330
2
100
AcDbEntity
  8
0
 62
     7
370
    30
100
AcDbLine
 10
756.4380858702766
 20
539.4523213308067
 30
0.0
 11
756.9981249208966
 21
539.7012275755269
 31
0.0
  0
ARC
  5
1261
330
2
100
AcDbEntity
  8
0
 62
     7
370
    30
100
AcDbCircle
 10
759.3698793262843
 20
510.8625660018463
 30
0.0
 40
28.73968549999317
100
AcDbArc
 50
84.66008033607456
 51
95.85504351536561
  0
ARC
  5
1264
330
2
100
AcDbEntity
  8
0
 62
     7
370
    30
100
AcDbCircle
 10
760.5015787898619
 20
543.1973564035293
 30
0.0
 40
0.4328077644545648
100
AcDbArc
 50
297.2421211055541
 51
57.87712348201701
  0
LINE
  5
1265
330
2
100
AcDbEntity
  8
0
 62
     7
370
    30
100
AcDbLine
 10
760.7317185916967
 20
543.9326337357668
 30
0.0
 11
760.7317185916967
 21
543.5592743686869
 31
0.0
  0
ARC
  5
1266
330
2
100
AcDbEntity
  8
0
 62
     7
370
    30
100
AcDbCircle
 10
761.3228709229066
 20
540.5723994320468
 30
0.0
 40
0.5311275301077292
100
AcDbArc
 50
287.0315588425851
 51
72.9684411574148
  0
LINE
  5
1267
330
2
100
AcDbEntity
  8
0
 62
     7
370
    30
100
AcDbLine
 10
761.4784373258565
 20
541.0702119214869
 30
0.0
 11
761.4784373258565
 21
541.5680244109267
 31
0.0
  0
LINE
  5
1268
330
2
100
AcDbEntity
  8
0
 62
     7
370
    30
100
AcDbLine
 10
761.4784373258565
 20
539.7012275755269
 30
0.0
 11
762.0384763764766
 21
539.4523213308067
 31
0.0
  0
LINE
  5
1269
330
2
100
AcDbEntity
  8
0
 62
     7
370
    30
100
AcDbLine
 10
761.4784373258565
 20
539.7012275755269
 30
0.0
 11
761.4784373258565
 21
540.0745869426067
 31
0.0
  0
ARC
  5
126A
330
2
100
AcDbEntity
  8
0
 62
     7
370
    30
100
AcDbCircle
 10
757.9751939770878
 20
543.1963827037849
 30
0.0
 40
0.4328077644545648
100
AcDbArc
 50
122.1557891493676
 51
242.4776155606276
  0
ARC
  5
126B
330
2
100
AcDbEntity
  8
0
 62
     7
370
    30
100
AcDbCircle
 10
756.1891796255565
 20
542.9370087568869
 30
0.0
 40
1.589135542858315
100
AcDbArc
 50
300.5765072230285
 51
355.5082825604374
  0
LINE
  5
126C
330
2
100
AcDbEntity
  8
0
 62
     7
370
    30
100
AcDbLine
 10
757.7448436550565
 20
543.5592743686869
 30
0.0
 11
757.7448436550565
 21
543.9326337357668
 31
0.0
  0
LINE
  5
126D
330
2
100
AcDbEntity
  8
0
 62
     7
370
    30
100
AcDbLine
 10
759.2382811233766
 20
542.8125556345269
 30
0.0
 11
757.7734344011247
 21
542.8125556345269
 31
0.0
  0
LINE
  5
126E
330
2
100
AcDbEntity
  8
0
 62
     7
370
    30
100
AcDbLine
 10
756.9981249208966
 20
541.0702119214869
 30
0.0
 11
756.9981249208966
 21
541.5680244109267
 31
0.0
  0
LINE
  5
126F
330
2
100
AcDbEntity
  8
0
 62
     7
370
    30
100
AcDbLine
 10
756.9981249208966
 20
539.7012275755269
 30
0.0
 11
756.9981249208966
 21
540.0745869426067
 31
0.0
  0
LINE
  5
1270
330
2
100
AcDbEntity
  8
0
 62
     7
370
    30
100
AcDbLine
 10
759.2382811233766
 20
539.7012275755269
 30
0.0
 11
756.9981249208966
 21
539.7012275755269
 31
0.0
  0
ARC
  5
1271
330
2
100
AcDbEntity
  8
0
 62
     7
370
    30
100
AcDbCircle
 10
762.2873826211965
 20
542.9370087568869
 30
0.0
 40
1.589135542858315
100
AcDbArc
 50
184.4917174395625
 51
239.4239588348153
  0
LINE
  5
1272
330
2
100
AcDbEntity
  8
0
 62
     7
370
    30
100
AcDbLine
 10
757.7448436550565
 20
543.9326337357668
 30
0.0
 11
760.7317185916967
 21
543.9326337357668
 31
0.0
  0
LINE
  5
1273
330
2
100
AcDbEntity
  8
0
 62
     7
370
    30
100
AcDbLine
 10
757.7448436550565
 20
543.9326337357668
 30
0.0
 11
760.7317185916967
 21
543.9326337357668
 31
0.0
  0
LINE
  5
1274
330
2
100
AcDbEntity
  8
0
 62
     7
370
    30
100
AcDbLine
 10
757.7448436550565
 20
543.5592743686869
 30
0.0
 11
760.7317185916967
 21
543.5592743686869
 31
0.0
  0
LINE
  5
1275
330
2
100
AcDbEntity
  8
0
 62
     7
370
    30
100
AcDbLine
 10
757.7734344011247
 20
542.8125556345269
 30
0.0
 11
760.7031278456284
 21
542.8125556345269
 31
0.0
  0
LINE
  5
1276
330
2
100
AcDbEntity
  8
0
 62
     7
370
    30
100
AcDbLine
 10
756.9981249208966
 20
541.5680244109267
 30
0.0
 11
761.4784373258565
 21
541.5680244109267
 31
0.0
  0
LINE
  5
1277
330
2
100
AcDbEntity
  8
0
 62
     7
370
    30
100
AcDbLine
 10
756.9981249208966
 20
541.0702119214869
 30
0.0
 11
761.4784373258565
 21
541.0702119214869
 31
0.0
  0
LINE
  5
1278
330
2
100
AcDbEntity
  8
0
 62
     7
370
    30
100
AcDbLine
 10
756.9981249208966
 20
540.0745869426067
 30
0.0
 11
761.4784373258565
 21
540.0745869426067
 31
0.0
  0
LINE
  5
1279
330
2
100
AcDbEntity
  8
0
 62
     7
370
    30
100
AcDbLine
 10
756.9981249208966
 20
539.7012275755269
 30
0.0
 11
761.4784373258565
 21
539.7012275755269
 31
0.0
  0
ARC
  5
127A
330
2
100
AcDbEntity
  8
0
 62
     7
370
    30
100
AcDbCircle
 10
758.9854542496371
 20
546.4321498472692
 30
0.0
 40
3.049101497820061
100
AcDbArc
 50
304.9397270199655
 51
20.45357319038661
  0
LINE
  5
127B
330
2
100
AcDbEntity
  8
0
 62
     7
370
    30
100
AcDbLine
 10
760.7317185916967
 20
543.9326337357668
 30
0.0
 11
760.7317185916967
 21
543.5592743686869
 31
0.0
  0
LINE
  5
127C
330
2
100
AcDbEntity
  8
0
 62
     7
370
    30
100
AcDbLine
 10
760.7317185916967
 20
543.5592743686869
 30
0.0
 11
757.7448436550565
 21
543.5627995294056
 31
0.0
  0
LINE
  5
127D
330
2
100
AcDbEntity
  8
0
 62
     7
370
    30
100
AcDbLine
 10
757.7448436550565
 20
543.5627995294056
 30
0.0
 11
757.7448436550565
 21
543.9194455301296
 31
0.0
  0
POINT
  5
127E
330
2
100
AcDbEntity
  8
0
 62
     7
370
    30
100
AcDbPoint
 10
756.8353796730766
 20
536.9632588836068
 30
0.0
  0
ARC
  5
127F
330
2
100
AcDbEntity
  8
0
 62
     7
370
    30
100
AcDbCircle
 10
757.9807198736266
 20
543.1966062602003
 30
0.0
 40
0.4355859282600059
100
AcDbArc
 50
122.7868162057807
 51
241.8465885129508
  0
LINE
  5
1280
330
2
100
AcDbEntity
  8
0
 62
     7
370
    30
100
AcDbLine
 10
757.7751956224592
 20
542.8125556345269
 30
0.0
 11
760.6996972624204
 21
542.8125556345269
 31
0.0
  0
ARC
  5
1281
330
2
100
AcDbEntity
  8
0
 62
     7
370
    30
100
AcDbCircle
 10
760.4975843873628
 20
543.1965959809284
 30
0.0
 40
0.435585928259961
100
AcDbArc
 50
298.1562769950122
 51
57.48532966449769
  0
LINE
  5
1282
330
2
100
AcDbEntity
  8
0
 62
     7
370
    30
100
AcDbLine
 10
756.9981249208474
 20
540.0645652588067
 30
0.0
 11
756.9981249208966
 21
539.7012275755269
 31
0.0
  0
LINE
  5
1283
330
2
100
AcDbEntity
  8
0
 62
     7
370
    30
100
AcDbLine
 10
756.9981249208966
 20
539.7012275755269
 30
0.0
 11
761.4784373258565
 21
539.701227575527
 31
0.0
  0
LINE
  5
1284
330
2
100
AcDbEntity
  8
0
 62
     7
370
    30
100
AcDbLine
 10
761.4784373258565
 20
539.701227575527
 30
0.0
 11
761.4784373258565
 21
540.0645652587926
 31
0.0
  0
ARC
  5
1285
330
2
100
AcDbEntity
  8
0
 62
     7
370
    30
100
AcDbCircle
 10
762.3112982863138
 20
542.9550761705802
 30
0.0
 40
1.617890590680016
100
AcDbArc
 50
185.0537553750897
 51
239.0171150583676
  0
LINE
  5
1286
330
2
100
AcDbEntity
  8
0
 62
     7
370
    30
100
AcDbLine
 10
761.4784373258565
 20
541.5680244109267
 30
0.0
 11
761.4784373258565
 21
541.080233605301
 31
0.0
  0
LINE
  5
1287
330
2
100
AcDbEntity
  8
0
 62
     7
370
    30
100
AcDbLine
 10
756.9981249208966
 20
541.0802336052869
 30
0.0
 11
756.9981249208966
 21
541.5680244109267
 31
0.0
  0
LINE
  5
1288
330
2
100
AcDbEntity
  8
0
 62
     7
370
    30
100
AcDbLine
 10
761.4784373258565
 20
541.5680244109267
 30
0.0
 11
756.9981249208966
 21
541.5680244109267
 31
0.0
  0
ARC
  5
1289
330
2
100
AcDbEntity
  8
0
 62
     7
370
    30
100
AcDbCircle
 10
756.163501211906
 20
542.9540161958236
 30
0.0
 40
1.617890590679964
100
AcDbArc
 50
301.0557276764
 51
354.983927846311
  0
LINE
  5
128A
330
2
100
AcDbEntity
  8
0
 62
     7
370
    30
100
AcDbLine
 10
756.9981249208966
 20
539.7012275755269
 30
0.0
 11
756.4380858702777
 21
539.4523213308072
 31
0.0
  0
LINE
  5
128B
330
2
100
AcDbEntity
  8
0
 62
     7
370
    30
100
AcDbLine
 10
756.4380858702777
 20
539.4523213308072
 30
0.0
 11
756.4380858702766
 21
536.9632588836068
 31
0.0
  0
LINE
  5
128C
330
2
100
AcDbEntity
  8
0
 62
     7
370
    30
100
AcDbLine
 10
756.4380858702766
 20
536.9632588836068
 30
0.0
 11
762.0384763764766
 21
536.9632588836068
 31
0.0
  0
LINE
  5
128D
330
2
100
AcDbEntity
  8
0
 62
     7
370
    30
100
AcDbLine
 10
762.0384763764766
 20
536.9632588836068
 30
0.0
 11
762.0384763764766
 21
539.4523213308067
 31
0.0
  0
LINE
  5
128E
330
2
100
AcDbEntity
  8
0
 62
     7
370
    30
100
AcDbLine
 10
762.0384763764766
 20
539.4523213308067
 30
0.0
 11
761.4784373258567
 21
539.7012275755269
 31
0.0
  0
POINT
  5
128F
330
2
100
AcDbEntity
  8
0
 62
     7
370
    30
100
AcDbPoint
 10
756.8353796730766
 20
536.9632588836068
 30
0.0
  0
POINT
  5
1290
330
2
100
AcDbEntity
  8
0
 62
     7
370
    30
100
AcDbPoint
 10
762.4357701792766
 20
536.9632588836068
 30
0.0
  0
ARC
  5
1291
330
2
100
AcDbEntity
  8
0
 62
     7
370
    30
100
AcDbCircle
 10
758.0620185785072
 20
560.3234221128047
 30
0.0
 40
1.212287787181585
100
AcDbArc
 50
184.1357219839219
 51
266.8143729732739
  0
LINE
  5
1292
330
2
100
AcDbEntity
  8
0
 62
     7
370
    30
100
AcDbLine
 10
756.7492186761766
 20
560.3604458872869
 30
0.0
 11
761.7273435705766
 21
560.3604458872869
 31
0.0
  0
LINE
  5
1293
330
2
100
AcDbEntity
  8
0
 62
     7
370
    30
100
AcDbLine
 10
756.8528875731653
 20
560.2359927649269
 30
0.0
 11
761.6357589086892
 21
560.2359927649269
 31
0.0
  0
LINE
  5
1294
330
2
100
AcDbEntity
  8
0
 62
     7
370
    30
100
AcDbLine
 10
759.2382811233766
 20
562.9739614568468
 30
0.0
 11
756.7492186761766
 21
562.9739614568468
 31
0.0
  0
LINE
  5
1295
330
2
100
AcDbEntity
  8
0
 62
     7
370
    30
100
AcDbLine
 10
756.7492186761766
 20
562.9739614568468
 30
0.0
 11
761.7273435705766
 21
562.9739614568468
 31
0.0
  0
LINE
  5
1296
330
2
100
AcDbEntity
  8
0
 62
     7
370
    30
100
AcDbLine
 10
756.7492186761766
 20
562.9739614568468
 30
0.0
 11
756.7492186761766
 21
560.3604458872869
 31
0.0
  0
LINE
  5
1297
330
2
100
AcDbEntity
  8
0
 62
     7
370
    30
100
AcDbLine
 10
756.7492186761766
 20
560.3604458872869
 30
0.0
 11
756.8528875731653
 21
560.2359927649269
 31
0.0
  0
LINE
  5
1298
330
2
100
AcDbEntity
  8
0
 62
     7
370
    30
100
AcDbLine
 10
761.7273435705766
 20
562.9739614568468
 30
0.0
 11
761.7273435705766
 21
560.3604458872869
 31
0.0
  0
LINE
  5
1299
330
2
100
AcDbEntity
  8
0
 62
     7
370
    30
100
AcDbLine
 10
761.7273435705766
 20
560.3604458872869
 30
0.0
 11
761.6357589086892
 21
560.2359927649269
 31
0.0
  0
ARC
  5
129A
330
2
100
AcDbEntity
  8
0
 62
     7
370
    30
100
AcDbCircle
 10
760.6072654693366
 20
557.1246647059268
 30
0.0
 40
0.5957627198174097
100
AcDbArc
 50
301.4828163698571
 51
71.03376559689633
  0
LINE
  5
129B
330
2
100
AcDbEntity
  8
0
 62
     7
370
    30
100
AcDbLine
 10
760.9183982752366
 20
556.1290397270467
 30
0.0
 11
760.7709665217927
 21
556.0668131658668
 31
0.0
  0
LINE
  5
129C
330
2
100
AcDbEntity
  8
0
 62
     7
370
    30
100
AcDbLine
 10
760.9183982752366
 20
556.1290397270467
 30
0.0
 11
760.9183982752366
 21
556.6268522164868
 31
0.0
  0
ARC
  5
129D
330
2
100
AcDbEntity
  8
0
 62
     7
370
    30
100
AcDbCircle
 10
757.8381834968265
 20
557.1246647059268
 30
0.0
 40
0.5772163287311298
100
AcDbArc
 50
109.7122663506774
 51
240.979626634231
  0
ARC
  5
129E
330
2
100
AcDbEntity
  8
0
 62
     7
370
    30
100
AcDbCircle
 10
760.8250584334665
 20
558.2447428071668
 30
0.0
 40
0.4978124894400001
100
AcDbArc
 50
131.8156234427623
 51
240.8237906552029
  0
LINE
  5
129F
330
2
100
AcDbEntity
  8
0
 62
     7
370
    30
100
AcDbLine
 10
758.0017244384304
 20
558.6181021742468
 30
0.0
 11
757.9946504869996
 21
558.6181021742468
 31
0.0
  0
LINE
  5
12A0
330
2
100
AcDbEntity
  8
0
 62
     7
370
    30
100
AcDbLine
 10
757.9946504869996
 20
559.1159146636869
 30
0.0
 11
757.9946504869996
 21
558.6181021742468
 31
0.0
  0
LINE
  5
12A1
330
2
100
AcDbEntity
  8
0
 62
     7
370
    30
100
AcDbLine
 10
760.4907868856304
 20
558.6181021742468
 30
0.0
 11
760.4907868856304
 21
559.1037610606711
 31
0.0
  0
LINE
  5
12A2
330
2
100
AcDbEntity
  8
0
 62
     7
370
    30
100
AcDbLine
 10
757.5581639715165
 20
556.1290397270467
 30
0.0
 11
757.7055957249606
 21
556.0668131658668
 31
0.0
  0
LINE
  5
12A3
330
2
100
AcDbEntity
  8
0
 62
     7
370
    30
100
AcDbLine
 10
757.5581639715165
 20
556.1290397270467
 30
0.0
 11
757.5581639715165
 21
556.6268522164868
 31
0.0
  0
LINE
  5
12A4
330
2
100
AcDbEntity
  8
0
 62
     7
370
    30
100
AcDbLine
 10
759.2382811233766
 20
556.1290397270467
 30
0.0
 11
757.5581639715165
 21
556.1290397270467
 31
0.0
  0
LINE
  5
12A5
330
2
100
AcDbEntity
  8
0
 62
     7
370
    30
100
AcDbLine
 10
758.0017244384304
 20
558.6181021742468
 30
0.0
 11
760.4907868856304
 21
558.6181021742468
 31
0.0
  0
ARC
  5
12A6
330
2
100
AcDbEntity
  8
0
 62
     7
370
    30
100
AcDbCircle
 10
760.4266279033472
 20
560.3234221128047
 30
0.0
 40
1.212287787181585
100
AcDbArc
 50
273.0337327235926
 51
355.8642780160781
  0
LINE
  5
12A7
330
2
100
AcDbEntity
  8
0
 62
     7
370
    30
100
AcDbLine
 10
757.5581639715165
 20
556.6268522164868
 30
0.0
 11
760.9183982752366
 21
556.6268522164868
 31
0.0
  0
LINE
  5
12A8
330
2
100
AcDbEntity
  8
0
 62
     7
370
    30
100
AcDbLine
 10
757.5581639715165
 20
556.1290397270467
 30
0.0
 11
760.9183982752366
 21
556.1290397270467
 31
0.0
  0
LINE
  5
12A9
330
2
100
AcDbEntity
  8
0
 62
     7
370
    30
100
AcDbLine
 10
757.7055957249606
 20
556.0668131658668
 30
0.0
 11
760.7709665217927
 21
556.0668131658668
 31
0.0
  0
POINT
  5
12AA
330
2
100
AcDbEntity
  8
0
 62
     7
370
    30
100
AcDbPoint
 10
756.7492186761766
 20
562.9739614568468
 30
0.0
  0
POINT
  5
12AB
330
2
100
AcDbEntity
  8
0
 62
     7
370
    30
100
AcDbPoint
 10
756.7492186761766
 20
562.9739614568468
 30
0.0
  0
POINT
  5
12AC
330
2
100
AcDbEntity
  8
0
 62
     7
370
    30
100
AcDbPoint
 10
761.7273435705766
 20
562.9739614568468
 30
0.0
  0
LINE
  5
12AD
330
2
100
AcDbEntity
  8
0
 62
     7
370
    30
100
AcDbLine
 10
757.5581639715165
 20
556.1290397270469
 30
0.0
 11
757.7055957249615
 21
556.0668131658665
 31
0.0
  0
LINE
  5
12AE
330
2
100
AcDbEntity
  8
0
 62
     7
370
    30
100
AcDbLine
 10
757.7055957249615
 20
556.0668131658665
 30
0.0
 11
760.770966521792
 21
556.0668131658668
 31
0.0
  0
LINE
  5
12AF
330
2
100
AcDbEntity
  8
0
 62
     7
370
    30
100
AcDbLine
 10
760.770966521792
 20
556.0668131658668
 30
0.0
 11
760.9183982752366
 21
556.1290397270469
 31
0.0
  0
LINE
  5
12B0
330
2
100
AcDbEntity
  8
0
 62
     7
370
    30
100
AcDbLine
 10
757.5581639718474
 20
556.619919467431
 30
0.0
 11
757.5581639715165
 21
556.1290397270469
 31
0.0
  0
LINE
  5
12B1
330
2
100
AcDbEntity
  8
0
 62
     7
370
    30
100
AcDbLine
 10
757.5581639715165
 20
556.1290397270469
 30
0.0
 11
760.9183982752366
 21
556.1290397270469
 31
0.0
  0
LINE
  5
12B2
330
2
100
AcDbEntity
  8
0
 62
     7
370
    30
100
AcDbLine
 10
760.9183982752366
 20
556.1290397270469
 30
0.0
 11
760.9183982752366
 21
556.6166001475862
 31
0.0
  0
LINE
  5
12B3
330
2
100
AcDbEntity
  8
0
 62
     7
370
    30
100
AcDbLine
 10
757.9946504869996
 20
559.1130076304189
 30
0.0
 11
757.9946504869996
 21
558.6181021742468
 31
0.0
  0
LINE
  5
12B4
330
2
100
AcDbEntity
  8
0
 62
     7
370
    30
100
AcDbLine
 10
757.9946504869996
 20
558.6181021742468
 30
0.0
 11
760.4907868856305
 21
558.6181021742468
 31
0.0
  0
LINE
  5
12B5
330
2
100
AcDbEntity
  8
0
 62
     7
370
    30
100
AcDbLine
 10
760.4907868856305
 20
558.6181021742468
 30
0.0
 11
760.4907868856602
 21
559.1128332875061
 31
0.0
  0
LINE
  5
12B6
330
2
100
AcDbEntity
  8
0
 62
     7
370
    30
100
AcDbLine
 10
756.7492186761766
 20
560.3604458872869
 30
0.0
 11
756.8528875731852
 21
560.2359927649029
 31
0.0
  0
LINE
  5
12B7
330
2
100
AcDbEntity
  8
0
 62
     7
370
    30
100
AcDbLine
 10
756.8528875731852
 20
560.2359927649029
 30
0.0
 11
761.6357589086892
 21
560.2359927649269
 31
0.0
  0
LINE
  5
12B8
330
2
100
AcDbEntity
  8
0
 62
     7
370
    30
100
AcDbLine
 10
761.6357589086892
 20
560.2359927649269
 30
0.0
 11
761.7273435705766
 21
560.3604458872869
 31
0.0
  0
LINE
  5
12B9
330
2
100
AcDbEntity
  8
0
 62
     7
370
    30
100
AcDbLine
 10
756.7492186761766
 20
562.9739614568468
 30
0.0
 11
756.7492186761766
 21
560.3604458872869
 31
0.0
  0
LINE
  5
12BA
330
2
100
AcDbEntity
  8
0
 62
     7
370
    30
100
AcDbLine
 10
756.7492186761766
 20
560.3604458872869
 30
0.0
 11
761.7273435705766
 21
560.3604458872869
 31
0.0
  0
LINE
  5
12BB
330
2
100
AcDbEntity
  8
0
 62
     7
370
    30
100
AcDbLine
 10
761.7273435705766
 20
560.3604458872869
 30
0.0
 11
761.7273435705766
 21
562.9739614568468
 31
0.0
  0
LINE
  5
12BC
330
2
100
AcDbEntity
  8
0
 62
     7
370
    30
100
AcDbLine
 10
761.7273435705766
 20
562.9739614568469
 30
0.0
 11
756.7492186761766
 21
562.9739614568469
 31
0.0
  0
ARC
  5
12BD
330
2
100
AcDbEntity
  8
0
 62
     7
370
    30
100
AcDbCircle
 10
758.9893748786614
 20
546.4216961829653
 30
0.0
 40
3.049101497816084
100
AcDbArc
 50
304.8499045789893
 51
20.66336951848227
  0
ARC
  5
12BE
330
2
100
AcDbEntity
  8
0
 62
     7
370
    30
100
AcDbCircle
 10
784.6267180848168
 20
554.6978288199079
 30
0.0
 40
23.89499949312021
100
AcDbArc
 50
176.7156308916362
 51
197.5372407408331
  0
ARC
  5
12BF
330
2
100
AcDbEntity
  8
0
 62
     7
370
    30
100
AcDbCircle
 10
784.6267180848164
 20
554.6978288199068
 30
0.0
 40
23.89499949311992
100
AcDbArc
 50
176.7156308916329
 51
198.2445301754376
  0
LINE
  5
12C0
330
2
100
AcDbEntity
  8
A1
 62
     7
370
    30
100
AcDbLine
 10
757.6434902713678
 20
557.6680552083415
 30
0.0
 11
757.8893867958799
 21
557.7994036320265
 31
0.0
  0
LINE
  5
12C1
330
2
100
AcDbEntity
  8
A1
 62
     7
370
    30
100
AcDbLine
 10
760.8008948376502
 20
557.6880836318165
 30
0.0
 11
760.582376259751
 21
557.8100904895575
 31
0.0
  0
LINE
  5
12C3
330
2
100
AcDbEntity
  8
A1
 62
     7
370
    30
100
AcDbLine
 10
760.4907868856304
 20
559.1037610606711
 30
0.0
 11
757.9946504869996
 21
559.1130076304079
 31
0.0
  0
INSERT
  5
1AEB
330
2
100
AcDbEntity
  8
LINEWORK
 62
     7
370
    13
100
AcDbBlockReference
 66
     1
  2
TSFORMB
 10
697.5164016425818
 20
491.6906706800191
 30
0.0
 41
1.692900000000008
 42
1.692900000000008
 43
1.6929
  0
ATTRIB
  5
1AEC
330
1AEB
100
AcDbEntity
  8
A1
 62
     1
100
AcDbText
 10
759.1405253246659
 20
493.2421866976308
 30
0.0
 40
1.73622063384
  1
BALUSTRADE
 72
     1
 11
767.3657321474181
 21
493.2421866976308
 31
0.0
100
AcDbAttribute
  2
XXXXXX
 70
     0
  0
ATTRIB
  5
1AED
330
1AEB
100
AcDbEntity
  8
A1
 62
     1
100
AcDbText
 10
726.20214483982
 20
494.8648898441996
 30
0.0
 40
1.422036
  1
TSB010
 72
     2
 11
734.0046981438597
 21
494.8648898441996
 31
0.0
100
AcDbAttribute
  2
XXXXXX
 70
     0
  0
ATTRIB
  5
1AEE
330
1AEB
100
AcDbEntity
  8
A1
 62
     1
100
AcDbText
 10
709.0223136505717
 20
496.9690699083243
 30
0.0
 40
10.3808628
  1
TSB010
  7
barcoder
 72
     1
 11
719.2734156655717
 21
496.9690699083243
 31
0.0
100
AcDbAttribute
  2
BARCODE
 70
     0
  0
ATTRIB
  5
1AEF
330
1AEB
100
AcDbEntity
  8
A1
 62
     1
100
AcDbText
 10
855.8013165465984
 20
615.9495583292208
 30
0.0
 40
3.519539100000001
  1
TSB010
 72
     1
 11
865.4569762603477
 21
615.9495583292208
 31
0.0
100
AcDbAttribute
  2
TS00XX
 70
     0
  0
ATTRIB
  5
1AF0
330
1AEB
100
AcDbEntity
  8
A1
 62
     1
100
AcDbText
 10
868.7972068487598
 20
508.7534172546314
 30
0.0
 40
1.5997905
  1

 72
     1
 11
868.7972068487598
 21
508.7534172546314
 31
0.0
100
AcDbAttribute
  2
XXXXX
 70
     0
  0
ATTRIB
  5
1AF1
330
1AEB
100
AcDbEntity
  8
A1
 62
     1
100
AcDbText
 10
868.73936541127
 20
503.9126276022225
 30
0.0
 40
1.5997905
  1

 72
     1
 11
868.73936541127
 21
503.9126276022225
 31
0.0
100
AcDbAttribute
  2
XXXXX
 70
     0
  0
SEQEND
  5
1AF2
330
1AEB
100
AcDbEntity
  8
LINEWORK
 62
     7
  0
LINE
  5
1EED
330
2
100
AcDbEntity
  8
leaders
 62
     1
370
    30
100
AcDbLine
 10
807.6246821653539
 20
607.8165193311524
 30
0.0
 11
850.358944571184
 21
607.8165193311524
 31
0.0
  0
MTEXT
  5
1EEE
330
2
100
AcDbEntity
  8
leaders
 62
     1
370
    30
100
AcDbMText
 10
824.8469641494247
 20
602.1715206882605
 30
0.0
 40
2.216024999999999
 41
0.0
 71
     1
 72
     1
  1
1-800-789-4841
 73
     1
 44
1.0
1001
ACAD
1000
MTEXTBEGIN
1070
    73
1070
     1
1070
    44
1040
1.0
1070
    74
1070
     0
1000
MTEXTEND
1000
MTEXTBEGIN
1070
    73
1070
     1
1070
    44
1040
1.0
1070
    74
1070
     0
1000
MTEXTEND
1000
MTEXTBEGIN
1070
    73
1070
     1
1070
    44
1040
1.0
1070
    74
1070
     0
1000
MTEXTEND
1000
MTEXTBEGIN
1070
    73
1070
     1
1070
    44
1040
1.0
1070
    74
1070
     0
1000
MTEXTEND
1000
MTEXTBEGIN
1070
    73
1070
     1
1070
    44
1040
1.0
1070
    74
1070
     0
1000
MTEXTEND
1000
MTEXTBEGIN
1070
    73
1070
     1
1070
    44
1040
1.0
1070
    74
1070
     0
1000
MTEXTEND
  0
MTEXT
  5
1EEF
330
2
100
AcDbEntity
  8
leaders
 62
     1
370
    30
100
AcDbMText
 10
824.6137369273796
 20
606.723000887244
 30
0.0
 40
3.0
 41
0.0
 71
     1
 72
     1
  1
TannerStone
 73
     1
 44
1.0
1001
ACAD
1000
MTEXTBEGIN
1070
    73
1070
     1
1070
    44
1040
1.0
1070
    74
1070
     0
1000
MTEXTEND
1000
MTEXTBEGIN
1070
    73
1070
     1
1070
    44
1040
1.0
1070
    74
1070
     0
1000
MTEXTEND
1000
MTEXTBEGIN
1070
    73
1070
     1
1070
    44
1040
1.0
1070
    74
1070
     0
1000
MTEXTEND
1000
MTEXTBEGIN
1070
    73
1070
     1
1070
    44
1040
1.0
1070
    74
1070
     0
1000
MTEXTEND
1000
MTEXTBEGIN
1070
    73
1070
     1
1070
    44
1040
1.0
1070
    74
1070
     0
1000
MTEXTEND
1000
MTEXTBEGIN
1070
    73
1070
     1
1070
    44
1040
1.0
1070
    74
1070
     0
1000
MTEXTEND
  0
ATTDEF
  5
1EF0
330
2
100
AcDbEntity
  8
leaders
 62
     1
370
    30
100
AcDbText
 10
824.4972393344545
 20
608.9648265547883
 30
0.0
 40
3.0
  1

100
AcDbAttributeDefinition
  3
ADD LINK NUMBER (WMF)
  2
TSB010
 70
     0
  0
LINE
  5
1EF1
330
2
100
AcDbEntity
  8
leaders
 62
     1
370
    30
100
AcDbLine
 10
823.0367482872212
 20
598.8531866758255
 30
0.0
 11
823.0367482872212
 21
612.5165479643039
 31
0.0
  0
INSERT
  5
1EFA
330
2
100
AcDbEntity
  8
ASHADE
 62
     1
370
    13
100
AcDbBlockReference
  2
AVE_RENDER
 10
777.0222907209789
 20
614.0526601250773
 30
0.0
1001
AVE_RENDER
1002
{
1070
     7
1000
Pref
1070
    30
1070
    20
1070
     1
1070
     0
1000

1070
    10
1070
     1
1070
    10
1040
1.0
1070
     1
1040
0.3
1040
0.7
1040
0.0
1040
10.0
1010
-1.0
1020
-1.0
1030
-1.0
1040
0.3
1070
    49
1070
     0
1070
     0
1010
1.0
1020
1.0
1030
1.0
1040
45.0
1070
     1
1070
     0
1000
WCS
1040
0.0
1070
     0
1040
10.0
1002
}
  0
INSERT
  5
1EFB
330
2
100
AcDbEntity
  8
ASHADE
 62
     3
370
    13
100
AcDbBlockReference
  2
AVE_RENDER
 10
777.0222907209789
 20
614.0526601250773
 30
0.0
1001
AVE_RENDER
1002
{
1070
     0
1000
Full Opt
1070
     0
1070
     1
1070
     1
1070
     1
1070
     0
1070
     0
1070
     0
1070
     1
1070
     1
1040
0.0001
1040
0.0001
1002
}
  0
INSERT
  5
1EFC
330
2
100
AcDbEntity
  8
ASHADE
 62
     4
370
    13
100
AcDbBlockReference
  2
AVE_RENDER
 10
777.0222907209789
 20
614.0526601250773
 30
0.0
1001
AVE_RENDER
1002
{
1070
     0
1000
Quick Opt
1070
     0
1070
     1
1070
     1
1070
     1
1070
     0
1070
     0
1070
     1
1002
}
  0
INSERT
  5
1EFD
330
2
100
AcDbEntity
  8
ASHADE
 62
     5
370
    13
100
AcDbBlockReference
  2
AVE_RENDER
 10
777.0222907209789
 20
614.0526601250773
 30
0.0
1001
AVE_RENDER
1002
{
1070
     1
1000
Scanl Opt
1070
     2
1070
     0
1070
     2
1040
2.0
1040
4.0
1070
     0
1070
     1
1070
     0
1040
0.03
1002
}
  0
INSERT
  5
1EFE
330
2
100
AcDbEntity
  8
ASHADE
 62
     6
370
    13
100
AcDbBlockReference
  2
AVE_RENDER
 10
777.0222907209789
 20
614.0526601250773
 30
0.0
1001
AVE_RENDER
1002
{
1070
     2
1000
Raytr Opt
1070
     2
1070
     0
1070
     2
1040
2.0
1040
4.0
1070
     0
1070
     1
1070
     1
1040
0.03
1070
     3
1040
0.03
1002
}
  0
INSERT
  5
1EFF
330
2
100
AcDbEntity
  8
ASHADE
 62
     7
370
    13
100
AcDbBlockReference
  2
AVE_RENDER
 10
777.0222907209789
 20
614.0526601250773
 30
0.0
1001
AVE_RENDER
1002
{
1070
     0
1000
RFile Opt
1070
     1
1070
   640
1070
   480
1070
 10000
1070
     1
1070
     8
1070
     8
1070
     0
1070
     0
1070
     0
1070
     0
1070
     0
1070
     0
1070
     0
1002
}
  0
INSERT
  5
1F00
330
2
100
AcDbEntity
  8
ASHADE
 62
     8
370
    13
100
AcDbBlockReference
  2
AVE_RENDER
 10
777.0222907209789
 20
614.0526601250773
 30
0.0
1001
AVE_RENDER
1002
{
1070
     0
1000
Fog Opt
1070
     0
1070
     0
1040
0.0
1040
1.0
1040
0.0
1040
1.0
1010
0.5
1020
0.5
1030
0.5
1002
}
  0
INSERT
  5
1F01
330
2
100
AcDbEntity
  8
ASHADE
 62
     9
370
    13
100
AcDbBlockReference
  2
AVE_RENDER
 10
777.0222907209789
 20
614.0526601250773
 30
0.0
1001
AVE_RENDER
1002
{
1070
     0
1000
BG Opt
1070
     0
1070
     1
1010
0.0
1020
0.0
1030
0.0
1010
1.0
1020
0.0
1030
0.0
1010
0.0
1020
1.0
1030
0.0
1010
0.0
1020
0.0
1030
1.0
1040
0.5
1040
0.33
1040
0.0
1000

1070
     1
1000

1070
     1
1070
     1
1040
1.0
1040
1.0
1040
0.0
1040
0.0
1070
     0
1002
}
  0
INSERT
  5
1F02
330
2
100
AcDbEntity
  8
ASHADE
 62
     1
370
    13
100
AcDbBlockReference
  2
AVE_GLOBAL
 10
777.0222907209789
 20
614.0526601250773
 30
0.0
1001
AVE_MATERIAL
1002
{
1000
*GLOBAL*
1000
1
1000
Global finish.
1002
{
1002
}
1002
{
1070
    63
1002
{
1002
{
1010
-1.0
1020
-1.0
1030
-1.0
1002
}
1040
0.1000000014901161
1000

1040
0.0
1002
{
1002
}
1040
0.0
1002
{
1002
}
1040
0.0
1002
}
1002
{
1002
{
1010
-1.0
1020
-1.0
1030
-1.0
1002
}
1040
0.6999999880790711
1000

1040
0.0
1002
{
1002
}
1040
0.0
1002
{
1002
}
1040
0.0
1002
}
1002
{
1002
{
1010
-1.0
1020
-1.0
1030
-1.0
1002
}
1040
0.2000000029802322
1000

1040
0.0
1002
{
1002
}
1040
0.0
1002
{
1002
}
1040
0.0
1002
}
1002
{
1070
     0
1002
{
1070
     1
1002
{
1040
1.0
1040
1.0
1000

1040
0.0
1002
{
1002
}
1040
0.0
1002
{
1002
}
1040
0.0
1002
}
1002
}
1040
1.0
1040
0.0
1040
0.0
1002
}
1002
{
1040
1.0
1040
1.0
1000

1040
0.0
1002
{
1002
}
1040
0.0
1002
{
1002
}
1040
0.0
1002
}
1002
{
1040
0.5
1040
1.0
1000

1040
0.0
1002
{
1002
}
1040
0.0
1002
{
1002
}
1040
0.0
1002
}
1002
{
1070
     0
1040
0.0
1002
{
1002
}
1040
1.0
1002
{
1002
}
1040
0.0
1002
}
1002
{
1040
0.0
1002
{
1002
{
1010
0.0
1020
0.0
1030
0.0
1002
}
1040
1.0
1000

1040
0.0
1002
{
1002
}
1040
0.0
1002
{
1002
}
1040
0.0
1002
}
1002
}
1002
{
1002
{
1070
     1
1002
{
1040
0.0
1040
1.0
1000

1040
0.0
1002
{
1002
}
1040
0.0
1002
{
1002
}
1040
0.0
1002
}
1002
}
1040
0.0
1002
{
1002
}
1010
1.0
1020
0.0
1030
0.0
1010
0.0
1020
1.0
1030
0.0
1010
0.0
1020
0.0
1030
1.0
1070
     0
1002
}
1002
{
1002
{
1040
1.0
1040
1.0
1002
{
1070
     1
1002
{
1040
1.0
1040
1.0
1000

1040
0.0
1002
{
1002
}
1040
0.0
1002
{
1002
}
1040
0.0
1002
}
1002
}
1002
}
1070
     0
1040
0.0
1002
{
1002
}
1002
}
1002
{
1002
}
1002
}
1002
{
1071
        3
1070
     3
1070
     0
1002
{
1070
     2
1070
     0
1070
     0
1040
0.0
1002
}
1070
     0
1070
     2
1002
{
1002
}
1002
}
1002
{
1040
8030.0
1040
190.3000030517578
1040
0.3050000071525574
1040
228.0
1040
545.0
1040
14.0
1040
17.39999961853027
1040
0.4560000002384186
1002
}
1002
}
  0
INSERT
  5
1F03
330
2
100
AcDbEntity
  8
ASHADE
 62
     1
370
    13
100
AcDbBlockReference
  2
AVE_RENDER
 10
776.9365617735295
 20
558.1891250194237
 30
0.0
1001
AVE_RENDER
1002
{
1070
     7
1000
Pref
1070
    60
1070
    20
1070
     1
1070
     0
1000

1070
    10
1070
     1
1070
    10
1040
1.0
1070
     1
1040
0.3
1040
0.7
1040
0.0
1040
10.0
1010
-1.0
1020
-1.0
1030
-1.0
1040
0.3
1070
    49
1070
     0
1070
     0
1010
1.0
1020
1.0
1030
1.0
1040
45.0
1070
     1
1070
     0
1000
WCS
1040
0.0
1070
     0
1040
10.0
1002
}
  0
INSERT
  5
1F04
330
2
100
AcDbEntity
  8
ASHADE
 62
     3
370
    13
100
AcDbBlockReference
  2
AVE_RENDER
 10
776.9365617735295
 20
558.1891250194237
 30
0.0
1001
AVE_RENDER
1002
{
1070
     0
1000
Full Opt
1070
     0
1070
     1
1070
     1
1070
     1
1070
     0
1070
     0
1070
     0
1070
     1
1070
     1
1040
0.0001
1040
0.0001
1002
}
  0
INSERT
  5
1F05
330
2
100
AcDbEntity
  8
ASHADE
 62
     4
370
    13
100
AcDbBlockReference
  2
AVE_RENDER
 10
776.9365617735295
 20
558.1891250194237
 30
0.0
1001
AVE_RENDER
1002
{
1070
     0
1000
Quick Opt
1070
     0
1070
     1
1070
     1
1070
     1
1070
     0
1070
     0
1070
     1
1002
}
  0
INSERT
  5
1F06
330
2
100
AcDbEntity
  8
ASHADE
 62
     5
370
    13
100
AcDbBlockReference
  2
AVE_RENDER
 10
776.9365617735295
 20
558.1891250194237
 30
0.0
1001
AVE_RENDER
1002
{
1070
     1
1000
Scanl Opt
1070
     2
1070
     0
1070
     2
1040
2.0
1040
4.0
1070
     0
1070
     1
1070
     0
1040
0.03
1002
}
  0
INSERT
  5
1F07
330
2
100
AcDbEntity
  8
ASHADE
 62
     6
370
    13
100
AcDbBlockReference
  2
AVE_RENDER
 10
776.9365617735295
 20
558.1891250194237
 30
0.0
1001
AVE_RENDER
1002
{
1070
     2
1000
Raytr Opt
1070
     2
1070
     0
1070
     2
1040
2.0
1040
4.0
1070
     0
1070
     1
1070
     1
1040
0.03
1070
     3
1040
0.03
1002
}
  0
INSERT
  5
1F08
330
2
100
AcDbEntity
  8
ASHADE
 62
     7
370
    13
100
AcDbBlockReference
  2
AVE_RENDER
 10
776.9365617735295
 20
558.1891250194237
 30
0.0
1001
AVE_RENDER
1002
{
1070
     0
1000
RFile Opt
1070
     1
1070
   640
1070
   480
1070
 10000
1070
     1
1070
     8
1070
     8
1070
     0
1070
     0
1070
     0
1070
     0
1070
     0
1070
     0
1070
     0
1002
}
  0
INSERT
  5
1F09
330
2
100
AcDbEntity
  8
ASHADE
 62
     8
370
    13
100
AcDbBlockReference
  2
AVE_RENDER
 10
776.9365617735295
 20
558.1891250194237
 30
0.0
1001
AVE_RENDER
1002
{
1070
     0
1000
Fog Opt
1070
     0
1070
     0
1040
0.0
1040
1.0
1040
0.0
1040
1.0
1010
0.5
1020
0.5
1030
0.5
1002
}
  0
INSERT
  5
1F0A
330
2
100
AcDbEntity
  8
ASHADE
 62
     9
370
    13
100
AcDbBlockReference
  2
AVE_RENDER
 10
776.9365617735295
 20
558.1891250194237
 30
0.0
1001
AVE_RENDER
1002
{
1070
     0
1000
BG Opt
1070
     0
1070
     1
1010
0.0
1020
0.0
1030
0.0
1010
1.0
1020
0.0
1030
0.0
1010
0.0
1020
1.0
1030
0.0
1010
0.0
1020
0.0
1030
1.0
1040
0.5
1040
0.33
1040
0.0
1000

1070
     1
1000

1070
     1
1070
     1
1040
1.0
1040
1.0
1040
0.0
1040
0.0
1070
     0
1002
}
  0
INSERT
  5
1F0B
330
2
100
AcDbEntity
  8
ASHADE
 62
     1
370
    13
100
AcDbBlockReference
  2
AVE_GLOBAL
 10
776.9365617735295
 20
558.1891250194237
 30
0.0
1001
AVE_MATERIAL
1002
{
1000
*GLOBAL*
1000
1
1000
Global finish.
1002
{
1002
}
1002
{
1070
    63
1002
{
1002
{
1010
-1.0
1020
-1.0
1030
-1.0
1002
}
1040
0.1000000014901161
1000

1040
0.0
1002
{
1002
}
1040
0.0
1002
{
1002
}
1040
0.0
1002
}
1002
{
1002
{
1010
-1.0
1020
-1.0
1030
-1.0
1002
}
1040
0.6999999880790711
1000

1040
0.0
1002
{
1002
}
1040
0.0
1002
{
1002
}
1040
0.0
1002
}
1002
{
1002
{
1010
-1.0
1020
-1.0
1030
-1.0
1002
}
1040
0.2000000029802322
1000

1040
0.0
1002
{
1002
}
1040
0.0
1002
{
1002
}
1040
0.0
1002
}
1002
{
1070
     0
1002
{
1070
     1
1002
{
1040
1.0
1040
1.0
1000

1040
0.0
1002
{
1002
}
1040
0.0
1002
{
1002
}
1040
0.0
1002
}
1002
}
1040
1.0
1040
0.0
1040
0.0
1002
}
1002
{
1040
1.0
1040
1.0
1000

1040
0.0
1002
{
1002
}
1040
0.0
1002
{
1002
}
1040
0.0
1002
}
1002
{
1040
0.5
1040
1.0
1000

1040
0.0
1002
{
1002
}
1040
0.0
1002
{
1002
}
1040
0.0
1002
}
1002
{
1070
     0
1040
0.0
1002
{
1002
}
1040
1.0
1002
{
1002
}
1040
0.0
1002
}
1002
{
1040
0.0
1002
{
1002
{
1010
0.0
1020
0.0
1030
0.0
1002
}
1040
1.0
1000

1040
0.0
1002
{
1002
}
1040
0.0
1002
{
1002
}
1040
0.0
1002
}
1002
}
1002
{
1002
{
1070
     1
1002
{
1040
0.0
1040
1.0
1000

1040
0.0
1002
{
1002
}
1040
0.0
1002
{
1002
}
1040
0.0
1002
}
1002
}
1040
0.0
1002
{
1002
}
1010
1.0
1020
0.0
1030
0.0
1010
0.0
1020
1.0
1030
0.0
1010
0.0
1020
0.0
1030
1.0
1070
     0
1002
}
1002
{
1002
{
1040
1.0
1040
1.0
1002
{
1070
     1
1002
{
1040
1.0
1040
1.0
1000

1040
0.0
1002
{
1002
}
1040
0.0
1002
{
1002
}
1040
0.0
1002
}
1002
}
1002
}
1070
     0
1040
0.0
1002
{
1002
}
1002
}
1002
{
1002
}
1002
}
1002
{
1071
        3
1070
     3
1070
     0
1002
{
1070
     2
1070
     0
1070
     0
1040
0.0
1002
}
1070
     0
1070
     2
1002
{
1002
}
1002
}
1002
{
1040
8030.0
1040
190.3000030517578
1040
0.3050000071525574
1040
228.0
1040
545.0
1040
14.0
1040
17.39999961853027
1040
0.4560000002384186
1002
}
1002
}
  0
DIMENSION
  5
1F11
330
2
100
AcDbEntity
  8
DIM
 62
     7
370
    30
100
AcDbDimension
  2
*D4
 10
833.113250545807
 20
541.6353379336874
 30
0.0
 11
852.6124282052455
 21
541.6353379336874
 31
0.0
 70
   160
 71
     5
 42
-1.0
  3
STANDARD
100
AcDbAlignedDimension
 13
840.737250545807
 23
550.3328359901664
 33
0.0
 14
833.113250545807
 24
550.3328359901663
 34
0.0
100
AcDbRotatedDimension
1001
ACAD
1000
DSTYLE
1002
{
1070
   287
1070
     4
1070
   287
1070
     4
1070
   287
1070
     4
1070
   287
1070
     4
1070
   287
1070
     4
1070
    40
1040
2.399999999999999
1070
    73
1070
     1
1070
    74
1070
     1
1070
    77
1070
     0
1070
   147
1040
0.5
1070
   279
1070
     1
1070
   288
1070
     1
1070
   289
1070
     3
1002
}
  0
LINE
  5
1F14
330
2
100
AcDbEntity
  8
LINEWORK
  6
PHANTOM
 62
     7
 48
2.0
370
    30
100
AcDbLine
 10
842.9252505458077
 20
549.9578359901666
 30
0.0
 11
830.9252505458067
 21
549.9578359901662
 31
0.0
  0
LINE
  5
1F15
330
2
100
AcDbEntity
  8
LINEWORK
 62
     7
370
    30
100
AcDbLine
 10
833.113250545807
 20
550.3328359901663
 30
0.0
 11
840.737250545807
 21
550.3328359901664
 31
0.0
  0
LINE
  5
1F16
330
2
100
AcDbEntity
  8
LINEWORK
 62
     7
370
    30
100
AcDbLine
 10
840.2372505458069
 20
554.8328359901664
 30
0.0
 11
833.6132505458072
 21
554.8328359901663
 31
0.0
  0
INSERT
  5
1F17
330
2
100
AcDbEntity
  8
A1
 62
     7
370
    30
100
AcDbBlockReference
 66
     1
  2
PROFILE LOGO
 10
833.3172048606629
 20
552.2797981641282
 30
0.0
 41
0.7000000000000455
 42
0.7000000000000455
 43
0.7
  0
ATTRIB
  5
1F18
330
1F17
100
AcDbEntity
  8
A1
 62
    22
100
AcDbText
 10
833.4870002025962
 20
551.1049893898936
 30
0.0
 40
0.14888671875
  1
054M
 72
     1
 11
833.7918961443595
 21
551.1049893898936
 31
0.0
100
AcDbAttribute
  2
XXXX
 70
     0
  0
SEQEND
  5
1F19
330
1F17
100
AcDbEntity
  8
A1
 62
     7
  0
LINE
  5
1F1F
330
2
100
AcDbEntity
  8
LINEWORK
 62
     7
370
    30
100
AcDbLine
 10
833.1132505458072
 20
554.3328359901663
 30
0.0
 11
833.113250545807
 21
550.3328359901662
 31
0.0
  0
LINE
  5
1F22
330
2
100
AcDbEntity
  8
LINEWORK
 62
     7
370
    30
100
AcDbLine
 10
833.6132505458072
 20
554.8328359901663
 30
0.0
 11
833.1132505458072
 21
554.3328359901663
 31
0.0
  0
LINE
  5
1F23
330
2
100
AcDbEntity
  8
LINEWORK
 62
     7
370
    30
100
AcDbLine
 10
840.7372505458068
 20
554.3328359901664
 30
0.0
 11
840.737250545807
 21
550.3328359901664
 31
0.0
  0
LINE
  5
1F24
330
2
100
AcDbEntity
  8
LINEWORK
  6
DASHED
 62
     7
 48
2.0
370
    30
100
AcDbLine
 10
836.6752505458071
 20
557.0178359901664
 30
0.0
 11
836.6752505458071
 21
553.0178359901664
 31
0.0
  0
LINE
  5
1F25
330
2
100
AcDbEntity
  8
LINEWORK
  6
DASHED
 62
     7
 48
2.0
370
    30
100
AcDbLine
 10
837.1752505458072
 20
553.0178359901664
 30
0.0
 11
837.1752505458072
 21
557.0178359901664
 31
0.0
  0
LINE
  5
1F26
330
2
100
AcDbEntity
  8
LINEWORK
  6
DASHED
 62
     7
 48
2.0
370
    30
100
AcDbLine
 10
836.6752505458071
 20
553.0178359901664
 30
0.0
 11
837.1752505458072
 21
553.0178359901664
 31
0.0
  0
LINE
  5
1F37
330
2
100
AcDbEntity
  8
LINEWORK
 62
     7
370
    30
100
AcDbLine
 10
840.2372505458069
 20
554.8328359901664
 30
0.0
 11
840.7372505458068
 21
554.3328359901664
 31
0.0
  0
LINE
  5
1F3C
330
2
100
AcDbEntity
  8
A1
  6
PHANTOM
 62
     7
 48
4.0
370
    30
100
AcDbLine
 10
830.9818759339245
 20
586.2578359901663
 30
0.0
 11
842.8686251576891
 21
586.2578359901663
 31
0.0
  0
ARC
  5
1F3D
330
2
100
AcDbEntity
  8
A1
370
    30
100
AcDbCircle
 10
840.8502505458073
 20
581.582835990166
 30
0.0
 40
0.5500000000002502
100
AcDbArc
 50
89.99999999997395
 51
179.9999999999739
  0
LINE
  5
1F3E
330
2
100
AcDbEntity
  8
LINEWORK
  6
DASHED
 62
     7
 48
2.0
370
    30
100
AcDbLine
 10
836.6752505458071
 20
579.3978359901676
 30
0.0
 11
836.6752505458071
 21
583.3978359901676
 31
0.0
  0
LINE
  5
1F3F
330
2
100
AcDbEntity
  8
LINEWORK
  6
DASHED
 62
     7
 48
2.0
370
    30
100
AcDbLine
 10
837.1752505458072
 20
583.3978359901676
 30
0.0
 11
837.1752505458072
 21
579.3978359901676
 31
0.0
  0
LINE
  5
1FA1
330
2
100
AcDbEntity
  8
LINEWORK
 62
     7
370
    30
100
AcDbLine
 10
840.3002505458072
 20
581.5828359901662
 30
0.0
 11
833.5502505458071
 21
581.582835990166
 31
0.0
  0
LINE
  5
1FA3
330
2
100
AcDbEntity
  8
LINEWORK
 62
     7
370
    30
100
AcDbLine
 10
830.8002505458102
 20
584.4703359901662
 30
0.0
 11
830.7818789571031
 21
585.4328359901662
 31
0.0
  0
ARC
  5
1FA4
330
2
100
AcDbEntity
  8
A1
370
    30
100
AcDbCircle
 10
832.5133565261721
 20
583.980674172229
 30
0.0
 40
1.299371506374636
100
AcDbArc
 50
185.701547859386
 51
267.2162470626178
  0
ARC
  5
1FA5
330
2
100
AcDbEntity
  8
A1
370
    30
100
AcDbCircle
 10
830.4299600419041
 20
583.7668591140043
 30
0.0
 40
0.7949809888151388
100
AcDbArc
 50
6.118045468729476
 51
62.23893912947128
  0
ARC
  5
1FA6
330
2
100
AcDbEntity
  8
A1
370
    30
100
AcDbCircle
 10
833.0002505458068
 20
581.582835990166
 30
0.0
 40
0.5500000000002502
100
AcDbArc
 50
0.0000000000260551
 51
90.00000000002605
  0
INSERT
  5
1FA7
330
2
100
AcDbEntity
  8
A1
 62
     7
370
    30
100
AcDbBlockReference
 66
     1
  2
PROFILE LOGO
 10
831.9302175016515
 20
584.2227507616524
 30
0.0
 41
0.7150000000000319
 42
0.7150000000000319
 43
0.715000000000001
  0
ATTRIB
  5
1FA8
330
1FA7
100
AcDbEntity
  8
A1
 62
    22
100
AcDbText
 10
832.1336679600166
 20
583.0227675136844
 30
0.0
 40
0.1520771484375002
  1
0175
 72
     1
 11
832.4150807414273
 21
583.0227675136844
 31
0.0
100
AcDbAttribute
  2
XXXX
 70
     0
  0
SEQEND
  5
1FA9
330
1FA7
100
AcDbEntity
  8
A1
 62
     7
  0
LINE
  5
1FAA
330
2
100
AcDbEntity
  8
LINEWORK
 62
     7
370
    30
100
AcDbLine
 10
833.0002505458066
 20
582.1328359901663
 30
0.0
 11
832.4502505458067
 21
582.1328359901663
 31
0.0
  0
LINE
  5
1FAB
330
2
100
AcDbEntity
  8
A1
370
    30
100
AcDbLine
 10
832.4502505458067
 20
582.1328359901663
 30
0.0
 11
832.4502505458067
 21
582.6828359901663
 31
0.0
  0
LINE
  5
1FAF
330
2
100
AcDbEntity
  8
LINEWORK
  6
DASHED
 62
     7
 48
2.0
370
    30
100
AcDbLine
 10
836.6752505458071
 20
583.3978359901676
 30
0.0
 11
837.1752505458072
 21
583.3978359901676
 31
0.0
  0
LINE
  5
1FB1
330
2
100
AcDbEntity
  8
LINEWORK
 62
     7
370
    30
100
AcDbLine
 10
843.0502505458042
 20
584.4703359901662
 30
0.0
 11
843.0686221345112
 21
585.4328359901662
 31
0.0
  0
ARC
  5
1FB2
330
2
100
AcDbEntity
  8
A1
370
    30
100
AcDbCircle
 10
841.3371445654423
 20
583.980674172229
 30
0.0
 40
1.299371506374636
100
AcDbArc
 50
272.7837529373822
 51
354.2984521406139
  0
LINE
  5
1FB3
330
2
100
AcDbEntity
  8
LINEWORK
 62
     7
370
    30
100
AcDbLine
 10
841.4002505458077
 20
582.1328359901663
 30
0.0
 11
840.8502505458077
 21
582.1328359901663
 31
0.0
  0
LINE
  5
1FB4
330
2
100
AcDbEntity
  8
A1
370
    30
100
AcDbLine
 10
841.4002505458077
 20
582.1328359901663
 30
0.0
 11
841.4002505458077
 21
582.6828359901663
 31
0.0
  0
ARC
  5
1FB5
330
2
100
AcDbEntity
  8
A1
370
    30
100
AcDbCircle
 10
843.4205410497103
 20
583.7668591140043
 30
0.0
 40
0.7949809888151388
100
AcDbArc
 50
117.7610608705287
 51
173.8819545312705
  0
LINE
  5
1FB8
330
2
100
AcDbEntity
  8
LINEWORK
 62
     7
370
    30
100
AcDbLine
 10
836.9252505458073
 20
585.8828359901663
 30
0.0
 11
830.7818789571031
 21
585.4328359901662
 31
0.0
  0
LINE
  5
1FB9
330
2
100
AcDbEntity
  8
LINEWORK
 62
     7
370
    30
100
AcDbLine
 10
836.9252505458073
 20
585.8828359901663
 30
0.0
 11
843.0686221345112
 21
585.4328359901662
 31
0.0
  0
DIMENSION
  5
1FBA
330
2
100
AcDbEntity
  8
LINEWORK
 62
     7
370
    30
100
AcDbDimension
  2
*D5
 10
843.0686221345112
 20
592.7052054547443
 30
0.0
 11
855.3232324345456
 21
592.7052054547443
 31
0.0
 70
   160
  1
12 1/4"
 71
     5
 42
-1.0
  3
STANDARD
100
AcDbAlignedDimension
 13
830.7818789571031
 23
585.4328359901662
 33
0.0
 14
843.0686221345112
 24
585.4328359901662
 34
0.0
100
AcDbRotatedDimension
1001
ACAD
1000
DSTYLE
1002
{
1070
   287
1070
     4
1070
   287
1070
     4
1070
   287
1070
     4
1070
   287
1070
     4
1070
    40
1040
2.399999999999999
1070
    73
1070
     1
1070
    74
1070
     1
1070
    77
1070
     0
1070
   147
1040
0.5
1070
   279
1070
     1
1070
   288
1070
     1
1070
   289
1070
     3
1002
}
  0
LINE
  5
205C
330
2
100
AcDbEntity
  8
leaders
 62
     1
370
    30
100
AcDbLine
 10
756.7103764228014
 20
537.2994105777289
 30
0.0
 11
745.5851476979569
 21
526.4560080459502
 31
0.0
  0
ATTDEF
  5
205D
330
2
100
AcDbEntity
  8
leaders
 62
     1
370
    30
100
AcDbText
 10
709.7729112608184
 20
525.3023692367281
 30
0.0
 40
2.879999999999999
  1

100
AcDbAttributeDefinition
  3
ADD LINK NUMBER (WMF)
  2
TS0994
 70
     0
  0
LINE
  5
205E
330
2
100
AcDbEntity
  8
leaders
 62
     1
370
    30
100
AcDbLine
 10
727.142157094574
 20
526.4560080459502
 30
0.0
 11
745.5851476979569
 21
526.4560080459502
 31
0.0
  0
LINE
  5
205F
330
2
100
AcDbEntity
  8
leaders
 62
     1
370
    30
100
AcDbLine
 10
727.142157094574
 20
524.1999943020377
 30
0.0
 11
727.142157094574
 21
528.712021789863
 31
0.0
  0
ATTDEF
  5
2060
330
2
100
AcDbEntity
  8
leaders
 62
     1
370
    30
100
AcDbText
 10
709.3590360855987
 20
598.1993017356426
 30
0.0
 40
2.879999999999999
  1

100
AcDbAttributeDefinition
  3
ADD LINK NUMBER (WMF)
  2
TS0996
 70
     0
  0
ATTDEF
  5
2061
330
2
100
AcDbEntity
  8
leaders
 62
     1
370
    30
100
AcDbText
 10
709.353771540813
 20
570.8691073023134
 30
0.0
 40
2.879999999999999
  1

100
AcDbAttributeDefinition
  3
ADD LINK NUMBER (WMF)
  2
TS1157
 70
     0
  0
ATTDEF
  5
2062
330
2
100
AcDbEntity
  8
leaders
 62
     1
370
    30
100
AcDbText
 10
709.5236848631226
 20
556.4113866458065
 30
0.0
 40
2.879999999999999
  1

100
AcDbAttributeDefinition
  3
ADD LINK NUMBER (WMF)
  2
TS1618
 70
     0
  0
ATTDEF
  5
2063
330
2
100
AcDbEntity
  8
leaders
 62
     1
370
    30
100
AcDbText
 10
709.3590360855987
 20
584.7808719003603
 30
0.0
 40
2.879999999999999
  1

100
AcDbAttributeDefinition
  3
ADD LINK NUMBER (WMF)
  2
TS0175
 70
     0
  0
ATTDEF
  5
2064
330
2
100
AcDbEntity
  8
leaders
 62
     1
370
    30
100
AcDbText
 10
708.8968260361074
 20
542.0254928542968
 30
0.0
 40
2.879999999999999
  1

100
AcDbAttributeDefinition
  3
ADD LINK NUMBER (WMF)
  2
TS054M
 70
     0
  0
LINE
  5
2065
330
2
100
AcDbEntity
  8
leaders
 62
     1
370
    30
100
AcDbLine
 10
726.7282819193543
 20
583.6784969656698
 30
0.0
 11
726.7282819193543
 21
588.1905244534952
 31
0.0
  0
LINE
  5
2066
330
2
100
AcDbEntity
  8
LINEWORK
 62
     7
370
    30
100
AcDbLine
 10
739.7196024484667
 20
566.2364614568469
 30
0.0
 11
761.4823288410136
 21
566.2364614568469
 31
0.0
  0
LINE
  5
2067
330
2
100
AcDbEntity
  8
A1
370
    30
100
AcDbLine
 10
753.4607051390586
 20
562.9763733807358
 30
0.0
 11
742.5777691989804
 21
562.9763733807358
 31
0.0
  0
LINE
  5
2068
330
2
100
AcDbEntity
  8
A1
 62
     7
370
    30
100
AcDbLine
 10
742.4879740371673
 20
563.3489614568469
 30
0.0
 11
753.4879740371673
 21
563.3489614568469
 31
0.0
  0
LINE
  5
2069
330
2
100
AcDbEntity
  8
A1
 62
     7
370
    30
100
AcDbLine
 10
742.044599425285
 20
568.023961456847
 30
0.0
 11
753.9313486490495
 21
568.023961456847
 31
0.0
  0
LINE
  5
206A
330
2
100
AcDbEntity
  8
A1
 62
     7
370
    30
100
AcDbLine
 10
754.5879740371677
 20
564.4489614568469
 30
0.0
 11
741.3879740371668
 21
564.4489614568469
 31
0.0
  0
LINE
  5
206B
330
2
100
AcDbEntity
  8
A1
 62
     7
370
    30
100
AcDbLine
 10
741.3879740371667
 20
563.898961456847
 30
0.0
 11
754.5879740371677
 21
563.898961456847
 31
0.0
  0
LINE
  5
206C
330
2
100
AcDbEntity
  8
A1
370
    30
100
AcDbLine
 10
745.737974037167
 20
560.9739614568469
 30
0.0
 11
750.2379740371672
 21
560.9739614568469
 31
0.0
  0
LINE
  5
206D
330
2
100
AcDbEntity
  8
leaders
 62
     7
370
    30
100
AcDbLine
 10
756.2563456258713
 20
566.2364614568469
 30
0.0
 11
739.7196024484667
 21
566.2364614568469
 31
0.0
  0
LINE
  5
206E
330
2
100
AcDbEntity
  8
leaders
 62
     7
370
    30
100
AcDbLine
 10
756.2563456258713
 20
567.1989614568469
 30
0.0
 11
739.7196024484632
 21
567.1989614568469
 31
0.0
  0
LINE
  5
206F
330
2
100
AcDbEntity
  8
A1
370
    30
100
AcDbLine
 10
742.5777691989804
 20
537.065070249642
 30
0.0
 11
753.4607051390586
 21
537.065070249642
 31
0.0
  0
LINE
  5
2070
330
2
100
AcDbEntity
  8
LINEWORK
 62
     7
370
    30
100
AcDbLine
 10
741.9879740371673
 20
536.0979614568471
 30
0.0
 11
763.5217361449378
 21
536.0979614568471
 31
0.0
  0
LINE
  5
2071
330
2
100
AcDbEntity
  8
LINEWORK
 62
     7
370
    30
100
AcDbLine
 10
742.4879740371673
 20
536.5979614568471
 30
0.0
 11
763.4399556373544
 21
536.5979614568471
 31
0.0
  0
LINE
  5
2073
330
2
100
AcDbEntity
  8
A1
370
    30
100
AcDbLine
 10
745.7379740371672
 20
538.973961456847
 30
0.0
 11
750.2379740371679
 21
538.973961456847
 31
0.0
  0
LINE
  5
2074
330
2
100
AcDbEntity
  8
leaders
 62
     1
370
    30
100
AcDbLine
 10
726.8929306968782
 20
555.3090117111159
 30
0.0
 11
726.8929306968782
 21
559.8210391989413
 31
0.0
  0
LINE
  5
2075
330
2
100
AcDbEntity
  8
A1
370
    30
100
AcDbLine
 10
742.5777691989804
 20
562.9763733807358
 30
0.0
 11
742.5777691989804
 21
537.065070249642
 31
0.0
  0
LINE
  5
2076
330
2
100
AcDbEntity
  8
A1
370
    30
100
AcDbLine
 10
744.4879740371673
 20
540.2239614568479
 30
0.0
 11
744.4879740371673
 21
559.7239614568474
 31
0.0
  0
LINE
  5
2077
330
2
100
AcDbEntity
  8
leaders
 62
     1
370
    30
100
AcDbLine
 10
742.5777691989804
 20
553.6187600522946
 30
0.0
 11
732.5619783261413
 21
557.5650254550286
 31
0.0
  0
LINE
  5
2078
330
2
100
AcDbEntity
  8
leaders
 62
     1
370
    30
100
AcDbLine
 10
726.8929306968782
 20
543.335792991835
 30
0.0
 11
736.9994783261413
 21
543.335792991835
 31
0.0
  0
LINE
  5
2079
330
2
100
AcDbEntity
  8
leaders
 62
     1
370
    30
100
AcDbLine
 10
726.8929306968782
 20
541.0797792479222
 30
0.0
 11
726.8929306968782
 21
545.5918067357475
 31
0.0
  0
LINE
  5
207A
330
2
100
AcDbEntity
  8
leaders
 62
     1
370
    30
100
AcDbLine
 10
726.8929306968782
 20
557.5650254550286
 30
0.0
 11
732.5619783261413
 21
557.5650254550286
 31
0.0
  0
LINE
  5
207B
330
2
100
AcDbEntity
  8
leaders
 62
     1
370
    30
100
AcDbLine
 10
741.2948284243707
 20
537.2655272583432
 30
0.0
 11
736.9994783261413
 21
543.335792991835
 31
0.0
  0
LINE
  5
207C
330
2
100
AcDbEntity
  8
LINEWORK
 62
     7
370
    30
100
AcDbLine
 10
741.9879740371673
 20
536.0979614568471
 30
0.0
 11
741.9879740371673
 21
532.1414552196276
 31
0.0
  0
ARC
  5
207D
330
2
100
AcDbEntity
  8
A1
370
    30
100
AcDbCircle
 10
744.4879740371671
 20
538.9739614568477
 30
0.0
 40
1.25
100
AcDbArc
 50
359.9999999999934
 51
89.99999999999349
  0
LINE
  5
207E
330
2
100
AcDbEntity
  8
LINEWORK
 62
     7
370
    30
100
AcDbLine
 10
742.4879740371673
 20
536.5979614568471
 30
0.0
 11
741.9879740371673
 21
536.0979614568471
 31
0.0
  0
SOLID
  5
207F
330
2
100
AcDbEntity
  8
leaders
 62
     1
370
    30
100
AcDbTrace
 10
741.4580893912868
 20
537.3810515271426
 30
0.0
 11
741.1315674574547
 21
537.1500029895438
 31
0.0
 12
741.9879740371672
 22
536.2859614568471
 32
0.0
 13
741.9879740371672
 23
536.2859614568471
 33
0.0
  0
SOLID
  5
2080
330
2
100
AcDbEntity
  8
leaders
 62
     1
370
    30
100
AcDbTrace
 10
741.5346192394832
 20
554.2447298295213
 30
0.0
 11
741.3879884987339
 21
553.872574719564
 31
0.0
 12
742.5777691989804
 22
553.6187600522946
 32
0.0
 13
742.5777691989804
 23
553.6187600522946
 33
0.0
  0
LINE
  5
2081
330
2
100
AcDbEntity
  8
leaders
 62
     1
370
    30
100
AcDbLine
 10
726.7230173745687
 20
572.0227461115355
 30
0.0
 11
739.5582533641206
 21
572.0227461115355
 31
0.0
  0
LINE
  5
2082
330
2
100
AcDbEntity
  8
leaders
 62
     1
370
    30
100
AcDbLine
 10
726.7230173745687
 20
569.7667323676228
 30
0.0
 11
726.7230173745687
 21
574.2787598554482
 31
0.0
  0
LINE
  5
2083
330
2
100
AcDbEntity
  8
leaders
 62
     1
370
    30
100
AcDbLine
 10
743.690309725716
 20
568.023961456847
 30
0.0
 11
739.5582533641206
 21
572.0227461115355
 31
0.0
  0
LWPOLYLINE
  5
2084
330
2
100
AcDbEntity
  8
A1
 62
     7
370
    30
100
AcDbPolyline
 90
        6
 70
     0
 43
0.0
 10
741.3879740371667
 20
564.4489614568469
 42
-0.3714730528124905
 10
740.158136649542
 20
565.6177114568468
 42
0.2498883663316121
 10
739.7379740371704
 20
566.2364614568469
 10
739.7196024484667
 20
566.2364614568469
 10
739.7196024484632
 20
567.1989614568469
 10
742.044599425285
 20
568.023961456847
  0
SOLID
  5
2085
330
2
100
AcDbEntity
  8
leaders
 62
     1
370
    30
100
AcDbTrace
 10
742.9670739391331
 20
569.0021894451022
 30
0.0
 11
742.6889046341089
 21
568.7147492987371
 31
0.0
 12
743.690309725716
 22
568.023961456847
 32
0.0
 13
743.690309725716
 23
568.023961456847
 33
0.0
  0
ARC
  5
2086
330
2
100
AcDbEntity
  8
A1
370
    30
100
AcDbCircle
 10
744.4879740371671
 20
560.9739614568469
 30
0.0
 40
1.25
100
AcDbArc
 50
270.0
 51
0.0
  0
LINE
  5
2087
330
2
100
AcDbEntity
  8
A1
370
    30
100
AcDbLine
 10
741.3879740371667
 20
563.898961456847
 30
0.0
 11
741.3879740371667
 21
564.4489614568469
 31
0.0
  0
ARC
  5
2088
330
2
100
AcDbEntity
  8
A1
370
    30
100
AcDbCircle
 10
741.9379740371669
 20
563.3489614568467
 30
0.0
 40
0.5500000000002502
100
AcDbArc
 50
0.0000000000260551
 51
90.00000000002605
  0
LINE
  5
208D
330
2
100
AcDbEntity
  8
A1
370
    30
100
AcDbLine
 10
753.4607051390586
 20
537.065070249642
 30
0.0
 11
753.4607051390586
 21
562.9763733807358
 31
0.0
  0
LINE
  5
208E
330
2
100
AcDbEntity
  8
A1
370
    30
100
AcDbLine
 10
751.4879740371672
 20
540.2239614568468
 30
0.0
 11
751.4879740371672
 21
559.7239614568466
 31
0.0
  0
LINE
  5
20AC
330
2
100
AcDbEntity
  8
LINEWORK
 62
     7
370
    30
100
AcDbLine
 10
753.9879740371681
 20
536.0979614568472
 30
0.0
 11
753.9879740371684
 21
532.1414552196277
 31
0.0
  0
LINE
  5
20AE
330
2
100
AcDbEntity
  8
LINEWORK
 62
     7
370
    30
100
AcDbLine
 10
753.4879740371681
 20
536.5979614568472
 30
0.0
 11
753.9879740371681
 21
536.0979614568472
 31
0.0
  0
ARC
  5
20AF
330
2
100
AcDbEntity
  8
A1
370
    30
100
AcDbCircle
 10
751.4879740371672
 20
538.973961456847
 30
0.0
 40
1.25
100
AcDbArc
 50
89.99999999999349
 51
179.9999999999934
  0
LINE
  5
20B0
330
2
100
AcDbEntity
  8
LINEWORK
  6
DASHED
 62
     7
 48
2.0
370
    30
100
AcDbLine
 10
747.7379740371673
 20
538.595961456847
 30
0.0
 11
747.7379740371673
 21
534.782961456847
 31
0.0
  0
LINE
  5
20B1
330
2
100
AcDbEntity
  8
LINEWORK
  6
DASHED
 62
     7
 48
2.0
370
    30
100
AcDbLine
 10
748.2379740371673
 20
534.782961456847
 30
0.0
 11
748.2379740371673
 21
538.595961456847
 31
0.0
  0
LINE
  5
20B2
330
2
100
AcDbEntity
  8
LINEWORK
  6
DASHED
 62
     7
 48
2.0
370
    30
100
AcDbLine
 10
747.7379740371673
 20
534.782961456847
 30
0.0
 11
748.2379740371673
 21
534.782961456847
 31
0.0
  0
LINE
  5
20B3
330
2
100
AcDbEntity
  8
LINEWORK
  6
DASHED
 62
     7
 48
2.0
370
    30
100
AcDbLine
 10
748.2379740371673
 20
538.595961456847
 30
0.0
 11
747.7379740371673
 21
538.595961456847
 31
0.0
  0
POINT
  5
20C8
330
2
100
AcDbEntity
  8
0
 62
     1
370
    30
100
AcDbPoint
 10
756.3519248733767
 20
537.0837216404495
 30
0.0
  0
LINE
  5
20D1
330
2
100
AcDbEntity
  8
LINEWORK
  6
DASHED
 62
     7
 48
2.0
370
    30
100
AcDbLine
 10
758.9882811233766
 20
534.2464216404484
 30
0.0
 11
758.9882811233766
 21
538.2464216404484
 31
0.0
  0
LINE
  5
20D2
330
2
100
AcDbEntity
  8
LINEWORK
  6
DASHED
 62
     7
 48
2.0
370
    30
100
AcDbLine
 10
759.4882811233766
 20
538.2464216404484
 30
0.0
 11
759.4882811233766
 21
534.2464216404484
 31
0.0
  0
LINE
  5
20D3
330
2
100
AcDbEntity
  8
LINEWORK
  6
DASHED
 62
     7
 48
2.0
370
    30
100
AcDbLine
 10
759.4882811233766
 20
534.2464216404484
 30
0.0
 11
758.9882811233766
 21
534.2464216404484
 31
0.0
  0
LINE
  5
20D4
330
2
100
AcDbEntity
  8
LINEWORK
  6
DASHED
 62
     7
 48
2.0
370
    30
100
AcDbLine
 10
758.9882811233766
 20
538.2464216404484
 30
0.0
 11
759.4882811233766
 21
538.2464216404484
 31
0.0
  0
SOLID
  5
20D5
330
2
100
AcDbEntity
  8
leaders
 62
     1
370
    30
100
AcDbTrace
 10
756.5707807870914
 20
537.4426343833296
 30
0.0
 11
756.8499720585113
 21
537.1561867721282
 31
0.0
 12
757.5697192564059
 22
538.136984391988
 32
0.0
 13
757.5697192564059
 23
538.136984391988
 33
0.0
  0
TEXT
  5
20D6
330
2
100
AcDbEntity
  8
leaders
 62
     1
370
    30
100
AcDbText
 10
756.2737343791272
 20
538.2498637010363
 30
0.0
 40
1.714999999999999
  1
~
 50
329.9999999999994
100
AcDbText
  0
LINE
  5
20F3
330
2
100
AcDbEntity
  8
LINEWORK
 62
     7
370
    30
100
AcDbLine
 10
764.5531008459125
 20
532.3034612999529
 30
0.0
 11
763.8196176184642
 21
536.787923729467
 31
0.0
  0
LINE
  5
20FD
330
2
100
AcDbEntity
  8
LINEWORK
 62
     7
370
    30
100
AcDbLine
 10
764.1688663216107
 20
532.1414552196277
 30
0.0
 11
763.4399556373544
 21
536.5979614568471
 31
0.0
  0
LINE
  5
2113
330
2
100
AcDbEntity
  8
LINEWORK
 62
     7
370
    30
100
AcDbLine
 10
753.2438486490495
 20
568.023961456847
 30
0.0
 11
760.9923237859524
 21
568.023961456847
 31
0.0
  0
LINE
  5
211D
330
2
100
AcDbEntity
  8
LINEWORK
 62
     7
370
    30
100
AcDbLine
 10
752.8004740371671
 20
563.3489614568469
 30
0.0
 11
762.2738754684199
 21
563.3489614568469
 31
0.0
  0
LINE
  5
211E
330
2
100
AcDbEntity
  8
LINEWORK
 62
     7
370
    30
100
AcDbLine
 10
753.9004740371678
 20
564.448961456847
 30
0.0
 11
761.9723338960747
 21
564.4489614568469
 31
0.0
  0
LINE
  5
211F
330
2
100
AcDbEntity
  8
LINEWORK
 62
     7
370
    30
100
AcDbLine
 10
753.9004740371678
 20
563.898961456847
 30
0.0
 11
762.1231046822473
 21
563.898961456847
 31
0.0
  0
LINE
  5
2120
330
2
100
AcDbEntity
  8
leaders
 62
     7
370
    30
100
AcDbLine
 10
755.5688456258713
 20
567.1989614568469
 30
0.0
 11
761.2184799652113
 21
567.1989614568469
 31
0.0
  0
LINE
  5
2121
330
2
100
AcDbEntity
  8
leaders
 62
     7
370
    30
100
AcDbLine
 10
755.5688456258713
 20
566.2364614568469
 30
0.0
 11
761.4823288410136
 21
566.2364614568469
 31
0.0
  0
LWPOLYLINE
  5
2122
330
2
100
AcDbEntity
  8
A1
370
    30
100
AcDbPolyline
 90
        5
 70
     0
 43
0.0
 10
753.9313486490495
 20
568.023961456847
 10
756.2563456258713
 20
567.1989614568469
 10
756.2563456258713
 20
566.2364614568469
 10
756.2379740371642
 20
566.2364614568469
 42
0.2498883663316121
 10
755.8178114247924
 20
565.6177114568468
  0
ARC
  5
2123
330
2
100
AcDbEntity
  8
A1
370
    30
100
AcDbCircle
 10
751.4879740371672
 20
560.9739614568471
 30
0.0
 40
1.25
100
AcDbArc
 50
180.0
 51
270.0
  0
ARC
  5
2124
330
2
100
AcDbEntity
  8
A1
370
    30
100
AcDbCircle
 10
754.0379740371674
 20
563.3489614568467
 30
0.0
 40
0.5500000000002502
100
AcDbArc
 50
89.99999999997395
 51
179.9999999999739
  0
LINE
  5
2125
330
2
100
AcDbEntity
  8
LINEWORK
  6
DASHED
 62
     7
 48
2.0
370
    30
100
AcDbLine
 10
747.7379740371673
 20
561.1639614568482
 30
0.0
 11
747.7379740371673
 21
565.1639614568482
 31
0.0
  0
LINE
  5
2126
330
2
100
AcDbEntity
  8
LINEWORK
  6
DASHED
 62
     7
 48
2.0
370
    30
100
AcDbLine
 10
748.2379740371673
 20
565.1639614568482
 30
0.0
 11
748.2379740371673
 21
561.1639614568482
 31
0.0
  0
LINE
  5
2127
330
2
100
AcDbEntity
  8
LINEWORK
  6
DASHED
 62
     7
 48
2.0
370
    30
100
AcDbLine
 10
748.2379740371673
 20
561.1639614568482
 30
0.0
 11
747.7379740371673
 21
561.1639614568482
 31
0.0
  0
LINE
  5
2128
330
2
100
AcDbEntity
  8
LINEWORK
  6
DASHED
 62
     7
 48
2.0
370
    30
100
AcDbLine
 10
747.7379740371673
 20
565.1639614568482
 30
0.0
 11
748.2379740371673
 21
565.1639614568482
 31
0.0
  0
LINE
  5
2138
330
2
100
AcDbEntity
  8
LINEWORK
  6
DASHED
 62
     7
 48
2.0
370
    30
100
AcDbLine
 10
759.4882811233766
 20
565.2107341404509
 30
0.0
 11
759.4882811233766
 21
561.2107341404509
 31
0.0
  0
LINE
  5
2139
330
2
100
AcDbEntity
  8
LINEWORK
  6
DASHED
 62
     7
 48
2.0
370
    30
100
AcDbLine
 10
758.9882811233766
 20
561.2107341404509
 30
0.0
 11
758.9882811233766
 21
565.2107341404509
 31
0.0
  0
LINE
  5
213D
330
2
100
AcDbEntity
  8
LINEWORK
  6
DASHED
 62
     7
 48
2.0
370
    30
100
AcDbLine
 10
758.9882811233766
 20
565.2107341404509
 30
0.0
 11
759.4882811233766
 21
565.2107341404509
 31
0.0
  0
LINE
  5
213E
330
2
100
AcDbEntity
  8
A1
370
    30
100
AcDbLine
 10
754.5879740371677
 20
563.898961456847
 30
0.0
 11
754.5879740371677
 21
564.4489614568469
 31
0.0
  0
ARC
  5
213F
330
2
100
AcDbEntity
  8
A1
370
    30
100
AcDbCircle
 10
754.5248680568023
 20
565.7467996389099
 30
0.0
 40
1.299371506374636
100
AcDbArc
 50
272.7837529373822
 51
354.2984521406139
  0
POINT
  5
2147
330
2
100
AcDbEntity
  8
0
 62
     1
370
    30
100
AcDbPoint
 10
761.7273435705766
 20
563.1234341404497
 30
0.0
  0
LINE
  5
214A
330
2
100
AcDbEntity
  8
0
 62
     7
370
    30
100
AcDbLine
 10
761.7273435705766
 20
560.8645466404497
 30
0.0
 11
761.7273435705766
 21
562.9739614568469
 31
0.0
  0
LINE
  5
214B
330
2
100
AcDbEntity
  8
LINEWORK
 62
     7
370
    30
100
AcDbLine
 10
762.2738754684199
 20
563.3489614568469
 30
0.0
 11
760.9923237859524
 21
568.023961456847
 31
0.0
  0
LINE
  5
214C
330
2
100
AcDbEntity
  8
LINEWORK
 62
     7
370
    30
100
AcDbLine
 10
762.6095790205327
 20
563.5427799930271
 30
0.0
 11
761.3535794220389
 21
568.1245679952493
 31
0.0
  0
LINE
  5
214D
330
2
100
AcDbEntity
  8
leaders
 62
     1
370
    30
100
AcDbLine
 10
726.7282819193543
 20
599.3529405448647
 30
0.0
 11
755.0371609746821
 21
599.3529405448647
 31
0.0
  0
LINE
  5
214E
330
2
100
AcDbEntity
  8
leaders
 62
     1
370
    30
100
AcDbLine
 10
726.7282819193543
 20
585.9345107095824
 30
0.0
 11
755.0371609746821
 21
585.9345107095824
 31
0.0
  0
LINE
  5
214F
330
2
100
AcDbEntity
  8
leaders
 62
     1
370
    30
100
AcDbLine
 10
726.7282819193543
 20
597.096926800952
 30
0.0
 11
726.7282819193543
 21
601.6089542887773
 31
0.0
  0
ARC
  5
2154
330
2
100
AcDbEntity
  8
A1
370
    30
100
AcDbCircle
 10
804.7952167125581
 20
583.9363398841978
 30
0.0
 40
1.299371506374636
100
AcDbArc
 50
185.701547859386
 51
267.2162470626177
  0
LWPOLYLINE
  5
2155
330
2
100
AcDbEntity
  8
A1
370
    30
100
AcDbPolyline
 90
        5
 70
     0
 43
0.0
 10
805.3887361203107
 20
586.2135017021349
 10
803.063739143489
 20
585.3885017021349
 10
803.063739143489
 20
584.4260017021348
 10
803.0821107321962
 20
584.4260017021348
 42
-0.2498883663316121
 10
803.5022733445678
 20
583.8072517021348
  0
LINE
  5
2156
330
2
100
AcDbEntity
  8
LINEWORK
 62
     7
370
    30
100
AcDbLine
 10
804.7321107321925
 20
582.088501702135
 30
0.0
 11
793.8215975946458
 21
582.088501702135
 31
0.0
  0
LINE
  5
2157
330
2
100
AcDbEntity
  8
LINEWORK
 62
     7
370
    30
100
AcDbLine
 10
804.7321107321925
 20
582.6385017021349
 30
0.0
 11
793.6701521374434
 21
582.6385017021347
 31
0.0
  0
LINE
  5
2159
330
2
100
AcDbEntity
  8
LINEWORK
 62
     7
370
    30
100
AcDbLine
 10
805.116437953602
 20
586.1168796463756
 30
0.0
 11
792.7123620681913
 21
586.1168796463756
 31
0.0
  0
LINE
  5
215D
330
2
100
AcDbEntity
  8
LINEWORK
 62
     7
370
    30
100
AcDbLine
 10
816.8321107321931
 20
554.787501702135
 30
0.0
 11
795.1860860042187
 21
554.7875017021351
 31
0.0
  0
LINE
  5
215E
330
2
100
AcDbEntity
  8
LINEWORK
 62
     7
370
    30
100
AcDbLine
 10
817.332110732193
 20
554.287501702135
 30
0.0
 11
795.2678665118021
 21
554.2875017021351
 31
0.0
  0
LINE
  5
215F
330
2
100
AcDbEntity
  8
leaders
 62
     7
370
    30
100
AcDbLine
 10
803.063739143489
 20
585.3885017021349
 30
0.0
 11
819.6004823208971
 21
585.3885017021349
 31
0.0
  0
LINE
  5
2160
330
2
100
AcDbEntity
  8
leaders
 62
     7
370
    30
100
AcDbLine
 10
803.063739143489
 20
584.4260017021348
 30
0.0
 11
819.6004823208935
 21
584.4260017021348
 31
0.0
  0
LINE
  5
2162
330
2
100
AcDbEntity
  8
A1
370
    30
100
AcDbLine
 10
807.8321107321931
 20
558.4135017021347
 30
0.0
 11
807.8321107321931
 21
577.9135017021345
 31
0.0
  0
LINE
  5
2163
330
2
100
AcDbEntity
  8
A1
370
    30
100
AcDbLine
 10
805.8593796303018
 20
555.25461049493
 30
0.0
 11
805.8593796303018
 21
581.1659136260238
 31
0.0
  0
LINE
  5
2164
330
2
100
AcDbEntity
  8
A1
370
    30
100
AcDbLine
 10
814.832110732193
 20
558.4135017021359
 30
0.0
 11
814.832110732193
 21
577.9135017021353
 31
0.0
  0
LINE
  5
2165
330
2
100
AcDbEntity
  8
A1
370
    30
100
AcDbLine
 10
816.7423155703799
 20
581.1659136260238
 30
0.0
 11
816.7423155703799
 21
555.25461049493
 31
0.0
  0
LINE
  5
2168
330
2
100
AcDbEntity
  8
LINEWORK
  6
DASHED
 62
     7
 48
2.0
370
    30
100
AcDbLine
 10
811.082110732193
 20
556.785501702135
 30
0.0
 11
811.5821107321931
 21
556.785501702135
 31
0.0
  0
LINE
  5
2169
330
2
100
AcDbEntity
  8
LINEWORK
  6
DASHED
 62
     7
 48
2.0
370
    30
100
AcDbLine
 10
811.5821107321931
 20
552.9725017021349
 30
0.0
 11
811.082110732193
 21
552.9725017021349
 31
0.0
  0
LINE
  5
216A
330
2
100
AcDbEntity
  8
A1
370
    30
100
AcDbLine
 10
813.582110732193
 20
557.163501702135
 30
0.0
 11
809.0821107321923
 21
557.163501702135
 31
0.0
  0
LINE
  5
216B
330
2
100
AcDbEntity
  8
A1
370
    30
100
AcDbLine
 10
816.7423155703799
 20
555.25461049493
 30
0.0
 11
805.8593796303018
 21
555.25461049493
 31
0.0
  0
LINE
  5
216C
330
2
100
AcDbEntity
  8
LINEWORK
  6
DASHED
 62
     7
 48
2.0
370
    30
100
AcDbLine
 10
811.5821107321931
 20
556.785501702135
 30
0.0
 11
811.5821107321931
 21
552.9725017021349
 31
0.0
  0
LINE
  5
216D
330
2
100
AcDbEntity
  8
LINEWORK
 62
     7
370
    30
100
AcDbLine
 10
816.8321107321931
 20
554.787501702135
 30
0.0
 11
817.332110732193
 21
554.287501702135
 31
0.0
  0
ARC
  5
216E
330
2
100
AcDbEntity
  8
A1
370
    30
100
AcDbCircle
 10
814.8321107321931
 20
557.1635017021357
 30
0.0
 40
1.25
100
AcDbArc
 50
90.00000000000651
 51
180.0000000000065
  0
LINE
  5
216F
330
2
100
AcDbEntity
  8
LINEWORK
 62
     7
370
    30
100
AcDbLine
 10
817.332110732193
 20
554.287501702135
 30
0.0
 11
817.3321107321932
 21
550.3309954649156
 31
0.0
  0
LINE
  5
2170
330
2
100
AcDbEntity
  8
LINEWORK
  6
DASHED
 62
     7
 48
2.0
370
    30
100
AcDbLine
 10
811.082110732193
 20
552.9725017021349
 30
0.0
 11
811.082110732193
 21
556.785501702135
 31
0.0
  0
ARC
  5
2171
330
2
100
AcDbEntity
  8
A1
370
    30
100
AcDbCircle
 10
807.8321107321931
 20
557.163501702135
 30
0.0
 40
1.25
100
AcDbArc
 50
0.0000000000065208
 51
90.00000000000651
  0
LINE
  5
2172
330
2
100
AcDbEntity
  8
LINEWORK
 62
     7
370
    30
100
AcDbLine
 10
805.8321107321923
 20
554.7875017021352
 30
0.0
 11
805.3321107321922
 21
554.2875017021352
 31
0.0
  0
LINE
  5
2174
330
2
100
AcDbEntity
  8
LINEWORK
 62
     7
370
    30
100
AcDbLine
 10
805.3321107321922
 20
554.2875017021352
 30
0.0
 11
805.332110732192
 21
550.3309954649156
 31
0.0
  0
LWPOLYLINE
  5
2175
330
2
100
AcDbEntity
  8
A1
 62
     7
370
    30
100
AcDbPolyline
 90
        6
 70
     0
 43
0.0
 10
817.9321107321936
 20
582.6385017021349
 42
0.3714730528124905
 10
819.1619481198184
 20
583.8072517021348
 42
-0.2498883663316121
 10
819.5821107321901
 20
584.4260017021348
 10
819.6004823208935
 20
584.4260017021348
 10
819.6004823208971
 20
585.3885017021349
 10
817.2754853440753
 20
586.2135017021349
  0
LINE
  5
2176
330
2
100
AcDbEntity
  8
A1
 62
     7
370
    30
100
AcDbLine
 10
817.9321107321936
 20
582.088501702135
 30
0.0
 11
804.7321107321925
 21
582.088501702135
 31
0.0
  0
LINE
  5
2177
330
2
100
AcDbEntity
  8
A1
 62
     7
370
    30
100
AcDbLine
 10
804.7321107321925
 20
582.6385017021349
 30
0.0
 11
817.9321107321936
 21
582.6385017021349
 31
0.0
  0
LINE
  5
2178
330
2
100
AcDbEntity
  8
A1
370
    30
100
AcDbLine
 10
817.9321107321936
 20
582.088501702135
 30
0.0
 11
817.9321107321936
 21
582.6385017021349
 31
0.0
  0
LINE
  5
2179
330
2
100
AcDbEntity
  8
LINEWORK
  6
DASHED
 62
     7
 48
2.0
370
    30
100
AcDbLine
 10
811.5821107321931
 20
583.3535017021362
 30
0.0
 11
811.082110732193
 21
583.3535017021362
 31
0.0
  0
LINE
  5
217A
330
2
100
AcDbEntity
  8
LINEWORK
  6
DASHED
 62
     7
 48
2.0
370
    30
100
AcDbLine
 10
811.082110732193
 20
579.3535017021362
 30
0.0
 11
811.5821107321931
 21
579.3535017021362
 31
0.0
  0
LINE
  5
217B
330
2
100
AcDbEntity
  8
A1
370
    30
100
AcDbLine
 10
813.5821107321934
 20
579.1635017021349
 30
0.0
 11
809.082110732193
 21
579.1635017021349
 31
0.0
  0
LINE
  5
217C
330
2
100
AcDbEntity
  8
A1
 62
     7
370
    30
100
AcDbLine
 10
817.2754853440753
 20
586.2135017021349
 30
0.0
 11
805.3887361203107
 21
586.2135017021349
 31
0.0
  0
LINE
  5
217D
330
2
100
AcDbEntity
  8
A1
 62
     7
370
    30
100
AcDbLine
 10
816.8321107321931
 20
581.5385017021348
 30
0.0
 11
805.832110732193
 21
581.5385017021348
 31
0.0
  0
LINE
  5
217E
330
2
100
AcDbEntity
  8
A1
370
    30
100
AcDbLine
 10
805.8593796303018
 20
581.1659136260238
 30
0.0
 11
816.7423155703799
 21
581.1659136260238
 31
0.0
  0
LINE
  5
217F
330
2
100
AcDbEntity
  8
LINEWORK
  6
DASHED
 62
     7
 48
2.0
370
    30
100
AcDbLine
 10
811.5821107321931
 20
579.3535017021362
 30
0.0
 11
811.5821107321931
 21
583.3535017021362
 31
0.0
  0
ARC
  5
2180
330
2
100
AcDbEntity
  8
A1
370
    30
100
AcDbCircle
 10
817.3821107321934
 20
581.5385017021347
 30
0.0
 40
0.5500000000002502
100
AcDbArc
 50
89.99999999997395
 51
179.9999999999739
  0
ARC
  5
2181
330
2
100
AcDbEntity
  8
A1
370
    30
100
AcDbCircle
 10
814.8321107321931
 20
579.1635017021349
 30
0.0
 40
1.25
100
AcDbArc
 50
180.0
 51
270.0
  0
LINE
  5
2183
330
2
100
AcDbEntity
  8
A1
370
    30
100
AcDbLine
 10
804.7321107321925
 20
582.088501702135
 30
0.0
 11
804.7321107321925
 21
582.6385017021349
 31
0.0
  0
LINE
  5
2184
330
2
100
AcDbEntity
  8
LINEWORK
  6
DASHED
 62
     7
 48
2.0
370
    30
100
AcDbLine
 10
811.082110732193
 20
583.3535017021362
 30
0.0
 11
811.082110732193
 21
579.3535017021362
 31
0.0
  0
ARC
  5
2185
330
2
100
AcDbEntity
  8
A1
370
    30
100
AcDbCircle
 10
805.2821107321928
 20
581.5385017021347
 30
0.0
 40
0.5500000000002502
100
AcDbArc
 50
0.0000000000260621
 51
90.00000000002605
  0
ARC
  5
2186
330
2
100
AcDbEntity
  8
A1
370
    30
100
AcDbCircle
 10
807.8321107321931
 20
579.1635017021349
 30
0.0
 40
1.25
100
AcDbArc
 50
270.0
 51
0.000000000000007
  0
LWPOLYLINE
  5
2187
330
2
100
AcDbEntity
  8
0
 62
     7
370
    30
100
AcDbPolyline
 90
        2
 70
     0
 43
0.0
 10
801.4306979734804
 20
575.9889438773144
 42
-0.5167802011889741
 10
801.3269976432814
 20
576.8060842557126
  0
ARC
  5
2188
330
2
100
AcDbEntity
  8
0
 62
     7
370
    30
100
AcDbCircle
 10
798.4950263358938
 20
576.4342830524547
 30
0.0
 40
0.4978124894400001
100
AcDbArc
 50
299.176209344797
 51
48.18437655723768
  0
ARC
  5
2189
330
2
100
AcDbEntity
  8
0
 62
     7
370
    30
100
AcDbCircle
 10
799.8328974012637
 20
564.6112364282547
 30
0.0
 40
3.049101497819999
100
AcDbArc
 50
304.8499045790454
 51
20.66336951854097
  0
ARC
  5
218A
330
2
100
AcDbEntity
  8
0
 62
     7
370
    30
100
AcDbCircle
 10
799.8328974012631
 20
564.6112364282571
 30
0.0
 40
3.049101497820003
100
AcDbArc
 50
304.8499045790616
 51
15.11840139765256
  0
ARC
  5
218B
330
2
100
AcDbEntity
  8
0
 62
     7
370
    30
100
AcDbCircle
 10
800.3346305197233
 20
564.6216900925572
 30
0.0
 40
3.049101497820061
100
AcDbArc
 50
159.5464268096133
 51
235.0602729800345
  0
ARC
  5
218C
330
2
100
AcDbEntity
  8
0
 62
     7
370
    30
100
AcDbCircle
 10
800.330709890699
 20
564.6112364282532
 30
0.0
 40
3.049101497816084
100
AcDbArc
 50
159.3366304815177
 51
235.1500954210106
  0
LINE
  5
218D
330
2
100
AcDbEntity
  8
0
 62
     7
370
    30
100
AcDbLine
 10
802.8819988990838
 20
555.1527991288947
 30
0.0
 11
797.2816083928838
 21
555.1527991288947
 31
0.0
  0
ARC
  5
218E
330
2
100
AcDbEntity
  8
0
 62
     7
370
    30
100
AcDbCircle
 10
797.9972138464537
 20
558.7619396773347
 30
0.0
 40
0.5311275301077292
100
AcDbArc
 50
107.0315588425851
 51
252.9684411574148
  0
ARC
  5
2191
330
2
100
AcDbEntity
  8
0
 62
     7
370
    30
100
AcDbCircle
 10
799.950205443076
 20
529.0521062471343
 30
0.0
 40
28.73968549999317
100
AcDbArc
 50
84.14495648463439
 51
95.33991966392544
  0
LINE
  5
2192
330
2
100
AcDbEntity
  8
0
 62
     7
370
    30
100
AcDbLine
 10
802.8819988990827
 20
557.6418615760952
 30
0.0
 11
802.8819988990838
 21
555.1527991288947
 31
0.0
  0
LINE
  5
2193
330
2
100
AcDbEntity
  8
0
 62
     7
370
    30
100
AcDbLine
 10
797.8416474435038
 20
559.2597521667748
 30
0.0
 11
797.8416474435038
 21
559.7575646562147
 31
0.0
  0
LINE
  5
2196
330
2
100
AcDbEntity
  8
0
 62
     7
370
    30
100
AcDbLine
 10
797.8416474435038
 20
559.7575646562147
 30
0.0
 11
797.8416474435038
 21
559.2697738505889
 31
0.0
  0
LINE
  5
2197
330
2
100
AcDbEntity
  8
0
 62
     7
370
    30
100
AcDbLine
 10
800.0818036459838
 20
561.0020958798148
 30
0.0
 11
801.5466503682356
 21
561.0020958798148
 31
0.0
  0
LINE
  5
2198
330
2
100
AcDbEntity
  8
0
 62
     7
370
    30
100
AcDbLine
 10
801.5752411143038
 20
562.1221739810547
 30
0.0
 11
798.5883661776637
 21
562.1221739810547
 31
0.0
  0
LINE
  5
2199
330
2
100
AcDbEntity
  8
0
 62
     7
370
    30
100
AcDbLine
 10
801.5752411143038
 20
562.1221739810547
 30
0.0
 11
798.5883661776637
 21
562.1221739810547
 31
0.0
  0
LINE
  5
219A
330
2
100
AcDbEntity
  8
0
 62
     7
370
    30
100
AcDbLine
 10
801.5752411143038
 20
561.7488146139749
 30
0.0
 11
798.5883661776637
 21
561.7488146139749
 31
0.0
  0
LINE
  5
219B
330
2
100
AcDbEntity
  8
0
 62
     7
370
    30
100
AcDbLine
 10
801.5466503682356
 20
561.0020958798148
 30
0.0
 11
798.6169569237318
 21
561.0020958798148
 31
0.0
  0
LINE
  5
219C
330
2
100
AcDbEntity
  8
0
 62
     7
370
    30
100
AcDbLine
 10
798.5883661776637
 20
561.7488146139749
 30
0.0
 11
801.5752411143038
 21
561.7523397746936
 31
0.0
  0
LINE
  5
219D
330
2
100
AcDbEntity
  8
0
 62
     7
370
    30
100
AcDbLine
 10
801.5448891469011
 20
561.0020958798148
 30
0.0
 11
798.6203875069398
 21
561.0020958798148
 31
0.0
  0
LINE
  5
219E
330
2
100
AcDbEntity
  8
0
 62
     7
370
    30
100
AcDbLine
 10
800.0818036459838
 20
557.8907678208148
 30
0.0
 11
802.3219598484637
 21
557.8907678208148
 31
0.0
  0
ARC
  5
219F
330
2
100
AcDbEntity
  8
0
 62
     7
370
    30
100
AcDbCircle
 10
801.3448907922725
 20
561.3859229490729
 30
0.0
 40
0.4328077644545648
100
AcDbArc
 50
297.5223844393724
 51
57.84421085063235
  0
ARC
  5
21A0
330
2
100
AcDbEntity
  8
0
 62
     7
370
    30
100
AcDbCircle
 10
801.3393648957338
 20
561.3861465054883
 30
0.0
 40
0.4355859282600059
100
AcDbArc
 50
298.1534114870492
 51
57.21318379421929
  0
ARC
  5
21A1
330
2
100
AcDbEntity
  8
0
 62
     7
370
    30
100
AcDbCircle
 10
802.1663934455137
 20
558.7619396773347
 30
0.0
 40
0.5311275301077292
100
AcDbArc
 50
287.0315588425923
 51
72.96844115740762
  0
LINE
  5
21A2
330
2
100
AcDbEntity
  8
0
 62
     7
370
    30
100
AcDbLine
 10
802.8819988990838
 20
557.6418615760947
 30
0.0
 11
802.3219598484637
 21
557.8907678208148
 31
0.0
  0
LINE
  5
21A3
330
2
100
AcDbEntity
  8
0
 62
     7
370
    30
100
AcDbLine
 10
802.3219598484637
 20
559.2597521667748
 30
0.0
 11
802.3219598484637
 21
559.7575646562147
 31
0.0
  0
LINE
  5
21A4
330
2
100
AcDbEntity
  8
0
 62
     7
370
    30
100
AcDbLine
 10
802.3219598484637
 20
557.8907678208148
 30
0.0
 11
802.3219598484637
 21
558.2641271878947
 31
0.0
  0
LINE
  5
21A5
330
2
100
AcDbEntity
  8
0
 62
     7
370
    30
100
AcDbLine
 10
802.3219598485129
 20
558.2541055040946
 30
0.0
 11
802.3219598484637
 21
557.8907678208148
 31
0.0
  0
LINE
  5
21A6
330
2
100
AcDbEntity
  8
0
 62
     7
370
    30
100
AcDbLine
 10
802.3219598484637
 20
559.2697738505749
 30
0.0
 11
802.3219598484637
 21
559.7575646562147
 31
0.0
  0
LINE
  5
21A7
330
2
100
AcDbEntity
  8
0
 62
     7
370
    30
100
AcDbLine
 10
802.3219598484637
 20
557.8907678208148
 30
0.0
 11
802.8819988990827
 21
557.6418615760952
 31
0.0
  0
ARC
  5
21A8
330
2
100
AcDbEntity
  8
0
 62
     7
370
    30
100
AcDbCircle
 10
803.1309051438038
 20
561.1265490021748
 30
0.0
 40
1.589135542858315
100
AcDbArc
 50
184.4917174395625
 51
239.4234927769714
  0
ARC
  5
21A9
330
2
100
AcDbEntity
  8
0
 62
     7
370
    30
100
AcDbCircle
 10
803.1565835574543
 20
561.1435564411116
 30
0.0
 40
1.617890590679964
100
AcDbArc
 50
185.0160721536889
 51
238.9442723236
  0
LINE
  5
21AA
330
2
100
AcDbEntity
  8
0
 62
     7
370
    30
100
AcDbLine
 10
801.5752411143038
 20
561.7488146139749
 30
0.0
 11
801.5752411143038
 21
562.1221739810547
 31
0.0
  0
LINE
  5
21AB
330
2
100
AcDbEntity
  8
0
 62
     7
370
    30
100
AcDbLine
 10
801.5752411143038
 20
561.7523397746936
 30
0.0
 11
801.5752411143038
 21
562.1089857754176
 31
0.0
  0
ARC
  5
21AC
330
2
100
AcDbEntity
  8
0
 62
     7
370
    30
100
AcDbCircle
 10
798.8185059794984
 20
561.3868966488172
 30
0.0
 40
0.4328077644545648
100
AcDbArc
 50
122.122876517983
 51
242.7578788944459
  0
ARC
  5
21AD
330
2
100
AcDbEntity
  8
0
 62
     7
370
    30
100
AcDbCircle
 10
798.8225003819975
 20
561.3861362262164
 30
0.0
 40
0.435585928259961
100
AcDbArc
 50
122.5146703355022
 51
241.8437230049877
  0
LINE
  5
21AE
330
2
100
AcDbEntity
  8
0
 62
     7
370
    30
100
AcDbLine
 10
798.5883661776637
 20
562.1221739810547
 30
0.0
 11
798.5883661776637
 21
561.7488146139749
 31
0.0
  0
LINE
  5
21AF
330
2
100
AcDbEntity
  8
0
 62
     7
370
    30
100
AcDbLine
 10
798.5883661776637
 20
562.1221739810547
 30
0.0
 11
798.5883661776637
 21
561.7488146139749
 31
0.0
  0
LINE
  5
21B0
330
2
100
AcDbEntity
  8
0
 62
     7
370
    30
100
AcDbLine
 10
802.3219598484637
 20
559.7575646562147
 30
0.0
 11
797.8416474435038
 21
559.7575646562147
 31
0.0
  0
LINE
  5
21B1
330
2
100
AcDbEntity
  8
0
 62
     7
370
    30
100
AcDbLine
 10
802.3219598484637
 20
559.2597521667748
 30
0.0
 11
797.8416474435038
 21
559.2597521667748
 31
0.0
  0
LINE
  5
21B2
330
2
100
AcDbEntity
  8
0
 62
     7
370
    30
100
AcDbLine
 10
802.3219598484637
 20
558.2641271878947
 30
0.0
 11
797.8416474435038
 21
558.2641271878947
 31
0.0
  0
LINE
  5
21B3
330
2
100
AcDbEntity
  8
0
 62
     7
370
    30
100
AcDbLine
 10
802.3219598484637
 20
557.8907678208148
 30
0.0
 11
797.8416474435038
 21
557.8907678208148
 31
0.0
  0
LINE
  5
21B4
330
2
100
AcDbEntity
  8
0
 62
     7
370
    30
100
AcDbLine
 10
802.3219598484637
 20
557.8907678208148
 30
0.0
 11
797.8416474435038
 21
557.890767820815
 31
0.0
  0
LINE
  5
21B5
330
2
100
AcDbEntity
  8
0
 62
     7
370
    30
100
AcDbLine
 10
797.8416474435038
 20
559.7575646562147
 30
0.0
 11
802.3219598484637
 21
559.7575646562147
 31
0.0
  0
ARC
  5
21B6
330
2
100
AcDbEntity
  8
0
 62
     7
370
    30
100
AcDbCircle
 10
797.0327021481637
 20
561.1265490021748
 30
0.0
 40
1.589135542858315
100
AcDbArc
 50
300.5760411651846
 51
355.5082825604374
  0
ARC
  5
21B7
330
2
100
AcDbEntity
  8
0
 62
     7
370
    30
100
AcDbCircle
 10
797.0087864830466
 20
561.1446164158682
 30
0.0
 40
1.617890590680016
100
AcDbArc
 50
300.9828849416323
 51
354.9462446249102
  0
LINE
  5
21BA
330
2
100
AcDbEntity
  8
0
 62
     7
370
    30
100
AcDbLine
 10
802.4847050962836
 20
555.1527991288947
 30
0.0
 11
799.6845098431837
 21
555.1527991288947
 31
0.0
  0
LINE
  5
21BD
330
2
100
AcDbEntity
  8
LINEWORK
  6
DASHED
 62
     7
 48
2.0
370
    30
100
AcDbLine
 10
800.3318036459837
 20
556.4359618857363
 30
0.0
 11
799.8318036459838
 21
556.4359618857363
 31
0.0
  0
LINE
  5
21BE
330
2
100
AcDbEntity
  8
LINEWORK
  6
DASHED
 62
     7
 48
2.0
370
    30
100
AcDbLine
 10
799.8318036459838
 20
552.4359618857363
 30
0.0
 11
800.3318036459837
 21
552.4359618857363
 31
0.0
  0
LINE
  5
21BF
330
2
100
AcDbEntity
  8
LINEWORK
  6
DASHED
 62
     7
 48
2.0
370
    30
100
AcDbLine
 10
799.8318036459838
 20
556.4359618857363
 30
0.0
 11
799.8318036459838
 21
552.4359618857363
 31
0.0
  0
LINE
  5
21C0
330
2
100
AcDbEntity
  8
LINEWORK
  6
DASHED
 62
     7
 48
2.0
370
    30
100
AcDbLine
 10
800.3318036459837
 20
552.4359618857363
 30
0.0
 11
800.3318036459837
 21
556.4359618857363
 31
0.0
  0
ARC
  5
21C7
330
2
100
AcDbEntity
  8
0
 62
     7
370
    30
100
AcDbCircle
 10
774.6933666845436
 20
572.8873690651958
 30
0.0
 40
23.89499949312021
100
AcDbArc
 50
342.4627592591669
 51
3.284369108363741
  0
ARC
  5
21C8
330
2
100
AcDbEntity
  8
0
 62
     7
370
    30
100
AcDbCircle
 10
774.6933666845438
 20
572.8873690651948
 30
0.0
 40
23.89499949311992
100
AcDbArc
 50
341.7554698245623
 51
3.284369108366998
  0
LINE
  5
21C9
330
2
100
AcDbEntity
  8
0
 62
     7
370
    30
100
AcDbLine
 10
800.0818036459838
 20
574.3185799723347
 30
0.0
 11
801.7619207978437
 21
574.3185799723347
 31
0.0
  0
LINE
  5
21CA
330
2
100
AcDbEntity
  8
0
 62
     7
370
    30
100
AcDbLine
 10
801.7619207978437
 20
574.8163924617748
 30
0.0
 11
798.4016864941237
 21
574.8163924617748
 31
0.0
  0
LINE
  5
21CB
330
2
100
AcDbEntity
  8
0
 62
     7
370
    30
100
AcDbLine
 10
801.7619207978437
 20
574.3185799723347
 30
0.0
 11
798.4016864941237
 21
574.3185799723347
 31
0.0
  0
LINE
  5
21CC
330
2
100
AcDbEntity
  8
0
 62
     7
370
    30
100
AcDbLine
 10
801.6144890443998
 20
574.2563534111548
 30
0.0
 11
798.5491182475676
 21
574.2563534111548
 31
0.0
  0
LINE
  5
21CD
330
2
100
AcDbEntity
  8
0
 62
     7
370
    30
100
AcDbLine
 10
801.6144890443989
 20
574.2563534111544
 30
0.0
 11
798.5491182475684
 21
574.2563534111548
 31
0.0
  0
LINE
  5
21CE
330
2
100
AcDbEntity
  8
0
 62
     7
370
    30
100
AcDbLine
 10
801.7619207978437
 20
574.3185799723348
 30
0.0
 11
798.4016864941237
 21
574.3185799723348
 31
0.0
  0
LINE
  5
21CF
330
2
100
AcDbEntity
  8
0
 62
     7
370
    30
100
AcDbLine
 10
801.7619207978437
 20
574.3185799723347
 30
0.0
 11
801.6144890443998
 21
574.2563534111548
 31
0.0
  0
LINE
  5
21D0
330
2
100
AcDbEntity
  8
0
 62
     7
370
    30
100
AcDbLine
 10
801.7619207978437
 20
574.3185799723348
 30
0.0
 11
801.6144890443989
 21
574.2563534111544
 31
0.0
  0
ARC
  5
21D1
330
2
100
AcDbEntity
  8
0
 62
     7
370
    30
100
AcDbCircle
 10
825.4702406074237
 20
572.8873690651948
 30
0.0
 40
23.89499949311999
100
AcDbArc
 50
176.7156308916362
 51
198.2445301754406
  0
ARC
  5
21D2
330
2
100
AcDbEntity
  8
0
 62
     7
370
    30
100
AcDbCircle
 10
825.4702406074233
 20
572.8873690651957
 30
0.0
 40
23.8949994931199
100
AcDbArc
 50
176.7156308916362
 51
198.2445301754406
  0
ARC
  5
21D3
330
2
100
AcDbEntity
  8
0
 62
     7
370
    30
100
AcDbCircle
 10
801.4819012725338
 20
575.3142049512148
 30
0.0
 40
0.5772163287311298
100
AcDbArc
 50
299.0203733657689
 51
70.2877336493226
  0
LINE
  5
21D4
330
2
100
AcDbEntity
  8
0
 62
     7
370
    30
100
AcDbLine
 10
801.7619207978437
 20
574.3185799723347
 30
0.0
 11
801.7619207978437
 21
574.8163924617748
 31
0.0
  0
LINE
  5
21D5
330
2
100
AcDbEntity
  8
0
 62
     7
370
    30
100
AcDbLine
 10
801.761920797513
 20
574.809459712719
 30
0.0
 11
801.7619207978437
 21
574.3185799723348
 31
0.0
  0
LINE
  5
21D6
330
2
100
AcDbEntity
  8
A1
 62
     7
370
    30
100
AcDbLine
 10
801.6765944979924
 20
575.8575954536294
 30
0.0
 11
801.4306979734804
 21
575.9889438773144
 31
0.0
  0
LINE
  5
21D7
330
2
100
AcDbEntity
  8
0
 62
     7
370
    30
100
AcDbLine
 10
798.4016864941237
 20
574.3185799723347
 30
0.0
 11
798.5491182475676
 21
574.2563534111548
 31
0.0
  0
LINE
  5
21D8
330
2
100
AcDbEntity
  8
0
 62
     7
370
    30
100
AcDbLine
 10
798.5491182475684
 20
574.2563534111548
 30
0.0
 11
798.4016864941237
 21
574.3185799723348
 31
0.0
  0
LINE
  5
21D9
330
2
100
AcDbEntity
  8
0
 62
     7
370
    30
100
AcDbLine
 10
798.4016864941237
 20
574.3185799723347
 30
0.0
 11
798.4016864941237
 21
574.8163924617748
 31
0.0
  0
LINE
  5
21DA
330
2
100
AcDbEntity
  8
0
 62
     7
370
    30
100
AcDbLine
 10
798.4016864941237
 20
574.3185799723348
 30
0.0
 11
798.4016864941237
 21
574.806140392874
 31
0.0
  0
LINE
  5
21DB
330
2
100
AcDbEntity
  8
A1
 62
     7
370
    30
100
AcDbLine
 10
798.5191899317101
 20
575.8776238771044
 30
0.0
 11
798.7377085096093
 21
575.9996307348455
 31
0.0
  0
ARC
  5
21DC
330
2
100
AcDbEntity
  8
0
 62
     7
370
    30
100
AcDbCircle
 10
798.7128193000237
 20
575.3142049512148
 30
0.0
 40
0.5957627198174097
100
AcDbArc
 50
108.9662344031036
 51
238.5171836301427
  0
LINE
  5
21DD
330
2
100
AcDbEntity
  8
0
 62
     7
370
    30
100
AcDbLine
 10
802.5708660931837
 20
578.5499861325749
 30
0.0
 11
797.5927411987838
 21
578.5499861325749
 31
0.0
  0
LINE
  5
21DE
330
2
100
AcDbEntity
  8
0
 62
     7
370
    30
100
AcDbLine
 10
802.467197196195
 20
578.4255330102148
 30
0.0
 11
797.6843258606711
 21
578.4255330102148
 31
0.0
  0
LINE
  5
21E0
330
2
100
AcDbEntity
  8
0
 62
     7
370
    30
100
AcDbLine
 10
802.4671971961751
 20
578.4255330101908
 30
0.0
 11
797.6843258606711
 21
578.4255330102148
 31
0.0
  0
LINE
  5
21E1
330
2
100
AcDbEntity
  8
0
 62
     7
370
    30
100
AcDbLine
 10
802.5708660931837
 20
578.5499861325749
 30
0.0
 11
797.5927411987838
 21
578.5499861325749
 31
0.0
  0
LINE
  5
21E2
330
2
100
AcDbEntity
  8
0
 62
     7
370
    30
100
AcDbLine
 10
797.5927411987838
 20
581.1635017021349
 30
0.0
 11
802.5708660931837
 21
581.1635017021349
 31
0.0
  0
ARC
  5
21E3
330
2
100
AcDbEntity
  8
0
 62
     7
370
    30
100
AcDbCircle
 10
798.8934568660131
 20
578.5129623580927
 30
0.0
 40
1.212287787181585
100
AcDbArc
 50
184.1357219839219
 51
266.9662672764073
  0
LINE
  5
21E7
330
2
100
AcDbEntity
  8
0
 62
     7
370
    30
100
AcDbLine
 10
801.3183603309299
 20
576.8076424195347
 30
0.0
 11
798.8292978837299
 21
576.8076424195347
 31
0.0
  0
LINE
  5
21E8
330
2
100
AcDbEntity
  8
0
 62
     7
370
    30
100
AcDbLine
 10
801.3254342823607
 20
576.8076424195348
 30
0.0
 11
798.8292978837298
 21
576.8076424195348
 31
0.0
  0
LINE
  5
21E9
330
2
100
AcDbEntity
  8
A1
 62
     7
370
    30
100
AcDbLine
 10
798.8292978837299
 20
577.2933013059591
 30
0.0
 11
801.3254342823607
 21
577.3025478756958
 31
0.0
  0
LINE
  5
21EA
330
2
100
AcDbEntity
  8
0
 62
     7
370
    30
100
AcDbLine
 10
800.0818036459838
 20
581.1635017021347
 30
0.0
 11
802.5708660931837
 21
581.1635017021347
 31
0.0
  0
LINE
  5
21EB
330
2
100
AcDbEntity
  8
0
 62
     7
370
    30
100
AcDbLine
 10
801.3183603309299
 20
576.8076424195347
 30
0.0
 11
801.3254342823607
 21
576.8076424195347
 31
0.0
  0
LINE
  5
21EC
330
2
100
AcDbEntity
  8
0
 62
     7
370
    30
100
AcDbLine
 10
801.3254342823607
 20
577.3054549089748
 30
0.0
 11
801.3254342823607
 21
576.8076424195347
 31
0.0
  0
LINE
  5
21ED
330
2
100
AcDbEntity
  8
0
 62
     7
370
    30
100
AcDbLine
 10
801.3254342823607
 20
577.3025478757069
 30
0.0
 11
801.3254342823607
 21
576.8076424195348
 31
0.0
  0
LINE
  5
21EE
330
2
100
AcDbEntity
  8
0
 62
     7
370
    30
100
AcDbLine
 10
802.5708660931837
 20
581.1635017021347
 30
0.0
 11
802.5708660931837
 21
578.5499861325749
 31
0.0
  0
LINE
  5
21EF
330
2
100
AcDbEntity
  8
0
 62
     7
370
    30
100
AcDbLine
 10
802.5708660931837
 20
578.5499861325749
 30
0.0
 11
802.467197196195
 21
578.4255330102148
 31
0.0
  0
POINT
  5
21F0
330
2
100
AcDbEntity
  8
0
 62
     7
370
    30
100
AcDbPoint
 10
802.5708660931837
 20
581.1635017021347
 30
0.0
  0
POINT
  5
21F1
330
2
100
AcDbEntity
  8
0
 62
     7
370
    30
100
AcDbPoint
 10
802.5708660931837
 20
581.1635017021347
 30
0.0
  0
LINE
  5
21F2
330
2
100
AcDbEntity
  8
0
 62
     7
370
    30
100
AcDbLine
 10
802.5708660931837
 20
578.5499861325749
 30
0.0
 11
802.4671971961751
 21
578.4255330101908
 31
0.0
  0
LINE
  5
21F3
330
2
100
AcDbEntity
  8
0
 62
     7
370
    30
100
AcDbLine
 10
802.5708660931837
 20
581.1635017021347
 30
0.0
 11
802.5708660931837
 21
578.5499861325749
 31
0.0
  0
ARC
  5
21F4
330
2
100
AcDbEntity
  8
0
 62
     7
370
    30
100
AcDbCircle
 10
801.2580661908531
 20
578.5129623580927
 30
0.0
 40
1.212287787181585
100
AcDbArc
 50
273.1856270267261
 51
355.8642780160781
  0
LINE
  5
21F8
330
2
100
AcDbEntity
  8
0
 62
     7
370
    30
100
AcDbLine
 10
798.8292978837299
 20
576.8076424195347
 30
0.0
 11
798.8292978837299
 21
577.2933013059591
 31
0.0
  0
LINE
  5
21F9
330
2
100
AcDbEntity
  8
0
 62
     7
370
    30
100
AcDbLine
 10
798.8292978837298
 20
576.8076424195348
 30
0.0
 11
798.8292978837002
 21
577.302373532794
 31
0.0
  0
LINE
  5
21FA
330
2
100
AcDbEntity
  8
LINEWORK
  6
DASHED
 62
     7
 48
2.0
370
    30
100
AcDbLine
 10
800.3318036459837
 20
583.4002743857389
 30
0.0
 11
799.8318036459838
 21
583.4002743857389
 31
0.0
  0
LINE
  5
21FD
330
2
100
AcDbEntity
  8
LINEWORK
  6
DASHED
 62
     7
 48
2.0
370
    30
100
AcDbLine
 10
800.3318036459837
 20
579.4002743857389
 30
0.0
 11
800.3318036459837
 21
583.4002743857389
 31
0.0
  0
LINE
  5
21FE
330
2
100
AcDbEntity
  8
LINEWORK
  6
DASHED
 62
     7
 48
2.0
370
    30
100
AcDbLine
 10
799.8318036459838
 20
583.4002743857389
 30
0.0
 11
799.8318036459838
 21
579.4002743857389
 31
0.0
  0
LINE
  5
21FF
330
2
100
AcDbEntity
  8
leaders
 62
     7
370
    30
100
AcDbLine
 10
803.7512391434891
 20
584.4260017021348
 30
0.0
 11
793.1779544015352
 21
584.4260017021347
 31
0.0
  0
LINE
  5
2200
330
2
100
AcDbEntity
  8
leaders
 62
     7
370
    30
100
AcDbLine
 10
803.063739143489
 20
585.3885017021349
 30
0.0
 11
792.9129248514306
 21
585.3885017021351
 31
0.0
  0
LINE
  5
2202
330
2
100
AcDbEntity
  8
0
 62
     7
370
    30
100
AcDbLine
 10
797.5927411987838
 20
579.0540868857376
 30
0.0
 11
797.5927411987838
 21
581.1635017021349
 31
0.0
  0
LINE
  5
2203
330
2
100
AcDbEntity
  8
0
 62
     7
370
    30
100
AcDbLine
 10
797.5927411987838
 20
581.1635017021347
 30
0.0
 11
797.5927411987838
 21
578.5499861325749
 31
0.0
  0
LINE
  5
2204
330
2
100
AcDbEntity
  8
0
 62
     7
370
    30
100
AcDbLine
 10
797.5927411987838
 20
578.5499861325749
 30
0.0
 11
797.6843258606711
 21
578.4255330102148
 31
0.0
  0
POINT
  5
2205
330
2
100
AcDbEntity
  8
0
 62
     7
370
    30
100
AcDbPoint
 10
797.5927411987838
 20
581.1635017021347
 30
0.0
  0
LINE
  5
2206
330
2
100
AcDbEntity
  8
0
 62
     7
370
    30
100
AcDbLine
 10
797.6843258606711
 20
578.4255330102148
 30
0.0
 11
797.5927411987838
 21
578.5499861325749
 31
0.0
  0
LINE
  5
2207
330
2
100
AcDbEntity
  8
0
 62
     7
370
    30
100
AcDbLine
 10
797.5927411987838
 20
578.5499861325749
 30
0.0
 11
797.5927411987838
 21
581.1635017021347
 31
0.0
  0
LINE
  5
2208
330
2
100
AcDbEntity
  8
TEXT
 62
     7
370
    30
100
AcDbLine
 10
799.8318036459838
 20
579.4002743857389
 30
0.0
 11
800.3318036459837
 21
579.4002743857389
 31
0.0
  0
ARC
  5
22FF
330
2
100
AcDbEntity
  8
0
 62
     7
370
    30
100
AcDbCircle
 10
770.1107947765271
 20
561.6613648954342
 30
0.0
 40
0.4978124894400001
100
AcDbArc
 50
131.8156234427623
 51
240.8237906552029
  0
ARC
  5
2300
330
2
100
AcDbEntity
  8
0
 62
     7
370
    30
100
AcDbCircle
 10
768.7729237111572
 20
549.8383182712342
 30
0.0
 40
3.049101497819999
100
AcDbArc
 50
159.336630481459
 51
235.1500954209545
  0
ARC
  5
2301
330
2
100
AcDbEntity
  8
0
 62
     7
370
    30
100
AcDbCircle
 10
768.7729237111577
 20
549.8383182712366
 30
0.0
 40
3.049101497820003
100
AcDbArc
 50
164.8815986023474
 51
235.1500954209383
  0
ARC
  5
2302
330
2
100
AcDbEntity
  8
0
 62
     7
370
    30
100
AcDbCircle
 10
768.2711905926976
 20
549.8487719355366
 30
0.0
 40
3.049101497820061
100
AcDbArc
 50
304.9397270199655
 51
20.45357319038661
  0
ARC
  5
2303
330
2
100
AcDbEntity
  8
0
 62
     7
370
    30
100
AcDbCircle
 10
768.2751112217219
 20
549.8383182712327
 30
0.0
 40
3.049101497816084
100
AcDbArc
 50
304.8499045789893
 51
20.66336951848227
  0
ARC
  5
2305
330
2
100
AcDbEntity
  8
0
 62
     7
370
    30
100
AcDbCircle
 10
770.6086072659672
 20
543.9890215203142
 30
0.0
 40
0.5311275301077292
100
AcDbArc
 50
287.0315588425851
 51
72.9684411574148
  0
LINE
  5
2306
330
2
100
AcDbEntity
  8
0
 62
     7
370
    30
100
AcDbLine
 10
770.7641736689171
 20
543.1178496637943
 30
0.0
 11
771.3242127195371
 21
542.8689434190742
 31
0.0
  0
LINE
  5
2307
330
2
100
AcDbEntity
  8
0
 62
     7
370
    30
100
AcDbLine
 10
771.3242127195371
 20
542.8689434190742
 30
0.0
 11
770.7641736689172
 21
543.1178496637943
 31
0.0
  0
ARC
  5
2308
330
2
100
AcDbEntity
  8
0
 62
     7
370
    30
100
AcDbCircle
 10
768.6556156693449
 20
514.2791880901138
 30
0.0
 40
28.73968549999317
100
AcDbArc
 50
84.66008033607456
 51
95.85504351536561
  0
LINE
  5
2309
330
2
100
AcDbEntity
  8
0
 62
     7
370
    30
100
AcDbLine
 10
765.7238222133383
 20
542.8689434190747
 30
0.0
 11
765.7238222133361
 21
538.3203294668008
 31
0.0
  0
LINE
  5
230A
330
2
100
AcDbEntity
  8
0
 62
     7
370
    30
100
AcDbLine
 10
770.7641736689171
 20
544.4868340097543
 30
0.0
 11
770.7641736689171
 21
544.9846464991942
 31
0.0
  0
LINE
  5
230B
330
2
100
AcDbEntity
  8
0
 62
     7
370
    30
100
AcDbLine
 10
770.7641736689171
 20
543.1178496637943
 30
0.0
 11
770.7641736689171
 21
543.4912090308741
 31
0.0
  0
LINE
  5
230C
330
2
100
AcDbEntity
  8
0
 62
     7
370
    30
100
AcDbLine
 10
770.7641736689171
 20
543.1178496637945
 30
0.0
 11
770.7641736689171
 21
543.48118734706
 31
0.0
  0
LINE
  5
230D
330
2
100
AcDbEntity
  8
0
 62
     7
370
    30
100
AcDbLine
 10
770.7641736689171
 20
544.9846464991942
 30
0.0
 11
770.7641736689171
 21
544.4968556935684
 31
0.0
  0
LINE
  5
230E
330
2
100
AcDbEntity
  8
0
 62
     7
370
    30
100
AcDbLine
 10
768.5240174664372
 20
546.2291777227943
 30
0.0
 11
767.0591707441852
 21
546.2291777227943
 31
0.0
  0
LINE
  5
230F
330
2
100
AcDbEntity
  8
0
 62
     7
370
    30
100
AcDbLine
 10
767.0305799981171
 20
547.3492558240342
 30
0.0
 11
770.0174549347572
 21
547.3492558240342
 31
0.0
  0
LINE
  5
2310
330
2
100
AcDbEntity
  8
0
 62
     7
370
    30
100
AcDbLine
 10
767.0305799981171
 20
547.3492558240342
 30
0.0
 11
770.0174549347572
 21
547.3492558240342
 31
0.0
  0
LINE
  5
2311
330
2
100
AcDbEntity
  8
0
 62
     7
370
    30
100
AcDbLine
 10
767.0305799981171
 20
546.9758964569543
 30
0.0
 11
770.0174549347572
 21
546.9758964569543
 31
0.0
  0
LINE
  5
2312
330
2
100
AcDbEntity
  8
0
 62
     7
370
    30
100
AcDbLine
 10
767.0591707441852
 20
546.2291777227943
 30
0.0
 11
769.988864188689
 21
546.2291777227943
 31
0.0
  0
LINE
  5
2313
330
2
100
AcDbEntity
  8
0
 62
     7
370
    30
100
AcDbLine
 10
770.0174549347572
 20
546.9758964569543
 30
0.0
 11
767.0305799981171
 21
546.9794216176731
 31
0.0
  0
LINE
  5
2314
330
2
100
AcDbEntity
  8
0
 62
     7
370
    30
100
AcDbLine
 10
767.0609319655198
 20
546.2291777227943
 30
0.0
 11
769.985433605481
 21
546.2291777227943
 31
0.0
  0
LINE
  5
2315
330
2
100
AcDbEntity
  8
0
 62
     7
370
    30
100
AcDbLine
 10
768.5240174664372
 20
543.1178496637943
 30
0.0
 11
766.2838612639571
 21
543.1178496637943
 31
0.0
  0
ARC
  5
2316
330
2
100
AcDbEntity
  8
0
 62
     7
370
    30
100
AcDbCircle
 10
767.2609303201483
 20
546.6130047920524
 30
0.0
 40
0.4328077644545648
100
AcDbArc
 50
122.1557891493676
 51
242.4776155606276
  0
ARC
  5
2317
330
2
100
AcDbEntity
  8
0
 62
     7
370
    30
100
AcDbCircle
 10
767.2664562166872
 20
546.6132283484678
 30
0.0
 40
0.4355859282600059
100
AcDbArc
 50
122.7868162057807
 51
241.8465885129508
  0
ARC
  5
2318
330
2
100
AcDbEntity
  8
0
 62
     7
370
    30
100
AcDbCircle
 10
766.4394276669071
 20
543.9890215203142
 30
0.0
 40
0.5311275301077292
100
AcDbArc
 50
107.0315588425923
 51
252.9684411574076
  0
LINE
  5
2319
330
2
100
AcDbEntity
  8
0
 62
     7
370
    30
100
AcDbLine
 10
765.7238222133371
 20
542.8689434190742
 30
0.0
 11
766.2838612639571
 21
543.1178496637943
 31
0.0
  0
LINE
  5
231A
330
2
100
AcDbEntity
  8
0
 62
     7
370
    30
100
AcDbLine
 10
766.2838612639571
 20
544.4868340097543
 30
0.0
 11
766.2838612639571
 21
544.9846464991942
 31
0.0
  0
LINE
  5
231B
330
2
100
AcDbEntity
  8
0
 62
     7
370
    30
100
AcDbLine
 10
766.2838612639571
 20
543.1178496637943
 30
0.0
 11
766.2838612639571
 21
543.4912090308741
 31
0.0
  0
LINE
  5
231C
330
2
100
AcDbEntity
  8
0
 62
     7
370
    30
100
AcDbLine
 10
766.2838612639079
 20
543.4811873470741
 30
0.0
 11
766.2838612639571
 21
543.1178496637943
 31
0.0
  0
LINE
  5
231D
330
2
100
AcDbEntity
  8
0
 62
     7
370
    30
100
AcDbLine
 10
766.2838612639571
 20
544.4968556935544
 30
0.0
 11
766.2838612639571
 21
544.9846464991942
 31
0.0
  0
LINE
  5
231E
330
2
100
AcDbEntity
  8
0
 62
     7
370
    30
100
AcDbLine
 10
766.2838612639571
 20
543.1178496637943
 30
0.0
 11
765.7238222133383
 21
542.8689434190747
 31
0.0
  0
ARC
  5
231F
330
2
100
AcDbEntity
  8
0
 62
     7
370
    30
100
AcDbCircle
 10
765.474915968617
 20
546.3536308451543
 30
0.0
 40
1.589135542858315
100
AcDbArc
 50
300.5765072230285
 51
355.5082825604374
  0
ARC
  5
2320
330
2
100
AcDbEntity
  8
0
 62
     7
370
    30
100
AcDbCircle
 10
765.4492375549665
 20
546.3706382840911
 30
0.0
 40
1.617890590679964
100
AcDbArc
 50
301.0557276764
 51
354.983927846311
  0
LINE
  5
2321
330
2
100
AcDbEntity
  8
0
 62
     7
370
    30
100
AcDbLine
 10
767.0305799981171
 20
546.9758964569543
 30
0.0
 11
767.0305799981171
 21
547.3492558240342
 31
0.0
  0
LINE
  5
2322
330
2
100
AcDbEntity
  8
0
 62
     7
370
    30
100
AcDbLine
 10
767.0305799981171
 20
546.9794216176731
 30
0.0
 11
767.0305799981171
 21
547.3360676183971
 31
0.0
  0
ARC
  5
2323
330
2
100
AcDbEntity
  8
0
 62
     7
370
    30
100
AcDbCircle
 10
769.7873151329225
 20
546.6139784917967
 30
0.0
 40
0.4328077644545648
100
AcDbArc
 50
297.2421211055541
 51
57.87712348201701
  0
ARC
  5
2324
330
2
100
AcDbEntity
  8
0
 62
     7
370
    30
100
AcDbCircle
 10
769.7833207304234
 20
546.6132180691959
 30
0.0
 40
0.435585928259961
100
AcDbArc
 50
298.1562769950122
 51
57.48532966449769
  0
LINE
  5
2325
330
2
100
AcDbEntity
  8
0
 62
     7
370
    30
100
AcDbLine
 10
770.0174549347572
 20
547.3492558240342
 30
0.0
 11
770.0174549347572
 21
546.9758964569543
 31
0.0
  0
LINE
  5
2326
330
2
100
AcDbEntity
  8
0
 62
     7
370
    30
100
AcDbLine
 10
770.0174549347572
 20
547.3492558240342
 30
0.0
 11
770.0174549347572
 21
546.9758964569543
 31
0.0
  0
LINE
  5
2327
330
2
100
AcDbEntity
  8
0
 62
     7
370
    30
100
AcDbLine
 10
766.2838612639571
 20
544.9846464991942
 30
0.0
 11
770.7641736689171
 21
544.9846464991942
 31
0.0
  0
LINE
  5
2328
330
2
100
AcDbEntity
  8
0
 62
     7
370
    30
100
AcDbLine
 10
766.2838612639571
 20
544.4868340097543
 30
0.0
 11
770.7641736689171
 21
544.4868340097543
 31
0.0
  0
LINE
  5
2329
330
2
100
AcDbEntity
  8
0
 62
     7
370
    30
100
AcDbLine
 10
766.2838612639571
 20
543.4912090308741
 30
0.0
 11
770.7641736689171
 21
543.4912090308741
 31
0.0
  0
LINE
  5
232A
330
2
100
AcDbEntity
  8
0
 62
     7
370
    30
100
AcDbLine
 10
766.2838612639571
 20
543.1178496637943
 30
0.0
 11
770.7641736689171
 21
543.1178496637943
 31
0.0
  0
LINE
  5
232B
330
2
100
AcDbEntity
  8
0
 62
     7
370
    30
100
AcDbLine
 10
766.2838612639571
 20
543.1178496637943
 30
0.0
 11
770.7641736689171
 21
543.1178496637945
 31
0.0
  0
LINE
  5
232C
330
2
100
AcDbEntity
  8
0
 62
     7
370
    30
100
AcDbLine
 10
770.7641736689171
 20
544.9846464991942
 30
0.0
 11
766.2838612639571
 21
544.9846464991942
 31
0.0
  0
ARC
  5
232D
330
2
100
AcDbEntity
  8
0
 62
     7
370
    30
100
AcDbCircle
 10
771.573118964257
 20
546.3536308451543
 30
0.0
 40
1.589135542858315
100
AcDbArc
 50
184.4917174395625
 51
239.4239588348153
  0
ARC
  5
232E
330
2
100
AcDbEntity
  8
0
 62
     7
370
    30
100
AcDbCircle
 10
771.5970346293743
 20
546.3716982588477
 30
0.0
 40
1.617890590680016
100
AcDbArc
 50
185.0537553750897
 51
239.0171150583676
  0
LINE
  5
2334
330
2
100
AcDbEntity
  8
LINEWORK
  6
DASHED
 62
     7
 48
2.0
370
    30
100
AcDbLine
 10
768.2740174664371
 20
541.6630437287158
 30
0.0
 11
768.7740174664371
 21
541.6630437287158
 31
0.0
  0
LINE
  5
2335
330
2
100
AcDbEntity
  8
LINEWORK
  6
DASHED
 62
     7
 48
2.0
370
    30
100
AcDbLine
 10
768.7740174664371
 20
537.6630437287158
 30
0.0
 11
768.2740174664371
 21
537.6630437287158
 31
0.0
  0
LINE
  5
2336
330
2
100
AcDbEntity
  8
LINEWORK
  6
DASHED
 62
     7
 48
2.0
370
    30
100
AcDbLine
 10
768.7740174664371
 20
541.6630437287158
 30
0.0
 11
768.7740174664371
 21
537.6630437287158
 31
0.0
  0
LINE
  5
2337
330
2
100
AcDbEntity
  8
LINEWORK
  6
DASHED
 62
     7
 48
2.0
370
    30
100
AcDbLine
 10
768.2740174664371
 20
537.6630437287158
 30
0.0
 11
768.2740174664371
 21
541.6630437287158
 31
0.0
  0
LINE
  5
233A
330
2
100
AcDbEntity
  8
0
 62
     7
370
    30
100
AcDbLine
 10
771.3242127195372
 20
541.553716433123
 30
0.0
 11
771.3242127195371
 21
542.8689434190742
 31
0.0
  0
ARC
  5
233C
330
2
100
AcDbEntity
  8
0
 62
     7
370
    30
100
AcDbCircle
 10
793.9124544278773
 20
558.1144509081753
 30
0.0
 40
23.89499949312021
100
AcDbArc
 50
176.7156308916362
 51
197.5372407408331
  0
ARC
  5
233D
330
2
100
AcDbEntity
  8
0
 62
     7
370
    30
100
AcDbCircle
 10
793.912454427877
 20
558.1144509081743
 30
0.0
 40
23.89499949311992
100
AcDbArc
 50
176.7156308916329
 51
198.2445301754376
  0
LINE
  5
233E
330
2
100
AcDbEntity
  8
0
 62
     7
370
    30
100
AcDbLine
 10
768.5240174664372
 20
559.5456618153142
 30
0.0
 11
766.843900314577
 21
559.5456618153142
 31
0.0
  0
LINE
  5
233F
330
2
100
AcDbEntity
  8
0
 62
     7
370
    30
100
AcDbLine
 10
766.843900314577
 20
560.0434743047543
 30
0.0
 11
770.2041346182972
 21
560.0434743047543
 31
0.0
  0
LINE
  5
2340
330
2
100
AcDbEntity
  8
0
 62
     7
370
    30
100
AcDbLine
 10
766.843900314577
 20
559.5456618153142
 30
0.0
 11
770.2041346182972
 21
559.5456618153142
 31
0.0
  0
LINE
  5
2341
330
2
100
AcDbEntity
  8
0
 62
     7
370
    30
100
AcDbLine
 10
766.9913320680211
 20
559.4834352541343
 30
0.0
 11
770.0567028648532
 21
559.4834352541343
 31
0.0
  0
LINE
  5
2342
330
2
100
AcDbEntity
  8
0
 62
     7
370
    30
100
AcDbLine
 10
766.9913320680221
 20
559.4834352541339
 30
0.0
 11
770.0567028648525
 21
559.4834352541343
 31
0.0
  0
LINE
  5
2343
330
2
100
AcDbEntity
  8
0
 62
     7
370
    30
100
AcDbLine
 10
766.843900314577
 20
559.5456618153143
 30
0.0
 11
770.2041346182972
 21
559.5456618153143
 31
0.0
  0
LINE
  5
2344
330
2
100
AcDbEntity
  8
0
 62
     7
370
    30
100
AcDbLine
 10
766.843900314577
 20
559.5456618153142
 30
0.0
 11
766.9913320680211
 21
559.4834352541343
 31
0.0
  0
LINE
  5
2345
330
2
100
AcDbEntity
  8
0
 62
     7
370
    30
100
AcDbLine
 10
766.843900314577
 20
559.5456618153143
 30
0.0
 11
766.9913320680221
 21
559.4834352541339
 31
0.0
  0
ARC
  5
2346
330
2
100
AcDbEntity
  8
0
 62
     7
370
    30
100
AcDbCircle
 10
743.1355805049971
 20
558.1144509081743
 30
0.0
 40
23.89499949311999
100
AcDbArc
 50
341.7554698245592
 51
3.284369108363738
  0
ARC
  5
2347
330
2
100
AcDbEntity
  8
0
 62
     7
370
    30
100
AcDbCircle
 10
743.1355805049975
 20
558.1144509081751
 30
0.0
 40
23.8949994931199
100
AcDbArc
 50
341.7554698245592
 51
3.284369108363738
  0
ARC
  5
2348
330
2
100
AcDbEntity
  8
0
 62
     7
370
    30
100
AcDbCircle
 10
767.1239198398871
 20
560.5412867941943
 30
0.0
 40
0.5772163287311298
100
AcDbArc
 50
109.7122663506774
 51
240.979626634231
  0
LINE
  5
2349
330
2
100
AcDbEntity
  8
0
 62
     7
370
    30
100
AcDbLine
 10
766.843900314577
 20
559.5456618153142
 30
0.0
 11
766.843900314577
 21
560.0434743047543
 31
0.0
  0
LINE
  5
234A
330
2
100
AcDbEntity
  8
0
 62
     7
370
    30
100
AcDbLine
 10
766.8439003149079
 20
560.0365415556985
 30
0.0
 11
766.843900314577
 21
559.5456618153143
 31
0.0
  0
LINE
  5
234B
330
2
100
AcDbEntity
  8
A1
 62
     7
370
    30
100
AcDbLine
 10
766.9292266144284
 20
561.0846772966088
 30
0.0
 11
767.1751231389405
 21
561.2160257202939
 31
0.0
  0
LINE
  5
234C
330
2
100
AcDbEntity
  8
0
 62
     7
370
    30
100
AcDbLine
 10
770.2041346182972
 20
559.5456618153142
 30
0.0
 11
770.0567028648532
 21
559.4834352541343
 31
0.0
  0
LINE
  5
234D
330
2
100
AcDbEntity
  8
0
 62
     7
370
    30
100
AcDbLine
 10
770.0567028648525
 20
559.4834352541343
 30
0.0
 11
770.2041346182972
 21
559.5456618153143
 31
0.0
  0
LINE
  5
234E
330
2
100
AcDbEntity
  8
0
 62
     7
370
    30
100
AcDbLine
 10
770.2041346182972
 20
559.5456618153142
 30
0.0
 11
770.2041346182972
 21
560.0434743047543
 31
0.0
  0
LINE
  5
234F
330
2
100
AcDbEntity
  8
0
 62
     7
370
    30
100
AcDbLine
 10
770.2041346182972
 20
559.5456618153143
 30
0.0
 11
770.2041346182972
 21
560.0332222358535
 31
0.0
  0
LINE
  5
2350
330
2
100
AcDbEntity
  8
A1
 62
     7
370
    30
100
AcDbLine
 10
770.0866311807108
 20
561.1047057200839
 30
0.0
 11
769.8681126028116
 21
561.226712577825
 31
0.0
  0
ARC
  5
2351
330
2
100
AcDbEntity
  8
0
 62
     7
370
    30
100
AcDbCircle
 10
769.8930018123972
 20
560.5412867941943
 30
0.0
 40
0.5957627198174097
100
AcDbArc
 50
301.4828163698571
 51
71.03376559689633
  0
LINE
  5
2352
330
2
100
AcDbEntity
  8
0
 62
     7
370
    30
100
AcDbLine
 10
766.0349550192371
 20
563.7770679755544
 30
0.0
 11
771.0130799136371
 21
563.7770679755544
 31
0.0
  0
LINE
  5
2353
330
2
100
AcDbEntity
  8
0
 62
     7
370
    30
100
AcDbLine
 10
766.1386239162258
 20
563.6526148531943
 30
0.0
 11
770.9214952517497
 21
563.6526148531943
 31
0.0
  0
LINE
  5
2355
330
2
100
AcDbEntity
  8
0
 62
     7
370
    30
100
AcDbLine
 10
766.1386239162458
 20
563.6526148531703
 30
0.0
 11
770.9214952517497
 21
563.6526148531943
 31
0.0
  0
LINE
  5
2356
330
2
100
AcDbEntity
  8
0
 62
     7
370
    30
100
AcDbLine
 10
766.0349550192371
 20
563.7770679755544
 30
0.0
 11
771.0130799136371
 21
563.7770679755544
 31
0.0
  0
ARC
  5
2358
330
2
100
AcDbEntity
  8
0
 62
     7
370
    30
100
AcDbCircle
 10
769.7123642464077
 20
563.7400442010722
 30
0.0
 40
1.212287787181585
100
AcDbArc
 50
273.0337327235926
 51
355.8642780160781
  0
LINE
  5
235A
330
2
100
AcDbEntity
  8
0
 62
     7
370
    30
100
AcDbLine
 10
767.2874607814909
 20
562.0347242625142
 30
0.0
 11
769.776523228691
 21
562.0347242625142
 31
0.0
  0
LINE
  5
235B
330
2
100
AcDbEntity
  8
0
 62
     7
370
    30
100
AcDbLine
 10
767.2803868300601
 20
562.0347242625143
 30
0.0
 11
769.7765232286911
 21
562.0347242625143
 31
0.0
  0
LINE
  5
235C
330
2
100
AcDbEntity
  8
A1
 62
     7
370
    30
100
AcDbLine
 10
769.776523228691
 20
562.5203831489386
 30
0.0
 11
767.2803868300601
 21
562.5296297186753
 31
0.0
  0
LINE
  5
235E
330
2
100
AcDbEntity
  8
0
 62
     7
370
    30
100
AcDbLine
 10
767.2874607814909
 20
562.0347242625142
 30
0.0
 11
767.2803868300601
 21
562.0347242625142
 31
0.0
  0
LINE
  5
235F
330
2
100
AcDbEntity
  8
0
 62
     7
370
    30
100
AcDbLine
 10
767.2803868300601
 20
562.5325367519543
 30
0.0
 11
767.2803868300601
 21
562.0347242625142
 31
0.0
  0
LINE
  5
2360
330
2
100
AcDbEntity
  8
0
 62
     7
370
    30
100
AcDbLine
 10
767.2803868300601
 20
562.5296297186863
 30
0.0
 11
767.2803868300601
 21
562.0347242625143
 31
0.0
  0
LINE
  5
2361
330
2
100
AcDbEntity
  8
0
 62
     7
370
    30
100
AcDbLine
 10
766.0349550192371
 20
565.0707129948839
 30
0.0
 11
766.0349550192371
 21
563.7770679755544
 31
0.0
  0
LINE
  5
2362
330
2
100
AcDbEntity
  8
0
 62
     7
370
    30
100
AcDbLine
 10
766.0349550192371
 20
563.7770679755544
 30
0.0
 11
766.1386239162258
 21
563.6526148531943
 31
0.0
  0
LINE
  5
2365
330
2
100
AcDbEntity
  8
0
 62
     7
370
    30
100
AcDbLine
 10
766.0349550192371
 20
563.7770679755544
 30
0.0
 11
766.1386239162458
 21
563.6526148531703
 31
0.0
  0
LINE
  5
2366
330
2
100
AcDbEntity
  8
0
 62
     7
370
    30
100
AcDbLine
 10
766.0349550192371
 20
564.9096793764076
 30
0.0
 11
766.0349550192371
 21
563.7770679755544
 31
0.0
  0
ARC
  5
2367
330
2
100
AcDbEntity
  8
0
 62
     7
370
    30
100
AcDbCircle
 10
767.3477549215678
 20
563.7400442010722
 30
0.0
 40
1.212287787181585
100
AcDbArc
 50
184.1357219839219
 51
266.8143729732739
  0
LINE
  5
236B
330
2
100
AcDbEntity
  8
0
 62
     7
370
    30
100
AcDbLine
 10
769.776523228691
 20
562.0347242625142
 30
0.0
 11
769.776523228691
 21
562.5203831489386
 31
0.0
  0
LINE
  5
236C
330
2
100
AcDbEntity
  8
0
 62
     7
370
    30
100
AcDbLine
 10
769.7765232286911
 20
562.0347242625143
 30
0.0
 11
769.7765232287207
 21
562.5294553757735
 31
0.0
  0
LINE
  5
236D
330
2
100
AcDbEntity
  8
LINEWORK
  6
DASHED
 62
     7
 48
2.0
370
    30
100
AcDbLine
 10
768.2740174664371
 20
568.6273562287184
 30
0.0
 11
768.7740174664371
 21
568.6273562287184
 31
0.0
  0
LINE
  5
2370
330
2
100
AcDbEntity
  8
LINEWORK
  6
DASHED
 62
     7
 48
2.0
370
    30
100
AcDbLine
 10
768.2740174664371
 20
564.6273562287184
 30
0.0
 11
768.2740174664371
 21
568.6273562287184
 31
0.0
  0
LINE
  5
2371
330
2
100
AcDbEntity
  8
LINEWORK
  6
DASHED
 62
     7
 48
2.0
370
    30
100
AcDbLine
 10
768.7740174664371
 20
568.6273562287184
 30
0.0
 11
768.7740174664371
 21
564.6273562287184
 31
0.0
  0
POINT
  5
2372
330
2
100
AcDbEntity
  8
0
 62
     1
370
    30
100
AcDbPoint
 10
771.0130799136371
 20
566.5400562287171
 30
0.0
  0
LINE
  5
2373
330
2
100
AcDbEntity
  8
0
 62
     7
370
    30
100
AcDbLine
 10
771.0130799136371
 20
564.2811687287171
 30
0.0
 11
771.0130799136371
 21
566.3905835451144
 31
0.0
  0
LINE
  5
2374
330
2
100
AcDbEntity
  8
0
 62
     7
370
    30
100
AcDbLine
 10
771.0130799136371
 20
566.3905835451142
 30
0.0
 11
771.0130799136371
 21
563.7770679755544
 31
0.0
  0
LINE
  5
2375
330
2
100
AcDbEntity
  8
0
 62
     7
370
    30
100
AcDbLine
 10
771.0130799136371
 20
563.7770679755544
 30
0.0
 11
770.9214952517497
 21
563.6526148531943
 31
0.0
  0
POINT
  5
2376
330
2
100
AcDbEntity
  8
0
 62
     7
370
    30
100
AcDbPoint
 10
771.0130799136371
 20
566.3905835451142
 30
0.0
  0
LINE
  5
2377
330
2
100
AcDbEntity
  8
0
 62
     7
370
    30
100
AcDbLine
 10
770.9214952517497
 20
563.6526148531943
 30
0.0
 11
771.0130799136371
 21
563.7770679755544
 31
0.0
  0
LINE
  5
2378
330
2
100
AcDbEntity
  8
0
 62
     7
370
    30
100
AcDbLine
 10
771.0130799136371
 20
563.7770679755544
 30
0.0
 11
771.0130799136371
 21
567.9448347427254
 31
0.0
  0
LINE
  5
2484
330
2
100
AcDbEntity
  8
TEXT
 62
     7
370
    30
100
AcDbLine
 10
794.8233968452784
 20
554.6879640119641
 30
0.0
 11
763.8196176184642
 21
536.7879237294671
 31
0.0
  0
ARC
  5
2486
330
2
100
AcDbEntity
  8
0
 62
     7
370
    30
100
AcDbCircle
 10
804.7218213488237
 20
564.3547799295368
 30
0.0
 40
23.89499949311992
100
AcDbArc
 50
176.7156308916329
 51
198.2445301754376
  0
ARC
  5
2487
330
2
100
AcDbEntity
  8
0
 62
     7
370
    30
100
AcDbCircle
 10
804.7218213488241
 20
564.3547799295379
 30
0.0
 40
23.89499949312021
100
AcDbArc
 50
176.7156308916362
 51
197.5372407408331
  0
ARC
  5
2488
330
2
100
AcDbEntity
  8
0
 62
     7
370
    30
100
AcDbCircle
 10
753.9449474259441
 20
564.3547799295377
 30
0.0
 40
23.8949994931199
100
AcDbArc
 50
341.7554698245592
 51
3.284369108363738
  0
ARC
  5
2489
330
2
100
AcDbEntity
  8
0
 62
     7
370
    30
100
AcDbCircle
 10
753.9449474259438
 20
564.3547799295368
 30
0.0
 40
23.89499949311999
100
AcDbArc
 50
341.7554698245592
 51
3.284369108363738
  0
LINE
  5
248A
330
2
100
AcDbEntity
  8
LINEWORK
  6
DASHED
 62
     7
 48
2.0
370
    30
100
AcDbLine
 10
779.5833843873838
 20
543.9033727500783
 30
0.0
 11
779.0833843873838
 21
543.9033727500783
 31
0.0
  0
LINE
  5
248B
330
2
100
AcDbEntity
  8
LINEWORK
  6
DASHED
 62
     7
 48
2.0
370
    30
100
AcDbLine
 10
779.0833843873838
 20
547.9033727500783
 30
0.0
 11
779.5833843873838
 21
547.9033727500783
 31
0.0
  0
LINE
  5
248C
330
2
100
AcDbEntity
  8
0
 62
     7
370
    30
100
AcDbLine
 10
777.8702988864664
 20
552.4695067441569
 30
0.0
 11
780.7948005264277
 21
552.4695067441569
 31
0.0
  0
LINE
  5
248D
330
2
100
AcDbEntity
  8
0
 62
     7
370
    30
100
AcDbLine
 10
780.8268218557039
 20
553.2162254783169
 30
0.0
 11
777.8399469190637
 21
553.2197506390356
 31
0.0
  0
LINE
  5
248E
330
2
100
AcDbEntity
  8
0
 62
     7
370
    30
100
AcDbLine
 10
777.8685376651319
 20
552.4695067441569
 30
0.0
 11
780.7982311096357
 21
552.4695067441569
 31
0.0
  0
LINE
  5
248F
330
2
100
AcDbEntity
  8
0
 62
     7
370
    30
100
AcDbLine
 10
777.8399469190637
 20
553.2162254783169
 30
0.0
 11
780.8268218557039
 21
553.2162254783169
 31
0.0
  0
LINE
  5
2490
330
2
100
AcDbEntity
  8
0
 62
     7
370
    30
100
AcDbLine
 10
777.8399469190637
 20
553.5895848453967
 30
0.0
 11
780.8268218557039
 21
553.5895848453967
 31
0.0
  0
LINE
  5
2491
330
2
100
AcDbEntity
  8
0
 62
     7
370
    30
100
AcDbLine
 10
777.8399469190637
 20
553.5895848453967
 30
0.0
 11
780.8268218557039
 21
553.5895848453967
 31
0.0
  0
LINE
  5
2492
330
2
100
AcDbEntity
  8
0
 62
     7
370
    30
100
AcDbLine
 10
779.3333843873838
 20
552.4695067441569
 30
0.0
 11
777.8685376651319
 21
552.4695067441569
 31
0.0
  0
LINE
  5
2494
330
2
100
AcDbEntity
  8
0
 62
     7
370
    30
100
AcDbLine
 10
781.5735405898638
 20
551.2249755205568
 30
0.0
 11
777.0932281849038
 21
551.2249755205568
 31
0.0
  0
LINE
  5
2495
330
2
100
AcDbEntity
  8
0
 62
     7
370
    30
100
AcDbLine
 10
777.0932281849038
 20
549.3581786851568
 30
0.0
 11
781.5735405898638
 21
549.358178685157
 31
0.0
  0
LINE
  5
2496
330
2
100
AcDbEntity
  8
0
 62
     7
370
    30
100
AcDbLine
 10
777.0932281849038
 20
549.3581786851568
 30
0.0
 11
781.5735405898638
 21
549.3581786851568
 31
0.0
  0
LINE
  5
2497
330
2
100
AcDbEntity
  8
0
 62
     7
370
    30
100
AcDbLine
 10
777.0932281849038
 20
549.7315380522366
 30
0.0
 11
781.5735405898638
 21
549.7315380522366
 31
0.0
  0
LINE
  5
2498
330
2
100
AcDbEntity
  8
0
 62
     7
370
    30
100
AcDbLine
 10
777.0932281849038
 20
550.7271630311168
 30
0.0
 11
781.5735405898638
 21
550.7271630311168
 31
0.0
  0
LINE
  5
2499
330
2
100
AcDbEntity
  8
0
 62
     7
370
    30
100
AcDbLine
 10
777.0932281849038
 20
551.2249755205568
 30
0.0
 11
781.5735405898638
 21
551.2249755205568
 31
0.0
  0
LINE
  5
249A
330
2
100
AcDbEntity
  8
0
 62
     7
370
    30
100
AcDbLine
 10
779.3333843873838
 20
549.3581786851568
 30
0.0
 11
777.0932281849038
 21
549.3581786851568
 31
0.0
  0
ARC
  5
249B
330
2
100
AcDbEntity
  8
0
 62
     7
370
    30
100
AcDbCircle
 10
779.4649825902916
 20
520.5195171114763
 30
0.0
 40
28.73968549999317
100
AcDbArc
 50
84.66008033607456
 51
95.85504351536561
  0
ARC
  5
249C
330
2
100
AcDbEntity
  8
0
 62
     7
370
    30
100
AcDbCircle
 10
776.2586044759132
 20
552.6109673054536
 30
0.0
 40
1.617890590679964
100
AcDbArc
 50
301.0557276764
 51
354.983927846311
  0
ARC
  5
249D
330
2
100
AcDbEntity
  8
0
 62
     7
370
    30
100
AcDbCircle
 10
776.2842828895637
 20
552.5939598665169
 30
0.0
 40
1.589135542858315
100
AcDbArc
 50
300.5765072230285
 51
355.5082825604374
  0
LINE
  5
249E
330
2
100
AcDbEntity
  8
0
 62
     7
370
    30
100
AcDbLine
 10
776.5331891342849
 20
549.1092724404373
 30
0.0
 11
776.5331891342827
 21
544.5606584881633
 31
0.0
  0
LINE
  5
249F
330
2
100
AcDbEntity
  8
LINEWORK
  6
DASHED
 62
     7
 48
2.0
370
    30
100
AcDbLine
 10
779.0833843873838
 20
543.9033727500783
 30
0.0
 11
779.0833843873838
 21
547.9033727500783
 31
0.0
  0
LINE
  5
24A3
330
2
100
AcDbEntity
  8
0
 62
     7
370
    30
100
AcDbLine
 10
777.0932281849038
 20
549.3581786851568
 30
0.0
 11
776.5331891342849
 21
549.1092724404373
 31
0.0
  0
LINE
  5
24A4
330
2
100
AcDbEntity
  8
0
 62
     7
370
    30
100
AcDbLine
 10
777.0932281849038
 20
550.7371847149169
 30
0.0
 11
777.0932281849038
 21
551.2249755205568
 31
0.0
  0
LINE
  5
24A5
330
2
100
AcDbEntity
  8
0
 62
     7
370
    30
100
AcDbLine
 10
777.0932281848546
 20
549.7215163684367
 30
0.0
 11
777.0932281849038
 21
549.3581786851568
 31
0.0
  0
LINE
  5
24A6
330
2
100
AcDbEntity
  8
0
 62
     7
370
    30
100
AcDbLine
 10
777.0932281849038
 20
549.3581786851568
 30
0.0
 11
777.0932281849038
 21
549.7315380522366
 31
0.0
  0
LINE
  5
24A7
330
2
100
AcDbEntity
  8
0
 62
     7
370
    30
100
AcDbLine
 10
777.0932281849038
 20
550.7271630311168
 30
0.0
 11
777.0932281849038
 21
551.2249755205568
 31
0.0
  0
LINE
  5
24A8
330
2
100
AcDbEntity
  8
0
 62
     7
370
    30
100
AcDbLine
 10
776.5331891342838
 20
549.1092724404366
 30
0.0
 11
777.0932281849038
 21
549.3581786851568
 31
0.0
  0
ARC
  5
24A9
330
2
100
AcDbEntity
  8
0
 62
     7
370
    30
100
AcDbCircle
 10
777.2487945878538
 20
550.2293505416767
 30
0.0
 40
0.5311275301077292
100
AcDbArc
 50
107.0315588425923
 51
252.9684411574076
  0
LINE
  5
24AB
330
2
100
AcDbEntity
  8
0
 62
     7
370
    30
100
AcDbLine
 10
777.8399469190637
 20
553.2197506390356
 30
0.0
 11
777.8399469190637
 21
553.5763966397596
 31
0.0
  0
LINE
  5
24AC
330
2
100
AcDbEntity
  8
0
 62
     7
370
    30
100
AcDbLine
 10
777.8399469190637
 20
553.2162254783169
 30
0.0
 11
777.8399469190637
 21
553.5895848453967
 31
0.0
  0
ARC
  5
24AD
330
2
100
AcDbEntity
  8
0
 62
     7
370
    30
100
AcDbCircle
 10
778.0758231376339
 20
552.8535573698303
 30
0.0
 40
0.4355859282600059
100
AcDbArc
 50
122.7868162057807
 51
241.8465885129508
  0
ARC
  5
24AE
330
2
100
AcDbEntity
  8
0
 62
     7
370
    30
100
AcDbCircle
 10
778.070297241095
 20
552.8533338134149
 30
0.0
 40
0.4328077644545648
100
AcDbArc
 50
122.1557891493676
 51
242.4776155606276
  0
ARC
  5
24AF
330
2
100
AcDbEntity
  8
0
 62
     7
370
    30
100
AcDbCircle
 10
779.5822906321044
 20
556.0786472925991
 30
0.0
 40
3.049101497820003
100
AcDbArc
 50
164.8815986023474
 51
235.1500954209383
  0
ARC
  5
24B0
330
2
100
AcDbEntity
  8
0
 62
     7
370
    30
100
AcDbCircle
 10
779.5822906321038
 20
556.0786472925967
 30
0.0
 40
3.049101497819999
100
AcDbArc
 50
159.336630481459
 51
235.1500954209545
  0
ARC
  5
24B1
330
2
100
AcDbEntity
  8
0
 62
     7
370
    30
100
AcDbCircle
 10
782.406401550321
 20
552.6120272802102
 30
0.0
 40
1.617890590680016
100
AcDbArc
 50
185.0537553750897
 51
239.0171150583676
  0
ARC
  5
24B2
330
2
100
AcDbEntity
  8
0
 62
     7
370
    30
100
AcDbCircle
 10
782.3824858852037
 20
552.5939598665169
 30
0.0
 40
1.589135542858315
100
AcDbArc
 50
184.4917174395625
 51
239.4239588348153
  0
LINE
  5
24B3
330
2
100
AcDbEntity
  8
0
 62
     7
370
    30
100
AcDbLine
 10
782.1335796404839
 20
547.7940454544855
 30
0.0
 11
782.1335796404838
 21
549.1092724404366
 31
0.0
  0
LINE
  5
24B5
330
2
100
AcDbEntity
  8
LINEWORK
  6
DASHED
 62
     7
 48
2.0
370
    30
100
AcDbLine
 10
779.5833843873838
 20
547.9033727500783
 30
0.0
 11
779.5833843873838
 21
543.9033727500783
 31
0.0
  0
LINE
  5
24B6
330
2
100
AcDbEntity
  8
0
 62
     7
370
    30
100
AcDbLine
 10
781.5735405898638
 20
551.2249755205568
 30
0.0
 11
781.5735405898638
 21
550.7371847149309
 31
0.0
  0
LINE
  5
24B7
330
2
100
AcDbEntity
  8
0
 62
     7
370
    30
100
AcDbLine
 10
781.5735405898638
 20
549.358178685157
 30
0.0
 11
781.5735405898638
 21
549.7215163684225
 31
0.0
  0
LINE
  5
24B8
330
2
100
AcDbEntity
  8
0
 62
     7
370
    30
100
AcDbLine
 10
781.5735405898638
 20
549.3581786851568
 30
0.0
 11
781.5735405898638
 21
549.7315380522366
 31
0.0
  0
LINE
  5
24B9
330
2
100
AcDbEntity
  8
0
 62
     7
370
    30
100
AcDbLine
 10
781.5735405898638
 20
550.7271630311168
 30
0.0
 11
781.5735405898638
 21
551.2249755205568
 31
0.0
  0
LINE
  5
24BA
330
2
100
AcDbEntity
  8
0
 62
     7
370
    30
100
AcDbLine
 10
782.1335796404838
 20
549.1092724404366
 30
0.0
 11
781.5735405898639
 21
549.3581786851568
 31
0.0
  0
LINE
  5
24BB
330
2
100
AcDbEntity
  8
0
 62
     7
370
    30
100
AcDbLine
 10
781.5735405898638
 20
549.3581786851568
 30
0.0
 11
782.1335796404838
 21
549.1092724404366
 31
0.0
  0
ARC
  5
24BC
330
2
100
AcDbEntity
  8
0
 62
     7
370
    30
100
AcDbCircle
 10
781.4179741869138
 20
550.2293505416767
 30
0.0
 40
0.5311275301077292
100
AcDbArc
 50
287.0315588425851
 51
72.9684411574148
  0
LINE
  5
24BD
330
2
100
AcDbEntity
  8
0
 62
     7
370
    30
100
AcDbLine
 10
780.8268218557039
 20
553.5895848453967
 30
0.0
 11
780.8268218557039
 21
553.2162254783169
 31
0.0
  0
LINE
  5
24BE
330
2
100
AcDbEntity
  8
0
 62
     7
370
    30
100
AcDbLine
 10
780.8268218557039
 20
553.5895848453967
 30
0.0
 11
780.8268218557039
 21
553.2162254783169
 31
0.0
  0
ARC
  5
24BF
330
2
100
AcDbEntity
  8
0
 62
     7
370
    30
100
AcDbCircle
 10
780.5926876513701
 20
552.8535470905584
 30
0.0
 40
0.435585928259961
100
AcDbArc
 50
298.1562769950122
 51
57.48532966449769
  0
ARC
  5
24C0
330
2
100
AcDbEntity
  8
0
 62
     7
370
    30
100
AcDbCircle
 10
780.5966820538691
 20
552.8543075131592
 30
0.0
 40
0.4328077644545648
100
AcDbArc
 50
297.2421211055541
 51
57.87712348201701
  0
ARC
  5
24C1
330
2
100
AcDbEntity
  8
0
 62
     7
370
    30
100
AcDbCircle
 10
779.0844781426685
 20
556.0786472925952
 30
0.0
 40
3.049101497816084
100
AcDbArc
 50
304.8499045789893
 51
20.66336951848227
  0
ARC
  5
24C2
330
2
100
AcDbEntity
  8
0
 62
     7
370
    30
100
AcDbCircle
 10
779.0805575136443
 20
556.0891009568991
 30
0.0
 40
3.049101497820061
100
AcDbArc
 50
304.9397270199655
 51
20.45357319038661
  0
LINE
  5
24C4
330
2
100
AcDbEntity
  8
LINEWORK
  6
DASHED
 62
     7
 48
2.0
370
    30
100
AcDbLine
 10
779.0833843873838
 20
574.867685250081
 30
0.0
 11
779.5833843873838
 21
574.867685250081
 31
0.0
  0
LINE
  5
24C5
330
2
100
AcDbEntity
  8
A1
 62
     7
370
    30
100
AcDbLine
 10
780.5858901496376
 20
568.7607121703011
 30
0.0
 11
778.0897537510067
 21
568.7699587400378
 31
0.0
  0
LINE
  5
24C6
330
2
100
AcDbEntity
  8
0
 62
     7
370
    30
100
AcDbLine
 10
778.0897537510067
 20
568.2750532838769
 30
0.0
 11
780.5858901496377
 21
568.2750532838769
 31
0.0
  0
LINE
  5
24C7
330
2
100
AcDbEntity
  8
0
 62
     7
370
    30
100
AcDbLine
 10
778.0968277024376
 20
568.2750532838768
 30
0.0
 11
780.5858901496376
 21
568.2750532838768
 31
0.0
  0
LINE
  5
24C8
330
2
100
AcDbEntity
  8
0
 62
     7
370
    30
100
AcDbLine
 10
776.8443219401838
 20
570.0173969969169
 30
0.0
 11
781.8224468345838
 21
570.0173969969169
 31
0.0
  0
LINE
  5
24C9
330
2
100
AcDbEntity
  8
0
 62
     7
370
    30
100
AcDbLine
 10
776.9479908371924
 20
569.8929438745328
 30
0.0
 11
781.7308621726964
 21
569.8929438745568
 31
0.0
  0
LINE
  5
24CA
330
2
100
AcDbEntity
  8
0
 62
     7
370
    30
100
AcDbLine
 10
776.9479908371724
 20
569.8929438745568
 30
0.0
 11
781.7308621726964
 21
569.8929438745568
 31
0.0
  0
LINE
  5
24CB
330
2
100
AcDbEntity
  8
0
 62
     7
370
    30
100
AcDbLine
 10
776.8443219401838
 20
570.0173969969169
 30
0.0
 11
781.8224468345838
 21
570.0173969969169
 31
0.0
  0
LINE
  5
24CC
330
2
100
AcDbEntity
  8
0
 62
     7
370
    30
100
AcDbLine
 10
777.6532672355238
 20
565.7859908366768
 30
0.0
 11
781.0135015392439
 21
565.7859908366768
 31
0.0
  0
LINE
  5
24CD
330
2
100
AcDbEntity
  8
0
 62
     7
370
    30
100
AcDbLine
 10
777.8006989889687
 20
565.7237642754965
 30
0.0
 11
780.8660697857992
 21
565.7237642754968
 31
0.0
  0
LINE
  5
24CE
330
2
100
AcDbEntity
  8
0
 62
     7
370
    30
100
AcDbLine
 10
777.8006989889678
 20
565.7237642754968
 30
0.0
 11
780.8660697857999
 21
565.7237642754968
 31
0.0
  0
LINE
  5
24CF
330
2
100
AcDbEntity
  8
0
 62
     7
370
    30
100
AcDbLine
 10
777.6532672355238
 20
565.7859908366767
 30
0.0
 11
781.0135015392439
 21
565.7859908366767
 31
0.0
  0
LINE
  5
24D0
330
2
100
AcDbEntity
  8
0
 62
     7
370
    30
100
AcDbLine
 10
777.6532672355238
 20
566.2838033261168
 30
0.0
 11
781.0135015392439
 21
566.2838033261168
 31
0.0
  0
LINE
  5
24D1
330
2
100
AcDbEntity
  8
0
 62
     7
370
    30
100
AcDbLine
 10
779.3333843873838
 20
565.7859908366767
 30
0.0
 11
777.6532672355238
 21
565.7859908366767
 31
0.0
  0
LINE
  5
24D2
330
2
100
AcDbEntity
  8
0
 62
     7
370
    30
100
AcDbLine
 10
776.8443219401838
 20
571.311503896462
 30
0.0
 11
776.8443219401838
 21
570.0173969969169
 31
0.0
  0
LINE
  5
24D3
330
2
100
AcDbEntity
  8
0
 62
     7
370
    30
100
AcDbLine
 10
776.8443219401838
 20
571.1500083977702
 30
0.0
 11
776.8443219401838
 21
570.0173969969169
 31
0.0
  0
LINE
  5
24D4
330
2
100
AcDbEntity
  8
LINEWORK
  6
DASHED
 62
     7
 48
2.0
370
    30
100
AcDbLine
 10
779.0833843873838
 20
570.867685250081
 30
0.0
 11
779.0833843873838
 21
574.867685250081
 31
0.0
  0
LINE
  5
24D7
330
2
100
AcDbEntity
  8
0
 62
     7
370
    30
100
AcDbLine
 10
778.0897537510067
 20
568.7699587400488
 30
0.0
 11
778.0897537510067
 21
568.2750532838769
 31
0.0
  0
LINE
  5
24D8
330
2
100
AcDbEntity
  8
0
 62
     7
370
    30
100
AcDbLine
 10
778.0897537510067
 20
568.7728657733169
 30
0.0
 11
778.0897537510067
 21
568.2750532838768
 31
0.0
  0
LINE
  5
24D9
330
2
100
AcDbEntity
  8
0
 62
     7
370
    30
100
AcDbLine
 10
778.0968277024376
 20
568.2750532838768
 30
0.0
 11
778.0897537510067
 21
568.2750532838768
 31
0.0
  0
LINE
  5
24DA
330
2
100
AcDbEntity
  8
A1
 62
     7
370
    30
100
AcDbLine
 10
777.7385935353751
 20
567.3250063179714
 30
0.0
 11
777.9844900598872
 21
567.4563547416564
 31
0.0
  0
LWPOLYLINE
  5
24DB
330
2
100
AcDbEntity
  8
0
 62
     7
370
    30
100
AcDbPolyline
 90
        2
 70
     0
 43
0.0
 10
777.9844900598872
 20
567.4563547416564
 42
0.5167802011889741
 10
778.088190390086
 20
568.2734951200546
  0
LINE
  5
24DC
330
2
100
AcDbEntity
  8
0
 62
     7
370
    30
100
AcDbLine
 10
776.8443219401838
 20
570.0173969969169
 30
0.0
 11
776.9479908371924
 21
569.8929438745328
 31
0.0
  0
LINE
  5
24DF
330
2
100
AcDbEntity
  8
0
 62
     7
370
    30
100
AcDbLine
 10
776.8443219401838
 20
570.0173969969169
 30
0.0
 11
776.9479908371724
 21
569.8929438745568
 31
0.0
  0
ARC
  5
24E0
330
2
100
AcDbEntity
  8
0
 62
     7
370
    30
100
AcDbCircle
 10
778.1571218425145
 20
569.9803732224347
 30
0.0
 40
1.212287787181585
100
AcDbArc
 50
184.1357219839219
 51
266.8143729732739
  0
LINE
  5
24E1
330
2
100
AcDbEntity
  8
0
 62
     7
370
    30
100
AcDbLine
 10
777.6532672358546
 20
566.2768705770609
 30
0.0
 11
777.6532672355238
 21
565.7859908366768
 31
0.0
  0
LINE
  5
24E2
330
2
100
AcDbEntity
  8
0
 62
     7
370
    30
100
AcDbLine
 10
777.6532672355238
 20
565.7859908366767
 30
0.0
 11
777.6532672355238
 21
566.2838033261168
 31
0.0
  0
LINE
  5
24E3
330
2
100
AcDbEntity
  8
0
 62
     7
370
    30
100
AcDbLine
 10
777.6532672355238
 20
565.7859908366768
 30
0.0
 11
777.8006989889687
 21
565.7237642754965
 31
0.0
  0
LINE
  5
24E4
330
2
100
AcDbEntity
  8
0
 62
     7
370
    30
100
AcDbLine
 10
777.6532672355238
 20
565.7859908366767
 30
0.0
 11
777.8006989889678
 21
565.7237642754968
 31
0.0
  0
ARC
  5
24E5
330
2
100
AcDbEntity
  8
0
 62
     7
370
    30
100
AcDbCircle
 10
777.9332867608338
 20
566.7816158155568
 30
0.0
 40
0.5772163287311298
100
AcDbArc
 50
109.7122663506774
 51
240.979626634231
  0
LINE
  5
24E6
330
2
100
AcDbEntity
  8
0
 62
     7
370
    30
100
AcDbLine
 10
781.8224468345838
 20
570.0173969969169
 30
0.0
 11
781.822446834584
 21
574.1856256443034
 31
0.0
  0
LINE
  5
24E7
330
2
100
AcDbEntity
  8
0
 62
     7
370
    30
100
AcDbLine
 10
781.7308621726964
 20
569.8929438745568
 30
0.0
 11
781.8224468345838
 21
570.0173969969169
 31
0.0
  0
POINT
  5
24E8
330
2
100
AcDbEntity
  8
0
 62
     7
370
    30
100
AcDbPoint
 10
781.8224468345838
 20
572.6309125664768
 30
0.0
  0
LINE
  5
24E9
330
2
100
AcDbEntity
  8
0
 62
     7
370
    30
100
AcDbLine
 10
781.8224468345838
 20
570.0173969969169
 30
0.0
 11
781.7308621726964
 21
569.8929438745568
 31
0.0
  0
LINE
  5
24EA
330
2
100
AcDbEntity
  8
0
 62
     7
370
    30
100
AcDbLine
 10
781.8224468345838
 20
572.6309125664768
 30
0.0
 11
781.8224468345838
 21
570.0173969969169
 31
0.0
  0
LINE
  5
24EB
330
2
100
AcDbEntity
  8
0
 62
     7
370
    30
100
AcDbLine
 10
781.8224468345838
 20
570.5214977500796
 30
0.0
 11
781.8224468345838
 21
572.6309125664768
 31
0.0
  0
POINT
  5
24EC
330
2
100
AcDbEntity
  8
0
 62
     1
370
    30
100
AcDbPoint
 10
781.8224468345838
 20
572.7803852500796
 30
0.0
  0
LINE
  5
24ED
330
2
100
AcDbEntity
  8
LINEWORK
  6
DASHED
 62
     7
 48
2.0
370
    30
100
AcDbLine
 10
779.5833843873838
 20
574.867685250081
 30
0.0
 11
779.5833843873838
 21
570.867685250081
 31
0.0
  0
LINE
  5
24EE
330
2
100
AcDbEntity
  8
0
 62
     7
370
    30
100
AcDbLine
 10
780.5858901496377
 20
568.2750532838769
 30
0.0
 11
780.5858901496674
 21
568.769784397136
 31
0.0
  0
LINE
  5
24EF
330
2
100
AcDbEntity
  8
0
 62
     7
370
    30
100
AcDbLine
 10
780.5858901496376
 20
568.2750532838768
 30
0.0
 11
780.5858901496376
 21
568.7607121703011
 31
0.0
  0
ARC
  5
24F1
330
2
100
AcDbEntity
  8
0
 62
     7
370
    30
100
AcDbCircle
 10
780.5217311673544
 20
569.9803732224347
 30
0.0
 40
1.212287787181585
100
AcDbArc
 50
273.0337327235926
 51
355.8642780160781
  0
LINE
  5
24F2
330
2
100
AcDbEntity
  8
A1
 62
     7
370
    30
100
AcDbLine
 10
780.8959981016575
 20
567.3450347414465
 30
0.0
 11
780.6774795237583
 21
567.4670415991875
 31
0.0
  0
ARC
  5
24F3
330
2
100
AcDbEntity
  8
0
 62
     7
370
    30
100
AcDbCircle
 10
780.9201616974737
 20
567.9016939167968
 30
0.0
 40
0.4978124894400001
100
AcDbArc
 50
131.8156234427623
 51
240.8237906552029
  0
LINE
  5
24F4
330
2
100
AcDbEntity
  8
0
 62
     7
370
    30
100
AcDbLine
 10
781.0135015392439
 20
565.7859908366768
 30
0.0
 11
781.0135015392439
 21
566.2735512572161
 31
0.0
  0
LINE
  5
24F5
330
2
100
AcDbEntity
  8
0
 62
     7
370
    30
100
AcDbLine
 10
781.0135015392439
 20
565.7859908366767
 30
0.0
 11
781.0135015392439
 21
566.2838033261168
 31
0.0
  0
LINE
  5
24F6
330
2
100
AcDbEntity
  8
0
 62
     7
370
    30
100
AcDbLine
 10
780.8660697857992
 20
565.7237642754968
 30
0.0
 11
781.0135015392439
 21
565.7859908366768
 31
0.0
  0
LINE
  5
24F7
330
2
100
AcDbEntity
  8
0
 62
     7
370
    30
100
AcDbLine
 10
781.0135015392439
 20
565.7859908366767
 30
0.0
 11
780.8660697857999
 21
565.7237642754968
 31
0.0
  0
ARC
  5
24F8
330
2
100
AcDbEntity
  8
0
 62
     7
370
    30
100
AcDbCircle
 10
780.7023687333439
 20
566.7816158155568
 30
0.0
 40
0.5957627198174097
100
AcDbArc
 50
301.4828163698571
 51
71.03376559689633
  0
ARC
  5
24F9
330
2
100
AcDbEntity
  8
0
 62
     7
370
    30
100
AcDbCircle
 10
815.5311882697704
 20
570.5951089508992
 30
0.0
 40
23.89499949311992
100
AcDbArc
 50
176.7156308916329
 51
198.2445301754376
  0
ARC
  5
24FA
330
2
100
AcDbEntity
  8
0
 62
     7
370
    30
100
AcDbCircle
 10
815.5311882697708
 20
570.5951089509004
 30
0.0
 40
23.89499949312021
100
AcDbArc
 50
176.7156308916362
 51
197.5372407408331
  0
ARC
  5
24FB
330
2
100
AcDbEntity
  8
0
 62
     7
370
    30
100
AcDbCircle
 10
764.7543143468908
 20
570.5951089509002
 30
0.0
 40
23.8949994931199
100
AcDbArc
 50
341.7554698245592
 51
3.284369108363738
  0
ARC
  5
24FC
330
2
100
AcDbEntity
  8
0
 62
     7
370
    30
100
AcDbCircle
 10
764.7543143468904
 20
570.5951089508992
 30
0.0
 40
23.89499949311999
100
AcDbArc
 50
341.7554698245592
 51
3.284369108363738
  0
LINE
  5
24FD
330
2
100
AcDbEntity
  8
LINEWORK
  6
DASHED
 62
     7
 48
2.0
370
    30
100
AcDbLine
 10
790.3927513083305
 20
550.1437017714408
 30
0.0
 11
789.8927513083305
 21
550.1437017714408
 31
0.0
  0
LINE
  5
24FE
330
2
100
AcDbEntity
  8
LINEWORK
  6
DASHED
 62
     7
 48
2.0
370
    30
100
AcDbLine
 10
789.8927513083305
 20
554.1437017714408
 30
0.0
 11
790.3927513083305
 21
554.1437017714408
 31
0.0
  0
LINE
  5
24FF
330
2
100
AcDbEntity
  8
0
 62
     7
370
    30
100
AcDbLine
 10
788.6796658074131
 20
558.7098357655194
 30
0.0
 11
791.6041674473744
 21
558.7098357655194
 31
0.0
  0
LINE
  5
2500
330
2
100
AcDbEntity
  8
0
 62
     7
370
    30
100
AcDbLine
 10
791.6361887766505
 20
559.4565544996794
 30
0.0
 11
788.6493138400104
 21
559.4600796603981
 31
0.0
  0
LINE
  5
2501
330
2
100
AcDbEntity
  8
0
 62
     7
370
    30
100
AcDbLine
 10
788.6779045860786
 20
558.7098357655194
 30
0.0
 11
791.6075980305824
 21
558.7098357655194
 31
0.0
  0
LINE
  5
2502
330
2
100
AcDbEntity
  8
0
 62
     7
370
    30
100
AcDbLine
 10
788.6493138400104
 20
559.4565544996794
 30
0.0
 11
791.6361887766505
 21
559.4565544996794
 31
0.0
  0
LINE
  5
2503
330
2
100
AcDbEntity
  8
0
 62
     7
370
    30
100
AcDbLine
 10
788.6493138400104
 20
559.8299138667592
 30
0.0
 11
791.6361887766505
 21
559.8299138667592
 31
0.0
  0
LINE
  5
2504
330
2
100
AcDbEntity
  8
0
 62
     7
370
    30
100
AcDbLine
 10
788.6493138400104
 20
559.8299138667592
 30
0.0
 11
791.6361887766505
 21
559.8299138667592
 31
0.0
  0
LINE
  5
2505
330
2
100
AcDbEntity
  8
0
 62
     7
370
    30
100
AcDbLine
 10
790.1427513083305
 20
558.7098357655194
 30
0.0
 11
788.6779045860786
 21
558.7098357655194
 31
0.0
  0
LINE
  5
2507
330
2
100
AcDbEntity
  8
0
 62
     7
370
    30
100
AcDbLine
 10
792.3829075108105
 20
557.4653045419193
 30
0.0
 11
787.9025951058505
 21
557.4653045419193
 31
0.0
  0
LINE
  5
2508
330
2
100
AcDbEntity
  8
0
 62
     7
370
    30
100
AcDbLine
 10
787.9025951058505
 20
555.5985077065193
 30
0.0
 11
792.3829075108105
 21
555.5985077065194
 31
0.0
  0
LINE
  5
2509
330
2
100
AcDbEntity
  8
0
 62
     7
370
    30
100
AcDbLine
 10
787.9025951058505
 20
555.5985077065193
 30
0.0
 11
792.3829075108105
 21
555.5985077065193
 31
0.0
  0
LINE
  5
250A
330
2
100
AcDbEntity
  8
0
 62
     7
370
    30
100
AcDbLine
 10
787.9025951058505
 20
555.9718670735992
 30
0.0
 11
792.3829075108105
 21
555.9718670735992
 31
0.0
  0
LINE
  5
250B
330
2
100
AcDbEntity
  8
0
 62
     7
370
    30
100
AcDbLine
 10
787.9025951058505
 20
556.9674920524794
 30
0.0
 11
792.3829075108105
 21
556.9674920524794
 31
0.0
  0
LINE
  5
250C
330
2
100
AcDbEntity
  8
0
 62
     7
370
    30
100
AcDbLine
 10
787.9025951058505
 20
557.4653045419193
 30
0.0
 11
792.3829075108105
 21
557.4653045419193
 31
0.0
  0
LINE
  5
250D
330
2
100
AcDbEntity
  8
0
 62
     7
370
    30
100
AcDbLine
 10
790.1427513083305
 20
555.5985077065193
 30
0.0
 11
787.9025951058505
 21
555.5985077065193
 31
0.0
  0
ARC
  5
250E
330
2
100
AcDbEntity
  8
0
 62
     7
370
    30
100
AcDbCircle
 10
790.2743495112383
 20
526.7598461328389
 30
0.0
 40
28.73968549999317
100
AcDbArc
 50
84.66008033607456
 51
95.85504351536561
  0
ARC
  5
250F
330
2
100
AcDbEntity
  8
0
 62
     7
370
    30
100
AcDbCircle
 10
787.0679713968598
 20
558.8512963268161
 30
0.0
 40
1.617890590679964
100
AcDbArc
 50
301.0557276764
 51
354.983927846311
  0
ARC
  5
2510
330
2
100
AcDbEntity
  8
0
 62
     7
370
    30
100
AcDbCircle
 10
787.0936498105104
 20
558.8342888878794
 30
0.0
 40
1.589135542858315
100
AcDbArc
 50
300.5765072230285
 51
355.5082825604374
  0
LINE
  5
2511
330
2
100
AcDbEntity
  8
0
 62
     7
370
    30
100
AcDbLine
 10
787.3425560552316
 20
555.3496014617998
 30
0.0
 11
787.3425560552294
 21
550.8009875095258
 31
0.0
  0
LINE
  5
2512
330
2
100
AcDbEntity
  8
LINEWORK
  6
DASHED
 62
     7
 48
2.0
370
    30
100
AcDbLine
 10
789.8927513083305
 20
550.1437017714408
 30
0.0
 11
789.8927513083305
 21
554.1437017714408
 31
0.0
  0
LINE
  5
2516
330
2
100
AcDbEntity
  8
0
 62
     7
370
    30
100
AcDbLine
 10
787.9025951058505
 20
555.5985077065193
 30
0.0
 11
787.3425560552316
 21
555.3496014617998
 31
0.0
  0
LINE
  5
2517
330
2
100
AcDbEntity
  8
0
 62
     7
370
    30
100
AcDbLine
 10
787.9025951058505
 20
556.9775137362794
 30
0.0
 11
787.9025951058505
 21
557.4653045419193
 31
0.0
  0
LINE
  5
2518
330
2
100
AcDbEntity
  8
0
 62
     7
370
    30
100
AcDbLine
 10
787.9025951058013
 20
555.9618453897992
 30
0.0
 11
787.9025951058505
 21
555.5985077065193
 31
0.0
  0
LINE
  5
2519
330
2
100
AcDbEntity
  8
0
 62
     7
370
    30
100
AcDbLine
 10
787.9025951058505
 20
555.5985077065193
 30
0.0
 11
787.9025951058505
 21
555.9718670735992
 31
0.0
  0
LINE
  5
251A
330
2
100
AcDbEntity
  8
0
 62
     7
370
    30
100
AcDbLine
 10
787.9025951058505
 20
556.9674920524794
 30
0.0
 11
787.9025951058505
 21
557.4653045419193
 31
0.0
  0
LINE
  5
251B
330
2
100
AcDbEntity
  8
0
 62
     7
370
    30
100
AcDbLine
 10
787.3425560552305
 20
555.3496014617992
 30
0.0
 11
787.9025951058505
 21
555.5985077065193
 31
0.0
  0
ARC
  5
251C
330
2
100
AcDbEntity
  8
0
 62
     7
370
    30
100
AcDbCircle
 10
788.0581615088004
 20
556.4696795630393
 30
0.0
 40
0.5311275301077292
100
AcDbArc
 50
107.0315588425923
 51
252.9684411574076
  0
LINE
  5
251E
330
2
100
AcDbEntity
  8
0
 62
     7
370
    30
100
AcDbLine
 10
788.6493138400104
 20
559.4600796603981
 30
0.0
 11
788.6493138400104
 21
559.8167256611222
 31
0.0
  0
LINE
  5
251F
330
2
100
AcDbEntity
  8
0
 62
     7
370
    30
100
AcDbLine
 10
788.6493138400104
 20
559.4565544996794
 30
0.0
 11
788.6493138400104
 21
559.8299138667592
 31
0.0
  0
ARC
  5
2520
330
2
100
AcDbEntity
  8
0
 62
     7
370
    30
100
AcDbCircle
 10
788.8851900585805
 20
559.0938863911929
 30
0.0
 40
0.4355859282600059
100
AcDbArc
 50
122.7868162057807
 51
241.8465885129508
  0
ARC
  5
2521
330
2
100
AcDbEntity
  8
0
 62
     7
370
    30
100
AcDbCircle
 10
788.8796641620417
 20
559.0936628347774
 30
0.0
 40
0.4328077644545648
100
AcDbArc
 50
122.1557891493676
 51
242.4776155606276
  0
ARC
  5
2522
330
2
100
AcDbEntity
  8
0
 62
     7
370
    30
100
AcDbCircle
 10
790.391657553051
 20
562.3189763139617
 30
0.0
 40
3.049101497820003
100
AcDbArc
 50
164.8815986023474
 51
235.1500954209383
  0
ARC
  5
2523
330
2
100
AcDbEntity
  8
0
 62
     7
370
    30
100
AcDbCircle
 10
790.3916575530505
 20
562.3189763139593
 30
0.0
 40
3.049101497819999
100
AcDbArc
 50
159.336630481459
 51
235.1500954209545
  0
ARC
  5
2524
330
2
100
AcDbEntity
  8
0
 62
     7
370
    30
100
AcDbCircle
 10
793.2157684712676
 20
558.8523563015727
 30
0.0
 40
1.617890590680016
100
AcDbArc
 50
185.0537553750897
 51
239.0171150583676
  0
ARC
  5
2525
330
2
100
AcDbEntity
  8
0
 62
     7
370
    30
100
AcDbCircle
 10
793.1918528061504
 20
558.8342888878794
 30
0.0
 40
1.589135542858315
100
AcDbArc
 50
184.4917174395625
 51
239.4239588348153
  0
LINE
  5
2526
330
2
100
AcDbEntity
  8
0
 62
     7
370
    30
100
AcDbLine
 10
792.9429465614306
 20
554.034374475848
 30
0.0
 11
792.9429465614305
 21
555.3496014617992
 31
0.0
  0
LINE
  5
2528
330
2
100
AcDbEntity
  8
LINEWORK
  6
DASHED
 62
     7
 48
2.0
370
    30
100
AcDbLine
 10
790.3927513083305
 20
554.1437017714408
 30
0.0
 11
790.3927513083305
 21
550.1437017714408
 31
0.0
  0
LINE
  5
2529
330
2
100
AcDbEntity
  8
0
 62
     7
370
    30
100
AcDbLine
 10
792.3829075108105
 20
557.4653045419193
 30
0.0
 11
792.3829075108105
 21
556.9775137362935
 31
0.0
  0
LINE
  5
252A
330
2
100
AcDbEntity
  8
0
 62
     7
370
    30
100
AcDbLine
 10
792.3829075108105
 20
555.5985077065194
 30
0.0
 11
792.3829075108105
 21
555.9618453897851
 31
0.0
  0
LINE
  5
252B
330
2
100
AcDbEntity
  8
0
 62
     7
370
    30
100
AcDbLine
 10
792.3829075108105
 20
555.5985077065193
 30
0.0
 11
792.3829075108105
 21
555.9718670735992
 31
0.0
  0
LINE
  5
252C
330
2
100
AcDbEntity
  8
0
 62
     7
370
    30
100
AcDbLine
 10
792.3829075108105
 20
556.9674920524794
 30
0.0
 11
792.3829075108105
 21
557.4653045419193
 31
0.0
  0
LINE
  5
252D
330
2
100
AcDbEntity
  8
0
 62
     7
370
    30
100
AcDbLine
 10
792.9429465614305
 20
555.3496014617992
 30
0.0
 11
792.3829075108105
 21
555.5985077065193
 31
0.0
  0
LINE
  5
252E
330
2
100
AcDbEntity
  8
0
 62
     7
370
    30
100
AcDbLine
 10
792.3829075108105
 20
555.5985077065193
 30
0.0
 11
792.9429465614305
 21
555.3496014617992
 31
0.0
  0
ARC
  5
252F
330
2
100
AcDbEntity
  8
0
 62
     7
370
    30
100
AcDbCircle
 10
792.2273411078605
 20
556.4696795630393
 30
0.0
 40
0.5311275301077292
100
AcDbArc
 50
287.0315588425851
 51
72.9684411574148
  0
LINE
  5
2530
330
2
100
AcDbEntity
  8
0
 62
     7
370
    30
100
AcDbLine
 10
791.6361887766505
 20
559.8299138667592
 30
0.0
 11
791.6361887766505
 21
559.4565544996794
 31
0.0
  0
LINE
  5
2531
330
2
100
AcDbEntity
  8
0
 62
     7
370
    30
100
AcDbLine
 10
791.6361887766505
 20
559.8299138667592
 30
0.0
 11
791.6361887766505
 21
559.4565544996794
 31
0.0
  0
ARC
  5
2532
330
2
100
AcDbEntity
  8
0
 62
     7
370
    30
100
AcDbCircle
 10
791.4020545723167
 20
559.0938761119209
 30
0.0
 40
0.435585928259961
100
AcDbArc
 50
298.1562769950122
 51
57.48532966449769
  0
ARC
  5
2533
330
2
100
AcDbEntity
  8
0
 62
     7
370
    30
100
AcDbCircle
 10
791.4060489748158
 20
559.0946365345217
 30
0.0
 40
0.4328077644545648
100
AcDbArc
 50
297.2421211055541
 51
57.87712348201701
  0
ARC
  5
2534
330
2
100
AcDbEntity
  8
0
 62
     7
370
    30
100
AcDbCircle
 10
789.8938450636152
 20
562.3189763139578
 30
0.0
 40
3.049101497816084
100
AcDbArc
 50
304.8499045789893
 51
20.66336951848227
  0
ARC
  5
2535
330
2
100
AcDbEntity
  8
0
 62
     7
370
    30
100
AcDbCircle
 10
789.8899244345909
 20
562.3294299782616
 30
0.0
 40
3.049101497820061
100
AcDbArc
 50
304.9397270199655
 51
20.45357319038661
  0
LINE
  5
2537
330
2
100
AcDbEntity
  8
LINEWORK
  6
DASHED
 62
     7
 48
2.0
370
    30
100
AcDbLine
 10
789.8927513083305
 20
581.1080142714435
 30
0.0
 11
790.3927513083305
 21
581.1080142714435
 31
0.0
  0
LINE
  5
2538
330
2
100
AcDbEntity
  8
A1
 62
     7
370
    30
100
AcDbLine
 10
791.3952570705843
 20
575.0010411916637
 30
0.0
 11
788.8991206719534
 21
575.0102877614003
 31
0.0
  0
LINE
  5
2539
330
2
100
AcDbEntity
  8
0
 62
     7
370
    30
100
AcDbLine
 10
788.8991206719534
 20
574.5153823052394
 30
0.0
 11
791.3952570705844
 21
574.5153823052394
 31
0.0
  0
LINE
  5
253A
330
2
100
AcDbEntity
  8
0
 62
     7
370
    30
100
AcDbLine
 10
788.9061946233843
 20
574.5153823052393
 30
0.0
 11
791.3952570705843
 21
574.5153823052393
 31
0.0
  0
LINE
  5
253B
330
2
100
AcDbEntity
  8
0
 62
     7
370
    30
100
AcDbLine
 10
787.6536888611305
 20
576.2577260182793
 30
0.0
 11
792.6318137555305
 21
576.2577260182793
 31
0.0
  0
LINE
  5
253C
330
2
100
AcDbEntity
  8
0
 62
     7
370
    30
100
AcDbLine
 10
787.7573577581391
 20
576.1332728958953
 30
0.0
 11
792.5402290936431
 21
576.1332728959193
 31
0.0
  0
LINE
  5
253D
330
2
100
AcDbEntity
  8
0
 62
     7
370
    30
100
AcDbLine
 10
787.7573577581191
 20
576.1332728959193
 30
0.0
 11
792.5402290936431
 21
576.1332728959193
 31
0.0
  0
LINE
  5
253E
330
2
100
AcDbEntity
  8
0
 62
     7
370
    30
100
AcDbLine
 10
787.6536888611305
 20
576.2577260182793
 30
0.0
 11
792.6318137555305
 21
576.2577260182793
 31
0.0
  0
LINE
  5
253F
330
2
100
AcDbEntity
  8
0
 62
     7
370
    30
100
AcDbLine
 10
788.4626341564705
 20
572.0263198580394
 30
0.0
 11
791.8228684601905
 21
572.0263198580394
 31
0.0
  0
LINE
  5
2540
330
2
100
AcDbEntity
  8
0
 62
     7
370
    30
100
AcDbLine
 10
788.6100659099154
 20
571.964093296859
 30
0.0
 11
791.6754367067459
 21
571.9640932968593
 31
0.0
  0
LINE
  5
2541
330
2
100
AcDbEntity
  8
0
 62
     7
370
    30
100
AcDbLine
 10
788.6100659099144
 20
571.9640932968593
 30
0.0
 11
791.6754367067466
 21
571.9640932968593
 31
0.0
  0
LINE
  5
2542
330
2
100
AcDbEntity
  8
0
 62
     7
370
    30
100
AcDbLine
 10
788.4626341564705
 20
572.0263198580393
 30
0.0
 11
791.8228684601905
 21
572.0263198580393
 31
0.0
  0
LINE
  5
2543
330
2
100
AcDbEntity
  8
0
 62
     7
370
    30
100
AcDbLine
 10
788.4626341564705
 20
572.5241323474794
 30
0.0
 11
791.8228684601905
 21
572.5241323474794
 31
0.0
  0
LINE
  5
2544
330
2
100
AcDbEntity
  8
0
 62
     7
370
    30
100
AcDbLine
 10
790.1427513083305
 20
572.0263198580393
 30
0.0
 11
788.4626341564705
 21
572.0263198580393
 31
0.0
  0
LINE
  5
2545
330
2
100
AcDbEntity
  8
0
 62
     7
370
    30
100
AcDbLine
 10
787.6536888611305
 20
577.5518329178244
 30
0.0
 11
787.6536888611305
 21
576.2577260182793
 31
0.0
  0
LINE
  5
2546
330
2
100
AcDbEntity
  8
0
 62
     7
370
    30
100
AcDbLine
 10
787.6536888611305
 20
577.3903374191327
 30
0.0
 11
787.6536888611305
 21
576.2577260182793
 31
0.0
  0
LINE
  5
2547
330
2
100
AcDbEntity
  8
LINEWORK
  6
DASHED
 62
     7
 48
2.0
370
    30
100
AcDbLine
 10
789.8927513083305
 20
577.1080142714435
 30
0.0
 11
789.8927513083305
 21
581.1080142714435
 31
0.0
  0
LINE
  5
254A
330
2
100
AcDbEntity
  8
0
 62
     7
370
    30
100
AcDbLine
 10
788.8991206719534
 20
575.0102877614113
 30
0.0
 11
788.8991206719534
 21
574.5153823052394
 31
0.0
  0
LINE
  5
254B
330
2
100
AcDbEntity
  8
0
 62
     7
370
    30
100
AcDbLine
 10
788.8991206719534
 20
575.0131947946794
 30
0.0
 11
788.8991206719534
 21
574.5153823052393
 31
0.0
  0
LINE
  5
254C
330
2
100
AcDbEntity
  8
0
 62
     7
370
    30
100
AcDbLine
 10
788.9061946233843
 20
574.5153823052393
 30
0.0
 11
788.8991206719534
 21
574.5153823052393
 31
0.0
  0
LINE
  5
254D
330
2
100
AcDbEntity
  8
A1
 62
     7
370
    30
100
AcDbLine
 10
788.5479604563218
 20
573.5653353393339
 30
0.0
 11
788.7938569808339
 21
573.6966837630189
 31
0.0
  0
LWPOLYLINE
  5
254E
330
2
100
AcDbEntity
  8
0
 62
     7
370
    30
100
AcDbPolyline
 90
        2
 70
     0
 43
0.0
 10
788.7938569808339
 20
573.6966837630189
 42
0.5167802011889741
 10
788.8975573110327
 20
574.5138241414172
  0
LINE
  5
254F
330
2
100
AcDbEntity
  8
0
 62
     7
370
    30
100
AcDbLine
 10
787.6536888611305
 20
576.2577260182793
 30
0.0
 11
787.7573577581391
 21
576.1332728958953
 31
0.0
  0
LINE
  5
2552
330
2
100
AcDbEntity
  8
0
 62
     7
370
    30
100
AcDbLine
 10
787.6536888611305
 20
576.2577260182793
 30
0.0
 11
787.7573577581191
 21
576.1332728959193
 31
0.0
  0
ARC
  5
2553
330
2
100
AcDbEntity
  8
0
 62
     7
370
    30
100
AcDbCircle
 10
788.9664887634611
 20
576.2207022437973
 30
0.0
 40
1.212287787181585
100
AcDbArc
 50
184.1357219839219
 51
266.8143729732739
  0
LINE
  5
2554
330
2
100
AcDbEntity
  8
0
 62
     7
370
    30
100
AcDbLine
 10
788.4626341568012
 20
572.5171995984235
 30
0.0
 11
788.4626341564705
 21
572.0263198580394
 31
0.0
  0
LINE
  5
2555
330
2
100
AcDbEntity
  8
0
 62
     7
370
    30
100
AcDbLine
 10
788.4626341564705
 20
572.0263198580393
 30
0.0
 11
788.4626341564705
 21
572.5241323474794
 31
0.0
  0
LINE
  5
2556
330
2
100
AcDbEntity
  8
0
 62
     7
370
    30
100
AcDbLine
 10
788.4626341564705
 20
572.0263198580394
 30
0.0
 11
788.6100659099154
 21
571.964093296859
 31
0.0
  0
LINE
  5
2557
330
2
100
AcDbEntity
  8
0
 62
     7
370
    30
100
AcDbLine
 10
788.4626341564705
 20
572.0263198580393
 30
0.0
 11
788.6100659099144
 21
571.9640932968593
 31
0.0
  0
ARC
  5
2558
330
2
100
AcDbEntity
  8
0
 62
     7
370
    30
100
AcDbCircle
 10
788.7426536817804
 20
573.0219448369194
 30
0.0
 40
0.5772163287311298
100
AcDbArc
 50
109.7122663506774
 51
240.979626634231
  0
LINE
  5
2559
330
2
100
AcDbEntity
  8
0
 62
     7
370
    30
100
AcDbLine
 10
792.6318137555305
 20
576.2577260182793
 30
0.0
 11
792.6318137555305
 21
580.4259546656659
 31
0.0
  0
LINE
  5
255A
330
2
100
AcDbEntity
  8
0
 62
     7
370
    30
100
AcDbLine
 10
792.5402290936431
 20
576.1332728959193
 30
0.0
 11
792.6318137555305
 21
576.2577260182793
 31
0.0
  0
POINT
  5
255B
330
2
100
AcDbEntity
  8
0
 62
     7
370
    30
100
AcDbPoint
 10
792.6318137555305
 20
578.8712415878393
 30
0.0
  0
LINE
  5
255C
330
2
100
AcDbEntity
  8
0
 62
     7
370
    30
100
AcDbLine
 10
792.6318137555305
 20
576.2577260182793
 30
0.0
 11
792.5402290936431
 21
576.1332728959193
 31
0.0
  0
LINE
  5
255D
330
2
100
AcDbEntity
  8
0
 62
     7
370
    30
100
AcDbLine
 10
792.6318137555305
 20
578.8712415878393
 30
0.0
 11
792.6318137555305
 21
576.2577260182793
 31
0.0
  0
LINE
  5
255E
330
2
100
AcDbEntity
  8
0
 62
     7
370
    30
100
AcDbLine
 10
792.6318137555305
 20
576.7618267714421
 30
0.0
 11
792.6318137555305
 21
578.8712415878394
 31
0.0
  0
POINT
  5
255F
330
2
100
AcDbEntity
  8
0
 62
     1
370
    30
100
AcDbPoint
 10
792.6318137555305
 20
579.0207142714422
 30
0.0
  0
LINE
  5
2560
330
2
100
AcDbEntity
  8
LINEWORK
  6
DASHED
 62
     7
 48
2.0
370
    30
100
AcDbLine
 10
790.3927513083305
 20
581.1080142714435
 30
0.0
 11
790.3927513083305
 21
577.1080142714435
 31
0.0
  0
LINE
  5
2561
330
2
100
AcDbEntity
  8
0
 62
     7
370
    30
100
AcDbLine
 10
791.3952570705844
 20
574.5153823052394
 30
0.0
 11
791.3952570706141
 21
575.0101134184985
 31
0.0
  0
LINE
  5
2562
330
2
100
AcDbEntity
  8
0
 62
     7
370
    30
100
AcDbLine
 10
791.3952570705843
 20
574.5153823052393
 30
0.0
 11
791.3952570705843
 21
575.0010411916637
 31
0.0
  0
ARC
  5
2564
330
2
100
AcDbEntity
  8
0
 62
     7
370
    30
100
AcDbCircle
 10
791.3310980883011
 20
576.2207022437973
 30
0.0
 40
1.212287787181585
100
AcDbArc
 50
273.0337327235926
 51
355.8642780160781
  0
LINE
  5
2565
330
2
100
AcDbEntity
  8
A1
 62
     7
370
    30
100
AcDbLine
 10
791.7053650226042
 20
573.585363762809
 30
0.0
 11
791.4868464447049
 21
573.7073706205499
 31
0.0
  0
ARC
  5
2566
330
2
100
AcDbEntity
  8
0
 62
     7
370
    30
100
AcDbCircle
 10
791.7295286184204
 20
574.1420229381593
 30
0.0
 40
0.4978124894400001
100
AcDbArc
 50
131.8156234427623
 51
240.8237906552029
  0
LINE
  5
2567
330
2
100
AcDbEntity
  8
0
 62
     7
370
    30
100
AcDbLine
 10
791.8228684601905
 20
572.0263198580394
 30
0.0
 11
791.8228684601905
 21
572.5138802785786
 31
0.0
  0
LINE
  5
2568
330
2
100
AcDbEntity
  8
0
 62
     7
370
    30
100
AcDbLine
 10
791.8228684601905
 20
572.0263198580393
 30
0.0
 11
791.8228684601905
 21
572.5241323474794
 31
0.0
  0
LINE
  5
2569
330
2
100
AcDbEntity
  8
0
 62
     7
370
    30
100
AcDbLine
 10
791.6754367067459
 20
571.9640932968593
 30
0.0
 11
791.8228684601905
 21
572.0263198580394
 31
0.0
  0
LINE
  5
256A
330
2
100
AcDbEntity
  8
0
 62
     7
370
    30
100
AcDbLine
 10
791.8228684601905
 20
572.0263198580393
 30
0.0
 11
791.6754367067466
 21
571.9640932968593
 31
0.0
  0
ARC
  5
256B
330
2
100
AcDbEntity
  8
0
 62
     7
370
    30
100
AcDbCircle
 10
791.5117356542905
 20
573.0219448369194
 30
0.0
 40
0.5957627198174097
100
AcDbArc
 50
301.4828163698571
 51
71.03376559689633
  0
LINE
  5
256C
330
2
100
AcDbEntity
  8
TEXT
 62
     7
370
    30
100
AcDbLine
 10
771.3242127195372
 20
541.553716433123
 30
0.0
 11
765.7238222133361
 21
538.3203294668008
 31
0.0
  0
LINE
  5
256E
330
2
100
AcDbEntity
  8
TEXT
 62
     7
370
    30
100
AcDbLine
 10
782.1335796404839
 20
547.7940454544855
 30
0.0
 11
776.5331891342827
 21
544.5606584881633
 31
0.0
  0
LINE
  5
256F
330
2
100
AcDbEntity
  8
TEXT
 62
     7
370
    30
100
AcDbLine
 10
792.9429465614306
 20
554.034374475848
 30
0.0
 11
787.3425560552294
 21
550.8009875095258
 31
0.0
  0
LINE
  5
2576
330
2
100
AcDbEntity
  8
TEXT
 62
     7
370
    30
100
AcDbLine
 10
761.353579422039
 20
568.1245679952493
 30
0.0
 11
792.3508800121184
 21
586.0208678350834
 31
0.0
  0
LINE
  5
2578
330
2
100
AcDbEntity
  8
TEXT
 62
     7
370
    30
100
AcDbLine
 10
762.6095790205327
 20
563.5427799930271
 30
0.0
 11
793.6117290298708
 21
581.4418796463754
 31
0.0
  0
LINE
  5
258E
330
2
100
AcDbEntity
  8
TEXT
 62
     7
370
    30
100
AcDbLine
 10
793.9730430518484
 20
581.5385017021347
 30
0.0
 11
792.7123620681912
 21
586.1168796463756
 31
0.0
  0
LINE
  5
258F
330
2
100
AcDbEntity
  8
TEXT
 62
     7
370
    30
100
AcDbLine
 10
793.6117290298707
 20
581.4418796463756
 30
0.0
 11
792.3508800121186
 21
586.0208678350836
 31
0.0
  0
LINE
  5
2593
330
2
100
AcDbEntity
  8
TEXT
 62
     7
370
    30
100
AcDbLine
 10
793.9730430518484
 20
581.538501702135
 30
0.0
 11
805.8321107321932
 21
581.5385017021348
 31
0.0
  0
LINE
  5
2596
330
2
100
AcDbEntity
  8
TEXT
 62
     7
370
    30
100
AcDbLine
 10
766.0349550192371
 20
565.0707129948839
 30
0.0
 11
771.0130799136373
 21
567.9448347427253
 31
0.0
  0
LINE
  5
2597
330
2
100
AcDbEntity
  8
TEXT
 62
     7
370
    30
100
AcDbLine
 10
787.6536888611305
 20
577.5518329178241
 30
0.0
 11
792.6318137555305
 21
580.4259546656656
 31
0.0
  0
LINE
  5
2598
330
2
100
AcDbEntity
  8
TEXT
 62
     7
370
    30
100
AcDbLine
 10
776.8443219401838
 20
571.3115038964617
 30
0.0
 11
781.8224468345841
 21
574.1856256443031
 31
0.0
  0
LINE
  5
259A
330
2
100
AcDbEntity
  8
TEXT
 62
     7
370
    30
100
AcDbLine
 10
797.2755662753327
 20
557.6670643627928
 30
0.0
 11
797.2816083928838
 21
555.1527991288947
 31
0.0
  0
LINE
  5
259B
330
2
100
AcDbEntity
  8
TEXT
 62
     7
370
    30
100
AcDbLine
 10
795.5568800727269
 20
550.2035015824499
 30
0.0
 11
794.8233968452785
 21
554.6879640119642
 31
0.0
  0
LINE
  5
259C
330
2
100
AcDbEntity
  8
TEXT
 62
     7
370
    30
100
AcDbLine
 10
795.9149966884751
 20
550.3309954649156
 30
0.0
 11
795.1860860042187
 21
554.7875017021351
 31
0.0
  0
LINE
  5
259E
330
2
100
AcDbEntity
  8
TEXT
 62
     7
370
    30
100
AcDbLine
 10
794.8981210016191
 20
554.2311060237425
 30
0.0
 11
763.8943417748047
 21
536.3310657412451
 31
0.0
  0
LINE
  5
25A1
330
2
100
AcDbEntity
  8
TEXT
 62
     7
370
    30
100
AcDbLine
 10
762.455856590208
 20
564.1035473593369
 30
0.0
 11
793.4574130766541
 21
582.0023043420839
 31
0.0
  0
LINE
  5
25A3
330
2
100
AcDbEntity
  8
TEXT
 62
     7
370
    30
100
AcDbLine
 10
762.3021341598834
 20
564.6643147256469
 30
0.0
 11
793.3030971234375
 21
582.5627290377923
 31
0.0
  0
LINE
  5
25A5
330
2
100
AcDbEntity
  8
TEXT
 62
     7
370
    30
100
AcDbLine
 10
761.8069429709977
 20
566.4707333349866
 30
0.0
 11
792.8059939994758
 21
584.3680437909012
 31
0.0
  0
LINE
  5
25A6
330
2
100
AcDbEntity
  8
TEXT
 62
     7
370
    30
100
AcDbLine
 10
761.5507389204569
 20
567.40534561217
 30
0.0
 11
792.5488007441146
 21
585.3020849504153
 31
0.0
  0
LINE
  5
25A8
330
2
100
AcDbEntity
  8
TEXT
 62
     7
370
    30
100
AcDbLine
 10
797.2755662753327
 20
557.6670643627928
 30
0.0
 11
797.8416474435038
 21
557.8907678208148
 31
0.0
  0
LINE
  5
25A9
330
2
100
AcDbEntity
  8
TEXT
 62
     7
370
    30
100
AcDbLine
 10
797.8416474435038
 20
557.8907678208148
 30
0.0
 11
797.8416474435037
 21
558.2541055040937
 31
0.0
  0
ARC
  5
25AA
330
2
100
AcDbEntity
  8
0
 62
     7
370
    30
100
AcDbCircle
 10
757.6515038132867
 20
558.2447428071668
 30
0.0
 40
0.5048913688331228
100
AcDbArc
 50
298.1094107005379
 51
47.42551271100489
  0
ARC
  5
25AB
330
2
100
AcDbEntity
  8
0
 62
     7
370
    30
100
AcDbCircle
 10
766.9372401563472
 20
561.6613648954341
 30
0.0
 40
0.5048913688330225
100
AcDbArc
 50
298.109410700544
 51
47.42551271101361
  0
SOLID
  5
335B
330
2
100
AcDbEntity
  8
TEXT
 62
     1
370
    30
100
AcDbTrace
 10
777.1198449025845
 20
572.2630823885481
 30
0.0
 11
776.8083627845925
 21
572.0121264358966
 31
0.0
 12
777.7169717015429
 22
571.2031580582463
 32
0.0
 13
777.7169717015429
 23
571.2031580582463
 33
0.0
  0
LINE
  5
335C
330
2
100
AcDbEntity
  8
TEXT
 62
     1
370
    30
100
AcDbLine
 10
776.9641038435885
 20
572.1376044122224
 30
0.0
 11
755.0371609746821
 21
599.3529405448647
 31
0.0
  0
SOLID
  5
335D
330
2
100
AcDbEntity
  8
TEXT
 62
     1
370
    30
100
AcDbTrace
 10
766.9229454327676
 20
572.7440131584194
 30
0.0
 11
766.6227911647361
 21
572.4796130536872
 31
0.0
 12
767.5660686129486
 22
571.7113503019585
 32
0.0
 13
767.5660686129486
 23
571.7113503019585
 33
0.0
  0
LINE
  5
335E
330
2
100
AcDbEntity
  8
TEXT
 62
     1
370
    30
100
AcDbLine
 10
766.7728682987518
 20
572.6118131060533
 30
0.0
 11
755.0371609746821
 21
585.9345107095824
 31
0.0
  0
TEXT
  5
335F
330
2
100
AcDbEntity
  8
leaders
 62
     1
370
    30
100
AcDbText
 10
777.6040923924945
 20
569.9071731809676
 30
0.0
 40
1.714999999999999
  1
~
 50
59.99999999999946
100
AcDbText
  0
LINE
  5
3361
330
2
100
AcDbEntity
  8
TEXT
 62
     7
370
    30
100
AcDbLine
 10
758.9882811233766
 20
561.2107341404509
 30
0.0
 11
759.4882811233766
 21
561.2107341404509
 31
0.0
  0
LINE
  5
3362
330
2
100
AcDbEntity
  8
TEXT
 62
     7
370
    30
100
AcDbLine
 10
768.2740174664371
 20
564.6273562287184
 30
0.0
 11
768.7740174664371
 21
564.6273562287184
 31
0.0
  0
LINE
  5
3363
330
2
100
AcDbEntity
  8
TEXT
 62
     7
370
    30
100
AcDbLine
 10
779.0833843873838
 20
570.867685250081
 30
0.0
 11
779.5833843873838
 21
570.867685250081
 31
0.0
  0
LINE
  5
3364
330
2
100
AcDbEntity
  8
TEXT
 62
     7
370
    30
100
AcDbLine
 10
789.8927513083305
 20
577.1080142714435
 30
0.0
 11
790.3927513083305
 21
577.1080142714435
 31
0.0
  0
ARC
  5
3365
330
2
100
AcDbEntity
  8
0
 62
     7
370
    30
100
AcDbCircle
 10
862.3136875072468
 20
573.0839669586968
 30
0.0
 40
23.8949994931199
100
AcDbArc
 50
176.7156308916362
 51
198.2445301754406
  0
ARC
  5
3366
330
2
100
AcDbEntity
  8
0
 62
     7
370
    30
100
AcDbCircle
 10
862.3136875072471
 20
573.0839669586958
 30
0.0
 40
23.89499949311999
100
AcDbArc
 50
176.7156308916362
 51
198.2445301754406
  0
ARC
  5
3367
330
2
100
AcDbEntity
  8
0
 62
     7
370
    30
100
AcDbCircle
 10
811.5368135843674
 20
573.0839669586958
 30
0.0
 40
23.89499949311992
100
AcDbArc
 50
341.7554698245623
 51
3.284369108366998
  0
ARC
  5
3368
330
2
100
AcDbEntity
  8
0
 62
     7
370
    30
100
AcDbCircle
 10
811.536813584367
 20
573.083966958697
 30
0.0
 40
23.89499949312021
100
AcDbArc
 50
342.4627592591669
 51
3.284369108363741
  0
ARC
  5
3369
330
2
100
AcDbEntity
  8
0
 62
     7
370
    30
100
AcDbCircle
 10
833.85223338287
 20
561.3412143093693
 30
0.0
 40
1.617890590680016
100
AcDbArc
 50
300.9828849416323
 51
354.9462446249102
  0
ARC
  5
336A
330
2
100
AcDbEntity
  8
0
 62
     7
370
    30
100
AcDbCircle
 10
833.8761490479873
 20
561.323146895676
 30
0.0
 40
1.589135542858315
100
AcDbArc
 50
300.5760411651846
 51
355.5082825604374
  0
LINE
  5
336B
330
2
100
AcDbEntity
  8
0
 62
     7
370
    30
100
AcDbLine
 10
834.6850943433272
 20
559.9541625497159
 30
0.0
 11
839.1654067482871
 21
559.9541625497159
 31
0.0
  0
LINE
  5
336C
330
2
100
AcDbEntity
  8
0
 62
     7
370
    30
100
AcDbLine
 10
839.1654067482871
 20
558.0873657143159
 30
0.0
 11
834.6850943433272
 21
558.087365714316
 31
0.0
  0
LINE
  5
336D
330
2
100
AcDbEntity
  8
0
 62
     7
370
    30
100
AcDbLine
 10
839.1654067482871
 20
558.0873657143159
 30
0.0
 11
834.6850943433272
 21
558.0873657143159
 31
0.0
  0
LINE
  5
336E
330
2
100
AcDbEntity
  8
0
 62
     7
370
    30
100
AcDbLine
 10
839.1654067482871
 20
558.4607250813958
 30
0.0
 11
834.6850943433272
 21
558.4607250813958
 31
0.0
  0
LINE
  5
336F
330
2
100
AcDbEntity
  8
0
 62
     7
370
    30
100
AcDbLine
 10
839.1654067482871
 20
559.456350060276
 30
0.0
 11
834.6850943433272
 21
559.456350060276
 31
0.0
  0
LINE
  5
3370
330
2
100
AcDbEntity
  8
0
 62
     7
370
    30
100
AcDbLine
 10
839.1654067482871
 20
559.9541625497159
 30
0.0
 11
834.6850943433272
 21
559.9541625497159
 31
0.0
  0
ARC
  5
3371
330
2
100
AcDbEntity
  8
0
 62
     7
370
    30
100
AcDbCircle
 10
836.7936523428994
 20
529.2487041406355
 30
0.0
 40
28.73968549999317
100
AcDbArc
 50
84.14495648463439
 51
95.33991966392544
  0
LINE
  5
3372
330
2
100
AcDbEntity
  8
0
 62
     7
370
    30
100
AcDbLine
 10
839.7254457989072
 20
555.3493970223959
 30
0.0
 11
834.1250552927071
 21
555.3493970223959
 31
0.0
  0
ARC
  5
3373
330
2
100
AcDbEntity
  8
0
 62
     7
370
    30
100
AcDbCircle
 10
837.1741567905225
 20
564.8078343217544
 30
0.0
 40
3.049101497816084
100
AcDbArc
 50
159.3366304815177
 51
235.1500954210106
  0
ARC
  5
3374
330
2
100
AcDbEntity
  8
0
 62
     7
370
    30
100
AcDbCircle
 10
837.1780774195467
 20
564.8182879860582
 30
0.0
 40
3.049101497820061
100
AcDbArc
 50
159.5464268096133
 51
235.0602729800345
  0
LINE
  5
3375
330
2
100
AcDbEntity
  8
TEXT
 62
     7
370
    30
100
AcDbLine
 10
834.6850943433272
 20
558.0873657143159
 30
0.0
 11
834.685094343327
 21
558.4507033975947
 31
0.0
  0
LINE
  5
3376
330
2
100
AcDbEntity
  8
TEXT
 62
     7
370
    30
100
AcDbLine
 10
834.1190131751561
 20
557.863662256294
 30
0.0
 11
834.6850943433272
 21
558.0873657143159
 31
0.0
  0
LINE
  5
3377
330
2
100
AcDbEntity
  8
TEXT
 62
     7
370
    30
100
AcDbLine
 10
834.1190131751561
 20
557.863662256294
 30
0.0
 11
834.1250552927071
 21
555.3493970223959
 31
0.0
  0
LINE
  5
3378
330
2
100
AcDbEntity
  8
0
 62
     7
370
    30
100
AcDbLine
 10
834.6850943433272
 20
559.9541625497159
 30
0.0
 11
834.6850943433272
 21
559.4663717440901
 31
0.0
  0
LINE
  5
3379
330
2
100
AcDbEntity
  8
0
 62
     7
370
    30
100
AcDbLine
 10
834.6850943433272
 20
559.456350060276
 30
0.0
 11
834.6850943433272
 21
559.9541625497159
 31
0.0
  0
ARC
  5
337A
330
2
100
AcDbEntity
  8
0
 62
     7
370
    30
100
AcDbCircle
 10
834.8406607462772
 20
558.9585375708359
 30
0.0
 40
0.5311275301077292
100
AcDbArc
 50
107.0315588425851
 51
252.9684411574148
  0
LINE
  5
337B
330
2
100
AcDbEntity
  8
LINEWORK
  6
DASHED
 62
     7
 48
2.0
370
    30
100
AcDbLine
 10
837.1752505458072
 20
557.0178359901664
 30
0.0
 11
836.6752505458071
 21
557.0178359901664
 31
0.0
  0
LINE
  5
337C
330
2
100
AcDbEntity
  8
0
 62
     7
370
    30
100
AcDbLine
 10
839.3281519961071
 20
555.3493970223959
 30
0.0
 11
836.5279567430071
 21
555.3493970223959
 31
0.0
  0
LINE
  5
337D
330
2
100
AcDbEntity
  8
0
 62
     7
370
    30
100
AcDbLine
 10
835.4318130774871
 20
562.3187718745558
 30
0.0
 11
835.4318130774871
 21
561.945412507476
 31
0.0
  0
LINE
  5
337E
330
2
100
AcDbEntity
  8
0
 62
     7
370
    30
100
AcDbLine
 10
835.4318130774871
 20
562.3187718745558
 30
0.0
 11
835.4318130774871
 21
561.945412507476
 31
0.0
  0
ARC
  5
337F
330
2
100
AcDbEntity
  8
0
 62
     7
370
    30
100
AcDbCircle
 10
835.6659472818209
 20
561.5827341197175
 30
0.0
 40
0.435585928259961
100
AcDbArc
 50
122.5146703355022
 51
241.8437230049877
  0
ARC
  5
3380
330
2
100
AcDbEntity
  8
0
 62
     7
370
    30
100
AcDbCircle
 10
835.6619528793219
 20
561.5834945423183
 30
0.0
 40
0.4328077644545648
100
AcDbArc
 50
122.122876517983
 51
242.7578788944459
  0
LINE
  5
3381
330
2
100
AcDbEntity
  8
0
 62
     7
370
    30
100
AcDbLine
 10
838.4186880141273
 20
561.9489376681947
 30
0.0
 11
838.4186880141273
 21
562.3055836689188
 31
0.0
  0
LINE
  5
3382
330
2
100
AcDbEntity
  8
0
 62
     7
370
    30
100
AcDbLine
 10
838.4186880141273
 20
561.945412507476
 30
0.0
 11
838.4186880141273
 21
562.3187718745558
 31
0.0
  0
ARC
  5
3383
330
2
100
AcDbEntity
  8
0
 62
     7
370
    30
100
AcDbCircle
 10
840.0000304572778
 20
561.3401543346127
 30
0.0
 40
1.617890590679964
100
AcDbArc
 50
185.0160721536889
 51
238.9442723236
  0
ARC
  5
3384
330
2
100
AcDbEntity
  8
0
 62
     7
370
    30
100
AcDbCircle
 10
839.9743520436272
 20
561.323146895676
 30
0.0
 40
1.589135542858315
100
AcDbArc
 50
184.4917174395625
 51
239.4234927769714
  0
LINE
  5
3385
330
2
100
AcDbEntity
  8
0
 62
     7
370
    30
100
AcDbLine
 10
839.1654067482871
 20
558.0873657143159
 30
0.0
 11
839.725445798906
 21
557.8384594695964
 31
0.0
  0
LINE
  5
3386
330
2
100
AcDbEntity
  8
0
 62
     7
370
    30
100
AcDbLine
 10
839.1654067482871
 20
559.4663717440759
 30
0.0
 11
839.1654067482871
 21
559.9541625497159
 31
0.0
  0
LINE
  5
3387
330
2
100
AcDbEntity
  8
0
 62
     7
370
    30
100
AcDbLine
 10
839.1654067483363
 20
558.4507033975958
 30
0.0
 11
839.1654067482871
 21
558.0873657143159
 31
0.0
  0
LINE
  5
3388
330
2
100
AcDbEntity
  8
0
 62
     7
370
    30
100
AcDbLine
 10
839.1654067482871
 20
558.0873657143159
 30
0.0
 11
839.1654067482871
 21
558.4607250813958
 31
0.0
  0
LINE
  5
3389
330
2
100
AcDbEntity
  8
0
 62
     7
370
    30
100
AcDbLine
 10
839.1654067482871
 20
559.456350060276
 30
0.0
 11
839.1654067482871
 21
559.9541625497159
 31
0.0
  0
LINE
  5
338A
330
2
100
AcDbEntity
  8
0
 62
     7
370
    30
100
AcDbLine
 10
839.7254457989072
 20
557.8384594695958
 30
0.0
 11
839.1654067482871
 21
558.0873657143159
 31
0.0
  0
ARC
  5
338B
330
2
100
AcDbEntity
  8
0
 62
     7
370
    30
100
AcDbCircle
 10
839.0098403453372
 20
558.9585375708359
 30
0.0
 40
0.5311275301077292
100
AcDbArc
 50
287.0315588425923
 51
72.96844115740762
  0
ARC
  5
338C
330
2
100
AcDbEntity
  8
0
 62
     7
370
    30
100
AcDbCircle
 10
838.1828117955572
 20
561.5827443989894
 30
0.0
 40
0.4355859282600059
100
AcDbArc
 50
298.1534114870492
 51
57.21318379421929
  0
ARC
  5
338D
330
2
100
AcDbEntity
  8
0
 62
     7
370
    30
100
AcDbCircle
 10
838.188337692096
 20
561.5825208425739
 30
0.0
 40
0.4328077644545648
100
AcDbArc
 50
297.5223844393724
 51
57.84421085063235
  0
LINE
  5
338E
330
2
100
AcDbEntity
  8
0
 62
     7
370
    30
100
AcDbLine
 10
836.9252505458073
 20
558.0873657143159
 30
0.0
 11
839.1654067482871
 21
558.0873657143159
 31
0.0
  0
LINE
  5
338F
330
2
100
AcDbEntity
  8
0
 62
     7
370
    30
100
AcDbLine
 10
838.3883360467246
 20
561.198693773316
 30
0.0
 11
835.4638344067634
 21
561.198693773316
 31
0.0
  0
LINE
  5
3390
330
2
100
AcDbEntity
  8
0
 62
     7
370
    30
100
AcDbLine
 10
835.4318130774871
 20
561.945412507476
 30
0.0
 11
838.4186880141273
 21
561.9489376681947
 31
0.0
  0
LINE
  5
3391
330
2
100
AcDbEntity
  8
0
 62
     7
370
    30
100
AcDbLine
 10
838.390097268059
 20
561.198693773316
 30
0.0
 11
835.4604038235553
 21
561.198693773316
 31
0.0
  0
LINE
  5
3392
330
2
100
AcDbEntity
  8
0
 62
     7
370
    30
100
AcDbLine
 10
838.4186880141273
 20
561.945412507476
 30
0.0
 11
835.4318130774871
 21
561.945412507476
 31
0.0
  0
LINE
  5
3393
330
2
100
AcDbEntity
  8
0
 62
     7
370
    30
100
AcDbLine
 10
838.4186880141273
 20
562.3187718745558
 30
0.0
 11
835.4318130774871
 21
562.3187718745558
 31
0.0
  0
LINE
  5
3394
330
2
100
AcDbEntity
  8
0
 62
     7
370
    30
100
AcDbLine
 10
838.4186880141273
 20
562.3187718745558
 30
0.0
 11
835.4318130774871
 21
562.3187718745558
 31
0.0
  0
LINE
  5
3395
330
2
100
AcDbEntity
  8
0
 62
     7
370
    30
100
AcDbLine
 10
836.9252505458073
 20
561.198693773316
 30
0.0
 11
838.390097268059
 21
561.198693773316
 31
0.0
  0
LINE
  5
3396
330
2
100
AcDbEntity
  8
0
 62
     7
370
    30
100
AcDbLine
 10
839.725445798906
 20
557.8384594695964
 30
0.0
 11
839.7254457989072
 21
555.3493970223959
 31
0.0
  0
ARC
  5
3397
330
2
100
AcDbEntity
  8
0
 62
     7
370
    30
100
AcDbCircle
 10
836.6763443010865
 20
564.8078343217583
 30
0.0
 40
3.049101497820003
100
AcDbArc
 50
304.8499045790616
 51
15.11840139765256
  0
ARC
  5
3398
330
2
100
AcDbEntity
  8
0
 62
     7
370
    30
100
AcDbCircle
 10
836.6763443010871
 20
564.8078343217559
 30
0.0
 40
3.049101497819999
100
AcDbArc
 50
304.8499045790454
 51
20.66336951854097
  0
ARC
  5
3399
330
2
100
AcDbEntity
  8
0
 62
     7
370
    30
100
AcDbCircle
 10
835.7369037658365
 20
578.7095602515939
 30
0.0
 40
1.212287787181585
100
AcDbArc
 50
184.1357219839219
 51
266.9662672764073
  0
LINE
  5
339A
330
2
100
AcDbEntity
  8
0
 62
     7
370
    30
100
AcDbLine
 10
834.4361880986072
 20
581.360099595636
 30
0.0
 11
839.4143129930071
 21
581.360099595636
 31
0.0
  0
LINE
  5
339B
330
2
100
AcDbEntity
  8
0
 62
     7
370
    30
100
AcDbLine
 10
839.4143129930071
 20
578.7465840260759
 30
0.0
 11
834.4361880986072
 21
578.7465840260759
 31
0.0
  0
LINE
  5
339C
330
2
100
AcDbEntity
  8
0
 62
     7
370
    30
100
AcDbLine
 10
839.3106440959986
 20
578.6221309036919
 30
0.0
 11
834.5277727604946
 21
578.6221309037159
 31
0.0
  0
LINE
  5
339D
330
2
100
AcDbEntity
  8
0
 62
     7
370
    30
100
AcDbLine
 10
839.3106440960185
 20
578.6221309037159
 30
0.0
 11
834.5277727604946
 21
578.6221309037159
 31
0.0
  0
LINE
  5
339E
330
2
100
AcDbEntity
  8
0
 62
     7
370
    30
100
AcDbLine
 10
839.4143129930071
 20
578.7465840260759
 30
0.0
 11
834.4361880986072
 21
578.7465840260759
 31
0.0
  0
ARC
  5
339F
330
2
100
AcDbEntity
  8
0
 62
     7
370
    30
100
AcDbCircle
 10
835.5562661998472
 20
575.510802844716
 30
0.0
 40
0.5957627198174097
100
AcDbArc
 50
108.9662344031036
 51
238.5171836301427
  0
LINE
  5
33A0
330
2
100
AcDbEntity
  8
0
 62
     7
370
    30
100
AcDbLine
 10
834.4361880986072
 20
578.7465840260759
 30
0.0
 11
834.4361880986072
 21
581.3600995956359
 31
0.0
  0
LINE
  5
33A1
330
2
100
AcDbEntity
  8
0
 62
     7
370
    30
100
AcDbLine
 10
834.5277727604946
 20
578.6221309037159
 30
0.0
 11
834.4361880986072
 21
578.7465840260759
 31
0.0
  0
POINT
  5
33A2
330
2
100
AcDbEntity
  8
0
 62
     7
370
    30
100
AcDbPoint
 10
834.4361880986072
 20
581.3600995956359
 30
0.0
  0
LINE
  5
33A3
330
2
100
AcDbEntity
  8
0
 62
     7
370
    30
100
AcDbLine
 10
834.4361880986072
 20
578.7465840260759
 30
0.0
 11
834.5277727604946
 21
578.6221309037159
 31
0.0
  0
LINE
  5
33A4
330
2
100
AcDbEntity
  8
0
 62
     7
370
    30
100
AcDbLine
 10
834.4361880986072
 20
581.3600995956359
 30
0.0
 11
834.4361880986072
 21
578.7465840260759
 31
0.0
  0
LINE
  5
33A5
330
2
100
AcDbEntity
  8
0
 62
     7
370
    30
100
AcDbLine
 10
834.4361880986072
 20
579.2506847792387
 30
0.0
 11
834.4361880986072
 21
581.360099595636
 31
0.0
  0
LINE
  5
33A6
330
2
100
AcDbEntity
  8
TEXT
 62
     7
370
    30
100
AcDbLine
 10
836.6752505458071
 20
579.3978359901676
 30
0.0
 11
837.1752505458072
 21
579.3978359901676
 31
0.0
  0
LINE
  5
33A7
330
2
100
AcDbEntity
  8
0
 62
     7
370
    30
100
AcDbLine
 10
835.6727447835533
 20
577.004240313036
 30
0.0
 11
835.6727447835236
 21
577.4989714262951
 31
0.0
  0
LINE
  5
33A8
330
2
100
AcDbEntity
  8
0
 62
     7
370
    30
100
AcDbLine
 10
835.6727447835535
 20
577.0042403130359
 30
0.0
 11
835.6727447835535
 21
577.4898991994603
 31
0.0
  0
ARC
  5
33A9
330
2
100
AcDbEntity
  8
0
 62
     7
370
    30
100
AcDbCircle
 10
838.1015130906765
 20
578.7095602515939
 30
0.0
 40
1.212287787181585
100
AcDbArc
 50
273.1856270267261
 51
355.8642780160781
  0
LINE
  5
33AA
330
2
100
AcDbEntity
  8
0
 62
     7
370
    30
100
AcDbLine
 10
839.4143129930071
 20
581.3600995956359
 30
0.0
 11
839.4143129930071
 21
578.7465840260759
 31
0.0
  0
LINE
  5
33AB
330
2
100
AcDbEntity
  8
0
 62
     7
370
    30
100
AcDbLine
 10
839.4143129930071
 20
578.7465840260759
 30
0.0
 11
839.3106440959986
 21
578.6221309036919
 31
0.0
  0
POINT
  5
33AC
330
2
100
AcDbEntity
  8
0
 62
     7
370
    30
100
AcDbPoint
 10
839.4143129930071
 20
581.3600995956359
 30
0.0
  0
POINT
  5
33AD
330
2
100
AcDbEntity
  8
0
 62
     7
370
    30
100
AcDbPoint
 10
839.4143129930071
 20
581.3600995956359
 30
0.0
  0
LINE
  5
33AE
330
2
100
AcDbEntity
  8
0
 62
     7
370
    30
100
AcDbLine
 10
839.4143129930071
 20
578.7465840260759
 30
0.0
 11
839.3106440960185
 21
578.6221309037159
 31
0.0
  0
LINE
  5
33AF
330
2
100
AcDbEntity
  8
0
 62
     7
370
    30
100
AcDbLine
 10
839.4143129930071
 20
581.3600995956359
 30
0.0
 11
839.4143129930071
 21
578.7465840260759
 31
0.0
  0
LINE
  5
33B0
330
2
100
AcDbEntity
  8
0
 62
     7
370
    30
100
AcDbLine
 10
838.1688811821842
 20
577.4991457692079
 30
0.0
 11
838.1688811821842
 21
577.004240313036
 31
0.0
  0
LINE
  5
33B1
330
2
100
AcDbEntity
  8
0
 62
     7
370
    30
100
AcDbLine
 10
838.1688811821842
 20
577.502052802476
 30
0.0
 11
838.1688811821842
 21
577.0042403130359
 31
0.0
  0
LINE
  5
33B2
330
2
100
AcDbEntity
  8
0
 62
     7
370
    30
100
AcDbLine
 10
838.1618072307533
 20
577.0042403130359
 30
0.0
 11
838.1688811821842
 21
577.0042403130359
 31
0.0
  0
LINE
  5
33B3
330
2
100
AcDbEntity
  8
0
 62
     7
370
    30
100
AcDbLine
 10
836.9252505458073
 20
581.3600995956359
 30
0.0
 11
839.4143129930071
 21
581.3600995956359
 31
0.0
  0
LINE
  5
33B4
330
2
100
AcDbEntity
  8
A1
 62
     7
370
    30
100
AcDbLine
 10
835.6727447835535
 20
577.4898991994603
 30
0.0
 11
838.1688811821842
 21
577.4991457691969
 31
0.0
  0
LINE
  5
33B5
330
2
100
AcDbEntity
  8
0
 62
     7
370
    30
100
AcDbLine
 10
838.1688811821842
 20
577.004240313036
 30
0.0
 11
835.6727447835533
 21
577.004240313036
 31
0.0
  0
LINE
  5
33B6
330
2
100
AcDbEntity
  8
0
 62
     7
370
    30
100
AcDbLine
 10
838.1618072307533
 20
577.0042403130359
 30
0.0
 11
835.6727447835535
 21
577.0042403130359
 31
0.0
  0
LINE
  5
33B7
330
2
100
AcDbEntity
  8
A1
 62
     7
370
    30
100
AcDbLine
 10
835.3626368315335
 20
576.0742217706056
 30
0.0
 11
835.5811554094326
 21
576.1962286283465
 31
0.0
  0
LINE
  5
33B8
330
2
100
AcDbEntity
  8
0
 62
     7
370
    30
100
AcDbLine
 10
835.2451333939471
 20
574.5151778658359
 30
0.0
 11
835.2451333939471
 21
575.0027382863752
 31
0.0
  0
LINE
  5
33B9
330
2
100
AcDbEntity
  8
0
 62
     7
370
    30
100
AcDbLine
 10
835.2451333939471
 20
574.5151778658359
 30
0.0
 11
835.2451333939471
 21
575.0129903552759
 31
0.0
  0
LINE
  5
33BA
330
2
100
AcDbEntity
  8
0
 62
     7
370
    30
100
AcDbLine
 10
835.3925651473918
 20
574.4529513046559
 30
0.0
 11
835.2451333939471
 21
574.5151778658359
 31
0.0
  0
LINE
  5
33BB
330
2
100
AcDbEntity
  8
0
 62
     7
370
    30
100
AcDbLine
 10
835.2451333939471
 20
574.5151778658359
 30
0.0
 11
835.3925651473911
 21
574.4529513046559
 31
0.0
  0
LINE
  5
33BC
330
2
100
AcDbEntity
  8
A1
 62
     7
370
    30
100
AcDbLine
 10
838.5200413978159
 20
576.0541933471305
 30
0.0
 11
838.2741448733039
 21
576.1855417708155
 31
0.0
  0
LINE
  5
33BD
330
2
100
AcDbEntity
  8
0
 62
     7
370
    30
100
AcDbLine
 10
838.6053676973364
 20
575.0060576062201
 30
0.0
 11
838.6053676976672
 21
574.5151778658359
 31
0.0
  0
LINE
  5
33BE
330
2
100
AcDbEntity
  8
0
 62
     7
370
    30
100
AcDbLine
 10
838.6053676976672
 20
574.5151778658359
 30
0.0
 11
838.6053676976672
 21
575.0129903552759
 31
0.0
  0
ARC
  5
33BF
330
2
100
AcDbEntity
  8
0
 62
     7
370
    30
100
AcDbCircle
 10
838.3253481723572
 20
575.510802844716
 30
0.0
 40
0.5772163287311298
100
AcDbArc
 50
299.0203733657689
 51
70.2877336493226
  0
LINE
  5
33C0
330
2
100
AcDbEntity
  8
0
 62
     7
370
    30
100
AcDbLine
 10
838.6053676976672
 20
574.5151778658359
 30
0.0
 11
838.4579359442223
 21
574.4529513046556
 31
0.0
  0
LINE
  5
33C1
330
2
100
AcDbEntity
  8
0
 62
     7
370
    30
100
AcDbLine
 10
838.6053676976672
 20
574.5151778658359
 30
0.0
 11
838.4579359442232
 21
574.4529513046559
 31
0.0
  0
LINE
  5
33C2
330
2
100
AcDbEntity
  8
0
 62
     7
370
    30
100
AcDbLine
 10
838.6053676976672
 20
574.5151778658359
 30
0.0
 11
835.2451333939471
 21
574.5151778658359
 31
0.0
  0
LINE
  5
33C3
330
2
100
AcDbEntity
  8
0
 62
     7
370
    30
100
AcDbLine
 10
838.4579359442223
 20
574.4529513046556
 30
0.0
 11
835.3925651473918
 21
574.4529513046559
 31
0.0
  0
LINE
  5
33C4
330
2
100
AcDbEntity
  8
0
 62
     7
370
    30
100
AcDbLine
 10
838.4579359442232
 20
574.4529513046559
 30
0.0
 11
835.3925651473911
 21
574.4529513046559
 31
0.0
  0
LINE
  5
33C5
330
2
100
AcDbEntity
  8
0
 62
     7
370
    30
100
AcDbLine
 10
838.6053676976672
 20
574.5151778658359
 30
0.0
 11
835.2451333939471
 21
574.5151778658359
 31
0.0
  0
LINE
  5
33C6
330
2
100
AcDbEntity
  8
0
 62
     7
370
    30
100
AcDbLine
 10
838.6053676976672
 20
575.0129903552759
 30
0.0
 11
835.2451333939471
 21
575.0129903552759
 31
0.0
  0
LINE
  5
33C7
330
2
100
AcDbEntity
  8
0
 62
     7
370
    30
100
AcDbLine
 10
836.9252505458073
 20
574.5151778658359
 30
0.0
 11
838.6053676976672
 21
574.5151778658359
 31
0.0
  0
ARC
  5
33C8
330
2
100
AcDbEntity
  8
0
 62
     7
370
    30
100
AcDbCircle
 10
835.3384732357172
 20
576.6308809459559
 30
0.0
 40
0.4978124894400001
100
AcDbArc
 50
299.176209344797
 51
48.18437655723768
  0
LWPOLYLINE
  5
33C9
330
2
100
AcDbEntity
  8
0
 62
     7
370
    30
100
AcDbPolyline
 90
        2
 70
     0
 43
0.0
 10
838.2741448733039
 20
576.1855417708155
 42
-0.5167802011889741
 10
838.1704445431049
 20
577.0026821492137
  0
DIMENSION
  5
33D9
330
2
100
AcDbEntity
  8
TEXT
 62
     7
370
    30
100
AcDbDimension
  2
*D6
 10
848.3317870274209
 20
581.360099595636
 30
0.0
 11
848.3317870274209
 21
568.4507855725534
 31
0.0
 70
   160
  1
26 1/8"
 71
     5
 42
-1.0
  3
STANDARD
100
AcDbAlignedDimension
 13
839.3281519961071
 23
555.3493970223959
 33
0.0
 14
839.4143129930071
 24
581.360099595636
 34
0.0
 50
90.0
100
AcDbRotatedDimension
1001
ACAD
1000
DSTYLE
1002
{
1070
   287
1070
     4
1070
   287
1070
     4
1070
    40
1040
2.399999999999999
1070
    73
1070
     1
1070
    74
1070
     1
1070
    77
1070
     0
1070
   147
1040
0.5
1070
   279
1070
     1
1070
   288
1070
     1
1070
   289
1070
     3
1002
}
  0
DIMENSION
  5
33E7
330
2
100
AcDbEntity
  8
TEXT
 62
     7
370
    30
100
AcDbDimension
  2
*D7
 10
864.657774703423
 20
586.2578359901663
 30
0.0
 11
864.657774703423
 21
568.4507855725534
 31
0.0
 70
   160
  1
36 5/16"
 71
     5
 42
-1.0
  3
STANDARD
100
AcDbAlignedDimension
 13
842.9252505458077
 23
550.4578359901666
 33
0.0
 14
842.8686251576891
 24
586.2578359901663
 34
0.0
 50
90.0
100
AcDbRotatedDimension
1001
ACAD
1000
DSTYLE
1002
{
1070
   287
1070
     4
1070
   287
1070
     4
1070
    40
1040
2.399999999999999
1070
    73
1070
     1
1070
    74
1070
     1
1070
    77
1070
     0
1070
   147
1040
0.5
1070
   279
1070
     1
1070
   288
1070
     1
1070
   289
1070
     3
1002
}
  0
DIMENSION
  5
3445
330
2
100
AcDbEntity
  8
TEXT
 62
     7
370
    30
100
AcDbDimension
  2
*D8
 10
826.1048394493904
 20
581.5385017021348
 30
0.0
 11
826.1048394493904
 21
568.0575897855515
 31
0.0
 70
   160
 71
     5
 42
-1.0
  3
STANDARD
100
AcDbAlignedDimension
 13
816.8321107321931
 23
554.787501702135
 33
0.0
 14
816.8321107321931
 24
581.5385017021348
 34
0.0
 50
90.0
100
AcDbRotatedDimension
1001
ACAD
1000
DSTYLE
1002
{
1070
   287
1070
     4
1070
   287
1070
     4
1070
    40
1040
2.399999999999999
1070
    73
1070
     1
1070
    74
1070
     1
1070
    77
1070
     0
1070
   147
1040
0.5
1070
   279
1070
     1
1070
   288
1070
     1
1070
   289
1070
     3
1002
}
  0
DIMENSION
  5
3453
330
2
100
AcDbEntity
  8
TEXT
 62
     7
370
    30
100
AcDbDimension
  2
*D9
 10
805.3321107321922
 20
525.5924164569396
 30
0.0
 11
779.4872595707166
 21
525.5924164569396
 31
0.0
 70
   160
  1
VARIES
 71
     5
 42
-1.0
  3
STANDARD
100
AcDbAlignedDimension
 13
753.9879740371682
 23
532.6414552196276
 33
0.0
 14
805.3321107321922
 24
550.8309954649156
 34
0.0
100
AcDbRotatedDimension
1001
ACAD
1000
DSTYLE
1002
{
1070
   287
1070
     4
1070
   287
1070
     4
1070
    40
1040
2.399999999999999
1070
    73
1070
     1
1070
    74
1070
     1
1070
    77
1070
     0
1070
   147
1040
0.5
1070
   279
1070
     1
1070
   288
1070
     1
1070
   289
1070
     3
1002
}
  0
SOLID
  5
3472
330
2
100
AcDbEntity
  8
TEXT
 62
     1
370
    30
100
AcDbTrace
 10
799.2138359378025
 20
587.1472393627262
 30
0.0
 11
798.8447026968448
 21
587.3013193757714
 31
0.0
 12
798.5670292781876
 22
586.1168796463756
 32
0.0
 13
798.5670292781876
 23
586.1168796463756
 33
0.0
  0
LINE
  5
3473
330
2
100
AcDbEntity
  8
TEXT
 62
     1
370
    30
100
AcDbLine
 10
799.0292693173237
 20
587.2242793692488
 30
0.0
 11
807.6246821653539
 21
607.8165193311524
 31
0.0
  0
LINE
  5
3537
330
2
100
AcDbEntity
  8
TEXT
 62
     7
370
    30
100
AcDbLine
 10
795.5568800727269
 20
550.2035015824499
 30
0.0
 11
764.5531008459125
 21
532.3034612999529
 31
0.0
  0
LINE
  5
3538
330
2
100
AcDbEntity
  8
LINEWORK
 62
     7
370
    30
100
AcDbLine
 10
795.914996688475
 20
550.3309954649156
 30
0.0
 11
817.332110732193
 21
550.3309954649156
 31
0.0
  0
LINE
  5
3539
330
2
100
AcDbEntity
  8
LINEWORK
  6
PHANTOM
 62
     7
 48
4.0
370
    30
100
AcDbLine
 10
764.3729790308157
 20
531.7664552196276
 30
0.0
 11
741.9879740371673
 21
531.7664552196276
 31
0.0
  0
LINE
  5
353A
330
2
100
AcDbEntity
  8
TEXT
  6
PHANTOM
 62
     7
 48
4.0
370
    30
100
AcDbLine
 10
795.8781869019731
 20
549.9559954649156
 30
0.0
 11
764.3729790308157
 21
531.7664552196276
 31
0.0
  0
LINE
  5
353B
330
2
100
AcDbEntity
  8
LINEWORK
  6
PHANTOM
 62
     7
 48
4.0
370
    30
100
AcDbLine
 10
795.8781869019731
 20
549.9559954649156
 30
0.0
 11
817.332110732193
 21
549.9559954649156
 31
0.0
  0
LINE
  5
353F
330
2
100
AcDbEntity
  8
LINEWORK
 62
     7
370
    30
100
AcDbLine
 10
764.1688663216109
 20
532.1414552196277
 30
0.0
 11
741.9879740371673
 21
532.1414552196277
 31
0.0
  0
DIMENSION
  5
361E
330
2
100
AcDbEntity
  8
TEXT
 62
     7
370
    30
100
AcDbDimension
  2
*D10
 10
779.3333843873838
 20
530.8572397645264
 30
0.0
 11
774.169324503618
 21
530.8572397645264
 31
0.0
 70
   160
  1
12"
 71
     5
 42
-1.0
  3
STANDARD
100
AcDbAlignedDimension
 13
768.5240174664372
 23
537.6630437287158
 33
0.0
 14
779.3333843873838
 24
543.9033727500783
 34
0.0
100
AcDbRotatedDimension
1001
ACAD
1000
DSTYLE
1002
{
1070
   287
1070
     4
1070
    40
1040
2.399999999999999
1070
    73
1070
     1
1070
    74
1070
     1
1070
    77
1070
     0
1070
   147
1040
0.5
1070
   279
1070
     1
1070
   288
1070
     1
1070
   289
1070
     3
1002
}
  0
ENDSEC
  0
SECTION
  2
OBJECTS
  0
DICTIONARY
  5
8
330
0
100
AcDbDictionary
281
     1
  3
ACAD_GROUP
350
21
  3
ACAD_LAYOUT
350
C
  3
ACAD_MLINESTYLE
350
22
  3
ACAD_PLOTSETTINGS
350
23
  3
ACAD_PLOTSTYLENAME
350
7
  3
DWGPROPS
350
36F0
  0
DICTIONARY
  5
3
330
2
100
AcDbDictionary
280
     1
281
     1
  3
ACAD_LAYOUTSELFREF
360
371D
  0
DICTIONARY
  5
A8B
330
D
100
AcDbDictionary
280
     1
281
     1
  3
ACAD_LAYOUTSELFREF
360
3720
  0
DICTIONARY
  5
21
102
{ACAD_REACTORS
330
8
102
}
330
8
100
AcDbDictionary
281
     1
  0
DICTIONARY
  5
C
102
{ACAD_REACTORS
330
8
102
}
330
8
100
AcDbDictionary
281
     1
  3
Layout1
350
10
  3
Model
350
B
  0
DICTIONARY
  5
22
102
{ACAD_REACTORS
330
8
102
}
330
8
100
AcDbDictionary
281
     1
  3
STANDARD
350
25
  0
DICTIONARY
  5
23
102
{ACAD_REACTORS
330
8
102
}
330
8
100
AcDbDictionary
281
     1
  0
ACDBDICTIONARYWDFLT
  5
7
102
{ACAD_REACTORS
330
8
102
}
330
8
100
AcDbDictionary
281
     1
  3
Normal
350
6
100
AcDbDictionaryWithDefault
340
6
  0
XRECORD
  5
36F0
102
{ACAD_REACTORS
330
8
102
}
330
8
100
AcDbXrecord
280
     1
  1
DWGPROPS COOKIE
  2

  3

  4

  6

  7

  8
catalog
  9

300
=
301
=
302
=
303
=
304
=
305
=
306
=
307
=
308
=
309
=
 40
3.658254050925926
 41
2451085.66483831
 42
2451656.650146181
  1

 90
        0
  0
XRECORD
  5
371D
102
{ACAD_REACTORS
330
3
102
}
330
3
100
AcDbXrecord
280
     1
340
2
  0
XRECORD
  5
3720
102
{ACAD_REACTORS
330
A8B
102
}
330
A8B
100
AcDbXrecord
280
     1
340
D
  0
LAYOUT
  5
10
102
{ACAD_REACTORS
330
C
102
}
330
C
100
AcDbPlotSettings
  1

  2
None
  4

  6

 40
0.0
 41
0.0
 42
0.0
 43
0.0
 44
0.0
 45
0.0
 46
0.0
 47
0.0
 48
0.0
 49
0.0
140
0.0
141
0.0
142
1.0
143
1.0
 70
   688
 72
     0
 73
     0
 74
     5
  7

 75
    16
147
1.0
148
0.0
149
0.0
100
AcDbLayout
  1
Layout1
 70
     1
 71
     1
 10
0.0
 20
0.0
 11
12.0
 21
9.0
 12
0.0
 22
0.0
 32
0.0
 14
1.000000000000000E+20
 24
1.000000000000000E+20
 34
1.000000000000000E+20
 15
-1.000000000000000E+20
 25
-1.000000000000000E+20
 35
-1.000000000000000E+20
146
0.0
 13
0.0
 23
0.0
 33
0.0
 16
1.0
 26
0.0
 36
0.0
 17
0.0
 27
1.0
 37
0.0
 76
     0
330
D
  0
LAYOUT
  5
B
102
{ACAD_REACTORS
330
C
102
}
330
C
100
AcDbPlotSettings
  1

  2
HP LaserJet 5
  4
Letter
  6

 40
7.143749713897705
 41
6.381738662719726
 42
7.14373779296875
 43
6.381744384765625
 44
215.8999938964843
 45
279.3999938964843
 46
0.0
 47
0.0
 48
384.482208949714
 49
318.3711668150766
140
565.7294511324651
141
453.2014323412695
142
1.0
143
17.10141079522333
 70
 11952
 72
     0
 73
     1
 74
     1
  7

 75
     0
147
0.0584747078457009
148
-17715.30464768537
149
-12488.91446775219
100
AcDbLayout
  1
Model
 70
     1
 71
     0
 10
0.0
 20
0.0
 11
12.0
 21
9.0
 12
0.0
 22
0.0
 32
0.0
 14
0.0
 24
0.0
 34
0.0
 15
0.0
 25
0.0
 35
0.0
146
0.0
 13
0.0
 23
0.0
 33
0.0
 16
1.0
 26
0.0
 36
0.0
 17
0.0
 27
1.0
 37
0.0
 76
     0
330
2
  0
MLINESTYLE
  5
25
102
{ACAD_REACTORS
330
22
102
}
330
22
100
AcDbMlineStyle
  2
STANDARD
 70
     0
  3

 62
   256
 51
90.0
 52
90.0
 71
     2
 49
0.5
 62
   256
  6
BYLAYER
 49
-0.5
 62
   256
  6
BYLAYER
  0
ACDBPLACEHOLDER
  5
6
102
{ACAD_REACTORS
330
7
102
}
330
7
  0
ENDSEC
  0
EOF
