  0
SECTION
  2
HEADER
  9
$ACADVER
  1
AC1015
  9
$ACADMAINTVER
 70
     6
  9
$DWGCODEPAGE
  3
ANSI_1252
  9
$INSBASE
 10
0.0
 20
0.0
 30
0.0
  9
$EXTMIN
 10
513.5702154435931
 20
357.5339674769554
 30
0.0
  9
$EXTMAX
 10
678.9365742662861
 20
480.5504051377392
 30
0.0
  9
$LIMMIN
 10
0.0
 20
0.0
  9
$LIMMAX
 10
12.0
 20
9.0
  9
$ORTHOMODE
 70
     1
  9
$REGENMODE
 70
     1
  9
$FILLMODE
 70
     1
  9
$QTEXTMODE
 70
     0
  9
$MIRRTEXT
 70
     0
  9
$LTSCALE
 40
1.0
  9
$ATTMODE
 70
     2
  9
$TEXTSIZE
 40
1.0
  9
$TRACEWID
 40
0.05
  9
$TEXTSTYLE
  7
STANDARD
  9
$CLAYER
  8
leaders
  9
$CELTYPE
  6
BYLAYER
  9
$CECOLOR
 62
     7
  9
$CELTSCALE
 40
1.0
  9
$DISPSILH
 70
     0
  9
$DIMSCALE
 40
2.399999999999999
  9
$DIMASZ
 40
0.5
  9
$DIMEXO
 40
1.0
  9
$DIMDLI
 40
0.0625
  9
$DIMRND
 40
0.0
  9
$DIMDLE
 40
0.0
  9
$DIMEXE
 40
0.25
  9
$DIMTP
 40
0.0
  9
$DIMTM
 40
0.0
  9
$DIMTXT
 40
1.0
  9
$DIMCEN
 40
0.0
  9
$DIMTSZ
 40
0.0
  9
$DIMTOL
 70
     0
  9
$DIMLIM
 70
     0
  9
$DIMTIH
 70
     1
  9
$DIMTOH
 70
     1
  9
$DIMSE1
 70
     0
  9
$DIMSE2
 70
     0
  9
$DIMTAD
 70
     0
  9
$DIMZIN
 70
     0
  9
$DIMBLK
  1

  9
$DIMASO
 70
     1
  9
$DIMSHO
 70
     1
  9
$DIMPOST
  1
"
  9
$DIMAPOST
  1

  9
$DIMALT
 70
     0
  9
$DIMALTD
 70
     0
  9
$DIMALTF
 40
25.4
  9
$DIMLFAC
 40
1.0
  9
$DIMTOFL
 70
     0
  9
$DIMTVP
 40
0.0
  9
$DIMTIX
 70
     0
  9
$DIMSOXD
 70
     0
  9
$DIMSAH
 70
     0
  9
$DIMBLK1
  1

  9
$DIMBLK2
  1

  9
$DIMSTYLE
  2
STANDARD
  9
$DIMCLRD
 70
     0
  9
$DIMCLRE
 70
     0
  9
$DIMCLRT
 70
     0
  9
$DIMTFAC
 40
0.125
  9
$DIMGAP
 40
0.5
  9
$DIMJUST
 70
     0
  9
$DIMSD1
 70
     0
  9
$DIMSD2
 70
     0
  9
$DIMTOLJ
 70
     1
  9
$DIMTZIN
 70
     0
  9
$DIMALTZ
 70
     2
  9
$DIMALTTZ
 70
     2
  9
$DIMUPT
 70
     1
  9
$DIMDEC
 70
     4
  9
$DIMTDEC
 70
     4
  9
$DIMALTU
 70
     2
  9
$DIMALTTD
 70
     0
  9
$DIMTXSTY
  7
STANDARD
  9
$DIMAUNIT
 70
     0
  9
$DIMADEC
 70
     0
  9
$DIMALTRND
 40
0.0
  9
$DIMAZIN
 70
     0
  9
$DIMDSEP
 70
    46
  9
$DIMATFIT
 70
     1
  9
$DIMFRAC
 70
     2
  9
$DIMLDRBLK
  1

  9
$DIMLUNIT
 70
     5
  9
$DIMLWD
 70
    -2
  9
$DIMLWE
 70
    -2
  9
$DIMTMOVE
 70
     1
  9
$LUNITS
 70
     5
  9
$LUPREC
 70
     4
  9
$SKETCHINC
 40
0.1
  9
$FILLETRAD
 40
0.03125
  9
$AUNITS
 70
     0
  9
$AUPREC
 70
     1
  9
$MENU
  1
acad
  9
$ELEVATION
 40
0.0
  9
$PELEVATION
 40
0.0
  9
$THICKNESS
 40
0.0
  9
$LIMCHECK
 70
     0
  9
$CHAMFERA
 40
0.75
  9
$CHAMFERB
 40
0.75
  9
$CHAMFERC
 40
0.0
  9
$CHAMFERD
 40
0.0
  9
$SKPOLY
 70
     0
  9
$TDCREATE
 40
2451085.664838310
  9
$TDUCREATE
 40
2451085.831504977
  9
$TDUPDATE
 40
2451661.333755555
  9
$TDUUPDATE
 40
2451661.500422222
  9
$TDINDWG
 40
3.4871673611
  9
$TDUSRTIMER
 40
3.4871673611
  9
$USRTIMER
 70
     1
  9
$ANGBASE
 50
0.0
  9
$ANGDIR
 70
     0
  9
$PDMODE
 70
     0
  9
$PDSIZE
 40
0.0
  9
$PLINEWID
 40
0.12
  9
$SPLFRAME
 70
     0
  9
$SPLINETYPE
 70
     6
  9
$SPLINESEGS
 70
     8
  9
$HANDSEED
  5
12A6
  9
$SURFTAB1
 70
     6
  9
$SURFTAB2
 70
     6
  9
$SURFTYPE
 70
     6
  9
$SURFU
 70
     6
  9
$SURFV
 70
     6
  9
$UCSBASE
  2

  9
$UCSNAME
  2

  9
$UCSORG
 10
0.0
 20
0.0
 30
0.0
  9
$UCSXDIR
 10
1.0
 20
0.0
 30
0.0
  9
$UCSYDIR
 10
0.0
 20
1.0
 30
0.0
  9
$UCSORTHOREF
  2

  9
$UCSORTHOVIEW
 70
     0
  9
$UCSORGTOP
 10
0.0
 20
0.0
 30
0.0
  9
$UCSORGBOTTOM
 10
0.0
 20
0.0
 30
0.0
  9
$UCSORGLEFT
 10
0.0
 20
0.0
 30
0.0
  9
$UCSORGRIGHT
 10
0.0
 20
0.0
 30
0.0
  9
$UCSORGFRONT
 10
0.0
 20
0.0
 30
0.0
  9
$UCSORGBACK
 10
0.0
 20
0.0
 30
0.0
  9
$PUCSBASE
  2

  9
$PUCSNAME
  2

  9
$PUCSORG
 10
0.0
 20
0.0
 30
0.0
  9
$PUCSXDIR
 10
1.0
 20
0.0
 30
0.0
  9
$PUCSYDIR
 10
0.0
 20
1.0
 30
0.0
  9
$PUCSORTHOREF
  2

  9
$PUCSORTHOVIEW
 70
     0
  9
$PUCSORGTOP
 10
0.0
 20
0.0
 30
0.0
  9
$PUCSORGBOTTOM
 10
0.0
 20
0.0
 30
0.0
  9
$PUCSORGLEFT
 10
0.0
 20
0.0
 30
0.0
  9
$PUCSORGRIGHT
 10
0.0
 20
0.0
 30
0.0
  9
$PUCSORGFRONT
 10
0.0
 20
0.0
 30
0.0
  9
$PUCSORGBACK
 10
0.0
 20
0.0
 30
0.0
  9
$USERI1
 70
     0
  9
$USERI2
 70
     0
  9
$USERI3
 70
     0
  9
$USERI4
 70
     0
  9
$USERI5
 70
     0
  9
$USERR1
 40
0.0
  9
$USERR2
 40
0.0
  9
$USERR3
 40
0.0
  9
$USERR4
 40
0.0
  9
$USERR5
 40
0.0
  9
$WORLDVIEW
 70
     1
  9
$SHADEDGE
 70
     1
  9
$SHADEDIF
 70
    70
  9
$TILEMODE
 70
     1
  9
$MAXACTVP
 70
    16
  9
$PINSBASE
 10
0.0
 20
0.0
 30
0.0
  9
$PLIMCHECK
 70
     0
  9
$PEXTMIN
 10
1.000000000000000E+20
 20
1.000000000000000E+20
 30
1.000000000000000E+20
  9
$PEXTMAX
 10
-1.000000000000000E+20
 20
-1.000000000000000E+20
 30
-1.000000000000000E+20
  9
$PLIMMIN
 10
0.0
 20
0.0
  9
$PLIMMAX
 10
12.0
 20
9.0
  9
$UNITMODE
 70
     0
  9
$VISRETAIN
 70
     0
  9
$PLINEGEN
 70
     0
  9
$PSLTSCALE
 70
     1
  9
$TREEDEPTH
 70
  3020
  9
$CMLSTYLE
  2
STANDARD
  9
$CMLJUST
 70
     0
  9
$CMLSCALE
 40
1.0
  9
$PROXYGRAPHICS
 70
     1
  9
$MEASUREMENT
 70
     0
  9
$CELWEIGHT
370
    -1
  9
$ENDCAPS
280
     0
  9
$JOINSTYLE
280
     0
  9
$LWDISPLAY
290
     0
  9
$INSUNITS
 70
     0
  9
$HYPERLINKBASE
  1

  9
$STYLESHEET
  1

  9
$XEDIT
290
     1
  9
$CEPSNTYPE
380
     0
  9
$PSTYLEMODE
290
     1
  9
$FINGERPRINTGUID
  2
{A6232B84-9B2E-11D3-8DA4-00A0C981A35F}
  9
$VERSIONGUID
  2
{1C381AFD-176D-11D4-8DA4-00A0C981A35F}
  9
$EXTNAMES
290
     1
  9
$PSVPSCALE
 40
0.0
  9
$OLESTARTUP
290
     0
  0
ENDSEC
  0
SECTION
  2
CLASSES
  0
CLASS
  1
DICTIONARYVAR
  2
AcDbDictionaryVar
  3
AutoCAD 2000
 90
    32768
280
     0
281
     0
  0
CLASS
  1
LWPOLYLINE
  2
AcDbPolyline
  3
AutoCAD 2000
 90
    32768
280
     0
281
     1
  0
CLASS
  1
RASTERVARIABLES
  2
AcDbRasterVariables
  3
ISM
 90
    32768
280
     0
281
     0
  0
CLASS
  1
ACDBDICTIONARYWDFLT
  2
AcDbDictionaryWithDefault
  3
AutoCAD 2000
 90
        0
280
     0
281
     0
  0
CLASS
  1
ACDBPLACEHOLDER
  2
AcDbPlaceHolder
  3
AutoCAD 2000
 90
        0
280
     0
281
     0
  0
CLASS
  1
LAYOUT
  2
AcDbLayout
  3
AutoCAD 2000
 90
        0
280
     0
281
     0
  0
CLASS
  1
ACME_DOCUMENT
  2
AcMeDbDoc
  3
AcMeServices
 90
    32768
280
     1
281
     0
  0
CLASS
  1
ACMESCOPE
  2
AcMeScope
  3
AcMeServices
 90
    32768
280
     1
281
     0
  0
CLASS
  1
ACMECOMMANDHISTORY
  2
AcMeCommandHistory
  3
AcMeServices
 90
    32768
280
     1
281
     0
  0
CLASS
  1
ACIMSYSVARMAN
  2
AcImSysVarManager
  3
AcMeServices
 90
    32768
280
     1
281
     0
  0
CLASS
  1
ACIMREALSYSVAR
  2
AcImRealSysVar
  3
AcMeServices
 90
    32768
280
     1
281
     0
  0
CLASS
  1
ACIMINTSYSVAR
  2
AcImIntSysVar
  3
AcMeServices
 90
    32768
280
     1
281
     0
  0
CLASS
  1
ACMEDRAWINGMAN
  2
AcMeDrawingMan
  3
AcMeServices
 90
    32768
280
     1
281
     0
  0
CLASS
  1
ACMEVIEW
  2
AcMeView
  3
AcMeServices
 90
    32768
280
     1
281
     0
  0
CLASS
  1
ACDBENTITYCACHE
  2
AcMeEntityCache
  3
AcMeServices
 90
    32768
280
     1
281
     0
  0
CLASS
  1
GSMANAGER
  2
AcMeGSManager
  3
AcMeServices
 90
    32768
280
     1
281
     0
  0
CLASS
  1
AmdtInternalReactor
  2
AmdtInternalReactor
  3
AcMeServices
 90
    32768
280
     1
281
     0
  0
CLASS
  1
ACMESTATEMGR
  2
AcMeStateMgr
  3
AcMeServices
 90
    32768
280
     1
281
     0
  0
CLASS
  1
ACGREFMASTER
  2
AcGrefMaster
  3
AcAttribServices
 90
    32768
280
     1
281
     0
  0
CLASS
  1
AM_DRAWING_MGR
  2
AcDmDwgMgr
  3
AcMechDwgViewMgmt
 90
    32768
280
     1
281
     0
  0
CLASS
  1
AM_DWG_DOCUMENT
  2
AcDmDwgDocument
  3
AcMechDwgViewMgmt
 90
    32768
280
     1
281
     0
  0
CLASS
  1
AM_DWG_SHEET
  2
AcDmSheet
  3
AcMechDwgViewMgmt
 90
    32768
280
     1
281
     0
  0
CLASS
  1
AM_VIEWDIMPARMAP
  2
AcDmViewDimParMap
  3
AcMechDwgViewMgmt
 90
    32768
280
     1
281
     0
  0
CLASS
  1
AM_DWGMGR_NAME
  2
AcDmDwgMgrName
  3
AcMechDwgViewMgmt
 90
    32768
280
     1
281
     0
  0
CLASS
  1
ACME_DATABASE
  2
AcMeDbDatabase
  3
AcMeServices
 90
    32768
280
     1
281
     0
  0
CLASS
  1
ACRFINSADJUSTERMGR
  2
AcRfInsAdjusterMgr
  3
AcMeServices
 90
    32768
280
     1
281
     0
  0
CLASS
  1
ACGREFMASTER
  2
AcGrefacadMaster
  3
AcGrefServices
 90
    32768
280
     1
281
     0
  0
CLASS
  1
AMDTMENUSTATEMGR
  2
AmdtMenuStateMgr
  3
McadcomServices
 90
    32768
280
     1
281
     0
  0
CLASS
  1
AMDTMCOMMENUSTATE
  2
AmdtMcomMenuState
  3
McadcomServices
 90
    32768
280
     1
281
     0
  0
CLASS
  1
ASAPP
  2
AcAsAppObject
  3
AutoSurfServices
 90
    32768
280
     1
281
     0
  0
CLASS
  1
IM_STATIC_MAN
  2
AcImStaticVarManager
  3
AcMeServices
 90
    32768
280
     1
281
     0
  0
CLASS
  1
ACIMSTRSYSVAR
  2
AcImStrSysVar
  3
AcMeServices
 90
    32768
280
     1
281
     0
  0
CLASS
  1
ACIMDBLSTATICVAR
  2
AcImDblStaticVar
  3
AcMeServices
 90
    32768
280
     1
281
     0
  0
CLASS
  1
ACIMSTRSTATICVAR
  2
AcImStrStaticVar
  3
AcMeServices
 90
    32768
280
     1
281
     0
  0
CLASS
  1
ACIMINTSTATICVAR
  2
AcImIntStaticVar
  3
AcMeServices
 90
    32768
280
     1
281
     0
  0
CLASS
  1
ACADGREFMODULE
  2
AcAdGrefModule
  3
AdGrefServices
 90
    32768
280
     1
281
     0
  0
CLASS
  1
AMIMASTER
  2
AmiMaster
  3
AmiServices
 90
    32768
280
     1
281
     0
  0
CLASS
  1
ACASGREFMASTER
  2
AcAsGrefMaster
  3
AutoSurfResolverServices
 90
    32768
280
     1
281
     0
  0
CLASS
  1
MAPIAMMOUDLE
  2
MApiAmModule
  3
MApiAmServices
 90
    32768
280
     1
281
     0
  0
CLASS
  1
AMDTDMMENUSTATE
  2
AmdtDmMenuState
  3
AcMechDwgViewMgmt
 90
    32768
280
     1
281
     0
  0
CLASS
  1
AMDTADMENUSTATE
  2
AmdtAdMenuState
  3
DesignerServices
 90
    32768
280
     1
281
     0
  0
CLASS
  1
ADAPPL
  2
AcAdAppl
  3
DesignerServices
 90
    32768
280
     1
281
     0
  0
CLASS
  1
DEPMGR
  2
AcAdDepMgr
  3
DesignerServices
 90
    32768
280
     1
281
     0
  0
CLASS
  1
PARAMMGR
  2
AcAdParamMgr
  3
DesignerServices
 90
    32768
280
     1
281
     0
  0
CLASS
  1
PARAMSCOPE
  2
AcAdParamScope
  3
DesignerServices
 90
    32768
280
     1
281
     0
  0
CLASS
  1
NAMEDAPPL
  2
AcAdNamedAppl
  3
DesignerServices
 90
    32768
280
     1
281
     0
  0
CLASS
  1
ADHNTMPLT
  2
AdHoleNoteTemplateMgr
  3
DesignerServices
 90
    32768
280
     1
281
     0
  0
CLASS
  1
AM_HNTEMPLATE_MGR_NAME
  2
AdHoleNoteTemplateMgrName
  3
DesignerServices
 90
    32768
280
     1
281
     0
  0
CLASS
  1
AMDTAMMENUSTATE
  2
AmdtAmMenuState
  3
DesignerAssemblies
 90
    32768
280
     1
281
     0
  0
CLASS
  1
ACAMPROJECT
  2
AcAmProject
  3
DesignerAssemblies
 90
    32768
280
     1
281
     0
  0
CLASS
  1
ACAMGRCOMPDEF
  2
AcAmGrCompDef
  3
DesignerAssemblies
 90
    32768
280
     1
281
     0
  0
CLASS
  1
ACCMCONTEXT
  2
AcCmContext
  3
DesignerAssemblies
 90
    32768
280
     1
281
     0
  0
CLASS
  1
ACAMCOMPDEF
  2
AcAmCompDef
  3
DesignerAssemblies
 90
    32768
280
     1
281
     0
  0
CLASS
  1
ACAMCOMPDEFMGR
  2
AcAmCompDefMgr
  3
DesignerAssemblies
 90
    32768
280
     1
281
     0
  0
CLASS
  1
AMCONTEXTMGR
  2
AcAmContextMgr
  3
DesignerAssemblies
 90
    32768
280
     1
281
     0
  0
CLASS
  1
ACAMCONTEXTMODELER
  2
AcAmContextModeler
  3
DesignerAssemblies
 90
    32768
280
     1
281
     0
  0
CLASS
  1
MAPIADMODULE
  2
MApiAdModule
  3
MApiAdServices
 90
    32768
280
     1
281
     0
  0
CLASS
  1
ACMDATADICTIONARY
  2
AcmDataDictionary
  3
"AcmSymBB|Product Description: AutoCAD Mechanical 2000|Company: Autodesk"
 90
    32768
280
     1
281
     0
  0
CLASS
  1
ACMDATAENTRYBLOCK
  2
AcmDataEntryBlock
  3
"AcmSymBB|Product Description: AutoCAD Mechanical 2000|Company: Autodesk"
 90
    32768
280
     1
281
     0
  0
CLASS
  1
AMDTBROWSERDBTAB
  2
AmdtBrowserDbTab
  3
McadcomServices
 90
    32768
280
     1
281
     0
  0
CLASS
  1
CBROWSERAPPOBJECT
  2
CBrowserAppObject
  3
McadcomServices
 90
    32768
280
     1
281
     0
  0
CLASS
  1
DM_PLACEHOLDER
  2
AcDmSelsetPlaceholder
  3
AcMechDwgViewMgmt
 90
    32768
280
     1
281
     0
  0
CLASS
  1
CATALOGSTATE
  2
AcAmCatalogState
  3
DesignerAssemblies
 90
    32768
280
     1
281
     0
  0
CLASS
  1
ACAMGRCOMPDEFSET
  2
AcAmGrCompDefSet
  3
DesignerAssemblies
 90
    32768
280
     1
281
     0
  0
CLASS
  1
AMGOBJPROPCFG
  2
AmgObjPropCfg
  3
"AmgLay|Product Description: AutoCAD Mechanical 2000|Company: Autodesk"
 90
    32769
280
     1
281
     0
  0
CLASS
  1
LAYER_INDEX
  2
AcDbLayerIndex
  3
AutoCAD 2000
 90
    32768
280
     0
281
     0
  0
CLASS
  1
IDBUFFER
  2
AcDbIdBuffer
  3
AutoCAD 2000
 90
    32768
280
     0
281
     0
  0
CLASS
  1
ACRFATTGENMGR
  2
AcRfAttGeneralMgr
  3
AcAttribServices
 90
    32768
280
     1
281
     0
  0
CLASS
  1
PLOTSETTINGS
  2
AcDbPlotSettings
  3
AutoCAD 2000
 90
    32768
280
     0
281
     0
  0
CLASS
  1
VBA_PROJECT
  2
AcDbVbaProject
  3
acadvba
 90
    32768
280
     0
281
     0
  0
CLASS
  1
LONG_TRANSACTION
  2
AcDbLongTransaction
  3
AutoCAD 2000
 90
    32768
280
     0
281
     0
  0
CLASS
  1
LWPOLYLINE
  2
AcDbPolyline
  3
AutoCAD 2000
 90
    32768
280
     0
281
     1
  0
CLASS
  1
HATCH
  2
AcDbHatch
  3
AutoCAD 2000
 90
    32768
280
     0
281
     1
  0
CLASS
  1
XRECORD
  2
AcDbXrecord
  3
AutoCAD 2000
 90
    32768
280
     0
281
     0
  0
CLASS
  1
LONG_TRANSACTION
  2
AcDbLongTransaction
  3
AutoCAD 2000
 90
    32768
280
     0
281
     0
  0
CLASS
  1
LWPOLYLINE
  2
AcDbPolyline
  3
AutoCAD 2000
 90
    32768
280
     0
281
     1
  0
CLASS
  1
HATCH
  2
AcDbHatch
  3
AutoCAD 2000
 90
    32768
280
     0
281
     1
  0
CLASS
  1
XRECORD
  2
AcDbXrecord
  3
AutoCAD 2000
 90
    32768
280
     0
281
     0
  0
CLASS
  1
LONG_TRANSACTION
  2
AcDbLongTransaction
  3
AutoCAD 2000
 90
    32768
280
     0
281
     0
  0
CLASS
  1
LWPOLYLINE
  2
AcDbPolyline
  3
AutoCAD 2000
 90
    32768
280
     0
281
     1
  0
CLASS
  1
HATCH
  2
AcDbHatch
  3
AutoCAD 2000
 90
    32768
280
     0
281
     1
  0
CLASS
  1
XRECORD
  2
AcDbXrecord
  3
AutoCAD 2000
 90
    32768
280
     0
281
     0
  0
CLASS
  1
LONG_TRANSACTION
  2
AcDbLongTransaction
  3
AutoCAD 2000
 90
    32768
280
     0
281
     0
  0
CLASS
  1
LWPOLYLINE
  2
AcDbPolyline
  3
AutoCAD 2000
 90
    32768
280
     0
281
     1
  0
CLASS
  1
HATCH
  2
AcDbHatch
  3
AutoCAD 2000
 90
    32768
280
     0
281
     1
  0
CLASS
  1
XRECORD
  2
AcDbXrecord
  3
AutoCAD 2000
 90
    32768
280
     0
281
     0
  0
CLASS
  1
LONG_TRANSACTION
  2
AcDbLongTransaction
  3
AutoCAD 2000
 90
    32768
280
     0
281
     0
  0
CLASS
  1
LWPOLYLINE
  2
AcDbPolyline
  3
AutoCAD 2000
 90
    32768
280
     0
281
     1
  0
CLASS
  1
HATCH
  2
AcDbHatch
  3
AutoCAD 2000
 90
    32768
280
     0
281
     1
  0
CLASS
  1
XRECORD
  2
AcDbXrecord
  3
AutoCAD 2000
 90
    32768
280
     0
281
     0
  0
CLASS
  1
LONG_TRANSACTION
  2
AcDbLongTransaction
  3
AutoCAD 2000
 90
    32768
280
     0
281
     0
  0
CLASS
  1
LWPOLYLINE
  2
AcDbPolyline
  3
AutoCAD 2000
 90
    32768
280
     0
281
     1
  0
CLASS
  1
HATCH
  2
AcDbHatch
  3
AutoCAD 2000
 90
    32768
280
     0
281
     1
  0
CLASS
  1
XRECORD
  2
AcDbXrecord
  3
AutoCAD 2000
 90
    32768
280
     0
281
     0
  0
ENDSEC
  0
SECTION
  2
TABLES
  0
TABLE
  2
VPORT
  5
1B
330
0
100
AcDbSymbolTable
 70
     2
  0
VPORT
  5
12A5
330
1B
100
AcDbSymbolTableRecord
100
AcDbViewportTableRecord
  2
*Active
 70
     0
 10
0.0
 20
0.0
 11
1.0
 21
1.0
 12
662.8003298946736
 22
387.5042057269014
 13
0.0
 23
0.0
 14
1.0
 24
1.0
 15
0.0
 25
0.0
 16
0.0
 26
0.0
 36
1.0
 17
-64.46234487877643
 27
33.0238264231553
 37
6.148717398612387
 40
127.0142236964729
 41
1.413068844807467
 42
50.0
 43
-6.148717398612387
 44
-6.148717398612387
 50
0.0
 51
0.0
 71
     0
 72
 20000
 73
     1
 74
     1
 75
     0
 76
     0
 77
     0
 78
     2
281
     0
 65
     1
110
0.0
120
0.0
130
0.0
111
1.0
121
0.0
131
0.0
112
0.0
122
1.0
132
0.0
 79
     0
146
0.0
  0
ENDTAB
  0
TABLE
  2
LTYPE
  5
16
330
0
100
AcDbSymbolTable
 70
     3
  0
LTYPE
  5
17
330
16
100
AcDbSymbolTableRecord
100
AcDbLinetypeTableRecord
  2
BYBLOCK
 70
     0
  3

 72
    65
 73
     0
 40
0.0
  0
LTYPE
  5
18
330
16
100
AcDbSymbolTableRecord
100
AcDbLinetypeTableRecord
  2
BYLAYER
 70
     0
  3

 72
    65
 73
     0
 40
0.0
  0
LTYPE
  5
9
330
16
100
AcDbSymbolTableRecord
100
AcDbLinetypeTableRecord
  2
CONTINUOUS
 70
     0
  3
Solid line
 72
    65
 73
     0
 40
0.0
  0
LTYPE
  5
75
330
16
100
AcDbSymbolTableRecord
100
AcDbLinetypeTableRecord
  2
DASHED
 70
     0
  3
Dashed __ __ __ __ __ __ __ __ __ __ __ __ __ _
 72
    65
 73
     2
 40
0.75
 49
0.5
 74
     0
 49
-0.25
 74
     0
  0
LTYPE
  5
95
330
16
100
AcDbSymbolTableRecord
100
AcDbLinetypeTableRecord
  2
PHANTOM
 70
     0
  3
Phantom ______  __  __  ______  __  __  ______
 72
    65
 73
     6
 40
2.5
 49
1.25
 74
     0
 49
-0.25
 74
     0
 49
0.25
 74
     0
 49
-0.25
 74
     0
 49
0.25
 74
     0
 49
-0.25
 74
     0
  0
ENDTAB
  0
TABLE
  2
LAYER
  5
11
330
0
100
AcDbSymbolTable
 70
     7
  0
LAYER
  5
5
330
11
100
AcDbSymbolTableRecord
100
AcDbLayerTableRecord
  2
0
 70
     0
 62
     7
  6
CONTINUOUS
370
    -3
390
6
  0
LAYER
  5
28
330
11
100
AcDbSymbolTableRecord
100
AcDbLayerTableRecord
  2
A1
 70
     0
 62
     7
  6
CONTINUOUS
370
    -3
390
6
  0
LAYER
  5
2F
330
11
100
AcDbSymbolTableRecord
100
AcDbLayerTableRecord
  2
LINEWORK
 70
     0
 62
     7
  6
CONTINUOUS
370
    -3
390
6
  0
LAYER
  5
6E
330
11
100
AcDbSymbolTableRecord
100
AcDbLayerTableRecord
  2
Defpoints
 70
     0
 62
     7
  6
CONTINUOUS
290
     0
370
    -3
390
6
  0
LAYER
  5
24
330
11
100
AcDbSymbolTableRecord
100
AcDbLayerTableRecord
  2
leaders
 70
     0
 62
     1
  6
CONTINUOUS
370
    -3
390
6
  0
LAYER
  5
90A
330
11
100
AcDbSymbolTableRecord
100
AcDbLayerTableRecord
  2
RIGHT
 70
     0
 62
     7
  6
CONTINUOUS
370
    -3
390
6
  0
LAYER
  5
FEF
330
11
100
AcDbSymbolTableRecord
100
AcDbLayerTableRecord
  2
DIM
 70
     0
 62
     7
  6
CONTINUOUS
370
    -3
390
6
  0
ENDTAB
  0
TABLE
  2
STYLE
  5
12
330
0
100
AcDbSymbolTable
 70
     4
  0
STYLE
  5
13
330
12
100
AcDbSymbolTableRecord
100
AcDbTextStyleTableRecord
  2
STANDARD
 70
     0
 40
0.0
 41
1.0
 50
0.0
 71
     0
 42
1.0
  3
unvr55w.ttf
  4

1001
ACAD
1000
Univers
1071
       34
  0
STYLE
  5
4B
330
12
100
AcDbSymbolTableRecord
100
AcDbTextStyleTableRecord
  2
ROMANC
 70
     0
 40
0.0
 41
1.0
 50
0.0
 71
     0
 42
0.5
  3
TIMESBD.TTF
  4

1001
ACAD
1000
Times New Roman
1071
 33554450
  0
STYLE
  5
2B
330
12
100
AcDbSymbolTableRecord
100
AcDbTextStyleTableRecord
  2
barcoder
 70
     0
 40
0.0
 41
1.0
 50
0.0
 71
     0
 42
4.5625
  3
cw_barcd.ttf
  4

1001
ACAD
1000
Barcoder
1071
 33554434
  0
STYLE
  5
85F
330
12
100
AcDbSymbolTableRecord
100
AcDbTextStyleTableRecord
  2
ROMANS
 70
     0
 40
0.0
 41
0.8
 50
10.0
 71
     0
 42
0.5
  3
romans
  4

  0
ENDTAB
  0
TABLE
  2
VIEW
  5
19
330
0
100
AcDbSymbolTable
 70
     0
  0
ENDTAB
  0
TABLE
  2
UCS
  5
1A
330
0
100
AcDbSymbolTable
 70
     0
  0
ENDTAB
  0
TABLE
  2
APPID
  5
1D
330
0
100
AcDbSymbolTable
 70
     2
  0
APPID
  5
14
330
1D
100
AcDbSymbolTableRecord
100
AcDbRegAppTableRecord
  2
ACAD
 70
     0
  0
APPID
  5
CFD
330
1D
100
AcDbSymbolTableRecord
100
AcDbRegAppTableRecord
  2
CONTENTBLOCKICON
 70
     0
  0
ENDTAB
  0
TABLE
  2
DIMSTYLE
  5
1E
330
0
100
AcDbSymbolTable
 70
     1
100
AcDbDimStyleTable
 71
     0
  0
DIMSTYLE
105
1F
102
{ACAD_REACTORS
330
9B6
330
A89
330
B7D
330
F03
330
ED4
330
ED3
102
}
330
1E
100
AcDbSymbolTableRecord
100
AcDbDimStyleTableRecord
  2
STANDARD
 70
     0
  3
"
 41
0.5
 42
1.0
 43
0.0625
 44
0.25
 73
     0
 74
     0
 77
     3
140
1.0
141
0.0
146
0.125
147
0.125
171
     0
274
     0
276
     2
277
     5
285
     2
286
     2
289
     0
340
13
  0
ENDTAB
  0
TABLE
  2
BLOCK_RECORD
  5
1
330
0
100
AcDbSymbolTable
 70
    45
  0
BLOCK_RECORD
  5
2
102
{ACAD_XDICTIONARY
360
3
102
}
330
1
100
AcDbSymbolTableRecord
100
AcDbBlockTableRecord
  2
*MODEL_SPACE
340
B
  0
BLOCK_RECORD
  5
D
102
{ACAD_XDICTIONARY
360
3E8
102
}
330
1
100
AcDbSymbolTableRecord
100
AcDbBlockTableRecord
  2
*PAPER_SPACE
340
10
  0
BLOCK_RECORD
  5
CC
330
1
100
AcDbSymbolTableRecord
100
AcDbBlockTableRecord
  2
PROFILE LOGO
340
0
102
{BLKREFS
331
283
331
AD9
331
EDE
331
F43
331
10AB
331
10B6
102
}
  0
BLOCK_RECORD
  5
30
330
1
100
AcDbSymbolTableRecord
100
AcDbBlockTableRecord
  2
TSFORMB
340
0
102
{BLKREFS
331
26
331
276
331
ACE
102
}
  0
BLOCK_RECORD
  5
234
330
1
100
AcDbSymbolTableRecord
100
AcDbBlockTableRecord
  2
LINK FLAG
340
0
102
{BLKREFS
331
27E
331
AD6
102
}
  0
BLOCK_RECORD
  5
23E
330
1
100
AcDbSymbolTableRecord
100
AcDbBlockTableRecord
  2
*D3
340
0
  0
BLOCK_RECORD
  5
24B
330
1
100
AcDbSymbolTableRecord
100
AcDbBlockTableRecord
  2
*D4
340
0
  0
BLOCK_RECORD
  5
258
330
1
100
AcDbSymbolTableRecord
100
AcDbBlockTableRecord
  2
*D5
340
0
  0
BLOCK_RECORD
  5
265
330
1
100
AcDbSymbolTableRecord
100
AcDbBlockTableRecord
  2
*D6
340
0
  0
BLOCK_RECORD
  5
274
330
1
100
AcDbSymbolTableRecord
100
AcDbBlockTableRecord
  2
ts0243
340
0
  0
BLOCK_RECORD
  5
78B
330
1
100
AcDbSymbolTableRecord
100
AcDbBlockTableRecord
  2
*D8
340
0
  0
BLOCK_RECORD
  5
799
330
1
100
AcDbSymbolTableRecord
100
AcDbBlockTableRecord
  2
*D9
340
0
  0
BLOCK_RECORD
  5
7A7
330
1
100
AcDbSymbolTableRecord
100
AcDbBlockTableRecord
  2
*D10
340
0
  0
BLOCK_RECORD
  5
7B3
330
1
100
AcDbSymbolTableRecord
100
AcDbBlockTableRecord
  2
*D11
340
0
  0
BLOCK_RECORD
  5
7BF
330
1
100
AcDbSymbolTableRecord
100
AcDbBlockTableRecord
  2
*D12
340
0
  0
BLOCK_RECORD
  5
7CB
330
1
100
AcDbSymbolTableRecord
100
AcDbBlockTableRecord
  2
*D13
340
0
  0
BLOCK_RECORD
  5
7D9
330
1
100
AcDbSymbolTableRecord
100
AcDbBlockTableRecord
  2
*D14
340
0
  0
BLOCK_RECORD
  5
7E1
330
1
100
AcDbSymbolTableRecord
100
AcDbBlockTableRecord
  2
*D15
340
0
  0
BLOCK_RECORD
  5
7EF
330
1
100
AcDbSymbolTableRecord
100
AcDbBlockTableRecord
  2
*D16
340
0
  0
BLOCK_RECORD
  5
7FD
330
1
100
AcDbSymbolTableRecord
100
AcDbBlockTableRecord
  2
*D17
340
0
  0
BLOCK_RECORD
  5
80B
330
1
100
AcDbSymbolTableRecord
100
AcDbBlockTableRecord
  2
*D18
340
0
  0
BLOCK_RECORD
  5
817
330
1
100
AcDbSymbolTableRecord
100
AcDbBlockTableRecord
  2
*D19
340
0
  0
BLOCK_RECORD
  5
823
330
1
100
AcDbSymbolTableRecord
100
AcDbBlockTableRecord
  2
*D20
340
0
  0
BLOCK_RECORD
  5
82F
330
1
100
AcDbSymbolTableRecord
100
AcDbBlockTableRecord
  2
*D21
340
0
  0
BLOCK_RECORD
  5
83D
330
1
100
AcDbSymbolTableRecord
100
AcDbBlockTableRecord
  2
*D22
340
0
  0
BLOCK_RECORD
  5
845
330
1
100
AcDbSymbolTableRecord
100
AcDbBlockTableRecord
  2
*D23
340
0
  0
BLOCK_RECORD
  5
853
330
1
100
AcDbSymbolTableRecord
100
AcDbBlockTableRecord
  2
*D24
340
0
  0
BLOCK_RECORD
  5
860
330
1
100
AcDbSymbolTableRecord
100
AcDbBlockTableRecord
  2
NASH2TP
340
0
  0
BLOCK_RECORD
  5
90B
330
1
100
AcDbSymbolTableRecord
100
AcDbBlockTableRecord
  2
TOPA
340
0
  0
BLOCK_RECORD
  5
9B7
330
1
100
AcDbSymbolTableRecord
100
AcDbBlockTableRecord
  2
*D27
340
0
  0
BLOCK_RECORD
  5
A00
330
1
100
AcDbSymbolTableRecord
100
AcDbBlockTableRecord
  2
*D28
340
0
  0
BLOCK_RECORD
  5
A0F
330
1
100
AcDbSymbolTableRecord
100
AcDbBlockTableRecord
  2
*D29
340
0
  0
BLOCK_RECORD
  5
A71
330
1
100
AcDbSymbolTableRecord
100
AcDbBlockTableRecord
  2
dowel
340
0
310
28000000200000002000000001000800000000000004000000000000000000000000000000000000000000004000000080000000FF000000002000004020000080200000FF200000004000004040000080400000FF400000006000004060000080600000FF600000008000004080000080800000FF80000000A0000040A000
310
0080A00000FFA0000000C0000040C0000080C00000FFC0000000FF000040FF000080FF0000FFFF0000000020004000200080002000FF002000002020004020200080202000FF202000004020004040200080402000FF402000006020004060200080602000FF602000008020004080200080802000FF80200000A0200040A0
310
200080A02000FFA0200000C0200040C0200080C02000FFC0200000FF200040FF200080FF2000FFFF2000000040004000400080004000FF004000002040004020400080204000FF204000004040004040400080404000FF404000006040004060400080604000FF604000008040004080400080804000FF80400000A0400040
310
A0400080A04000FFA0400000C0400040C0400080C04000FFC0400000FF400040FF400080FF4000FFFF4000000060004000600080006000FF006000002060004020600080206000FF206000004060004040600080406000FF406000006060004060600080606000FF606000008060004080600080806000FF80600000A06000
310
40A0600080A06000FFA0600000C0600040C0600080C06000FFC0600000FF600040FF600080FF6000FFFF6000000080004000800080008000FF008000002080004020800080208000FF208000004080004040800080408000FF408000006080004060800080608000FF608000008080004080800080808000FF80800000A080
310
0040A0800080A08000FFA0800000C0800040C0800080C08000FFC0800000FF800040FF800080FF8000FFFF80000000A0004000A0008000A000FF00A0000020A0004020A0008020A000FF20A0000040A0004040A0008040A000FF40A0000060A0004060A0008060A000FF60A0000080A0004080A0008080A000FF80A00000A0
310
A00040A0A00080A0A000FFA0A00000C0A00040C0A00080C0A000FFC0A00000FFA00040FFA00080FFA000FFFFA0000000C0004000C0008000C000FF00C0000020C0004020C0008020C000FF20C0000040C0004040C0008040C000FF40C0000060C0004060C0008060C000FF60C0000080C0004080C0008080C000FF80C00000
310
A0C00040A0C00080A0C000FFA0C00000C0C00040C0C00080C0C000FFC0C00000FFC00040FFC00080FFC000FFFFC0000000FF004000FF008000FF00FF00FF000020FF004020FF008020FF00FF20FF000040FF004040FF008040FF00FF40FF000060FF004060FF008060FF00FF60FF000080FF004080FF008080FF00FF80FF00
310
00A0FF0040A0FF0080A0FF00FFA0FF0000C0FF0040C0FF0080C0FF00FFC0FF0000FFFF0040FFFF0080FFFF00FFFFFF00FFFFFFFFFFFFFFFFFFFFFFFFFFFFFFFFFFFFFFFFFFFFFFFFFFFFFFFFFFFFFFFFFFFFFFFFFFFFFFFFFFFFFFFFFF000000000000FFFFFFFFFFFFFFFFFFFFFFFFFFFFFFFFFFFFFFFFFFFFFFFFFFFF00FF
310
FFFFFF00FFFFFFFFFFFFFFFFFFFFFFFFFFFFFFFFFFFFFFFFFFFFFFFFFFFF00FFFFFFFF00FFFFFFFFFFFFFFFFFFFFFFFFFFFFFFFFFFFFFFFFFFFFFFFFFFFF00FFFFFFFF00FFFFFFFFFFFFFFFFFFFFFFFFFFFFFFFFFFFFFFFFFFFFFFFFFFFF00FFFFFFFF00FFFFFFFFFFFFFFFFFFFFFFFFFFFFFFFFFFFFFFFFFFFFFFFFFFFF00
310
FFFFFFFF00FFFFFFFFFFFFFFFFFFFFFFFFFFFFFFFFFFFFFFFFFFFFFFFFFFFF00FFFFFFFF00FFFFFFFFFFFFFFFFFFFFFFFFFFFFFFFFFFFFFFFFFFFFFFFFFFFF00FFFFFFFF00FFFFFFFFFFFFFFFFFFFFFFFFFFFFFFFFFFFFFFFFFFFFFFFFFFFF00FFFFFFFF00FFFFFFFFFFFFFFFFFFFFFFFFFFFFFFFFFFFFFFFFFFFFFFFFFFFF
310
00FFFFFFFF00FFFFFFFFFFFFFFFFFFFFFFFFFFFFFFFFFFFFFFFFFFFFFFFFFFFF00FFFFFFFF00FFFFFFFFFFFFFFFFFFFFFFFFFFFFFFFFFFFFFFFFFFFFFFFFFFFF00FFFFFFFF00FFFFFFFFFFFFFFFFFFFFFFFFFFFFFFFFFFFFFFFFFFFFFFFFFFFF00FFFFFFFF00FFFFFFFFFFFFFFFFFFFFFFFFFFFFFFFFFFFFFFFFFFFFFFFFFF
310
FF00FFFFFFFF00FFFFFFFFFFFFFFFFFFFFFFFFFFFFFFFFFFFFFFFFFFFFFFFFFFFF00FFFFFFFF00FFFFFFFFFFFFFFFFFFFFFFFFFFFFFFFFFFFFFFFFFFFFFFFFFFFF00FFFFFFFF00FFFFFFFFFFFFFFFFFFFFFFFFFFFFFFFFFFFFFFFFFFFFFFFFFFFF00FFFFFFFF00FFFFFFFFFFFFFFFFFFFFFFFFFFFFFFFFFFFFFFFFFFFFFFFF
310
FFFF00FFFFFFFF00FFFFFFFFFFFFFFFFFFFFFFFFFFFFFFFFFFFFFFFFFFFFFFFFFFFF00FFFFFFFF00FFFFFFFFFFFFFFFFFFFFFFFFFFFFFFFFFFFFFFFFFFFFFFFFFFFF00FFFFFFFF00FFFFFFFFFFFFFFFFFFFFFFFFFFFFFFFFFFFFFFFFFFFFFFFFFFFF00FFFFFFFF00FFFFFFFFFFFFFFFFFFFFFFFFFFFFFFFFFFFFFFFFFFFFFF
310
FFFFFF00FFFFFFFF00FFFFFFFFFFFFFFFFFFFFFFFFFFFFFFFFFFFFFFFFFFFFFFFFFFFF00FFFFFFFF00FFFFFFFFFFFFFFFFFFFFFFFFFFFFFFFFFFFFFFFFFFFFFFFFFFFF00FFFFFFFF00FFFFFFFFFFFFFFFFFFFFFFFFFFFFFFFFFFFFFFFFFFFFFFFFFFFF00FFFFFFFF00FFFFFFFFFFFFFFFFFFFFFFFFFFFFFFFFFFFFFFFFFFFF
310
FFFFFFFF00FFFFFFFF00FFFFFFFFFFFFFFFFFFFFFFFFFFFFFFFFFFFFFFFFFFFFFFFFFFFF00FFFFFFFF00FFFFFFFFFFFFFFFFFFFFFFFFFFFFFFFFFFFFFFFFFFFFFFFFFFFF00FFFFFFFF00FFFFFFFFFFFFFFFFFFFFFFFFFFFFFFFFFFFFFFFFFFFFFFFFFFFF00FFFFFFFF00FFFFFFFFFFFFFFFFFFFFFFFFFFFFFFFFFFFFFFFFFF
310
FFFFFFFFFF000000000000FFFFFFFFFFFFFFFFFFFFFFFFFFFFFFFFFFFFFFFFFFFFFFFFFFFFFFFFFFFFFFFFFFFFFFFFFFFFFFFFFFFFFFFFFF
  0
BLOCK_RECORD
  5
A8A
330
1
100
AcDbSymbolTableRecord
100
AcDbBlockTableRecord
  2
*D31
340
0
  0
BLOCK_RECORD
  5
A99
330
1
100
AcDbSymbolTableRecord
100
AcDbBlockTableRecord
  2
*D32
340
0
  0
BLOCK_RECORD
  5
AA6
330
1
100
AcDbSymbolTableRecord
100
AcDbBlockTableRecord
  2
*D33
340
0
  0
BLOCK_RECORD
  5
AB3
330
1
100
AcDbSymbolTableRecord
100
AcDbBlockTableRecord
  2
*D34
340
0
  0
BLOCK_RECORD
  5
AC0
330
1
100
AcDbSymbolTableRecord
100
AcDbBlockTableRecord
  2
*D35
340
0
  0
BLOCK_RECORD
  5
ACD
330
1
100
AcDbSymbolTableRecord
100
AcDbBlockTableRecord
  2
ts0562
340
0
  0
BLOCK_RECORD
  5
B6F
330
1
100
AcDbSymbolTableRecord
100
AcDbBlockTableRecord
  2
*D37
340
0
  0
BLOCK_RECORD
  5
B7E
330
1
100
AcDbSymbolTableRecord
100
AcDbBlockTableRecord
  2
*D38
340
0
  0
BLOCK_RECORD
  5
ED0
330
1
100
AcDbSymbolTableRecord
100
AcDbBlockTableRecord
  2
END3
340
0
310
28000000200000002000000001000800000000000004000000000000000000000000000000000000000000004000000080000000FF000000002000004020000080200000FF200000004000004040000080400000FF400000006000004060000080600000FF600000008000004080000080800000FF80000000A0000040A000
310
0080A00000FFA0000000C0000040C0000080C00000FFC0000000FF000040FF000080FF0000FFFF0000000020004000200080002000FF002000002020004020200080202000FF202000004020004040200080402000FF402000006020004060200080602000FF602000008020004080200080802000FF80200000A0200040A0
310
200080A02000FFA0200000C0200040C0200080C02000FFC0200000FF200040FF200080FF2000FFFF2000000040004000400080004000FF004000002040004020400080204000FF204000004040004040400080404000FF404000006040004060400080604000FF604000008040004080400080804000FF80400000A0400040
310
A0400080A04000FFA0400000C0400040C0400080C04000FFC0400000FF400040FF400080FF4000FFFF4000000060004000600080006000FF006000002060004020600080206000FF206000004060004040600080406000FF406000006060004060600080606000FF606000008060004080600080806000FF80600000A06000
310
40A0600080A06000FFA0600000C0600040C0600080C06000FFC0600000FF600040FF600080FF6000FFFF6000000080004000800080008000FF008000002080004020800080208000FF208000004080004040800080408000FF408000006080004060800080608000FF608000008080004080800080808000FF80800000A080
310
0040A0800080A08000FFA0800000C0800040C0800080C08000FFC0800000FF800040FF800080FF8000FFFF80000000A0004000A0008000A000FF00A0000020A0004020A0008020A000FF20A0000040A0004040A0008040A000FF40A0000060A0004060A0008060A000FF60A0000080A0004080A0008080A000FF80A00000A0
310
A00040A0A00080A0A000FFA0A00000C0A00040C0A00080C0A000FFC0A00000FFA00040FFA00080FFA000FFFFA0000000C0004000C0008000C000FF00C0000020C0004020C0008020C000FF20C0000040C0004040C0008040C000FF40C0000060C0004060C0008060C000FF60C0000080C0004080C0008080C000FF80C00000
310
A0C00040A0C00080A0C000FFA0C00000C0C00040C0C00080C0C000FFC0C00000FFC00040FFC00080FFC000FFFFC0000000FF004000FF008000FF00FF00FF000020FF004020FF008020FF00FF20FF000040FF004040FF008040FF00FF40FF000060FF004060FF008060FF00FF60FF000080FF004080FF008080FF00FF80FF00
310
00A0FF0040A0FF0080A0FF00FFA0FF0000C0FF0040C0FF0080C0FF00FFC0FF0000FFFF0040FFFF0080FFFF00FFFFFF00FFFFFFFFFFFFFFFFFFFFFFFFFFFFFFFFFFFFFFFFFFFFFFFFFFFFFFFFFFFFFFFFFFFFFFFFFFFF0000000000FFFFFFFFFFFFFFFFFFFFFFFFFFFFFFFFFFFFFFFFFFFFFFFFFFFFFF000000000000000000
310
0000000000000000FFFFFFFFFFFFFFFFFFFFFFFFFFFFFFFFFFFFFFFFFFFFFFFFFFFFFFFFFFFFFFFFFFFFFFFFFFFFFFFFFFFFFFFFFFFFFFFFFFFFFFFF00FFFFFFFF00FF000000000000FFFFFFFFFFFFFFFFFFFFFFFFFFFFFFFFFFFFFF00000000000000000000000000FFFFFFFFFFFFFFFFFFFFFFFFFFFFFFFFFFFFFF00FFFF
310
FFFF00FFFFFFFFFFFFFFFFFFFFFFFFFFFFFFFFFFFFFFFFFFFFFFFFFFFF00FFFFFFFF00FFFFFFFFFFFFFFFFFFFFFFFFFFFFFFFFFFFFFFFFFFFFFFFFFF00A4A4000000000000000000000000FFFFFFFFFFFFFFFFFFFFFFFFFFFFFFFFFFFFA4A40000FF00FFFFFFFFFFFF00FFFFFFFFFFFFFFFFFFFFFFFFFFFFFFFFFFFFFF0000
310
00000000FFFFFFFFFFFF00FFFFFFFFFFFFFFFFFFFFFFFFFFFFFFFFFFFFFFFF000000FF00FFFFFFFFFFFF00FFFFFFFFFFFFFFFFFFFFFFFFFFFFFFFFFFFFFFFF0000000000FFFFFFFFFFFF00FFFFFFFFFFFFFFFFFFFFFFFFFFFFFFFFFFFFFFFF00000000FFFFFFFFFFFFFF00FFFFFFFFFFFFFFFFFFFFFFFFFFFFFFFFFFFFFFFF
310
00000000FFFFFFFFFFFFFF00FFFFFFFFFFFFFFFFFFFFFFFFFFFFFFFFFFFFFFFF00FFFF00FFFFFFFFFFFFFF00FFFFFFFFFFFFFFFFFFFFFFFFFFFFFFFFFFFFFFFF00FFFFFF00FFFFFFFFFFFF00FFFFFFFFFFFFFFFFFFFFFFFFFFFFFFFFFFFFFFFF00FFFFFF00FFFFFFFFFF00000000FFFFFFFFFFFFFFFFFFFFFFFFFFFFFFFFFF
310
FF00FFFFFF00FFFFFFFFFF00000000FFFFFFFFFFFFFFFFFFFFFFFFFFFFFFFFFFFFFF00FFFF00FFFFFFFFFFFF00FFFFFFFFFFFFFFFFFFFFFFFFFFFFFFFFFFFFFFFFFF00FF00FFFFFFFFFFFFFF00FFFFFFFFFFFFFFFFFFFFFFFFFFFFFFFFFFFFFFFF00000000FFFFFFFFFFFFFF00FFFFFFFFFFFFFFFFFFFFFFFFFFFFFFFFFFFF
310
FFFFFF000000FFFFFFFFFFFFFF00FFFFFFFFFFFFFFFFFFFFFFFFFFFFFFFFFFFFFFFF0000000000FFFFFFFFFFFF00FFFFFFFFFFFFFFFFFFFFFFFFFFFFFFFFFFFFFF00A40000000000FFFFFFFFFF00FFFFFFFFFFFFFFFFFFFFFFFFFFFFFFFFFFFF0000A40000FFFF00FFFFFFFFFF00FFFFFFFFFFFFFFFFFFFFFFFFFFFFFFFFFF
310
FF0000A4000000000000000000000000FFFFFFFFFFFFFFFFFFFFFFFFFFFFFFFFFF00FFFFFFFFFFFF00FFFFFFFFFFFFFFFFFFFFFFFFFFFFFFFFFFFFFFFFFFFFFFFF00FFFF0000FFFF00FFFFFFFFFFFFFFFFFFFFFFFFFFFFFFFFFFFFFFFFFFFFFFFF0000000000000000FFFFFFFFFFFFFFFFFFFFFFFFFFFFFFFFFFFFFFFFFFFF
310
FFFFFFFFFF000000FFFFFFFFFFFFFFFFFFFFFFFFFFFFFFFFFFFFFFFFFFFFFFFFFFFFFFFFFFFFFFFFFFFFFFFFFFFFFFFFFFFFFFFFFFFFFFFF000000000000000098EFB200
  0
BLOCK_RECORD
  5
1056
330
1
100
AcDbSymbolTableRecord
100
AcDbBlockTableRecord
  2
*D40
340
0
  0
BLOCK_RECORD
  5
1063
330
1
100
AcDbSymbolTableRecord
100
AcDbBlockTableRecord
  2
*D41
340
0
  0
BLOCK_RECORD
  5
1070
330
1
100
AcDbSymbolTableRecord
100
AcDbBlockTableRecord
  2
*D42
340
0
  0
BLOCK_RECORD
  5
107D
330
1
100
AcDbSymbolTableRecord
100
AcDbBlockTableRecord
  2
*D43
340
0
  0
BLOCK_RECORD
  5
108A
330
1
100
AcDbSymbolTableRecord
100
AcDbBlockTableRecord
  2
PIER
340
0
102
{BLKREFS
331
1106
102
}
  0
ENDTAB
  0
ENDSEC
  0
SECTION
  2
BLOCKS
  0
BLOCK
  5
4
330
2
100
AcDbEntity
  8
0
100
AcDbBlockBegin
  2
*MODEL_SPACE
 70
     2
 10
0.0
 20
0.0
 30
0.0
  3
*MODEL_SPACE
  1

  0
ENDBLK
  5
A
330
2
100
AcDbEntity
  8
0
100
AcDbBlockEnd
  0
BLOCK
  5
E
330
D
100
AcDbEntity
 67
     1
  8
0
100
AcDbBlockBegin
  2
*PAPER_SPACE
 70
     0
 10
0.0
 20
0.0
 30
0.0
  3
*PAPER_SPACE
  1

  0
ENDBLK
  5
F
330
D
100
AcDbEntity
 67
     1
  8
0
100
AcDbBlockEnd
  0
BLOCK
  5
E5
330
CC
100
AcDbEntity
  8
0
 62
     7
100
AcDbBlockBegin
  2
PROFILE LOGO
 70
     2
 10
0.0
 20
0.0
 30
0.0
  3
PROFILE LOGO
  1

  0
LINE
  5
CD
330
CC
100
AcDbEntity
  8
0
 62
    22
100
AcDbLine
 10
0.7459516636765642
 20
-0.415894330395318
 30
0.0
 11
0.74595166367655
 21
-1.12746688439163
 31
0.0
  0
LINE
  5
CE
330
CC
100
AcDbEntity
  8
0
 62
    22
100
AcDbLine
 10
0.5841942848079072
 20
-0.415894330395318
 30
0.0
 11
0.5841942848079072
 21
-1.12746688439163
 31
0.0
  0
HATCH
  5
CF
330
CC
100
AcDbEntity
  8
0
 62
    22
100
AcDbHatch
 10
0.0
 20
0.0
 30
0.0
210
0.0
220
0.0
230
1.0
  2
LINE
 70
     0
 71
     0
 91
        1
 92
       33
 93
       38
 72
     1
 10
1.115683196411978
 20
-0.1706330859717084
 11
0.2177636962628071
 21
-0.1706330859717084
 72
     1
 10
0.2177636962628213
 20
-0.1706330859717084
 11
0.2078601968792952
 21
-0.4246889457533243
 72
     1
 10
0.2078601968792952
 20
-0.4246889457533243
 11
0.2375709173007294
 21
-0.4246889457533243
 72
     1
 10
0.2375709173007294
 20
-0.4246889457533243
 11
0.2441732502230991
 21
-0.3817964654080939
 72
     1
 10
0.2441732502230991
 20
-0.3817964654080939
 11
0.254076749606611
 21
-0.3422032805409501
 72
     1
 10
0.2540767496066252
 20
-0.3422032805409501
 11
0.2738837483736916
 21
-0.3092090964125091
 72
     1
 10
0.2738837483736916
 20
-0.3092090964125091
 11
0.2969919136019428
 21
-0.2861130719066693
 72
     1
 10
0.296991913601957
 20
-0.2861130719066764
 11
0.3267026340234338
 21
-0.2663164794731259
 72
     1
 10
0.3267026340234196
 20
-0.2663164794731259
 11
0.356413132174012
 21
-0.2498193191118219
 72
     1
 10
0.356413132174012
 20
-0.2498193191118148
 11
0.3828224638634481
 21
-0.243220591561446
 72
     1
 10
0.3828224638634623
 20
-0.243220591561446
 11
0.4092320178237401
 21
-0.243220591561446
 72
     1
 10
0.4092320178237401
 20
-0.243220591561446
 11
0.4719541805861525
 21
-0.2465198870395469
 72
     1
 10
0.4719541805861525
 20
-0.2465198870395469
 11
0.514869566852326
 21
-0.2729153436176332
 72
     1
 10
0.514869566852326
 20
-0.2729153436176332
 11
0.5742905631535394
 21
-0.3389038484686964
 72
     1
 10
0.5742905631535394
 20
-0.3389038484687106
 11
0.5907966177302626
 21
-0.3916947616248691
 72
     1
 10
0.5907966177302768
 20
-0.3916947616248691
 11
0.5907966177302768
 21
-1.157161773041991
 72
     1
 10
0.5907966177302768
 20
-1.157161773041984
 11
0.5643870637699991
 21
-1.203353685459461
 72
     1
 10
0.5643870637699849
 20
-1.203353685459468
 11
0.4983637345463876
 21
-1.226449709965308
 72
     1
 10
0.4983637345464019
 20
-1.226449709965301
 11
0.4389425159743326
 21
-1.226449709965301
 72
     1
 10
0.4389425159743326
 20
-1.226449709965301
 11
0.4323401830519913
 21
-1.249545734471119
 72
     1
 10
0.4323401830520055
 20
-1.249545734471134
 11
0.8945045989712809
 21
-1.249545734471134
 72
     1
 10
0.8945045989712667
 20
-1.249545734471134
 11
0.8945045989712667
 21
-1.226449709965315
 72
     1
 10
0.8945045989712667
 20
-1.226449709965301
 11
0.8152763816321311
 21
-1.226449709965301
 72
     1
 10
0.8152763816321311
 20
-1.226449709965301
 11
0.7525539965988913
 21
-1.186856661692324
 72
     1
 10
0.7525539965988913
 20
-1.186856661692324
 11
0.7426504972153794
 21
-1.140664612680659
 72
     1
 10
0.7426504972153652
 20
-1.140664612680673
 11
0.7393493307541803
 21
-0.394994193697137
 72
     1
 10
0.7393493307541803
 20
-0.394994193697137
 11
0.7558551630600619
 21
-0.3389038484687106
 72
     1
 10
0.7558551630600761
 20
-0.3389038484687106
 11
0.7987705493262496
 21
-0.2828136398344298
 72
     1
 10
0.7987705493262496
 20
-0.2828136398344227
 11
0.8614929343594894
 21
-0.2498193191118148
 72
     1
 10
0.8614929343594894
 20
-0.2498193191118148
 11
0.9374197629665985
 21
-0.2399211594891923
 72
     1
 10
0.9374197629665985
 20
-0.2399211594891923
 11
1.010045647383407
 21
-0.2663164794731117
 72
     1
 10
1.010045647383407
 20
-0.2663164794731259
 11
1.056262200110722
 21
-0.3092090964125234
 72
     1
 10
1.056262200110722
 20
-0.3092090964125091
 11
1.085972698261343
 21
-0.361999872974522
 72
     1
 10
1.085972698261358
 20
-0.3619998729745291
 11
1.092575031183727
 21
-0.4246889457533243
 72
     1
 10
1.092575031183727
 20
-0.4246889457533243
 11
1.115683196411993
 21
-0.4246889457533243
 72
     1
 10
1.115683196411978
 20
-0.4246889457533243
 11
1.109080863489609
 21
-0.17723195011623
 72
     1
 10
1.109080863489609
 20
-0.17723195011623
 11
1.109080863489609
 21
-0.1739325180439621
 72
     1
 10
1.109080863489609
 20
-0.1739325180439621
 11
1.105779697028424
 21
-0.1739325180439621
 97
        0
 75
     0
 76
     1
 52
0.0
 41
0.078125
 77
     0
 78
     1
 53
0.0
 43
-28.182772630023
 44
-32.9923404580304
 45
0.0
 46
0.009765625
 79
     0
 98
        1
 10
-28.182772630023
 20
-32.9923404580304
  0
LWPOLYLINE
  5
D0
330
CC
100
AcDbEntity
  8
0
 62
    22
100
AcDbPolyline
 90
        4
 70
     1
 43
0.0
 10
0.0262955969727301
 20
-0.0287577800528069
 10
1.307151517972869
 20
-0.0287577800528069
 10
1.307151517972869
 20
-1.731261997456265
 10
0.0262955969727301
 20
-1.731261997456265
  0
LINE
  5
D1
330
CC
100
AcDbEntity
  8
0
 62
    22
100
AcDbLine
 10
0.0262955969727443
 20
-1.4112176328236
 30
0.0
 11
1.307151517972869
 21
-1.4112176328236
 31
0.0
  0
ATTDEF
  5
D2
330
CC
100
AcDbEntity
  8
A1
 62
    22
100
AcDbText
 10
0.6781304052809105
 20
-1.678298248906529
 30
0.0
 40
0.2126953125
  1

 72
     1
 11
0.6781304052809105
 21
-1.678298248906529
 31
0.0
100
AcDbAttributeDefinition
  3
ADD STONE MARKER
  2
XXXX
 70
     0
  0
LINE
  5
D3
330
CC
100
AcDbEntity
  8
0
 62
    22
100
AcDbLine
 10
0.7464576960363587
 20
-1.129021462591367
 30
0.0
 11
0.74595166367655
 21
-1.12746688439163
 31
0.0
  0
ARC
  5
D4
330
CC
100
AcDbEntity
  8
0
 62
    22
100
AcDbCircle
 10
0.8421255873066684
 20
-1.127299146756172
 30
0.0
 40
0.0956833935014068
100
AcDbArc
 50
181.0313885659746
 51
269.7936990713142
  0
LINE
  5
D5
330
CC
100
AcDbEntity
  8
0
 62
    22
100
AcDbLine
 10
0.9011069318936506
 20
-1.22315027789304
 30
0.0
 11
0.841781067510368
 21
-1.22315027789304
 31
0.0
  0
LINE
  5
D6
330
CC
100
AcDbEntity
  8
0
 62
    22
100
AcDbLine
 10
0.9011069318936506
 20
-1.256144598615648
 30
0.0
 11
0.9011069318936506
 21
-1.22315027789304
 31
0.0
  0
ARC
  5
D7
330
CC
100
AcDbEntity
  8
0
 62
    22
100
AcDbCircle
 10
0.4880203611777887
 20
-1.127299146756172
 30
0.0
 40
0.0956833935014068
100
AcDbArc
 50
270.2063009286848
 51
358.9686114340253
  0
LINE
  5
D8
330
CC
100
AcDbEntity
  8
0
 62
    22
100
AcDbLine
 10
0.4290390165908207
 20
-1.256144598615648
 30
0.0
 11
0.4290390165908207
 21
-1.22315027789304
 31
0.0
  0
LINE
  5
D9
330
CC
100
AcDbEntity
  8
0
 62
    22
100
AcDbLine
 10
0.4290390165908207
 20
-1.22315027789304
 30
0.0
 11
0.4883648809740891
 21
-1.22315027789304
 31
0.0
  0
LINE
  5
DA
330
CC
100
AcDbEntity
  8
0
 62
    22
100
AcDbLine
 10
0.5836882524480984
 20
-1.129021462591367
 30
0.0
 11
0.5841942848079072
 21
-1.12746688439163
 31
0.0
  0
LINE
  5
DB
330
CC
100
AcDbEntity
  8
0
 62
    22
100
AcDbLine
 10
0.4290390165908207
 20
-1.256144598615648
 30
0.0
 11
0.9011069318936506
 21
-1.256144598615648
 31
0.0
  0
LINE
  5
DC
330
CC
100
AcDbEntity
  8
0
 62
    22
100
AcDbLine
 10
1.085512597630156
 20
-0.415894330395318
 30
0.0
 11
1.085512597630156
 21
-0.4280723832374847
 31
0.0
  0
ARC
  5
DD
330
CC
100
AcDbEntity
  8
0
 62
    22
100
AcDbCircle
 10
0.9138550451562537
 20
-0.4147906495365632
 30
0.0
 40
0.1716611005230106
100
AcDbArc
 50
359.6316189828552
 51
90.00081606717127
  0
ARC
  5
DE
330
CC
100
AcDbEntity
  8
0
 62
    22
100
AcDbCircle
 10
0.9180888683309831
 20
-0.4147906495365632
 30
0.0
 40
0.1716611005230106
100
AcDbArc
 50
89.99918393282873
 51
180.3683810171443
  0
LINE
  5
DF
330
CC
100
AcDbEntity
  8
0
 62
    22
100
AcDbLine
 10
0.2078601968792952
 20
-0.427988377825578
 30
0.0
 11
0.2441732502230991
 21
-0.427988377825578
 31
0.0
  0
LINE
  5
E0
330
CC
100
AcDbEntity
  8
0
 62
    22
100
AcDbLine
 10
0.2446333508543006
 20
-0.415894330395318
 30
0.0
 11
0.2446333508543006
 21
-0.4280723832374847
 31
0.0
  0
ARC
  5
E1
330
CC
100
AcDbEntity
  8
0
 62
    22
100
AcDbCircle
 10
0.4162909033282176
 20
-0.4147906495365632
 30
0.0
 40
0.1716611005230106
100
AcDbArc
 50
89.99918393282873
 51
180.3683810171443
  0
LINE
  5
E2
330
CC
100
AcDbEntity
  8
0
 62
    22
100
AcDbLine
 10
0.2144627520724782
 20
-0.1706330859717156
 30
0.0
 11
0.2078601968792952
 21
-0.427988377825578
 31
0.0
  0
ARC
  5
E3
330
CC
100
AcDbEntity
  8
0
 62
    22
100
AcDbCircle
 10
0.4120570801534882
 20
-0.4147906495365632
 30
0.0
 40
0.1716611005230106
100
AcDbArc
 50
359.6316189828552
 51
90.00081606717127
  0
LWPOLYLINE
  5
E4
330
CC
100
AcDbEntity
  8
0
 62
    22
100
AcDbPolyline
 90
        4
 70
     0
 43
0.0
 10
0.224366029185191
 20
-0.1706330859717084
 10
1.115683196411978
 20
-0.1706330859717084
 10
1.122285751605161
 20
-0.427988377825578
 10
1.085972698261358
 20
-0.427988377825578
  0
ENDBLK
  5
E6
330
CC
100
AcDbEntity
  8
0
 62
     7
100
AcDbBlockEnd
  0
BLOCK
  5
5D
330
30
100
AcDbEntity
  8
0
 62
     7
100
AcDbBlockBegin
  2
TSFORMB
 70
     2
 10
0.0
 20
0.0
 30
0.0
  3
TSFORMB
  1

  0
LINE
  5
31
330
30
100
AcDbEntity
  8
0
100
AcDbLine
 10
105.9925392881563
 20
78.84810849484797
 30
0.0
 11
105.9925392881563
 21
70.31072004936999
 31
0.0
  0
LINE
  5
32
330
30
100
AcDbEntity
  8
0
100
AcDbLine
 10
105.9925392881563
 20
0.0
 30
0.0
 11
105.9925392881563
 21
78.84810849484797
 31
0.0
  0
LINE
  5
33
330
30
100
AcDbEntity
  8
0
100
AcDbLine
 10
0.0
 20
0.0
 30
0.0
 11
105.9925392881563
 21
0.0
 31
0.0
  0
LINE
  5
34
330
30
100
AcDbEntity
  8
0
100
AcDbLine
 10
0.0
 20
78.84810849484797
 30
0.0
 11
0.0
 21
0.0
 31
0.0
  0
LINE
  5
35
330
30
100
AcDbEntity
  8
0
100
AcDbLine
 10
56.87404547169354
 20
0.0
 30
0.0
 11
56.87404547169354
 21
12.46470592426129
 31
0.0
  0
TEXT
  5
36
330
30
100
AcDbEntity
  8
0
 62
     7
100
AcDbText
 10
39.28098221173831
 20
10.97304845086642
 30
0.0
 40
0.8085000000000002
  1
LEGEND
100
AcDbText
  0
TEXT
  5
37
330
30
100
AcDbEntity
  8
0
 62
     7
100
AcDbText
 10
38.18320344075362
 20
3.401999220949562
 30
0.0
 40
0.8400000000000002
  1
CATEGORY
 72
     1
 11
41.47652732452399
 21
3.401999220949562
 31
0.0
100
AcDbText
  0
LINE
  5
38
330
30
100
AcDbEntity
  8
0
 62
     7
100
AcDbLine
 10
26.78791925899645
 20
8.549200111339303
 30
0.0
 11
29.32320076794366
 21
8.549200111339303
 31
0.0
  0
TEXT
  5
39
330
30
100
AcDbEntity
  8
0
 62
     7
100
AcDbText
 10
30.56536100380196
 20
8.165961840384341
 30
0.0
 40
1.05
  1
- Unfinished Side
100
AcDbText
  0
LINE
  5
3A
330
30
100
AcDbEntity
  8
0
100
AcDbLine
 10
25.9704997615305
 20
0.0
 30
0.0
 11
25.9704997615305
 21
12.46470592426129
 31
0.0
  0
ATTDEF
  5
3B
330
30
100
AcDbEntity
  8
A1
 62
     1
100
AcDbText
 10
41.26016333205519
 20
0.916484150045278
 30
0.0
 40
1.025589599999999
  1

 72
     1
 11
41.26016333205519
 21
0.916484150045278
 31
0.0
100
AcDbAttributeDefinition
  3
ADD CATEGORY NAMES
  2
XXXXXX
 70
     0
  0
ATTDEF
  5
3C
330
30
100
AcDbEntity
  8
A1
 62
     1
100
AcDbText
 10
21.55372231158242
 20
1.875018704105684
 30
0.0
 40
0.8400000000000002
  1

 72
     2
 11
21.55372231158242
 21
1.875018704105684
 31
0.0
100
AcDbAttributeDefinition
  3
ADD BARCODE TEXT
  2
XXXXXX
 70
     0
  0
LINE
  5
3D
330
30
100
AcDbEntity
  8
0
 62
     7
100
AcDbLine
 10
25.9704997615305
 20
12.46470592426129
 30
0.0
 11
0.0
 21
12.46470592426129
 31
0.0
  0
ATTDEF
  5
3E
330
30
100
AcDbEntity
  8
A1
 62
     1
100
AcDbText
 10
12.85191920549937
 20
3.11796280247222
 30
0.0
 40
6.132000000000001
  1

  7
barcoder
 72
     1
 11
12.85191920549937
 21
3.11796280247222
 31
0.0
100
AcDbAttributeDefinition
  3
ADD BARCODE NUMBER
  2
BARCODE
 70
     0
  0
LINE
  5
3F
330
30
100
AcDbEntity
  8
0
 62
     7
100
AcDbLine
 10
56.87404547169354
 20
10.31505184057846
 30
0.0
 11
25.9704997615305
 21
10.31505184057846
 31
0.0
  0
LINE
  5
40
330
30
100
AcDbEntity
  8
0
 62
     7
100
AcDbLine
 10
56.87404547169354
 20
2.864660228904256
 30
0.0
 11
25.9704997615305
 21
2.864660228904256
 31
0.0
  0
LINE
  5
41
330
30
100
AcDbEntity
  8
0
 62
     7
100
AcDbLine
 10
56.87404547169354
 20
4.753491724833224
 30
0.0
 11
25.9704997615305
 21
4.753491724833224
 31
0.0
  0
LINE
  5
42
330
30
100
AcDbEntity
  8
0
100
AcDbLine
 10
92.45878286761296
 20
70.31072004936999
 30
0.0
 11
92.45878286761296
 21
78.84810849484797
 31
0.0
  0
ATTDEF
  5
43
330
30
100
AcDbEntity
  8
A1
 62
     1
100
AcDbText
 10
99.20289126219257
 20
73.40001633244828
 30
0.0
 40
2.079
  1

 72
     1
 11
99.20289126219257
 21
73.40001633244828
 31
0.0
100
AcDbAttributeDefinition
  3
ADD PAGE NUMBER
  2
TS00XX
 70
     0
  0
LINE
  5
44
330
30
100
AcDbEntity
  8
0
100
AcDbLine
 10
105.9925392881563
 20
70.31072004936999
 30
0.0
 11
92.45878286761296
 21
70.31072004936999
 31
0.0
  0
LINE
  5
45
330
30
100
AcDbEntity
  8
0
100
AcDbLine
 10
105.9925392881563
 20
78.84810849484797
 30
0.0
 11
0.0
 21
78.84810849484797
 31
0.0
  0
TEXT
  5
46
330
30
100
AcDbEntity
  8
0
 62
     7
100
AcDbText
 10
101.0916707105178
 20
4.784832420392319
 30
0.0
 40
0.8459472656250001
  1
1:1
100
AcDbText
  0
ARC
  5
47
330
30
100
AcDbEntity
  8
0
 62
     7
100
AcDbCircle
 10
92.02173719823599
 20
7.854684255185304
 30
0.0
 40
0.5838368232859321
100
AcDbArc
 50
297.5553548372056
 51
304.8408806463489
  0
LINE
  5
48
330
30
100
AcDbEntity
  8
0
 62
     7
100
AcDbLine
 10
96.44018670993672
 20
6.648784575743377
 30
0.0
 11
95.62662822118033
 21
6.648784575743377
 31
0.0
  0
ARC
  5
49
330
30
100
AcDbEntity
  8
0
 62
     7
100
AcDbCircle
 10
92.02173719823599
 20
7.854684255185304
 30
0.0
 40
0.5838368232859408
100
AcDbArc
 50
304.8408806463489
 51
297.5553548372056
  0
TEXT
  5
4A
330
30
100
AcDbEntity
  8
0
 62
     7
100
AcDbText
 10
91.5997577365548
 20
7.487990433787842
 30
0.0
 40
0.7875000000000002
  1
R
  7
ROMANC
 72
     1
 11
92.02565639984959
 21
7.487990433787842
 31
0.0
100
AcDbText
  0
LINE
  5
4C
330
30
100
AcDbEntity
  8
0
100
AcDbLine
 10
96.44018670993649
 20
0.0
 30
0.0
 11
96.44018670993695
 21
12.46470592426129
 31
0.0
  0
TEXT
  5
4D
330
30
100
AcDbEntity
  8
0
100
AcDbText
 10
57.83820509574335
 20
4.931128255646488
 30
0.0
 40
1.111564440985976
  1
ARCHITECTURAL CONCRETE CO., INC.
 41
1.25
 72
     4
 11
76.69038922088157
 21
5.404193065577089
 31
0.0
100
AcDbText
  0
TEXT
  5
4E
330
30
100
AcDbEntity
  8
0
100
AcDbText
 10
64.01730751652124
 20
0.6790765005606179
 30
0.0
 40
0.6552430415498756
  1
PHONE: 1-800-789-4841  FAX : 770-463-2635
 41
1.1875
 72
     4
 11
76.73327742292065
 21
1.005769257279496
 31
0.0
100
AcDbText
  0
TEXT
  5
4F
330
30
100
AcDbEntity
  8
0
 62
     7
100
AcDbText
 10
61.23651428794109
 20
7.899354841769707
 30
0.0
 40
3.572100000000002
  1
TannerStone
  7
ROMANC
 72
     1
 11
75.92109734429948
 21
7.899354841769707
 31
0.0
100
AcDbText
  0
TEXT
  5
50
330
30
100
AcDbEntity
  8
0
100
AcDbText
 10
61.57240842020546
 20
1.964543484004154
 30
0.0
 40
0.6552430415498756
  1
http://TannerStone.com ~ Email:Sales@TannerStone.com 
 41
1.1875
 72
     4
 11
77.08342119362362
 21
2.259193880788984
 31
0.0
100
AcDbText
  0
TEXT
  5
51
330
30
100
AcDbEntity
  8
0
100
AcDbText
 10
59.98363509556096
 20
3.260563711198551
 30
0.0
 40
0.74899296216962
  1
101 JOHNSTON CIRCLE, PALMETTO, GEORGIA 30268
 41
1.1875
 72
     4
 11
76.85158629384147
 21
3.579323650094977
 31
0.0
100
AcDbText
  0
LINE
  5
52
330
30
100
AcDbEntity
  8
0
100
AcDbLine
 10
56.87404547169354
 20
6.648784575743377
 30
0.0
 11
105.9925392881563
 21
6.648784575743377
 31
0.0
  0
LINE
  5
53
330
30
100
AcDbEntity
  8
0
 62
     7
100
AcDbLine
 10
96.44018670993682
 20
9.556745250002336
 30
0.0
 11
105.9925392881563
 21
9.556745250002336
 31
0.0
  0
TEXT
  5
54
330
30
100
AcDbEntity
  8
0
 62
     7
100
AcDbText
 10
96.66995560986686
 20
8.813345575893606
 30
0.0
 40
0.5414062500000001
  1
LBS/LINEAR FEET:
100
AcDbText
  0
LINE
  5
55
330
30
100
AcDbEntity
  8
LINEWORK
 62
     7
100
AcDbLine
 10
96.40991550469017
 20
3.757904136908962
 30
0.0
 11
105.9622680829099
 21
3.757904136909189
 31
0.0
  0
TEXT
  5
56
330
30
100
AcDbEntity
  8
0
 62
     7
100
AcDbText
 10
98.85330873086445
 20
1.524519923848686
 30
0.0
 40
0.8459472656250001
  1
1-1-2000
100
AcDbText
  0
TEXT
  5
57
330
30
100
AcDbEntity
  8
0
 62
     7
100
AcDbText
 10
96.68542089784603
 20
5.927566558083469
 30
0.0
 40
0.5414062500000001
  1
SCALE:
100
AcDbText
  0
TEXT
  5
58
330
30
100
AcDbEntity
  8
0
 62
     7
100
AcDbText
 10
96.74158717246577
 20
2.97910930546476
 30
0.0
 40
0.5414062500000001
  1
DATE:
100
AcDbText
  0
TEXT
  5
59
330
30
100
AcDbEntity
  8
0
 62
     7
100
AcDbText
 10
96.70022651293084
 20
11.66518473255649
 30
0.0
 40
0.5414062500000001
  1
PROFILE AREA:
100
AcDbText
  0
ATTDEF
  5
5A
330
30
100
AcDbEntity
  8
A1
 62
     1
100
AcDbText
 10
101.1759733039033
 20
10.07900441527107
 30
0.0
 40
0.9450000000000002
  1

 72
     1
 11
101.1759733039033
 21
10.07900441527107
 31
0.0
100
AcDbAttributeDefinition
  3
ADD PROFILE AREA
  2
XXXXX
 70
     0
  0
ATTDEF
  5
5B
330
30
100
AcDbEntity
  8
A1
 62
     1
100
AcDbText
 10
101.1418062311347
 20
7.21953861551384
 30
0.0
 40
0.9450000000000002
  1

 72
     1
 11
101.1418062311347
 21
7.21953861551384
 31
0.0
100
AcDbAttributeDefinition
  3
ADD #/LF
  2
XXXXX
 70
     0
  0
LINE
  5
5C
330
30
100
AcDbEntity
  8
0
100
AcDbLine
 10
25.9704997615305
 20
12.46470592426129
 30
0.0
 11
105.9925392881563
 21
12.46470592426129
 31
0.0
  0
ENDBLK
  5
5E
330
30
100
AcDbEntity
  8
0
 62
     7
100
AcDbBlockEnd
  0
BLOCK
  5
23C
330
234
100
AcDbEntity
  8
0
 62
     7
100
AcDbBlockBegin
  2
LINK FLAG
 70
     2
 10
0.0
 20
0.0
 30
0.0
  3
LINK FLAG
  1

  0
SOLID
  5
235
330
234
100
AcDbEntity
  8
A1
 62
     1
100
AcDbTrace
 10
0.408488260029003
 20
0.3001362788183428
 30
0.0
 11
0.2890663177079773
 21
0.4163953751078396
 31
0.0
 12
0.0
 22
0.0
 32
0.0
 13
0.0
 23
0.0
 33
0.0
  0
LINE
  5
236
330
234
100
AcDbEntity
  8
A1
 62
     1
100
AcDbLine
 10
0.3487772888684901
 20
0.3582658269630912
 30
0.0
 11
4.449644902191081
 21
4.57069815453687
 31
0.0
  0
ATTDEF
  5
237
330
234
100
AcDbEntity
  8
A1
 62
     1
100
AcDbText
 10
10.75853330829194
 20
4.953467229082193
 30
0.0
 40
1.0
  1

100
AcDbAttributeDefinition
  3
ADD LINK NUMBER (WMF)
  2
XXXXXX
 70
     0
  0
MTEXT
  5
238
330
234
100
AcDbEntity
  8
0
 62
     1
100
AcDbMText
 10
10.79736583926697
 20
4.206192006567398
 30
0.0
 40
1.0
 41
0.0
 71
     1
 72
     1
  1
TannerStone
 73
     1
 44
1.0
1001
ACAD
1000
MTEXTBEGIN
1070
    73
1070
     1
1070
    44
1040
1.0
1070
    74
1070
     0
1000
MTEXTEND
1000
MTEXTBEGIN
1070
    73
1070
     1
1070
    44
1040
1.0
1070
    74
1070
     0
1000
MTEXTEND
1000
MTEXTBEGIN
1070
    73
1070
     1
1070
    44
1040
1.0
1070
    74
1070
     0
1000
MTEXTEND
1000
MTEXTBEGIN
1070
    73
1070
     1
1070
    44
1040
1.0
1070
    74
1070
     0
1000
MTEXTEND
1000
MTEXTBEGIN
1070
    73
1070
     1
1070
    44
1040
1.0
1070
    74
1070
     0
1000
MTEXTEND
1000
MTEXTBEGIN
1070
    73
1070
     1
1070
    44
1040
1.0
1070
    74
1070
     0
1000
MTEXTEND
1000
MTEXTBEGIN
1070
    73
1070
     1
1070
    44
1040
1.0
1070
    74
1070
     0
1000
MTEXTEND
1000
MTEXTBEGIN
1070
    73
1070
     1
1070
    44
1040
1.0
1070
    74
1070
     0
1000
MTEXTEND
  0
MTEXT
  5
239
330
234
100
AcDbEntity
  8
0
 62
     1
100
AcDbMText
 10
10.87510824661537
 20
2.68903194023958
 30
0.0
 40
0.7386749999999999
 41
0.0
 71
     1
 72
     1
  1
1-800-789-4841
 73
     1
 44
1.0
1001
ACAD
1000
MTEXTBEGIN
1070
    73
1070
     1
1070
    44
1040
1.0
1070
    74
1070
     0
1000
MTEXTEND
1000
MTEXTBEGIN
1070
    73
1070
     1
1070
    44
1040
1.0
1070
    74
1070
     0
1000
MTEXTEND
1000
MTEXTBEGIN
1070
    73
1070
     1
1070
    44
1040
1.0
1070
    74
1070
     0
1000
MTEXTEND
1000
MTEXTBEGIN
1070
    73
1070
     1
1070
    44
1040
1.0
1070
    74
1070
     0
1000
MTEXTEND
1000
MTEXTBEGIN
1070
    73
1070
     1
1070
    44
1040
1.0
1070
    74
1070
     0
1000
MTEXTEND
1000
MTEXTBEGIN
1070
    73
1070
     1
1070
    44
1040
1.0
1070
    74
1070
     0
1000
MTEXTEND
1000
MTEXTBEGIN
1070
    73
1070
     1
1070
    44
1040
1.0
1070
    74
1070
     0
1000
MTEXTEND
1000
MTEXTBEGIN
1070
    73
1070
     1
1070
    44
1040
1.0
1070
    74
1070
     0
1000
MTEXTEND
  0
LINE
  5
23A
330
234
100
AcDbEntity
  8
0
 62
     1
100
AcDbLine
 10
4.449644902191081
 20
4.57069815453687
 30
0.0
 11
19.37910172053511
 21
4.57069815453687
 31
0.0
  0
LINE
  5
23B
330
234
100
AcDbEntity
  8
0
 62
     1
100
AcDbLine
 10
10.27170295921419
 20
1.582920602761227
 30
0.0
 11
10.27170295921419
 21
6.137374365587334
 31
0.0
  0
ENDBLK
  5
23D
330
234
100
AcDbEntity
  8
0
 62
     7
100
AcDbBlockEnd
  0
BLOCK
  5
249
330
23E
100
AcDbEntity
  8
0
 62
     7
100
AcDbBlockBegin
  2
*D3
 70
     1
 10
0.0
 20
0.0
 30
0.0
  3
*D3
  1

  0
LINE
  5
23F
330
23E
100
AcDbEntity
  8
A1
 62
     0
100
AcDbLine
 10
21.24816895854511
 20
19.6672405905648
 30
0.0
 11
12.24242967005126
 21
19.6672405905648
 31
0.0
  0
LINE
  5
240
330
23E
100
AcDbEntity
  8
A1
 62
     0
100
AcDbLine
 10
24.57830738140664
 20
23.66463235933577
 30
0.0
 11
12.24242967005126
 21
23.66463235933577
 31
0.0
  0
LINE
  5
241
330
23E
100
AcDbEntity
  8
A1
 62
     0
100
AcDbLine
 10
12.48242967005126
 20
20.1472405905648
 30
0.0
 11
12.48242967005126
 21
20.90402477179853
 31
0.0
  0
LINE
  5
242
330
23E
100
AcDbEntity
  8
A1
 62
     0
100
AcDbLine
 10
12.48242967005126
 20
23.18463235933577
 30
0.0
 11
12.48242967005126
 21
22.82402477179853
 31
0.0
  0
MTEXT
  5
243
330
23E
100
AcDbEntity
  8
A1
 62
     0
100
AcDbMText
 10
12.48242967005126
 20
21.86402477179854
 30
0.0
 40
0.9599999999999999
 41
0.0
 71
     5
 72
     1
  1
\A1;4"
 73
     1
 44
1.0
1001
ACAD
1000
MTEXTBEGIN
1070
    73
1070
     1
1070
    44
1040
1.0
1070
    74
1070
     0
1000
MTEXTEND
1000
MTEXTBEGIN
1070
    73
1070
     1
1070
    44
1040
1.0
1070
    74
1070
     0
1000
MTEXTEND
1000
MTEXTBEGIN
1070
    73
1070
     1
1070
    44
1040
1.0
1070
    74
1070
     0
1000
MTEXTEND
1000
MTEXTBEGIN
1070
    73
1070
     1
1070
    44
1040
1.0
1070
    74
1070
     0
1000
MTEXTEND
1000
MTEXTBEGIN
1070
    73
1070
     1
1070
    44
1040
1.0
1070
    74
1070
     0
1000
MTEXTEND
1000
MTEXTBEGIN
1070
    73
1070
     1
1070
    44
1040
1.0
1070
    74
1070
     0
1000
MTEXTEND
  0
SOLID
  5
244
330
23E
100
AcDbEntity
  8
A1
 62
     0
100
AcDbTrace
 10
12.40242967005126
 20
20.1472405905648
 30
0.0
 11
12.56242967005126
 21
20.1472405905648
 31
0.0
 12
12.48242967005126
 22
19.6672405905648
 32
0.0
 13
12.48242967005126
 23
19.6672405905648
 33
0.0
  0
SOLID
  5
245
330
23E
100
AcDbEntity
  8
A1
 62
     0
100
AcDbTrace
 10
12.40242967005126
 20
23.18463235933577
 30
0.0
 11
12.56242967005126
 21
23.18463235933577
 31
0.0
 12
12.48242967005126
 22
23.66463235933577
 32
0.0
 13
12.48242967005126
 23
23.66463235933577
 33
0.0
  0
POINT
  5
246
330
23E
100
AcDbEntity
  8
Defpoints
 62
     0
100
AcDbPoint
 10
22.20816895854511
 20
19.6672405905648
 30
0.0
  0
POINT
  5
247
330
23E
100
AcDbEntity
  8
Defpoints
 62
     0
100
AcDbPoint
 10
25.53830738140664
 20
23.66463235933577
 30
0.0
  0
POINT
  5
248
330
23E
100
AcDbEntity
  8
Defpoints
 62
     0
100
AcDbPoint
 10
12.48242967005126
 20
23.66463235933577
 30
0.0
  0
ENDBLK
  5
24A
330
23E
100
AcDbEntity
  8
0
 62
     7
100
AcDbBlockEnd
  0
BLOCK
  5
256
330
24B
100
AcDbEntity
  8
0
 62
     7
100
AcDbBlockBegin
  2
*D4
 70
     1
 10
0.0
 20
0.0
 30
0.0
  3
*D4
  1

  0
LINE
  5
24C
330
24B
100
AcDbEntity
  8
A1
 62
     0
100
AcDbLine
 10
20.20816895854511
 20
21.70724059056468
 30
0.0
 11
20.20816895854511
 21
13.90780770418065
 31
0.0
  0
LINE
  5
24D
330
24B
100
AcDbEntity
  8
A1
 62
     0
100
AcDbLine
 10
30.95816895854511
 20
21.70724059056468
 30
0.0
 11
30.95816895854511
 21
13.90780770418065
 31
0.0
  0
LINE
  5
24E
330
24B
100
AcDbEntity
  8
A1
 62
     0
100
AcDbLine
 10
20.68816895854511
 20
14.14780770418065
 30
0.0
 11
23.09073448227175
 21
14.14780770418065
 31
0.0
  0
LINE
  5
24F
330
24B
100
AcDbEntity
  8
A1
 62
     0
100
AcDbLine
 10
30.47816895854511
 20
14.14780770418065
 30
0.0
 11
29.12832484371753
 21
14.14780770418065
 31
0.0
  0
MTEXT
  5
250
330
24B
100
AcDbEntity
  8
A1
 62
     0
100
AcDbMText
 10
26.10952966299464
 20
14.14780770418065
 30
0.0
 40
0.9599999999999999
 41
0.0
 71
     5
 72
     1
  1
\A1;10 3/4"
 73
     1
 44
1.0
1001
ACAD
1000
MTEXTBEGIN
1070
    73
1070
     1
1070
    44
1040
1.0
1070
    74
1070
     0
1000
MTEXTEND
1000
MTEXTBEGIN
1070
    73
1070
     1
1070
    44
1040
1.0
1070
    74
1070
     0
1000
MTEXTEND
1000
MTEXTBEGIN
1070
    73
1070
     1
1070
    44
1040
1.0
1070
    74
1070
     0
1000
MTEXTEND
1000
MTEXTBEGIN
1070
    73
1070
     1
1070
    44
1040
1.0
1070
    74
1070
     0
1000
MTEXTEND
1000
MTEXTBEGIN
1070
    73
1070
     1
1070
    44
1040
1.0
1070
    74
1070
     0
1000
MTEXTEND
1000
MTEXTBEGIN
1070
    73
1070
     1
1070
    44
1040
1.0
1070
    74
1070
     0
1000
MTEXTEND
  0
SOLID
  5
251
330
24B
100
AcDbEntity
  8
A1
 62
     0
100
AcDbTrace
 10
20.68816895854511
 20
14.22780770418065
 30
0.0
 11
20.68816895854511
 21
14.06780770418064
 31
0.0
 12
20.20816895854511
 22
14.14780770418065
 32
0.0
 13
20.20816895854511
 23
14.14780770418065
 33
0.0
  0
SOLID
  5
252
330
24B
100
AcDbEntity
  8
A1
 62
     0
100
AcDbTrace
 10
30.47816895854511
 20
14.22780770418065
 30
0.0
 11
30.47816895854511
 21
14.06780770418064
 31
0.0
 12
30.95816895854511
 22
14.14780770418065
 32
0.0
 13
30.95816895854511
 23
14.14780770418065
 33
0.0
  0
POINT
  5
253
330
24B
100
AcDbEntity
  8
Defpoints
 62
     0
100
AcDbPoint
 10
20.20816895854511
 20
22.66724059056469
 30
0.0
  0
POINT
  5
254
330
24B
100
AcDbEntity
  8
Defpoints
 62
     0
100
AcDbPoint
 10
30.95816895854511
 20
22.66724059056469
 30
0.0
  0
POINT
  5
255
330
24B
100
AcDbEntity
  8
Defpoints
 62
     0
100
AcDbPoint
 10
30.95816895854511
 20
14.14780770418065
 30
0.0
  0
ENDBLK
  5
257
330
24B
100
AcDbEntity
  8
0
 62
     7
100
AcDbBlockEnd
  0
BLOCK
  5
263
330
258
100
AcDbEntity
  8
0
 62
     7
100
AcDbBlockBegin
  2
*D5
 70
     1
 10
0.0
 20
0.0
 30
0.0
  3
*D5
  1

  0
LINE
  5
259
330
258
100
AcDbEntity
  8
A1
 62
     0
100
AcDbLine
 10
22.20816895854511
 20
18.7072405905648
 30
0.0
 11
22.20816895854511
 21
16.00357064323476
 31
0.0
  0
LINE
  5
25A
330
258
100
AcDbEntity
  8
A1
 62
     0
100
AcDbLine
 10
28.95816895854511
 20
18.70724059056468
 30
0.0
 11
28.95816895854511
 21
16.00357064323476
 31
0.0
  0
LINE
  5
25B
330
258
100
AcDbEntity
  8
A1
 62
     0
100
AcDbLine
 10
21.72816895854511
 20
16.24357064323476
 30
0.0
 11
21.24816895854511
 21
16.24357064323476
 31
0.0
  0
LINE
  5
25C
330
258
100
AcDbEntity
  8
A1
 62
     0
100
AcDbLine
 10
29.43816895854511
 20
16.24357064323476
 30
0.0
 11
29.91816895854512
 21
16.24357064323476
 31
0.0
  0
MTEXT
  5
25D
330
258
100
AcDbEntity
  8
A1
 62
     0
100
AcDbMText
 10
26.0142345563255
 20
16.24357064323476
 30
0.0
 40
0.9599999999999999
 41
0.0
 71
     5
 72
     1
  1
\A1;6 3/4"
 73
     1
 44
1.0
1001
ACAD
1000
MTEXTBEGIN
1070
    73
1070
     1
1070
    44
1040
1.0
1070
    74
1070
     0
1000
MTEXTEND
1000
MTEXTBEGIN
1070
    73
1070
     1
1070
    44
1040
1.0
1070
    74
1070
     0
1000
MTEXTEND
1000
MTEXTBEGIN
1070
    73
1070
     1
1070
    44
1040
1.0
1070
    74
1070
     0
1000
MTEXTEND
1000
MTEXTBEGIN
1070
    73
1070
     1
1070
    44
1040
1.0
1070
    74
1070
     0
1000
MTEXTEND
1000
MTEXTBEGIN
1070
    73
1070
     1
1070
    44
1040
1.0
1070
    74
1070
     0
1000
MTEXTEND
1000
MTEXTBEGIN
1070
    73
1070
     1
1070
    44
1040
1.0
1070
    74
1070
     0
1000
MTEXTEND
  0
SOLID
  5
25E
330
258
100
AcDbEntity
  8
A1
 62
     0
100
AcDbTrace
 10
21.72816895854511
 20
16.32357064323476
 30
0.0
 11
21.72816895854511
 21
16.16357064323476
 31
0.0
 12
22.20816895854511
 22
16.24357064323476
 32
0.0
 13
22.20816895854511
 23
16.24357064323476
 33
0.0
  0
SOLID
  5
25F
330
258
100
AcDbEntity
  8
A1
 62
     0
100
AcDbTrace
 10
29.43816895854511
 20
16.32357064323476
 30
0.0
 11
29.43816895854511
 21
16.16357064323476
 31
0.0
 12
28.95816895854511
 22
16.24357064323476
 32
0.0
 13
28.95816895854511
 23
16.24357064323476
 33
0.0
  0
POINT
  5
260
330
258
100
AcDbEntity
  8
Defpoints
 62
     0
100
AcDbPoint
 10
22.20816895854511
 20
19.6672405905648
 30
0.0
  0
POINT
  5
261
330
258
100
AcDbEntity
  8
Defpoints
 62
     0
100
AcDbPoint
 10
28.95816895854511
 20
19.66724059056469
 30
0.0
  0
POINT
  5
262
330
258
100
AcDbEntity
  8
Defpoints
 62
     0
100
AcDbPoint
 10
28.95816895854511
 20
16.24357064323476
 30
0.0
  0
ENDBLK
  5
264
330
258
100
AcDbEntity
  8
0
 62
     7
100
AcDbBlockEnd
  0
BLOCK
  5
272
330
265
100
AcDbEntity
  8
0
 62
     7
100
AcDbBlockBegin
  2
*D6
 70
     1
 10
0.0
 20
0.0
 30
0.0
  3
*D6
  1

  0
LINE
  5
266
330
265
100
AcDbEntity
  8
A1
 62
     0
100
AcDbLine
 10
19.24816895854511
 20
23.35474059056469
 30
0.0
 11
15.00596679984631
 21
23.35474059056469
 31
0.0
  0
LINE
  5
267
330
265
100
AcDbEntity
  8
A1
 62
     0
100
AcDbLine
 10
24.66697721779079
 20
23.66469359874804
 30
0.0
 11
15.00596679984631
 21
23.66469359874805
 31
0.0
  0
LINE
  5
268
330
265
100
AcDbEntity
  8
A1
 62
     0
100
AcDbLine
 10
15.24596679984631
 20
22.87474059056469
 30
0.0
 11
15.24596679984631
 21
22.39474059056469
 31
0.0
  0
LINE
  5
269
330
265
100
AcDbEntity
  8
A1
 62
     0
100
AcDbLine
 10
15.24596679984631
 20
24.14469359874805
 30
0.0
 11
15.24596679984631
 21
24.62469359874805
 31
0.0
  0
LINE
  5
26A
330
265
100
AcDbEntity
  8
A1
 62
     0
100
AcDbLine
 10
15.72596679984631
 20
25.76976435479309
 30
0.0
 11
15.24596679984631
 21
25.76976435479309
 31
0.0
  0
LINE
  5
26B
330
265
100
AcDbEntity
  8
A1
 62
     0
100
AcDbLine
 10
15.24596679984631
 20
25.76976435479309
 30
0.0
 11
15.24596679984631
 21
24.62469359874805
 31
0.0
  0
MTEXT
  5
26C
330
265
100
AcDbEntity
  8
A1
 62
     0
100
AcDbMText
 10
18.14705822436792
 20
25.76976435479309
 30
0.0
 40
0.9599999999999999
 41
0.0
 71
     5
 72
     1
  1
\A1;5/16"
 73
     1
 44
1.0
1001
ACAD
1000
MTEXTBEGIN
1070
    73
1070
     1
1070
    44
1040
1.0
1070
    74
1070
     0
1000
MTEXTEND
1000
MTEXTBEGIN
1070
    73
1070
     1
1070
    44
1040
1.0
1070
    74
1070
     0
1000
MTEXTEND
1000
MTEXTBEGIN
1070
    73
1070
     1
1070
    44
1040
1.0
1070
    74
1070
     0
1000
MTEXTEND
1000
MTEXTBEGIN
1070
    73
1070
     1
1070
    44
1040
1.0
1070
    74
1070
     0
1000
MTEXTEND
1000
MTEXTBEGIN
1070
    73
1070
     1
1070
    44
1040
1.0
1070
    74
1070
     0
1000
MTEXTEND
1000
MTEXTBEGIN
1070
    73
1070
     1
1070
    44
1040
1.0
1070
    74
1070
     0
1000
MTEXTEND
  0
SOLID
  5
26D
330
265
100
AcDbEntity
  8
A1
 62
     0
100
AcDbTrace
 10
15.16596679984631
 20
22.87474059056469
 30
0.0
 11
15.32596679984631
 21
22.87474059056469
 31
0.0
 12
15.24596679984631
 22
23.35474059056469
 32
0.0
 13
15.24596679984631
 23
23.35474059056469
 33
0.0
  0
SOLID
  5
26E
330
265
100
AcDbEntity
  8
A1
 62
     0
100
AcDbTrace
 10
15.16596679984631
 20
24.14469359874805
 30
0.0
 11
15.32596679984631
 21
24.14469359874805
 31
0.0
 12
15.24596679984631
 22
23.66469359874805
 32
0.0
 13
15.24596679984631
 23
23.66469359874805
 33
0.0
  0
POINT
  5
26F
330
265
100
AcDbEntity
  8
Defpoints
 62
     0
100
AcDbPoint
 10
20.20816895854511
 20
23.35474059056469
 30
0.0
  0
POINT
  5
270
330
265
100
AcDbEntity
  8
Defpoints
 62
     0
100
AcDbPoint
 10
25.62697721779079
 20
23.66469359874804
 30
0.0
  0
POINT
  5
271
330
265
100
AcDbEntity
  8
Defpoints
 62
     0
100
AcDbPoint
 10
15.24596679984631
 20
23.66469359874805
 30
0.0
  0
ENDBLK
  5
273
330
265
100
AcDbEntity
  8
0
 62
     7
100
AcDbBlockEnd
  0
BLOCK
  5
29A
330
274
100
AcDbEntity
  8
0
 62
     7
100
AcDbBlockBegin
  2
ts0243
 70
     0
 10
0.0
 20
0.0
 30
0.0
  3
ts0243
  1

  0
DIMENSION
  5
275
330
274
100
AcDbEntity
  8
A1
 62
     7
100
AcDbDimension
  2
*D3
 10
12.48242967005126
 20
23.66463235933577
 30
0.0
 11
12.48242967005126
 21
21.86402477179854
 31
0.0
 70
   160
 71
     5
 42
-1.0
  3
STANDARD
100
AcDbAlignedDimension
 13
22.20816895854511
 23
19.6672405905648
 33
0.0
 14
25.53830738140664
 24
23.66463235933577
 34
0.0
 50
90.0
100
AcDbRotatedDimension
1001
ACAD
1000
DSTYLE
1002
{
1070
   287
1070
     4
1070
   287
1070
     4
1070
   287
1070
     4
1070
   287
1070
     4
1070
   287
1070
     4
1070
   287
1070
     4
1070
   287
1070
     4
1070
    40
1040
0.9599999999999999
1070
    73
1070
     1
1070
    74
1070
     1
1070
    77
1070
     0
1070
   147
1040
0.5
1070
   279
1070
     1
1070
   288
1070
     1
1070
   289
1070
     3
1002
}
  0
INSERT
  5
276
330
274
100
AcDbEntity
  8
A1
 62
     7
370
    30
100
AcDbBlockReference
 66
     1
  2
TSFORMB
 10
0.0
 20
0.0
 30
0.0
 41
0.5
 42
0.5
 43
0.5
  0
ATTRIB
  5
277
330
276
100
AcDbEntity
  8
A1
 62
     1
100
AcDbText
 10
18.74989463711198
 20
0.4582420750226675
 30
0.0
 40
0.5127948
  1
HANDRAIL
 72
     1
 11
20.63008166602764
 21
0.4582420750226675
 31
0.0
100
AcDbAttribute
  2
XXXXXX
 70
     0
  0
ATTRIB
  5
278
330
276
100
AcDbEntity
  8
A1
 62
     1
100
AcDbText
 10
8.438136846790442
 20
0.9375093520528707
 30
0.0
 40
0.4200000000000001
  1
TS0243
 72
     2
 11
10.77686115579115
 21
0.9375093520528707
 31
0.0
100
AcDbAttribute
  2
XXXXXX
 70
     0
  0
ATTRIB
  5
279
330
276
100
AcDbEntity
  8
A1
 62
     1
100
AcDbText
 10
3.398284602749684
 20
1.55898140123611
 30
0.0
 40
3.066
  1
TS0243
  7
barcoder
 72
     1
 11
6.425959602749685
 21
1.55898140123611
 31
0.0
100
AcDbAttribute
  2
BARCODE
 70
     0
  0
ATTRIB
  5
27A
330
276
100
AcDbEntity
  8
A1
 62
     1
100
AcDbText
 10
46.70727429870784
 20
36.70000816622416
 30
0.0
 40
1.0395
  1
TS0243
 72
     1
 11
49.60144563109622
 21
36.70000816622416
 31
0.0
100
AcDbAttribute
  2
TS00XX
 70
     0
  0
ATTRIB
  5
27B
330
276
100
AcDbEntity
  8
A1
 62
     1
100
AcDbText
 10
49.45663211616139
 20
5.039502207635564
 30
0.0
 40
0.4725000000000002
  1
34.89"
 72
     1
 11
50.58798665195161
 21
5.039502207635564
 31
0.0
100
AcDbAttribute
  2
XXXXX
 70
     0
  0
ATTRIB
  5
27C
330
276
100
AcDbEntity
  8
A1
 62
     1
100
AcDbText
 10
49.43954857977715
 20
3.609769307756891
 30
0.0
 40
0.4725000000000002
  1
31.49"
 72
     1
 11
50.57090311556738
 21
3.609769307756891
 31
0.0
100
AcDbAttribute
  2
XXXXX
 70
     0
  0
SEQEND
  5
27D
330
276
100
AcDbEntity
  8
A1
 62
     7
  0
INSERT
  5
27E
330
274
100
AcDbEntity
  8
A1
 62
     7
100
AcDbBlockReference
 66
     1
  2
LINK FLAG
 10
28.29727099879153
 20
23.50944396031786
 30
0.0
  0
ATTRIB
  5
27F
330
27E
100
AcDbEntity
  8
A1
 62
     1
100
AcDbText
 10
39.05580430708346
 20
28.46291118940007
 30
0.0
 40
1.0
  1
TS0243
100
AcDbAttribute
  2
XXXXXX
 70
     0
  0
SEQEND
  5
280
330
27E
100
AcDbEntity
  8
A1
 62
     7
  0
ARC
  5
281
330
274
100
AcDbEntity
  8
A1
 62
     7
370
    50
100
AcDbCircle
 10
21.76088236872317
 20
19.71727107447054
 30
0.0
 40
0.4500759299877941
100
AcDbArc
 50
353.6178056283117
 51
88.75404470310851
  0
LINE
  5
282
330
274
100
AcDbEntity
  8
A1
 62
     7
370
    50
100
AcDbLine
 10
25.58316895854511
 20
23.66724059056469
 30
0.0
 11
20.20816895854511
 21
23.35474059056469
 31
0.0
  0
INSERT
  5
283
330
274
100
AcDbEntity
  8
A1
 62
     7
100
AcDbBlockReference
 66
     1
  2
PROFILE LOGO
 10
21.49561710004434
 20
22.48392886066835
 30
0.0
 41
0.7000000000000455
 42
0.7000000000000455
 43
0.7
  0
ATTRIB
  5
284
330
283
100
AcDbEntity
  8
A1
 62
    22
100
AcDbText
 10
21.69326934754103
 20
21.30912008643383
 30
0.0
 40
0.14888671875
  1
0243
 72
     1
 11
21.97030838374098
 21
21.30912008643383
 31
0.0
100
AcDbAttribute
  2
XXXX
 70
     0
  0
SEQEND
  5
285
330
283
100
AcDbEntity
  8
A1
 62
     7
  0
DIMENSION
  5
286
330
274
100
AcDbEntity
  8
A1
 62
     7
100
AcDbDimension
  2
*D4
 10
30.95816895854511
 20
14.14780770418065
 30
0.0
 11
26.10952966299464
 21
14.14780770418065
 31
0.0
 70
   161
 71
     5
 42
-1.0
  3
STANDARD
100
AcDbAlignedDimension
 13
20.20816895854511
 23
22.66724059056469
 33
0.0
 14
30.95816895854511
 24
22.66724059056469
 34
0.0
1001
ACAD
1000
DSTYLE
1002
{
1070
   287
1070
     4
1070
   287
1070
     4
1070
   287
1070
     4
1070
   287
1070
     4
1070
   287
1070
     4
1070
   287
1070
     4
1070
   287
1070
     4
1070
    40
1040
0.9599999999999999
1070
    73
1070
     1
1070
    74
1070
     1
1070
    77
1070
     0
1070
   147
1040
0.5
1070
   279
1070
     1
1070
   288
1070
     1
1070
   289
1070
     3
1002
}
  0
DIMENSION
  5
287
330
274
100
AcDbEntity
  8
A1
 62
     7
100
AcDbDimension
  2
*D5
 10
28.95816895854511
 20
16.24357064323476
 30
0.0
 11
26.0142345563255
 21
16.24357064323476
 31
0.0
 70
   161
 71
     5
 42
-1.0
  3
STANDARD
100
AcDbAlignedDimension
 13
22.20816895854511
 23
19.6672405905648
 33
0.0
 14
28.95816895854511
 24
19.66724059056469
 34
0.0
1001
ACAD
1000
DSTYLE
1002
{
1070
   287
1070
     4
1070
   287
1070
     4
1070
   287
1070
     4
1070
   287
1070
     4
1070
   287
1070
     4
1070
   287
1070
     4
1070
   287
1070
     4
1070
    40
1040
0.9599999999999999
1070
    73
1070
     1
1070
    74
1070
     1
1070
    77
1070
     0
1070
   147
1040
0.5
1070
   279
1070
     1
1070
   288
1070
     1
1070
   289
1070
     3
1002
}
  0
DIMENSION
  5
288
330
274
100
AcDbEntity
  8
A1
 62
     7
100
AcDbDimension
  2
*D6
 10
15.24596679984631
 20
23.66469359874805
 30
0.0
 11
15.24596679984631
 21
25.76976435479309
 31
0.0
 70
   160
 71
     5
 42
-1.0
  3
STANDARD
100
AcDbAlignedDimension
 13
20.20816895854511
 23
23.35474059056469
 33
0.0
 14
25.62697721779079
 24
23.66469359874804
 34
0.0
 50
90.0
100
AcDbRotatedDimension
1001
ACAD
1000
DSTYLE
1002
{
1070
   287
1070
     4
1070
   287
1070
     4
1070
   287
1070
     4
1070
   287
1070
     4
1070
   287
1070
     4
1070
   287
1070
     4
1070
   287
1070
     4
1070
    40
1040
0.9599999999999999
1070
    73
1070
     1
1070
    74
1070
     1
1070
    77
1070
     0
1070
   147
1040
0.5
1070
   279
1070
     1
1070
   288
1070
     1
1070
   289
1070
     3
1002
}
  0
ARC
  5
289
330
274
100
AcDbEntity
  8
A1
 62
     7
370
    50
100
AcDbCircle
 10
20.29829559563461
 20
22.1574748488938
 30
0.0
 40
0.5176716353966801
100
AcDbArc
 50
3.688542673897452
 51
100.0262885368867
  0
ARC
  5
28A
330
274
100
AcDbEntity
  8
A1
 62
     7
370
    50
100
AcDbCircle
 10
21.91322380619681
 20
21.67450931740597
 30
0.0
 40
1.017306331771015
100
AcDbArc
 50
181.4067336996124
 51
261.9446475631635
  0
LINE
  5
28B
330
274
100
AcDbEntity
  8
A1
 62
     7
370
    50
100
AcDbLine
 10
20.89622407887566
 20
21.64953478457414
 30
0.0
 11
20.81489487564704
 21
22.19077809175178
 31
0.0
  0
LINE
  5
28C
330
274
100
AcDbEntity
  8
A1
 62
     7
370
    50
100
AcDbLine
 10
20.20816895854511
 20
23.35474059056469
 30
0.0
 11
20.20816895854511
 21
22.66724059056469
 31
0.0
  0
LINE
  5
28D
330
274
100
AcDbEntity
  8
A1
 62
     7
370
    50
100
AcDbLine
 10
21.77066895854511
 20
20.66724059056468
 30
0.0
 11
21.77066895854511
 21
20.16724059056469
 31
0.0
  0
POINT
  5
28E
330
274
100
AcDbEntity
  8
A1
 62
     7
370
    50
100
AcDbPoint
 10
30.95816895854511
 20
23.35474059056469
 30
0.0
  0
POINT
  5
28F
330
274
100
AcDbEntity
  8
A1
 62
     7
370
    50
100
AcDbPoint
 10
28.95816895854511
 20
19.66724059056469
 30
0.0
  0
ARC
  5
290
330
274
100
AcDbEntity
  8
A1
 62
     7
370
    50
100
AcDbCircle
 10
29.40545554836706
 20
19.71727107447054
 30
0.0
 40
0.4500759299877941
100
AcDbArc
 50
91.2459552968915
 51
186.3821943716882
  0
LINE
  5
291
330
274
100
AcDbEntity
  8
A1
 62
     7
370
    50
100
AcDbLine
 10
30.95816895854511
 20
23.35474059056469
 30
0.0
 11
30.95816895854511
 21
22.66724059056469
 31
0.0
  0
ARC
  5
292
330
274
100
AcDbEntity
  8
A1
 62
     7
370
    50
100
AcDbCircle
 10
29.25311411089342
 20
21.67450931740597
 30
0.0
 40
1.017306331771015
100
AcDbArc
 50
278.0553524368364
 51
358.5932663003875
  0
ARC
  5
293
330
274
100
AcDbEntity
  8
A1
 62
     7
370
    50
100
AcDbCircle
 10
30.8680423214555
 20
22.1574748488938
 30
0.0
 40
0.5176716353966801
100
AcDbArc
 50
79.97371146311322
 51
176.3114573261025
  0
LINE
  5
294
330
274
100
AcDbEntity
  8
A1
 62
     7
370
    50
100
AcDbLine
 10
30.27011383821445
 20
21.64953478457414
 30
0.0
 11
30.35144304144307
 21
22.19077809175178
 31
0.0
  0
LINE
  5
295
330
274
100
AcDbEntity
  8
A1
 62
     7
370
    50
100
AcDbLine
 10
29.39566895854511
 20
20.66724059056468
 30
0.0
 11
29.39566895854511
 21
20.16724059056469
 31
0.0
  0
POINT
  5
296
330
274
100
AcDbEntity
  8
A1
 62
     7
370
    50
100
AcDbPoint
 10
22.20816895854511
 20
19.66724059056469
 30
0.0
  0
LINE
  5
297
330
274
100
AcDbEntity
  8
A1
 62
     7
370
    50
100
AcDbLine
 10
25.58316895854511
 20
23.66724059056469
 30
0.0
 11
30.95816895854511
 21
23.35474059056469
 31
0.0
  0
POINT
  5
298
330
274
100
AcDbEntity
  8
A1
 62
     7
370
    50
100
AcDbPoint
 10
25.58316895854511
 20
23.66724059056469
 30
0.0
  0
LINE
  5
299
330
274
100
AcDbEntity
  8
A1
 62
     7
370
    30
100
AcDbLine
 10
22.2081689585451
 20
19.66724059056476
 30
0.0
 11
28.95816895854513
 21
19.66724059056476
 31
0.0
  0
ENDBLK
  5
29B
330
274
100
AcDbEntity
  8
0
 62
     7
100
AcDbBlockEnd
  0
BLOCK
  5
797
330
78B
100
AcDbEntity
  8
0
100
AcDbBlockBegin
  2
*D8
 70
     1
 10
0.0
 20
0.0
 30
0.0
  3
*D8
  1

  0
LINE
  5
78C
330
78B
100
AcDbEntity
  8
0
  6
ByBlock
 62
     0
100
AcDbLine
 10
1270.198101334978
 20
3242.946895745989
 30
0.0
 11
1269.290481254081
 21
3242.946895745989
 31
0.0
  0
LINE
  5
78D
330
78B
100
AcDbEntity
  8
0
  6
ByBlock
 62
     0
100
AcDbLine
 10
1270.198101334978
 20
3243.196895745989
 30
0.0
 11
1269.290481254081
 21
3243.196895745989
 31
0.0
  0
LINE
  5
78E
330
78B
100
AcDbEntity
  8
0
  6
ByBlock
 62
     0
100
AcDbLine
 10
1270.010481254081
 20
3242.446895745989
 30
0.0
 11
1270.010481254081
 21
3241.946895745989
 31
0.0
  0
LINE
  5
78F
330
78B
100
AcDbEntity
  8
0
  6
ByBlock
 62
     0
100
AcDbLine
 10
1270.010481254081
 20
3243.696895745989
 30
0.0
 11
1270.010481254081
 21
3244.196895745989
 31
0.0
  0
MTEXT
  5
790
330
78B
100
AcDbEntity
  8
0
  6
ByBlock
 62
     0
100
AcDbMText
 10
1269.517437551521
 20
3244.50343794778
 30
0.0
 40
0.5
 41
0.0
 71
     5
 72
     1
  1
\A1;1/4"
  7
ROMANS
 11
0.0000000000000001
 21
1.0
 31
0.0
 73
     1
 44
1.0
1001
ACAD
1000
MTEXTBEGIN
1070
    73
1070
     1
1070
    44
1040
1.0
1070
    74
1070
     0
1000
MTEXTEND
1000
MTEXTBEGIN
1070
    73
1070
     1
1070
    44
1040
1.0
1070
    74
1070
     0
1000
MTEXTEND
1000
MTEXTBEGIN
1070
    73
1070
     1
1070
    44
1040
1.0
1070
    74
1070
     0
1000
MTEXTEND
1000
MTEXTBEGIN
1070
    73
1070
     1
1070
    44
1040
1.0
1070
    74
1070
     0
1000
MTEXTEND
1000
MTEXTBEGIN
1070
    73
1070
     1
1070
    44
1040
1.0
1070
    74
1070
     0
1000
MTEXTEND
  0
LINE
  5
791
330
78B
100
AcDbEntity
  8
0
  6
ByBlock
 62
     0
100
AcDbLine
 10
1270.010481254081
 20
3242.946895745989
 30
0.0
 11
1270.010481254081
 21
3243.196895745989
 31
0.0
  0
SOLID
  5
792
330
78B
100
AcDbEntity
  8
0
  6
ByBlock
 62
     0
100
AcDbTrace
 10
1269.927147920748
 20
3242.446895745989
 30
0.0
 11
1270.093814587414
 21
3242.446895745989
 31
0.0
 12
1270.010481254081
 22
3242.946895745989
 32
0.0
 13
1270.010481254081
 23
3242.946895745989
 33
0.0
  0
SOLID
  5
793
330
78B
100
AcDbEntity
  8
0
  6
ByBlock
 62
     0
100
AcDbTrace
 10
1269.927147920748
 20
3243.696895745989
 30
0.0
 11
1270.093814587414
 21
3243.696895745989
 31
0.0
 12
1270.010481254081
 22
3243.196895745989
 32
0.0
 13
1270.010481254081
 23
3243.196895745989
 33
0.0
  0
POINT
  5
794
330
78B
100
AcDbEntity
  8
Defpoints
  6
ByBlock
 62
     0
100
AcDbPoint
 10
1270.448101334978
 20
3242.946895745989
 30
0.0
  0
POINT
  5
795
330
78B
100
AcDbEntity
  8
Defpoints
  6
ByBlock
 62
     0
100
AcDbPoint
 10
1270.448101334978
 20
3243.196895745989
 30
0.0
  0
POINT
  5
796
330
78B
100
AcDbEntity
  8
Defpoints
  6
ByBlock
 62
     0
100
AcDbPoint
 10
1270.010481254081
 20
3243.196895745989
 30
0.0
  0
ENDBLK
  5
798
330
78B
100
AcDbEntity
  8
0
100
AcDbBlockEnd
  0
BLOCK
  5
7A5
330
799
100
AcDbEntity
  8
0
100
AcDbBlockBegin
  2
*D9
 70
     1
 10
0.0
 20
0.0
 30
0.0
  3
*D9
  1

  0
LINE
  5
79A
330
799
100
AcDbEntity
  8
0
  6
ByBlock
 62
     0
100
AcDbLine
 10
1268.448101334978
 20
3237.620232669298
 30
0.0
 11
1268.448101334978
 21
3239.147544340141
 31
0.0
  0
LINE
  5
79B
330
799
100
AcDbEntity
  8
0
  6
ByBlock
 62
     0
100
AcDbLine
 10
1268.948101334978
 20
3237.620232669298
 30
0.0
 11
1268.948101334978
 21
3239.147544340141
 31
0.0
  0
LINE
  5
79C
330
799
100
AcDbEntity
  8
0
  6
ByBlock
 62
     0
100
AcDbLine
 10
1267.948101334978
 20
3238.427544340142
 30
0.0
 11
1267.448101334978
 21
3238.427544340142
 31
0.0
  0
LINE
  5
79D
330
799
100
AcDbEntity
  8
0
  6
ByBlock
 62
     0
100
AcDbLine
 10
1269.448101334978
 20
3238.427544340142
 30
0.0
 11
1269.948101334978
 21
3238.427544340142
 31
0.0
  0
MTEXT
  5
79E
330
799
100
AcDbEntity
  8
0
  6
ByBlock
 62
     0
100
AcDbMText
 10
1270.448729575169
 20
3238.920185537341
 30
0.0
 40
0.5
 41
0.0
 71
     5
 72
     1
  1
\A1;1/2"
  7
ROMANS
 73
     1
 44
1.0
1001
ACAD
1000
MTEXTBEGIN
1070
    73
1070
     1
1070
    44
1040
1.0
1070
    74
1070
     0
1000
MTEXTEND
1000
MTEXTBEGIN
1070
    73
1070
     1
1070
    44
1040
1.0
1070
    74
1070
     0
1000
MTEXTEND
1000
MTEXTBEGIN
1070
    73
1070
     1
1070
    44
1040
1.0
1070
    74
1070
     0
1000
MTEXTEND
1000
MTEXTBEGIN
1070
    73
1070
     1
1070
    44
1040
1.0
1070
    74
1070
     0
1000
MTEXTEND
1000
MTEXTBEGIN
1070
    73
1070
     1
1070
    44
1040
1.0
1070
    74
1070
     0
1000
MTEXTEND
  0
LINE
  5
79F
330
799
100
AcDbEntity
  8
0
  6
ByBlock
 62
     0
100
AcDbLine
 10
1268.448101334978
 20
3238.427544340142
 30
0.0
 11
1268.948101334978
 21
3238.427544340142
 31
0.0
  0
SOLID
  5
7A0
330
799
100
AcDbEntity
  8
0
  6
ByBlock
 62
     0
100
AcDbTrace
 10
1267.948101334978
 20
3238.510877673475
 30
0.0
 11
1267.948101334978
 21
3238.344211006809
 31
0.0
 12
1268.448101334978
 22
3238.427544340142
 32
0.0
 13
1268.448101334978
 23
3238.427544340142
 33
0.0
  0
SOLID
  5
7A1
330
799
100
AcDbEntity
  8
0
  6
ByBlock
 62
     0
100
AcDbTrace
 10
1269.448101334978
 20
3238.510877673475
 30
0.0
 11
1269.448101334978
 21
3238.344211006809
 31
0.0
 12
1268.948101334978
 22
3238.427544340142
 32
0.0
 13
1268.948101334978
 23
3238.427544340142
 33
0.0
  0
POINT
  5
7A2
330
799
100
AcDbEntity
  8
Defpoints
  6
ByBlock
 62
     0
100
AcDbPoint
 10
1268.448101334978
 20
3237.370232669298
 30
0.0
  0
POINT
  5
7A3
330
799
100
AcDbEntity
  8
Defpoints
  6
ByBlock
 62
     0
100
AcDbPoint
 10
1268.948101334978
 20
3237.370232669298
 30
0.0
  0
POINT
  5
7A4
330
799
100
AcDbEntity
  8
Defpoints
  6
ByBlock
 62
     0
100
AcDbPoint
 10
1268.948101334978
 20
3238.427544340142
 30
0.0
  0
ENDBLK
  5
7A6
330
799
100
AcDbEntity
  8
0
100
AcDbBlockEnd
  0
BLOCK
  5
7B1
330
7A7
100
AcDbEntity
  8
0
100
AcDbBlockBegin
  2
*D10
 70
     1
 10
0.0
 20
0.0
 30
0.0
  3
*D10
  1

  0
LINE
  5
7A8
330
7A7
100
AcDbEntity
  8
0
  6
ByBlock
 62
     0
100
AcDbLine
 10
1268.448101334978
 20
3237.620232669298
 30
0.0
 11
1268.448101334978
 21
3240.789679593975
 31
0.0
  0
LINE
  5
7A9
330
7A7
100
AcDbEntity
  8
0
  6
ByBlock
 62
     0
100
AcDbLine
 10
1284.448101334978
 20
3243.196895745989
 30
0.0
 11
1284.448101334978
 21
3239.349679593975
 31
0.0
  0
LINE
  5
7AA
330
7A7
100
AcDbEntity
  8
0
  6
ByBlock
 62
     0
100
AcDbLine
 10
1268.948101334978
 20
3240.069679593975
 30
0.0
 11
1283.948101334978
 21
3240.069679593975
 31
0.0
  0
SOLID
  5
7AB
330
7A7
100
AcDbEntity
  8
0
  6
ByBlock
 62
     0
100
AcDbTrace
 10
1268.948101334978
 20
3240.153012927308
 30
0.0
 11
1268.948101334978
 21
3239.986346260641
 31
0.0
 12
1268.448101334978
 22
3240.069679593975
 32
0.0
 13
1268.448101334978
 23
3240.069679593975
 33
0.0
  0
SOLID
  5
7AC
330
7A7
100
AcDbEntity
  8
0
  6
ByBlock
 62
     0
100
AcDbTrace
 10
1283.948101334978
 20
3240.153012927308
 30
0.0
 11
1283.948101334978
 21
3239.986346260641
 31
0.0
 12
1284.448101334978
 22
3240.069679593975
 32
0.0
 13
1284.448101334978
 23
3240.069679593975
 33
0.0
  0
MTEXT
  5
7AD
330
7A7
100
AcDbEntity
  8
0
  6
ByBlock
 62
     0
100
AcDbMText
 10
1276.448101334978
 20
3240.742298641594
 30
0.0
 40
0.5
 41
0.0
 71
     5
 72
     1
  1
\A1;1'-4"
  7
ROMANS
 73
     1
 44
1.0
1001
ACAD
1000
MTEXTBEGIN
1070
    73
1070
     1
1070
    44
1040
1.0
1070
    74
1070
     0
1000
MTEXTEND
1000
MTEXTBEGIN
1070
    73
1070
     1
1070
    44
1040
1.0
1070
    74
1070
     0
1000
MTEXTEND
1000
MTEXTBEGIN
1070
    73
1070
     1
1070
    44
1040
1.0
1070
    74
1070
     0
1000
MTEXTEND
1000
MTEXTBEGIN
1070
    73
1070
     1
1070
    44
1040
1.0
1070
    74
1070
     0
1000
MTEXTEND
1000
MTEXTBEGIN
1070
    73
1070
     1
1070
    44
1040
1.0
1070
    74
1070
     0
1000
MTEXTEND
  0
POINT
  5
7AE
330
7A7
100
AcDbEntity
  8
Defpoints
  6
ByBlock
 62
     0
100
AcDbPoint
 10
1268.448101334978
 20
3237.370232669298
 30
0.0
  0
POINT
  5
7AF
330
7A7
100
AcDbEntity
  8
Defpoints
  6
ByBlock
 62
     0
100
AcDbPoint
 10
1284.448101334978
 20
3243.446895745989
 30
0.0
  0
POINT
  5
7B0
330
7A7
100
AcDbEntity
  8
Defpoints
  6
ByBlock
 62
     0
100
AcDbPoint
 10
1284.448101334978
 20
3240.069679593975
 30
0.0
  0
ENDBLK
  5
7B2
330
7A7
100
AcDbEntity
  8
0
100
AcDbBlockEnd
  0
BLOCK
  5
7BD
330
7B3
100
AcDbEntity
  8
0
100
AcDbBlockBegin
  2
*D11
 70
     1
 10
0.0
 20
0.0
 30
0.0
  3
*D11
  1

  0
LINE
  5
7B4
330
7B3
100
AcDbEntity
  8
0
  6
ByBlock
 62
     0
100
AcDbLine
 10
1284.198101334978
 20
3242.946895745989
 30
0.0
 11
1287.603271077338
 21
3242.946895745989
 31
0.0
  0
LINE
  5
7B5
330
7B3
100
AcDbEntity
  8
0
  6
ByBlock
 62
     0
100
AcDbLine
 10
1284.198101334978
 20
3258.946895745989
 30
0.0
 11
1287.603271077338
 21
3258.946895745989
 31
0.0
  0
LINE
  5
7B6
330
7B3
100
AcDbEntity
  8
0
  6
ByBlock
 62
     0
100
AcDbLine
 10
1286.883271077338
 20
3243.446895745989
 30
0.0
 11
1286.883271077338
 21
3258.44689574599
 31
0.0
  0
SOLID
  5
7B7
330
7B3
100
AcDbEntity
  8
0
  6
ByBlock
 62
     0
100
AcDbTrace
 10
1286.799937744005
 20
3243.446895745989
 30
0.0
 11
1286.966604410672
 21
3243.446895745989
 31
0.0
 12
1286.883271077338
 22
3242.946895745989
 32
0.0
 13
1286.883271077338
 23
3242.946895745989
 33
0.0
  0
SOLID
  5
7B8
330
7B3
100
AcDbEntity
  8
0
  6
ByBlock
 62
     0
100
AcDbTrace
 10
1286.799937744005
 20
3258.44689574599
 30
0.0
 11
1286.966604410672
 21
3258.44689574599
 31
0.0
 12
1286.883271077338
 22
3258.946895745989
 32
0.0
 13
1286.883271077338
 23
3258.946895745989
 33
0.0
  0
MTEXT
  5
7B9
330
7B3
100
AcDbEntity
  8
0
  6
ByBlock
 62
     0
100
AcDbMText
 10
1286.210652029719
 20
3250.946895745989
 30
0.0
 40
0.5
 41
0.0
 71
     5
 72
     1
  1
\A1;1'-4"
  7
ROMANS
 11
0.0000000000000001
 21
1.0
 31
0.0
 73
     1
 44
1.0
1001
ACAD
1000
MTEXTBEGIN
1070
    73
1070
     1
1070
    44
1040
1.0
1070
    74
1070
     0
1000
MTEXTEND
1000
MTEXTBEGIN
1070
    73
1070
     1
1070
    44
1040
1.0
1070
    74
1070
     0
1000
MTEXTEND
1000
MTEXTBEGIN
1070
    73
1070
     1
1070
    44
1040
1.0
1070
    74
1070
     0
1000
MTEXTEND
1000
MTEXTBEGIN
1070
    73
1070
     1
1070
    44
1040
1.0
1070
    74
1070
     0
1000
MTEXTEND
1000
MTEXTBEGIN
1070
    73
1070
     1
1070
    44
1040
1.0
1070
    74
1070
     0
1000
MTEXTEND
  0
POINT
  5
7BA
330
7B3
100
AcDbEntity
  8
Defpoints
  6
ByBlock
 62
     0
100
AcDbPoint
 10
1283.948101334978
 20
3242.946895745989
 30
0.0
  0
POINT
  5
7BB
330
7B3
100
AcDbEntity
  8
Defpoints
  6
ByBlock
 62
     0
100
AcDbPoint
 10
1283.948101334978
 20
3258.946895745989
 30
0.0
  0
POINT
  5
7BC
330
7B3
100
AcDbEntity
  8
Defpoints
  6
ByBlock
 62
     0
100
AcDbPoint
 10
1286.883271077338
 20
3258.946895745989
 30
0.0
  0
ENDBLK
  5
7BE
330
7B3
100
AcDbEntity
  8
0
100
AcDbBlockEnd
  0
BLOCK
  5
7C9
330
7BF
100
AcDbEntity
  8
0
100
AcDbBlockBegin
  2
*D12
 70
     1
 10
0.0
 20
0.0
 30
0.0
  3
*D12
  1

  0
LINE
  5
7C0
330
7BF
100
AcDbEntity
  8
0
  6
ByBlock
 62
     0
100
AcDbLine
 10
1270.448101334978
 20
3234.245232669298
 30
0.0
 11
1270.448101334978
 21
3230.974791662575
 31
0.0
  0
LINE
  5
7C1
330
7BF
100
AcDbEntity
  8
0
  6
ByBlock
 62
     0
100
AcDbLine
 10
1268.448101334978
 20
3237.120232669298
 30
0.0
 11
1268.448101334978
 21
3230.974791662575
 31
0.0
  0
LINE
  5
7C2
330
7BF
100
AcDbEntity
  8
0
  6
ByBlock
 62
     0
100
AcDbLine
 10
1269.948101334978
 20
3231.694791662575
 30
0.0
 11
1268.948101334978
 21
3231.694791662575
 31
0.0
  0
SOLID
  5
7C3
330
7BF
100
AcDbEntity
  8
0
  6
ByBlock
 62
     0
100
AcDbTrace
 10
1269.948101334978
 20
3231.778124995908
 30
0.0
 11
1269.948101334978
 21
3231.611458329242
 31
0.0
 12
1270.448101334978
 22
3231.694791662575
 32
0.0
 13
1270.448101334978
 23
3231.694791662575
 33
0.0
  0
SOLID
  5
7C4
330
7BF
100
AcDbEntity
  8
0
  6
ByBlock
 62
     0
100
AcDbTrace
 10
1268.948101334978
 20
3231.778124995908
 30
0.0
 11
1268.948101334978
 21
3231.611458329242
 31
0.0
 12
1268.448101334978
 22
3231.694791662575
 32
0.0
 13
1268.448101334978
 23
3231.694791662575
 33
0.0
  0
MTEXT
  5
7C5
330
7BF
100
AcDbEntity
  8
0
  6
ByBlock
 62
     0
100
AcDbMText
 10
1269.448101334978
 20
3232.367410710194
 30
0.0
 40
0.5
 41
0.0
 71
     5
 72
     1
  1
\A1;2"
  7
ROMANS
 73
     1
 44
1.0
1001
ACAD
1000
MTEXTBEGIN
1070
    73
1070
     1
1070
    44
1040
1.0
1070
    74
1070
     0
1000
MTEXTEND
1000
MTEXTBEGIN
1070
    73
1070
     1
1070
    44
1040
1.0
1070
    74
1070
     0
1000
MTEXTEND
1000
MTEXTBEGIN
1070
    73
1070
     1
1070
    44
1040
1.0
1070
    74
1070
     0
1000
MTEXTEND
1000
MTEXTBEGIN
1070
    73
1070
     1
1070
    44
1040
1.0
1070
    74
1070
     0
1000
MTEXTEND
1000
MTEXTBEGIN
1070
    73
1070
     1
1070
    44
1040
1.0
1070
    74
1070
     0
1000
MTEXTEND
  0
POINT
  5
7C6
330
7BF
100
AcDbEntity
  8
Defpoints
  6
ByBlock
 62
     0
100
AcDbPoint
 10
1270.448101334978
 20
3234.495232669298
 30
0.0
  0
POINT
  5
7C7
330
7BF
100
AcDbEntity
  8
Defpoints
  6
ByBlock
 62
     0
100
AcDbPoint
 10
1268.448101334978
 20
3237.370232669298
 30
0.0
  0
POINT
  5
7C8
330
7BF
100
AcDbEntity
  8
Defpoints
  6
ByBlock
 62
     0
100
AcDbPoint
 10
1268.448101334978
 20
3231.694791662575
 30
0.0
  0
ENDBLK
  5
7CA
330
7BF
100
AcDbEntity
  8
0
100
AcDbBlockEnd
  0
BLOCK
  5
7D7
330
7CB
100
AcDbEntity
  8
0
100
AcDbBlockBegin
  2
*D13
 70
     1
 10
0.0
 20
0.0
 30
0.0
  3
*D13
  1

  0
LINE
  5
7CC
330
7CB
100
AcDbEntity
  8
0
  6
ByBlock
 62
     0
100
AcDbLine
 10
1283.948101334978
 20
3237.120232669298
 30
0.0
 11
1283.948101334978
 21
3230.974791662575
 31
0.0
  0
LINE
  5
7CD
330
7CB
100
AcDbEntity
  8
0
  6
ByBlock
 62
     0
100
AcDbLine
 10
1282.448101334978
 20
3234.245232669298
 30
0.0
 11
1282.448101334978
 21
3230.974791662575
 31
0.0
  0
LINE
  5
7CE
330
7CB
100
AcDbEntity
  8
0
  6
ByBlock
 62
     0
100
AcDbLine
 10
1284.448101334978
 20
3231.694791662575
 30
0.0
 11
1284.948101334978
 21
3231.694791662575
 31
0.0
  0
LINE
  5
7CF
330
7CB
100
AcDbEntity
  8
0
  6
ByBlock
 62
     0
100
AcDbLine
 10
1281.948101334978
 20
3231.694791662575
 30
0.0
 11
1281.448101334978
 21
3231.694791662575
 31
0.0
  0
MTEXT
  5
7D0
330
7CB
100
AcDbEntity
  8
0
  6
ByBlock
 62
     0
100
AcDbMText
 10
1280.966838431171
 20
3232.187432859775
 30
0.0
 40
0.5
 41
0.0
 71
     5
 72
     1
  1
\A1;1 1/2"
  7
ROMANS
 73
     1
 44
1.0
1001
ACAD
1000
MTEXTBEGIN
1070
    73
1070
     1
1070
    44
1040
1.0
1070
    74
1070
     0
1000
MTEXTEND
1000
MTEXTBEGIN
1070
    73
1070
     1
1070
    44
1040
1.0
1070
    74
1070
     0
1000
MTEXTEND
1000
MTEXTBEGIN
1070
    73
1070
     1
1070
    44
1040
1.0
1070
    74
1070
     0
1000
MTEXTEND
1000
MTEXTBEGIN
1070
    73
1070
     1
1070
    44
1040
1.0
1070
    74
1070
     0
1000
MTEXTEND
1000
MTEXTBEGIN
1070
    73
1070
     1
1070
    44
1040
1.0
1070
    74
1070
     0
1000
MTEXTEND
  0
LINE
  5
7D1
330
7CB
100
AcDbEntity
  8
0
  6
ByBlock
 62
     0
100
AcDbLine
 10
1283.948101334978
 20
3231.694791662575
 30
0.0
 11
1282.448101334978
 21
3231.694791662575
 31
0.0
  0
SOLID
  5
7D2
330
7CB
100
AcDbEntity
  8
0
  6
ByBlock
 62
     0
100
AcDbTrace
 10
1284.448101334978
 20
3231.778124995908
 30
0.0
 11
1284.448101334978
 21
3231.611458329242
 31
0.0
 12
1283.948101334978
 22
3231.694791662575
 32
0.0
 13
1283.948101334978
 23
3231.694791662575
 33
0.0
  0
SOLID
  5
7D3
330
7CB
100
AcDbEntity
  8
0
  6
ByBlock
 62
     0
100
AcDbTrace
 10
1281.948101334978
 20
3231.778124995908
 30
0.0
 11
1281.948101334978
 21
3231.611458329242
 31
0.0
 12
1282.448101334978
 22
3231.694791662575
 32
0.0
 13
1282.448101334978
 23
3231.694791662575
 33
0.0
  0
POINT
  5
7D4
330
7CB
100
AcDbEntity
  8
Defpoints
  6
ByBlock
 62
     0
100
AcDbPoint
 10
1283.948101334978
 20
3237.370232669298
 30
0.0
  0
POINT
  5
7D5
330
7CB
100
AcDbEntity
  8
Defpoints
  6
ByBlock
 62
     0
100
AcDbPoint
 10
1282.448101334978
 20
3234.495232669298
 30
0.0
  0
POINT
  5
7D6
330
7CB
100
AcDbEntity
  8
Defpoints
  6
ByBlock
 62
     0
100
AcDbPoint
 10
1282.448101334978
 20
3231.694791662575
 30
0.0
  0
ENDBLK
  5
7D8
330
7CB
100
AcDbEntity
  8
0
100
AcDbBlockEnd
  0
BLOCK
  5
7DF
330
7D9
100
AcDbEntity
  8
0
100
AcDbBlockBegin
  2
*D14
 70
     1
 10
0.0
 20
0.0
 30
0.0
  3
*D14
  1

  0
LINE
  5
7DA
330
7D9
100
AcDbEntity
  8
0
  6
ByBlock
 62
     0
100
AcDbLine
 10
1270.448101334979
 20
3235.870232669298
 30
0.0
 11
1271.095826669503
 21
3235.281949666811
 31
0.0
  0
MTEXT
  5
7DB
330
7D9
100
AcDbEntity
  8
0
  6
ByBlock
 62
     0
100
AcDbMText
 10
1272.859129760358
 20
3233.774828822697
 30
0.0
 40
0.5
 41
0.0
 71
     5
 72
     1
  1
\A1;R1 3/8"
  7
ROMANS
 11
0.7402575251706863
 21
-0.6723234314139073
 31
0.0
 73
     1
 44
1.0
1001
ACAD
1000
MTEXTBEGIN
1070
    73
1070
     1
1070
    44
1040
1.0
1070
    74
1070
     0
1000
MTEXTEND
1000
MTEXTBEGIN
1070
    73
1070
     1
1070
    44
1040
1.0
1070
    74
1070
     0
1000
MTEXTEND
1000
MTEXTBEGIN
1070
    73
1070
     1
1070
    44
1040
1.0
1070
    74
1070
     0
1000
MTEXTEND
1000
MTEXTBEGIN
1070
    73
1070
     1
1070
    44
1040
1.0
1070
    74
1070
     0
1000
MTEXTEND
1000
MTEXTBEGIN
1070
    73
1070
     1
1070
    44
1040
1.0
1070
    74
1070
     0
1000
MTEXTEND
  0
SOLID
  5
7DC
330
7D9
100
AcDbEntity
  8
0
  6
ByBlock
 62
     0
100
AcDbTrace
 10
1271.151853622121
 20
3235.343637793908
 30
0.0
 11
1271.039799716885
 21
3235.220261539713
 31
0.0
 12
1271.465955432089
 22
3234.945787951103
 32
0.0
 13
1271.465955432089
 23
3234.945787951103
 33
0.0
  0
POINT
  5
7DD
330
7D9
100
AcDbEntity
  8
Defpoints
  6
ByBlock
 62
     0
100
AcDbPoint
 10
1271.465955432089
 20
3234.945787951103
 30
0.0
  0
POINT
  5
7DE
330
7D9
100
AcDbEntity
  8
Defpoints
  6
ByBlock
 62
     0
100
AcDbPoint
 10
1270.448101334979
 20
3235.870232669298
 30
0.0
  0
ENDBLK
  5
7E0
330
7D9
100
AcDbEntity
  8
0
100
AcDbBlockEnd
  0
BLOCK
  5
7ED
330
7E1
100
AcDbEntity
  8
0
100
AcDbBlockBegin
  2
*D15
 70
     1
 10
0.0
 20
0.0
 30
0.0
  3
*D15
  1

  0
LINE
  5
7E2
330
7E1
100
AcDbEntity
  8
0
  6
ByBlock
 62
     0
100
AcDbLine
 10
1284.198101334978
 20
3237.370232669298
 30
0.0
 11
1277.452962360227
 21
3237.370232669298
 31
0.0
  0
LINE
  5
7E3
330
7E1
100
AcDbEntity
  8
0
  6
ByBlock
 62
     0
100
AcDbLine
 10
1280.823101334978
 20
3235.870232669298
 30
0.0
 11
1277.452962360227
 21
3235.870232669298
 31
0.0
  0
LINE
  5
7E4
330
7E1
100
AcDbEntity
  8
0
  6
ByBlock
 62
     0
100
AcDbLine
 10
1278.172962360227
 20
3237.870232669298
 30
0.0
 11
1278.172962360227
 21
3238.370232669298
 31
0.0
  0
LINE
  5
7E5
330
7E1
100
AcDbEntity
  8
0
  6
ByBlock
 62
     0
100
AcDbLine
 10
1278.172962360227
 20
3235.370232669298
 30
0.0
 11
1278.172962360227
 21
3234.870232669298
 31
0.0
  0
MTEXT
  5
7E6
330
7E1
100
AcDbEntity
  8
0
  6
ByBlock
 62
     0
100
AcDbMText
 10
1277.625146222333
 20
3234.486420973042
 30
0.0
 40
0.5
 41
0.0
 71
     5
 72
     1
  1
\A1;1 1/2"
  7
ROMANS
 11
0.0000000000000001
 21
1.0
 31
0.0
 73
     1
 44
1.0
1001
ACAD
1000
MTEXTBEGIN
1070
    73
1070
     1
1070
    44
1040
1.0
1070
    74
1070
     0
1000
MTEXTEND
1000
MTEXTBEGIN
1070
    73
1070
     1
1070
    44
1040
1.0
1070
    74
1070
     0
1000
MTEXTEND
1000
MTEXTBEGIN
1070
    73
1070
     1
1070
    44
1040
1.0
1070
    74
1070
     0
1000
MTEXTEND
1000
MTEXTBEGIN
1070
    73
1070
     1
1070
    44
1040
1.0
1070
    74
1070
     0
1000
MTEXTEND
1000
MTEXTBEGIN
1070
    73
1070
     1
1070
    44
1040
1.0
1070
    74
1070
     0
1000
MTEXTEND
  0
LINE
  5
7E7
330
7E1
100
AcDbEntity
  8
0
  6
ByBlock
 62
     0
100
AcDbLine
 10
1278.172962360227
 20
3237.370232669298
 30
0.0
 11
1278.172962360227
 21
3235.870232669298
 31
0.0
  0
SOLID
  5
7E8
330
7E1
100
AcDbEntity
  8
0
  6
ByBlock
 62
     0
100
AcDbTrace
 10
1278.089629026894
 20
3237.870232669298
 30
0.0
 11
1278.256295693561
 21
3237.870232669298
 31
0.0
 12
1278.172962360227
 22
3237.370232669298
 32
0.0
 13
1278.172962360227
 23
3237.370232669298
 33
0.0
  0
SOLID
  5
7E9
330
7E1
100
AcDbEntity
  8
0
  6
ByBlock
 62
     0
100
AcDbTrace
 10
1278.089629026894
 20
3235.370232669298
 30
0.0
 11
1278.256295693561
 21
3235.370232669298
 31
0.0
 12
1278.172962360227
 22
3235.870232669298
 32
0.0
 13
1278.172962360227
 23
3235.870232669298
 33
0.0
  0
POINT
  5
7EA
330
7E1
100
AcDbEntity
  8
Defpoints
  6
ByBlock
 62
     0
100
AcDbPoint
 10
1284.448101334978
 20
3237.370232669298
 30
0.0
  0
POINT
  5
7EB
330
7E1
100
AcDbEntity
  8
Defpoints
  6
ByBlock
 62
     0
100
AcDbPoint
 10
1281.073101334978
 20
3235.870232669298
 30
0.0
  0
POINT
  5
7EC
330
7E1
100
AcDbEntity
  8
Defpoints
  6
ByBlock
 62
     0
100
AcDbPoint
 10
1278.172962360227
 20
3235.870232669298
 30
0.0
  0
ENDBLK
  5
7EE
330
7E1
100
AcDbEntity
  8
0
100
AcDbBlockEnd
  0
BLOCK
  5
7FB
330
7EF
100
AcDbEntity
  8
0
100
AcDbBlockBegin
  2
*D16
 70
     1
 10
0.0
 20
0.0
 30
0.0
  3
*D16
  1

  0
LINE
  5
7F0
330
7EF
100
AcDbEntity
  8
0
  6
ByBlock
 62
     0
100
AcDbLine
 10
1270.198101334978
 20
3242.946895745989
 30
0.0
 11
1269.290481254081
 21
3242.946895745989
 31
0.0
  0
LINE
  5
7F1
330
7EF
100
AcDbEntity
  8
0
  6
ByBlock
 62
     0
100
AcDbLine
 10
1270.198101334978
 20
3243.196895745989
 30
0.0
 11
1269.290481254081
 21
3243.196895745989
 31
0.0
  0
LINE
  5
7F2
330
7EF
100
AcDbEntity
  8
0
  6
ByBlock
 62
     0
100
AcDbLine
 10
1270.010481254081
 20
3242.446895745989
 30
0.0
 11
1270.010481254081
 21
3241.946895745989
 31
0.0
  0
LINE
  5
7F3
330
7EF
100
AcDbEntity
  8
0
  6
ByBlock
 62
     0
100
AcDbLine
 10
1270.010481254081
 20
3243.696895745989
 30
0.0
 11
1270.010481254081
 21
3244.196895745989
 31
0.0
  0
MTEXT
  5
7F4
330
7EF
100
AcDbEntity
  8
0
  6
ByBlock
 62
     0
100
AcDbMText
 10
1269.517437551521
 20
3244.50343794778
 30
0.0
 40
0.5
 41
0.0
 71
     5
 72
     1
  1
\A1;1/4"
  7
ROMANS
 11
0.0000000000000001
 21
1.0
 31
0.0
 73
     1
 44
1.0
1001
ACAD
1000
MTEXTBEGIN
1070
    73
1070
     1
1070
    44
1040
1.0
1070
    74
1070
     0
1000
MTEXTEND
1000
MTEXTBEGIN
1070
    73
1070
     1
1070
    44
1040
1.0
1070
    74
1070
     0
1000
MTEXTEND
1000
MTEXTBEGIN
1070
    73
1070
     1
1070
    44
1040
1.0
1070
    74
1070
     0
1000
MTEXTEND
1000
MTEXTBEGIN
1070
    73
1070
     1
1070
    44
1040
1.0
1070
    74
1070
     0
1000
MTEXTEND
1000
MTEXTBEGIN
1070
    73
1070
     1
1070
    44
1040
1.0
1070
    74
1070
     0
1000
MTEXTEND
  0
LINE
  5
7F5
330
7EF
100
AcDbEntity
  8
0
  6
ByBlock
 62
     0
100
AcDbLine
 10
1270.010481254081
 20
3242.946895745989
 30
0.0
 11
1270.010481254081
 21
3243.196895745989
 31
0.0
  0
SOLID
  5
7F6
330
7EF
100
AcDbEntity
  8
0
  6
ByBlock
 62
     0
100
AcDbTrace
 10
1269.927147920748
 20
3242.446895745989
 30
0.0
 11
1270.093814587414
 21
3242.446895745989
 31
0.0
 12
1270.010481254081
 22
3242.946895745989
 32
0.0
 13
1270.010481254081
 23
3242.946895745989
 33
0.0
  0
SOLID
  5
7F7
330
7EF
100
AcDbEntity
  8
0
  6
ByBlock
 62
     0
100
AcDbTrace
 10
1269.927147920748
 20
3243.696895745989
 30
0.0
 11
1270.093814587414
 21
3243.696895745989
 31
0.0
 12
1270.010481254081
 22
3243.196895745989
 32
0.0
 13
1270.010481254081
 23
3243.196895745989
 33
0.0
  0
POINT
  5
7F8
330
7EF
100
AcDbEntity
  8
Defpoints
  6
ByBlock
 62
     0
100
AcDbPoint
 10
1270.448101334978
 20
3242.946895745989
 30
0.0
  0
POINT
  5
7F9
330
7EF
100
AcDbEntity
  8
Defpoints
  6
ByBlock
 62
     0
100
AcDbPoint
 10
1270.448101334978
 20
3243.196895745989
 30
0.0
  0
POINT
  5
7FA
330
7EF
100
AcDbEntity
  8
Defpoints
  6
ByBlock
 62
     0
100
AcDbPoint
 10
1270.010481254081
 20
3243.196895745989
 30
0.0
  0
ENDBLK
  5
7FC
330
7EF
100
AcDbEntity
  8
0
100
AcDbBlockEnd
  0
BLOCK
  5
809
330
7FD
100
AcDbEntity
  8
0
100
AcDbBlockBegin
  2
*D17
 70
     1
 10
0.0
 20
0.0
 30
0.0
  3
*D17
  1

  0
LINE
  5
7FE
330
7FD
100
AcDbEntity
  8
0
  6
ByBlock
 62
     0
100
AcDbLine
 10
1268.448101334978
 20
3237.620232669298
 30
0.0
 11
1268.448101334978
 21
3239.147544340141
 31
0.0
  0
LINE
  5
7FF
330
7FD
100
AcDbEntity
  8
0
  6
ByBlock
 62
     0
100
AcDbLine
 10
1268.948101334978
 20
3237.620232669298
 30
0.0
 11
1268.948101334978
 21
3239.147544340141
 31
0.0
  0
LINE
  5
800
330
7FD
100
AcDbEntity
  8
0
  6
ByBlock
 62
     0
100
AcDbLine
 10
1267.948101334978
 20
3238.427544340142
 30
0.0
 11
1267.448101334978
 21
3238.427544340142
 31
0.0
  0
LINE
  5
801
330
7FD
100
AcDbEntity
  8
0
  6
ByBlock
 62
     0
100
AcDbLine
 10
1269.448101334978
 20
3238.427544340142
 30
0.0
 11
1269.948101334978
 21
3238.427544340142
 31
0.0
  0
MTEXT
  5
802
330
7FD
100
AcDbEntity
  8
0
  6
ByBlock
 62
     0
100
AcDbMText
 10
1270.448729575169
 20
3238.920185537341
 30
0.0
 40
0.5
 41
0.0
 71
     5
 72
     1
  1
\A1;1/2"
  7
ROMANS
 73
     1
 44
1.0
1001
ACAD
1000
MTEXTBEGIN
1070
    73
1070
     1
1070
    44
1040
1.0
1070
    74
1070
     0
1000
MTEXTEND
1000
MTEXTBEGIN
1070
    73
1070
     1
1070
    44
1040
1.0
1070
    74
1070
     0
1000
MTEXTEND
1000
MTEXTBEGIN
1070
    73
1070
     1
1070
    44
1040
1.0
1070
    74
1070
     0
1000
MTEXTEND
1000
MTEXTBEGIN
1070
    73
1070
     1
1070
    44
1040
1.0
1070
    74
1070
     0
1000
MTEXTEND
1000
MTEXTBEGIN
1070
    73
1070
     1
1070
    44
1040
1.0
1070
    74
1070
     0
1000
MTEXTEND
  0
LINE
  5
803
330
7FD
100
AcDbEntity
  8
0
  6
ByBlock
 62
     0
100
AcDbLine
 10
1268.448101334978
 20
3238.427544340142
 30
0.0
 11
1268.948101334978
 21
3238.427544340142
 31
0.0
  0
SOLID
  5
804
330
7FD
100
AcDbEntity
  8
0
  6
ByBlock
 62
     0
100
AcDbTrace
 10
1267.948101334978
 20
3238.510877673475
 30
0.0
 11
1267.948101334978
 21
3238.344211006809
 31
0.0
 12
1268.448101334978
 22
3238.427544340142
 32
0.0
 13
1268.448101334978
 23
3238.427544340142
 33
0.0
  0
SOLID
  5
805
330
7FD
100
AcDbEntity
  8
0
  6
ByBlock
 62
     0
100
AcDbTrace
 10
1269.448101334978
 20
3238.510877673475
 30
0.0
 11
1269.448101334978
 21
3238.344211006809
 31
0.0
 12
1268.948101334978
 22
3238.427544340142
 32
0.0
 13
1268.948101334978
 23
3238.427544340142
 33
0.0
  0
POINT
  5
806
330
7FD
100
AcDbEntity
  8
Defpoints
  6
ByBlock
 62
     0
100
AcDbPoint
 10
1268.448101334978
 20
3237.370232669298
 30
0.0
  0
POINT
  5
807
330
7FD
100
AcDbEntity
  8
Defpoints
  6
ByBlock
 62
     0
100
AcDbPoint
 10
1268.948101334978
 20
3237.370232669298
 30
0.0
  0
POINT
  5
808
330
7FD
100
AcDbEntity
  8
Defpoints
  6
ByBlock
 62
     0
100
AcDbPoint
 10
1268.948101334978
 20
3238.427544340142
 30
0.0
  0
ENDBLK
  5
80A
330
7FD
100
AcDbEntity
  8
0
100
AcDbBlockEnd
  0
BLOCK
  5
815
330
80B
100
AcDbEntity
  8
0
100
AcDbBlockBegin
  2
*D18
 70
     1
 10
0.0
 20
0.0
 30
0.0
  3
*D18
  1

  0
LINE
  5
80C
330
80B
100
AcDbEntity
  8
0
  6
ByBlock
 62
     0
100
AcDbLine
 10
1268.448101334978
 20
3237.620232669298
 30
0.0
 11
1268.448101334978
 21
3240.789679593975
 31
0.0
  0
LINE
  5
80D
330
80B
100
AcDbEntity
  8
0
  6
ByBlock
 62
     0
100
AcDbLine
 10
1284.448101334978
 20
3243.196895745989
 30
0.0
 11
1284.448101334978
 21
3239.349679593975
 31
0.0
  0
LINE
  5
80E
330
80B
100
AcDbEntity
  8
0
  6
ByBlock
 62
     0
100
AcDbLine
 10
1268.948101334978
 20
3240.069679593975
 30
0.0
 11
1283.948101334978
 21
3240.069679593975
 31
0.0
  0
SOLID
  5
80F
330
80B
100
AcDbEntity
  8
0
  6
ByBlock
 62
     0
100
AcDbTrace
 10
1268.948101334978
 20
3240.153012927308
 30
0.0
 11
1268.948101334978
 21
3239.986346260641
 31
0.0
 12
1268.448101334978
 22
3240.069679593975
 32
0.0
 13
1268.448101334978
 23
3240.069679593975
 33
0.0
  0
SOLID
  5
810
330
80B
100
AcDbEntity
  8
0
  6
ByBlock
 62
     0
100
AcDbTrace
 10
1283.948101334978
 20
3240.153012927308
 30
0.0
 11
1283.948101334978
 21
3239.986346260641
 31
0.0
 12
1284.448101334978
 22
3240.069679593975
 32
0.0
 13
1284.448101334978
 23
3240.069679593975
 33
0.0
  0
MTEXT
  5
811
330
80B
100
AcDbEntity
  8
0
  6
ByBlock
 62
     0
100
AcDbMText
 10
1276.448101334978
 20
3240.742298641594
 30
0.0
 40
0.5
 41
0.0
 71
     5
 72
     1
  1
\A1;1'-4"
  7
ROMANS
 73
     1
 44
1.0
1001
ACAD
1000
MTEXTBEGIN
1070
    73
1070
     1
1070
    44
1040
1.0
1070
    74
1070
     0
1000
MTEXTEND
1000
MTEXTBEGIN
1070
    73
1070
     1
1070
    44
1040
1.0
1070
    74
1070
     0
1000
MTEXTEND
1000
MTEXTBEGIN
1070
    73
1070
     1
1070
    44
1040
1.0
1070
    74
1070
     0
1000
MTEXTEND
1000
MTEXTBEGIN
1070
    73
1070
     1
1070
    44
1040
1.0
1070
    74
1070
     0
1000
MTEXTEND
1000
MTEXTBEGIN
1070
    73
1070
     1
1070
    44
1040
1.0
1070
    74
1070
     0
1000
MTEXTEND
  0
POINT
  5
812
330
80B
100
AcDbEntity
  8
Defpoints
  6
ByBlock
 62
     0
100
AcDbPoint
 10
1268.448101334978
 20
3237.370232669298
 30
0.0
  0
POINT
  5
813
330
80B
100
AcDbEntity
  8
Defpoints
  6
ByBlock
 62
     0
100
AcDbPoint
 10
1284.448101334978
 20
3243.446895745989
 30
0.0
  0
POINT
  5
814
330
80B
100
AcDbEntity
  8
Defpoints
  6
ByBlock
 62
     0
100
AcDbPoint
 10
1284.448101334978
 20
3240.069679593975
 30
0.0
  0
ENDBLK
  5
816
330
80B
100
AcDbEntity
  8
0
100
AcDbBlockEnd
  0
BLOCK
  5
821
330
817
100
AcDbEntity
  8
0
100
AcDbBlockBegin
  2
*D19
 70
     1
 10
0.0
 20
0.0
 30
0.0
  3
*D19
  1

  0
LINE
  5
818
330
817
100
AcDbEntity
  8
0
  6
ByBlock
 62
     0
100
AcDbLine
 10
1306.522710368862
 20
3242.946895745989
 30
0.0
 11
1309.927880111222
 21
3242.946895745989
 31
0.0
  0
LINE
  5
819
330
817
100
AcDbEntity
  8
0
  6
ByBlock
 62
     0
100
AcDbLine
 10
1306.522710368862
 20
3250.57189574599
 30
0.0
 11
1309.927880111222
 21
3250.57189574599
 31
0.0
  0
LINE
  5
81A
330
817
100
AcDbEntity
  8
0
  6
ByBlock
 62
     0
100
AcDbLine
 10
1309.207880111222
 20
3243.446895745989
 30
0.0
 11
1309.207880111222
 21
3250.071895745989
 31
0.0
  0
SOLID
  5
81B
330
817
100
AcDbEntity
  8
0
  6
ByBlock
 62
     0
100
AcDbTrace
 10
1309.124546777888
 20
3243.446895745989
 30
0.0
 11
1309.291213444555
 21
3243.446895745989
 31
0.0
 12
1309.207880111222
 22
3242.946895745989
 32
0.0
 13
1309.207880111222
 23
3242.946895745989
 33
0.0
  0
SOLID
  5
81C
330
817
100
AcDbEntity
  8
0
  6
ByBlock
 62
     0
100
AcDbTrace
 10
1309.124546777888
 20
3250.071895745989
 30
0.0
 11
1309.291213444555
 21
3250.071895745989
 31
0.0
 12
1309.207880111222
 22
3250.57189574599
 32
0.0
 13
1309.207880111222
 23
3250.57189574599
 33
0.0
  0
MTEXT
  5
81D
330
817
100
AcDbEntity
  8
0
  6
ByBlock
 62
     0
100
AcDbMText
 10
1308.451927730269
 20
3246.759395745989
 30
0.0
 40
0.5
 41
0.0
 71
     5
 72
     1
  1
\A1;7 5/8"
  7
ROMANS
 11
0.0000000000000001
 21
1.0
 31
0.0
 73
     1
 44
1.0
1001
ACAD
1000
MTEXTBEGIN
1070
    73
1070
     1
1070
    44
1040
1.0
1070
    74
1070
     0
1000
MTEXTEND
1000
MTEXTBEGIN
1070
    73
1070
     1
1070
    44
1040
1.0
1070
    74
1070
     0
1000
MTEXTEND
1000
MTEXTBEGIN
1070
    73
1070
     1
1070
    44
1040
1.0
1070
    74
1070
     0
1000
MTEXTEND
1000
MTEXTBEGIN
1070
    73
1070
     1
1070
    44
1040
1.0
1070
    74
1070
     0
1000
MTEXTEND
1000
MTEXTBEGIN
1070
    73
1070
     1
1070
    44
1040
1.0
1070
    74
1070
     0
1000
MTEXTEND
  0
POINT
  5
81E
330
817
100
AcDbEntity
  8
Defpoints
  6
ByBlock
 62
     0
100
AcDbPoint
 10
1306.272710368862
 20
3242.946895745989
 30
0.0
  0
POINT
  5
81F
330
817
100
AcDbEntity
  8
Defpoints
  6
ByBlock
 62
     0
100
AcDbPoint
 10
1306.272710368862
 20
3250.57189574599
 30
0.0
  0
POINT
  5
820
330
817
100
AcDbEntity
  8
Defpoints
  6
ByBlock
 62
     0
100
AcDbPoint
 10
1309.207880111222
 20
3250.57189574599
 30
0.0
  0
ENDBLK
  5
822
330
817
100
AcDbEntity
  8
0
100
AcDbBlockEnd
  0
BLOCK
  5
82D
330
823
100
AcDbEntity
  8
0
100
AcDbBlockBegin
  2
*D20
 70
     1
 10
0.0
 20
0.0
 30
0.0
  3
*D20
  1

  0
LINE
  5
824
330
823
100
AcDbEntity
  8
0
  6
ByBlock
 62
     0
100
AcDbLine
 10
1270.448101334978
 20
3234.245232669298
 30
0.0
 11
1270.448101334978
 21
3230.974791662575
 31
0.0
  0
LINE
  5
825
330
823
100
AcDbEntity
  8
0
  6
ByBlock
 62
     0
100
AcDbLine
 10
1268.448101334978
 20
3237.120232669298
 30
0.0
 11
1268.448101334978
 21
3230.974791662575
 31
0.0
  0
LINE
  5
826
330
823
100
AcDbEntity
  8
0
  6
ByBlock
 62
     0
100
AcDbLine
 10
1269.948101334978
 20
3231.694791662575
 30
0.0
 11
1268.948101334978
 21
3231.694791662575
 31
0.0
  0
SOLID
  5
827
330
823
100
AcDbEntity
  8
0
  6
ByBlock
 62
     0
100
AcDbTrace
 10
1269.948101334978
 20
3231.778124995908
 30
0.0
 11
1269.948101334978
 21
3231.611458329242
 31
0.0
 12
1270.448101334978
 22
3231.694791662575
 32
0.0
 13
1270.448101334978
 23
3231.694791662575
 33
0.0
  0
SOLID
  5
828
330
823
100
AcDbEntity
  8
0
  6
ByBlock
 62
     0
100
AcDbTrace
 10
1268.948101334978
 20
3231.778124995908
 30
0.0
 11
1268.948101334978
 21
3231.611458329242
 31
0.0
 12
1268.448101334978
 22
3231.694791662575
 32
0.0
 13
1268.448101334978
 23
3231.694791662575
 33
0.0
  0
MTEXT
  5
829
330
823
100
AcDbEntity
  8
0
  6
ByBlock
 62
     0
100
AcDbMText
 10
1269.448101334978
 20
3232.367410710194
 30
0.0
 40
0.5
 41
0.0
 71
     5
 72
     1
  1
\A1;2"
  7
ROMANS
 73
     1
 44
1.0
1001
ACAD
1000
MTEXTBEGIN
1070
    73
1070
     1
1070
    44
1040
1.0
1070
    74
1070
     0
1000
MTEXTEND
1000
MTEXTBEGIN
1070
    73
1070
     1
1070
    44
1040
1.0
1070
    74
1070
     0
1000
MTEXTEND
1000
MTEXTBEGIN
1070
    73
1070
     1
1070
    44
1040
1.0
1070
    74
1070
     0
1000
MTEXTEND
1000
MTEXTBEGIN
1070
    73
1070
     1
1070
    44
1040
1.0
1070
    74
1070
     0
1000
MTEXTEND
1000
MTEXTBEGIN
1070
    73
1070
     1
1070
    44
1040
1.0
1070
    74
1070
     0
1000
MTEXTEND
  0
POINT
  5
82A
330
823
100
AcDbEntity
  8
Defpoints
  6
ByBlock
 62
     0
100
AcDbPoint
 10
1270.448101334978
 20
3234.495232669298
 30
0.0
  0
POINT
  5
82B
330
823
100
AcDbEntity
  8
Defpoints
  6
ByBlock
 62
     0
100
AcDbPoint
 10
1268.448101334978
 20
3237.370232669298
 30
0.0
  0
POINT
  5
82C
330
823
100
AcDbEntity
  8
Defpoints
  6
ByBlock
 62
     0
100
AcDbPoint
 10
1268.448101334978
 20
3231.694791662575
 30
0.0
  0
ENDBLK
  5
82E
330
823
100
AcDbEntity
  8
0
100
AcDbBlockEnd
  0
BLOCK
  5
83B
330
82F
100
AcDbEntity
  8
0
100
AcDbBlockBegin
  2
*D21
 70
     1
 10
0.0
 20
0.0
 30
0.0
  3
*D21
  1

  0
LINE
  5
830
330
82F
100
AcDbEntity
  8
0
  6
ByBlock
 62
     0
100
AcDbLine
 10
1283.948101334978
 20
3237.120232669298
 30
0.0
 11
1283.948101334978
 21
3230.974791662575
 31
0.0
  0
LINE
  5
831
330
82F
100
AcDbEntity
  8
0
  6
ByBlock
 62
     0
100
AcDbLine
 10
1282.448101334978
 20
3234.245232669298
 30
0.0
 11
1282.448101334978
 21
3230.974791662575
 31
0.0
  0
LINE
  5
832
330
82F
100
AcDbEntity
  8
0
  6
ByBlock
 62
     0
100
AcDbLine
 10
1284.448101334978
 20
3231.694791662575
 30
0.0
 11
1284.948101334978
 21
3231.694791662575
 31
0.0
  0
LINE
  5
833
330
82F
100
AcDbEntity
  8
0
  6
ByBlock
 62
     0
100
AcDbLine
 10
1281.948101334978
 20
3231.694791662575
 30
0.0
 11
1281.448101334978
 21
3231.694791662575
 31
0.0
  0
MTEXT
  5
834
330
82F
100
AcDbEntity
  8
0
  6
ByBlock
 62
     0
100
AcDbMText
 10
1280.966838431171
 20
3232.187432859775
 30
0.0
 40
0.5
 41
0.0
 71
     5
 72
     1
  1
\A1;1 1/2"
  7
ROMANS
 73
     1
 44
1.0
1001
ACAD
1000
MTEXTBEGIN
1070
    73
1070
     1
1070
    44
1040
1.0
1070
    74
1070
     0
1000
MTEXTEND
1000
MTEXTBEGIN
1070
    73
1070
     1
1070
    44
1040
1.0
1070
    74
1070
     0
1000
MTEXTEND
1000
MTEXTBEGIN
1070
    73
1070
     1
1070
    44
1040
1.0
1070
    74
1070
     0
1000
MTEXTEND
1000
MTEXTBEGIN
1070
    73
1070
     1
1070
    44
1040
1.0
1070
    74
1070
     0
1000
MTEXTEND
1000
MTEXTBEGIN
1070
    73
1070
     1
1070
    44
1040
1.0
1070
    74
1070
     0
1000
MTEXTEND
  0
LINE
  5
835
330
82F
100
AcDbEntity
  8
0
  6
ByBlock
 62
     0
100
AcDbLine
 10
1283.948101334978
 20
3231.694791662575
 30
0.0
 11
1282.448101334978
 21
3231.694791662575
 31
0.0
  0
SOLID
  5
836
330
82F
100
AcDbEntity
  8
0
  6
ByBlock
 62
     0
100
AcDbTrace
 10
1284.448101334978
 20
3231.778124995908
 30
0.0
 11
1284.448101334978
 21
3231.611458329242
 31
0.0
 12
1283.948101334978
 22
3231.694791662575
 32
0.0
 13
1283.948101334978
 23
3231.694791662575
 33
0.0
  0
SOLID
  5
837
330
82F
100
AcDbEntity
  8
0
  6
ByBlock
 62
     0
100
AcDbTrace
 10
1281.948101334978
 20
3231.778124995908
 30
0.0
 11
1281.948101334978
 21
3231.611458329242
 31
0.0
 12
1282.448101334978
 22
3231.694791662575
 32
0.0
 13
1282.448101334978
 23
3231.694791662575
 33
0.0
  0
POINT
  5
838
330
82F
100
AcDbEntity
  8
Defpoints
  6
ByBlock
 62
     0
100
AcDbPoint
 10
1283.948101334978
 20
3237.370232669298
 30
0.0
  0
POINT
  5
839
330
82F
100
AcDbEntity
  8
Defpoints
  6
ByBlock
 62
     0
100
AcDbPoint
 10
1282.448101334978
 20
3234.495232669298
 30
0.0
  0
POINT
  5
83A
330
82F
100
AcDbEntity
  8
Defpoints
  6
ByBlock
 62
     0
100
AcDbPoint
 10
1282.448101334978
 20
3231.694791662575
 30
0.0
  0
ENDBLK
  5
83C
330
82F
100
AcDbEntity
  8
0
100
AcDbBlockEnd
  0
BLOCK
  5
843
330
83D
100
AcDbEntity
  8
0
100
AcDbBlockBegin
  2
*D22
 70
     1
 10
0.0
 20
0.0
 30
0.0
  3
*D22
  1

  0
LINE
  5
83E
330
83D
100
AcDbEntity
  8
0
  6
ByBlock
 62
     0
100
AcDbLine
 10
1270.448101334979
 20
3235.870232669298
 30
0.0
 11
1271.095826669504
 21
3235.281949666811
 31
0.0
  0
MTEXT
  5
83F
330
83D
100
AcDbEntity
  8
0
  6
ByBlock
 62
     0
100
AcDbMText
 10
1272.859129760358
 20
3233.774828822697
 30
0.0
 40
0.5
 41
0.0
 71
     5
 72
     1
  1
\A1;R1 3/8"
  7
ROMANS
 11
0.7402575251705215
 21
-0.6723234314140888
 31
0.0
 73
     1
 44
1.0
1001
ACAD
1000
MTEXTBEGIN
1070
    73
1070
     1
1070
    44
1040
1.0
1070
    74
1070
     0
1000
MTEXTEND
1000
MTEXTBEGIN
1070
    73
1070
     1
1070
    44
1040
1.0
1070
    74
1070
     0
1000
MTEXTEND
1000
MTEXTBEGIN
1070
    73
1070
     1
1070
    44
1040
1.0
1070
    74
1070
     0
1000
MTEXTEND
1000
MTEXTBEGIN
1070
    73
1070
     1
1070
    44
1040
1.0
1070
    74
1070
     0
1000
MTEXTEND
1000
MTEXTBEGIN
1070
    73
1070
     1
1070
    44
1040
1.0
1070
    74
1070
     0
1000
MTEXTEND
  0
SOLID
  5
840
330
83D
100
AcDbEntity
  8
0
  6
ByBlock
 62
     0
100
AcDbTrace
 10
1271.151853622121
 20
3235.343637793908
 30
0.0
 11
1271.039799716885
 21
3235.220261539713
 31
0.0
 12
1271.465955432089
 22
3234.945787951103
 32
0.0
 13
1271.465955432089
 23
3234.945787951103
 33
0.0
  0
POINT
  5
841
330
83D
100
AcDbEntity
  8
Defpoints
  6
ByBlock
 62
     0
100
AcDbPoint
 10
1271.465955432089
 20
3234.945787951103
 30
0.0
  0
POINT
  5
842
330
83D
100
AcDbEntity
  8
Defpoints
  6
ByBlock
 62
     0
100
AcDbPoint
 10
1270.448101334979
 20
3235.870232669298
 30
0.0
  0
ENDBLK
  5
844
330
83D
100
AcDbEntity
  8
0
100
AcDbBlockEnd
  0
BLOCK
  5
851
330
845
100
AcDbEntity
  8
0
100
AcDbBlockBegin
  2
*D23
 70
     1
 10
0.0
 20
0.0
 30
0.0
  3
*D23
  1

  0
LINE
  5
846
330
845
100
AcDbEntity
  8
0
  6
ByBlock
 62
     0
100
AcDbLine
 10
1284.198101334978
 20
3237.370232669298
 30
0.0
 11
1277.452962360227
 21
3237.370232669298
 31
0.0
  0
LINE
  5
847
330
845
100
AcDbEntity
  8
0
  6
ByBlock
 62
     0
100
AcDbLine
 10
1280.823101334978
 20
3235.870232669298
 30
0.0
 11
1277.452962360227
 21
3235.870232669298
 31
0.0
  0
LINE
  5
848
330
845
100
AcDbEntity
  8
0
  6
ByBlock
 62
     0
100
AcDbLine
 10
1278.172962360227
 20
3237.870232669298
 30
0.0
 11
1278.172962360227
 21
3238.370232669298
 31
0.0
  0
LINE
  5
849
330
845
100
AcDbEntity
  8
0
  6
ByBlock
 62
     0
100
AcDbLine
 10
1278.172962360227
 20
3235.370232669298
 30
0.0
 11
1278.172962360227
 21
3234.870232669298
 31
0.0
  0
MTEXT
  5
84A
330
845
100
AcDbEntity
  8
0
  6
ByBlock
 62
     0
100
AcDbMText
 10
1277.625146222333
 20
3234.486420973042
 30
0.0
 40
0.5
 41
0.0
 71
     5
 72
     1
  1
\A1;1 1/2"
  7
ROMANS
 11
0.0000000000000001
 21
1.0
 31
0.0
 73
     1
 44
1.0
1001
ACAD
1000
MTEXTBEGIN
1070
    73
1070
     1
1070
    44
1040
1.0
1070
    74
1070
     0
1000
MTEXTEND
1000
MTEXTBEGIN
1070
    73
1070
     1
1070
    44
1040
1.0
1070
    74
1070
     0
1000
MTEXTEND
1000
MTEXTBEGIN
1070
    73
1070
     1
1070
    44
1040
1.0
1070
    74
1070
     0
1000
MTEXTEND
1000
MTEXTBEGIN
1070
    73
1070
     1
1070
    44
1040
1.0
1070
    74
1070
     0
1000
MTEXTEND
1000
MTEXTBEGIN
1070
    73
1070
     1
1070
    44
1040
1.0
1070
    74
1070
     0
1000
MTEXTEND
  0
LINE
  5
84B
330
845
100
AcDbEntity
  8
0
  6
ByBlock
 62
     0
100
AcDbLine
 10
1278.172962360227
 20
3237.370232669298
 30
0.0
 11
1278.172962360227
 21
3235.870232669298
 31
0.0
  0
SOLID
  5
84C
330
845
100
AcDbEntity
  8
0
  6
ByBlock
 62
     0
100
AcDbTrace
 10
1278.089629026894
 20
3237.870232669298
 30
0.0
 11
1278.256295693561
 21
3237.870232669298
 31
0.0
 12
1278.172962360227
 22
3237.370232669298
 32
0.0
 13
1278.172962360227
 23
3237.370232669298
 33
0.0
  0
SOLID
  5
84D
330
845
100
AcDbEntity
  8
0
  6
ByBlock
 62
     0
100
AcDbTrace
 10
1278.089629026894
 20
3235.370232669298
 30
0.0
 11
1278.256295693561
 21
3235.370232669298
 31
0.0
 12
1278.172962360227
 22
3235.870232669298
 32
0.0
 13
1278.172962360227
 23
3235.870232669298
 33
0.0
  0
POINT
  5
84E
330
845
100
AcDbEntity
  8
Defpoints
  6
ByBlock
 62
     0
100
AcDbPoint
 10
1284.448101334978
 20
3237.370232669298
 30
0.0
  0
POINT
  5
84F
330
845
100
AcDbEntity
  8
Defpoints
  6
ByBlock
 62
     0
100
AcDbPoint
 10
1281.073101334978
 20
3235.870232669298
 30
0.0
  0
POINT
  5
850
330
845
100
AcDbEntity
  8
Defpoints
  6
ByBlock
 62
     0
100
AcDbPoint
 10
1278.172962360227
 20
3235.870232669298
 30
0.0
  0
ENDBLK
  5
852
330
845
100
AcDbEntity
  8
0
100
AcDbBlockEnd
  0
BLOCK
  5
85D
330
853
100
AcDbEntity
  8
0
100
AcDbBlockBegin
  2
*D24
 70
     1
 10
0.0
 20
0.0
 30
0.0
  3
*D24
  1

  0
LINE
  5
854
330
853
100
AcDbEntity
  8
0
  6
ByBlock
 62
     0
100
AcDbLine
 10
1284.698101334978
 20
3237.370232669298
 30
0.0
 11
1287.51121116508
 21
3237.370232669298
 31
0.0
  0
LINE
  5
855
330
853
100
AcDbEntity
  8
0
  6
ByBlock
 62
     0
100
AcDbLine
 10
1290.522710368862
 20
3209.370232669298
 30
0.0
 11
1286.07121116508
 21
3209.370232669298
 31
0.0
  0
LINE
  5
856
330
853
100
AcDbEntity
  8
0
  6
ByBlock
 62
     0
100
AcDbLine
 10
1286.79121116508
 20
3236.870232669298
 30
0.0
 11
1286.79121116508
 21
3209.870232669298
 31
0.0
  0
SOLID
  5
857
330
853
100
AcDbEntity
  8
0
  6
ByBlock
 62
     0
100
AcDbTrace
 10
1286.707877831747
 20
3236.870232669298
 30
0.0
 11
1286.874544498413
 21
3236.870232669298
 31
0.0
 12
1286.79121116508
 22
3237.370232669298
 32
0.0
 13
1286.79121116508
 23
3237.370232669298
 33
0.0
  0
SOLID
  5
858
330
853
100
AcDbEntity
  8
0
  6
ByBlock
 62
     0
100
AcDbTrace
 10
1286.707877831747
 20
3209.870232669298
 30
0.0
 11
1286.874544498413
 21
3209.870232669298
 31
0.0
 12
1286.79121116508
 22
3209.370232669298
 32
0.0
 13
1286.79121116508
 23
3209.370232669298
 33
0.0
  0
MTEXT
  5
859
330
853
100
AcDbEntity
  8
0
  6
ByBlock
 62
     0
100
AcDbMText
 10
1286.118592117461
 20
3223.370232669298
 30
0.0
 40
0.5
 41
0.0
 71
     5
 72
     1
  1
\A1;2'-4"
  7
ROMANS
 11
0.0000000000000001
 21
1.0
 31
0.0
 73
     1
 44
1.0
1001
ACAD
1000
MTEXTBEGIN
1070
    73
1070
     1
1070
    44
1040
1.0
1070
    74
1070
     0
1000
MTEXTEND
1000
MTEXTBEGIN
1070
    73
1070
     1
1070
    44
1040
1.0
1070
    74
1070
     0
1000
MTEXTEND
1000
MTEXTBEGIN
1070
    73
1070
     1
1070
    44
1040
1.0
1070
    74
1070
     0
1000
MTEXTEND
1000
MTEXTBEGIN
1070
    73
1070
     1
1070
    44
1040
1.0
1070
    74
1070
     0
1000
MTEXTEND
1000
MTEXTBEGIN
1070
    73
1070
     1
1070
    44
1040
1.0
1070
    74
1070
     0
1000
MTEXTEND
  0
POINT
  5
85A
330
853
100
AcDbEntity
  8
Defpoints
  6
ByBlock
 62
     0
100
AcDbPoint
 10
1284.448101334978
 20
3237.370232669298
 30
0.0
  0
POINT
  5
85B
330
853
100
AcDbEntity
  8
Defpoints
  6
ByBlock
 62
     0
100
AcDbPoint
 10
1290.772710368862
 20
3209.370232669298
 30
0.0
  0
POINT
  5
85C
330
853
100
AcDbEntity
  8
Defpoints
  6
ByBlock
 62
     0
100
AcDbPoint
 10
1286.79121116508
 20
3209.370232669298
 30
0.0
  0
ENDBLK
  5
85E
330
853
100
AcDbEntity
  8
0
100
AcDbBlockEnd
  0
BLOCK
  5
906
330
860
100
AcDbEntity
  8
0
 62
     7
100
AcDbBlockBegin
  2
NASH2TP
 70
     0
 10
0.0
 20
0.0
 30
0.0
  3
NASH2TP
  1

  0
LWPOLYLINE
  5
861
330
860
100
AcDbEntity
  8
0
100
AcDbPolyline
 90
        9
 70
     0
 43
0.0625
 10
7.942948620143397
 20
33.84131711562076
 10
17.19294862014339
 20
33.84131711562076
 42
0.4142135623730951
 10
18.56794862014339
 20
32.46631711562077
 10
18.56794862014294
 20
10.21631711562076
 42
0.414213562373095
 10
17.19294862014294
 20
8.841317115620768
 10
7.942948620142942
 20
8.841317115620768
 42
0.4142135623730951
 10
6.567948620142942
 20
10.21631711562076
 10
6.567948620143397
 20
32.46631711562077
 42
0.4142135623730951
 10
7.942948620143397
 20
33.84131711562076
 42
-1.0
  0
LWPOLYLINE
  5
862
330
860
100
AcDbEntity
  8
0
100
AcDbPolyline
 90
        4
 70
     1
 43
0.0625
 10
4.567948620143397
 20
35.34131711562077
 10
4.567948620143397
 20
7.341317115620768
 10
20.56794862014339
 20
7.341317115620768
 10
20.56794862014339
 20
35.34131711562077
  0
TEXT
  5
863
330
860
100
AcDbEntity
  8
0
100
AcDbText
 10
11.45608865876498
 20
19.86618749334593
 30
0.0
 40
0.75
  1
TP-1
 41
0.8
 51
10.0
  7
ROMANS
 72
     4
 11
12.52751723019355
 21
20.24118749334593
 31
0.0
100
AcDbText
  0
LWPOLYLINE
  5
864
330
860
100
AcDbEntity
  8
0
100
AcDbPolyline
 90
        8
 70
     1
 43
0.0625
 10
4.567948620143397
 20
56.41798019231192
 10
4.567948620143397
 20
41.41798019231191
 10
5.067948620143397
 20
40.91798019231191
 10
20.06794862014339
 20
40.91798019231191
 10
20.56794862014339
 20
41.41798019231191
 10
20.56794862014339
 20
56.41798019231192
 10
20.06794862014339
 20
56.91798019231192
 10
5.067948620143397
 20
56.91798019231192
  0
LWPOLYLINE
  5
865
330
860
100
AcDbEntity
  8
0
100
AcDbPolyline
 90
        2
 70
     0
 43
0.0625
 10
13.56794862014339
 20
41.16798019231191
 10
14.06794862014339
 20
41.16798019231191
  0
DIMENSION
  5
866
330
860
100
AcDbEntity
  8
0
100
AcDbDimension
  2
*D10
 10
20.56794862014339
 20
38.04076404029729
 30
0.0
 11
12.56794862014339
 21
38.71338308791655
 31
0.0
 12
-1263.880152714835
 22
-3202.028915553677
 32
0.0
 71
     5
 42
-1.0
  3
STANDARD
100
AcDbAlignedDimension
 13
4.567948620143397
 23
35.34131711562077
 33
0.0
 14
20.56794862014339
 24
41.41798019231191
 34
0.0
100
AcDbRotatedDimension
  0
DIMENSION
  5
867
330
860
100
AcDbEntity
  8
0
100
AcDbDimension
  2
*D15
 10
14.29280964539248
 20
33.84131711562076
 30
0.0
 11
13.74499350749829
 21
32.45750541936468
 31
0.0
 12
-1263.880152714835
 22
-3202.028915553677
 32
0.0
 70
   128
 71
     5
 42
-1.0
  3
STANDARD
100
AcDbAlignedDimension
 13
20.56794862014339
 23
35.34131711562077
 33
0.0
 14
17.19294862014339
 24
33.84131711562076
 34
0.0
 50
90.0
100
AcDbRotatedDimension
  0
TEXT
  5
868
330
860
100
AcDbEntity
  8
0
100
AcDbText
 10
10.23896104652158
 20
51.83468650940722
 30
0.0
 40
0.5
  1
3/4"%%C DOWEL HOLE
 41
0.8
 51
10.0
  7
ROMANS
100
AcDbText
  0
TEXT
  5
869
330
860
100
AcDbEntity
  8
0
100
AcDbText
 10
10.40330129866197
 20
51.01362198773768
 30
0.0
 40
0.5
  1
ONE @ EACH END.
 41
0.8
 51
10.0
  7
ROMANS
100
AcDbText
  0
LEADER
  5
86A
330
860
100
AcDbEntity
  8
0
100
AcDbLeader
  3
STANDARD
 76
     3
 10
12.10154509381754
 20
49.2620081520854
 30
0.0
 10
9.2528851144707
 20
51.72521413808135
 30
0.0
 10
16.53886957844224
 20
51.72521413808135
 30
0.0
1001
ACAD
1000
DSTYLE
1002
{
1070
     5
1000

1070
   342
1005
0
1002
}
  0
LINE
  5
86B
330
860
100
AcDbEntity
  8
0
100
AcDbLine
 10
10.95158783241822
 20
35.34131711562077
 30
0.0
 11
13.78478211364381
 21
35.34131711562031
 31
0.0
  0
LWPOLYLINE
  5
86C
330
860
100
AcDbEntity
  8
0
100
AcDbPolyline
 90
        2
 70
     0
 43
0.0625
 10
5.067948620143397
 20
35.34131711562077
 10
5.067948620143397
 20
7.341317115620768
  0
DIMENSION
  5
86D
330
860
100
AcDbEntity
  8
0
100
AcDbDimension
  2
*D12
 10
4.567948620143397
 20
29.66587610889746
 30
0.0
 11
5.567948620143397
 21
30.33849515651672
 31
0.0
 12
-1263.880152714835
 22
-3202.028915553677
 32
0.0
 71
     5
 42
-1.0
  3
STANDARD
100
AcDbAlignedDimension
 13
6.567948620143397
 23
32.46631711562077
 33
0.0
 14
4.567948620143397
 24
35.34131711562077
 34
0.0
100
AcDbRotatedDimension
  0
LINE
  5
86E
330
860
100
AcDbEntity
  8
0
100
AcDbLine
 10
12.94294862014362
 20
8.841317115621222
 30
0.0
 11
12.94294862014362
 21
9.216317115621222
 31
0.0
  0
LINE
  5
86F
330
860
100
AcDbEntity
  8
0
100
AcDbLine
 10
12.19294862014317
 20
8.841317115621222
 30
0.0
 11
12.19294862014339
 21
9.216317115621222
 31
0.0
  0
LINE
  5
870
330
860
100
AcDbEntity
  8
0
100
AcDbLine
 10
12.19294862014339
 20
7.341317115620768
 30
0.0
 11
12.19294862014362
 21
7.716317115620768
 31
0.0
  0
LINE
  5
871
330
860
100
AcDbEntity
  8
0
100
AcDbLine
 10
12.19294862014339
 20
8.091317115621222
 30
0.0
 11
12.19294862014317
 21
8.466317115620768
 31
0.0
  0
LINE
  5
872
330
860
100
AcDbEntity
  8
0
100
AcDbLine
 10
12.94294862014339
 20
7.341317115620768
 30
0.0
 11
12.94294862014339
 21
7.716317115620768
 31
0.0
  0
LINE
  5
873
330
860
100
AcDbEntity
  8
0
100
AcDbLine
 10
12.94294862014362
 20
8.091317115621222
 30
0.0
 11
12.94294862014362
 21
8.466317115620768
 31
0.0
  0
LINE
  5
874
330
860
100
AcDbEntity
  8
0
100
AcDbLine
 10
12.19294862014339
 20
9.216317115621222
 30
0.0
 11
12.39409690122556
 21
9.216317115621222
 31
0.0
  0
LINE
  5
875
330
860
100
AcDbEntity
  8
0
100
AcDbLine
 10
12.76552606366567
 20
9.216317115621222
 30
0.0
 11
12.94294862014339
 21
9.216317115621222
 31
0.0
  0
LINE
  5
876
330
860
100
AcDbEntity
  8
0
100
AcDbLine
 10
12.56794862014339
 20
6.909774754814861
 30
0.0
 11
12.56794862014339
 21
9.779619050883411
 31
0.0
  0
TEXT
  5
877
330
860
100
AcDbEntity
  8
0
100
AcDbText
 10
7.88334476973614
 20
28.57112755366688
 30
0.0
 40
0.5
  1
4 #4'S LONG WAY.
 41
0.8
 51
10.0
  7
ROMANS
100
AcDbText
  0
LWPOLYLINE
  5
878
330
860
100
AcDbEntity
  8
0
100
AcDbPolyline
 90
        2
 70
     0
 43
0.0625
 10
6.567948620143397
 20
40.91798019231191
 10
6.567948620143397
 20
41.16798019231191
  0
LWPOLYLINE
  5
879
330
860
100
AcDbEntity
  8
0
100
AcDbPolyline
 90
        2
 70
     0
 43
0.0625
 10
6.567948620143397
 20
41.16798019231191
 10
7.067948620143397
 20
41.16798019231191
  0
LWPOLYLINE
  5
87A
330
860
100
AcDbEntity
  8
0
100
AcDbPolyline
 90
        2
 70
     0
 43
0.0625
 10
7.567948620143397
 20
41.16798019231191
 10
8.067948620143397
 20
41.16798019231191
  0
LWPOLYLINE
  5
87B
330
860
100
AcDbEntity
  8
0
100
AcDbPolyline
 90
        2
 70
     0
 43
0.0625
 10
8.567948620143397
 20
41.16798019231191
 10
9.067948620143397
 20
41.16798019231191
  0
LWPOLYLINE
  5
87C
330
860
100
AcDbEntity
  8
0
100
AcDbPolyline
 90
        2
 70
     0
 43
0.0625
 10
9.567948620143397
 20
41.16798019231191
 10
10.06794862014339
 20
41.16798019231191
  0
LWPOLYLINE
  5
87D
330
860
100
AcDbEntity
  8
0
100
AcDbPolyline
 90
        2
 70
     0
 43
0.0625
 10
10.56794862014339
 20
41.16798019231191
 10
11.06794862014339
 20
41.16798019231191
  0
LWPOLYLINE
  5
87E
330
860
100
AcDbEntity
  8
0
100
AcDbPolyline
 90
        2
 70
     0
 43
0.0625
 10
11.56794862014339
 20
41.16798019231191
 10
12.06794862014339
 20
41.16798019231191
  0
LWPOLYLINE
  5
87F
330
860
100
AcDbEntity
  8
0
100
AcDbPolyline
 90
        2
 70
     0
 43
0.0625
 10
12.56794862014339
 20
41.16798019231191
 10
13.06794862014339
 20
41.16798019231191
  0
LWPOLYLINE
  5
880
330
860
100
AcDbEntity
  8
0
100
AcDbPolyline
 90
        2
 70
     0
 43
0.0625
 10
11.56794862014339
 20
56.66798019231191
 10
11.06794862014339
 20
56.66798019231191
  0
LWPOLYLINE
  5
881
330
860
100
AcDbEntity
  8
0
100
AcDbPolyline
 90
        2
 70
     0
 43
0.0625
 10
12.56794862014339
 20
56.66798019231191
 10
12.06794862014339
 20
56.66798019231191
  0
LWPOLYLINE
  5
882
330
860
100
AcDbEntity
  8
0
100
AcDbPolyline
 90
        2
 70
     0
 43
0.0625
 10
13.56794862014339
 20
56.66798019231191
 10
13.06794862014339
 20
56.66798019231191
  0
LWPOLYLINE
  5
883
330
860
100
AcDbEntity
  8
0
100
AcDbPolyline
 90
        2
 70
     0
 43
0.0625
 10
6.567948620143397
 20
56.91798019231192
 10
6.567948620143397
 20
56.66798019231191
  0
LWPOLYLINE
  5
884
330
860
100
AcDbEntity
  8
0
100
AcDbPolyline
 90
        2
 70
     0
 43
0.0625
 10
7.567948620143397
 20
56.66798019231191
 10
7.067948620143397
 20
56.66798019231191
  0
LWPOLYLINE
  5
885
330
860
100
AcDbEntity
  8
0
100
AcDbPolyline
 90
        2
 70
     0
 43
0.0625
 10
8.567948620143397
 20
56.66798019231191
 10
8.067948620143397
 20
56.66798019231191
  0
LWPOLYLINE
  5
886
330
860
100
AcDbEntity
  8
0
100
AcDbPolyline
 90
        2
 70
     0
 43
0.0625
 10
9.567948620143397
 20
56.66798019231191
 10
9.067948620143397
 20
56.66798019231191
  0
LWPOLYLINE
  5
887
330
860
100
AcDbEntity
  8
0
100
AcDbPolyline
 90
        2
 70
     0
 43
0.0625
 10
10.56794862014339
 20
56.66798019231191
 10
10.06794862014339
 20
56.66798019231191
  0
LWPOLYLINE
  5
888
330
860
100
AcDbEntity
  8
0
100
AcDbPolyline
 90
        2
 70
     0
 43
0.0625
 10
4.817948620143397
 20
47.91798019231191
 10
4.817948620143397
 20
47.41798019231191
  0
LWPOLYLINE
  5
889
330
860
100
AcDbEntity
  8
0
100
AcDbPolyline
 90
        2
 70
     0
 43
0.0625
 10
4.817948620143397
 20
48.91798019231192
 10
4.817948620143397
 20
48.41798019231191
  0
LWPOLYLINE
  5
88A
330
860
100
AcDbEntity
  8
0
100
AcDbPolyline
 90
        2
 70
     0
 43
0.0625
 10
4.817948620143397
 20
49.91798019231191
 10
4.817948620143397
 20
49.41798019231192
  0
LWPOLYLINE
  5
88B
330
860
100
AcDbEntity
  8
0
100
AcDbPolyline
 90
        2
 70
     0
 43
0.0625
 10
4.817948620143397
 20
50.91798019231191
 10
4.817948620143397
 20
50.41798019231191
  0
LWPOLYLINE
  5
88C
330
860
100
AcDbEntity
  8
0
100
AcDbPolyline
 90
        2
 70
     0
 43
0.0625
 10
4.817948620143397
 20
51.91798019231192
 10
4.817948620143397
 20
51.41798019231192
  0
LWPOLYLINE
  5
88D
330
860
100
AcDbEntity
  8
0
100
AcDbPolyline
 90
        2
 70
     0
 43
0.0625
 10
4.817948620143397
 20
52.91798019231191
 10
4.817948620143397
 20
52.41798019231191
  0
LWPOLYLINE
  5
88E
330
860
100
AcDbEntity
  8
0
100
AcDbPolyline
 90
        2
 70
     0
 43
0.0625
 10
4.817948620143397
 20
53.91798019231192
 10
4.817948620143397
 20
53.41798019231191
  0
LWPOLYLINE
  5
88F
330
860
100
AcDbEntity
  8
0
100
AcDbPolyline
 90
        2
 70
     0
 43
0.0625
 10
4.817948620143397
 20
54.91798019231191
 10
4.817948620143397
 20
54.41798019231192
  0
LWPOLYLINE
  5
890
330
860
100
AcDbEntity
  8
0
100
AcDbPolyline
 90
        2
 70
     0
 43
0.0625
 10
4.567948620143397
 20
54.91798019231191
 10
4.817948620143397
 20
54.91798019231191
  0
LWPOLYLINE
  5
891
330
860
100
AcDbEntity
  8
0
100
AcDbPolyline
 90
        2
 70
     0
 43
0.0625
 10
4.567948620143397
 20
42.91798019231191
 10
4.817948620143397
 20
42.91798019231191
  0
LWPOLYLINE
  5
892
330
860
100
AcDbEntity
  8
0
100
AcDbPolyline
 90
        2
 70
     0
 43
0.0625
 10
4.817948620143397
 20
43.91798019231191
 10
4.817948620143397
 20
43.41798019231191
  0
LWPOLYLINE
  5
893
330
860
100
AcDbEntity
  8
0
100
AcDbPolyline
 90
        2
 70
     0
 43
0.0625
 10
4.817948620143397
 20
44.91798019231191
 10
4.817948620143397
 20
44.41798019231192
  0
LWPOLYLINE
  5
894
330
860
100
AcDbEntity
  8
0
100
AcDbPolyline
 90
        2
 70
     0
 43
0.0625
 10
4.817948620143397
 20
45.91798019231191
 10
4.817948620143397
 20
45.41798019231191
  0
LWPOLYLINE
  5
895
330
860
100
AcDbEntity
  8
0
100
AcDbPolyline
 90
        2
 70
     0
 43
0.0625
 10
4.817948620143397
 20
46.91798019231192
 10
4.817948620143397
 20
46.41798019231191
  0
DIMENSION
  5
896
330
860
100
AcDbEntity
  8
0
100
AcDbDimension
  2
*D8
 10
6.130328539245965
 20
41.16798019231191
 30
0.0
 11
5.637284836686376
 21
42.47452239410267
 31
0.0
 12
-1263.880152714835
 22
-3202.028915553677
 32
0.0
 70
   128
 71
     5
 42
-1.0
  3
STANDARD
100
AcDbAlignedDimension
 13
6.567948620143397
 23
40.91798019231191
 33
0.0
 14
6.567948620143397
 24
41.16798019231191
 34
0.0
 50
90.0
100
AcDbRotatedDimension
  0
DIMENSION
  5
897
330
860
100
AcDbEntity
  8
0
100
AcDbDimension
  2
*D9
 10
5.067948620143397
 20
36.39862878646454
 30
0.0
 11
6.56857686033436
 21
36.89126998366373
 31
0.0
 12
-1263.880152714835
 22
-3202.028915553677
 32
0.0
 70
   128
 71
     5
 42
-1.0
  3
STANDARD
100
AcDbAlignedDimension
 13
4.567948620143397
 23
35.34131711562077
 33
0.0
 14
5.067948620143397
 24
35.34131711562077
 34
0.0
100
AcDbRotatedDimension
  0
DIMENSION
  5
898
330
860
100
AcDbEntity
  8
0
100
AcDbDimension
  2
*D14
 10
6.567948620143852
 20
33.84131711562076
 30
0.0
 11
8.978977045522697
 21
31.74591326902009
 31
0.0
 12
-1263.880152714835
 22
-3202.028915553677
 32
0.0
 70
   132
 71
     5
 42
-1.0
  3
STANDARD
100
AcDbRadialDimension
 15
7.5858027172535
 25
32.91687239742623
 35
0.0
 40
0.0
1001
ACAD
1000
DSTYLE
1002
{
1070
   288
1070
     1
1002
}
  0
CIRCLE
  5
899
330
860
100
AcDbEntity
  8
0
100
AcDbCircle
 10
12.56794862014339
 20
48.91798019231192
 30
0.0
 40
0.375
  0
LINE
  5
89A
330
860
100
AcDbEntity
  8
0
100
AcDbLine
 10
12.56794862014339
 20
35.77285947642667
 30
0.0
 11
12.56794862014339
 21
32.90301518035812
 31
0.0
  0
LINE
  5
89B
330
860
100
AcDbEntity
  8
0
100
AcDbLine
 10
12.19294862014339
 20
33.46631711562031
 30
0.0
 11
12.39409690122556
 21
33.46631711562031
 31
0.0
  0
LINE
  5
89C
330
860
100
AcDbEntity
  8
0
100
AcDbLine
 10
12.19294862014339
 20
35.34131711562077
 30
0.0
 11
12.19294862014362
 21
34.96631711562077
 31
0.0
  0
LINE
  5
89D
330
860
100
AcDbEntity
  8
0
100
AcDbLine
 10
12.94294862014339
 20
35.34131711562077
 30
0.0
 11
12.94294862014339
 21
34.96631711562077
 31
0.0
  0
LINE
  5
89E
330
860
100
AcDbEntity
  8
0
100
AcDbLine
 10
12.94294862014362
 20
33.84131711562031
 30
0.0
 11
12.94294862014362
 21
33.46631711562031
 31
0.0
  0
LINE
  5
89F
330
860
100
AcDbEntity
  8
0
100
AcDbLine
 10
12.19294862014317
 20
33.84131711562031
 30
0.0
 11
12.19294862014339
 21
33.46631711562031
 31
0.0
  0
LINE
  5
8A0
330
860
100
AcDbEntity
  8
0
100
AcDbLine
 10
12.19294862014339
 20
34.59131711562031
 30
0.0
 11
12.19294862014317
 21
34.21631711562076
 31
0.0
  0
LINE
  5
8A1
330
860
100
AcDbEntity
  8
0
100
AcDbLine
 10
12.94294862014362
 20
34.59131711562031
 30
0.0
 11
12.94294862014362
 21
34.21631711562076
 31
0.0
  0
LINE
  5
8A2
330
860
100
AcDbEntity
  8
0
100
AcDbLine
 10
12.76552606366567
 20
33.46631711562031
 30
0.0
 11
12.94294862014339
 21
33.46631711562031
 31
0.0
  0
LWPOLYLINE
  5
8A3
330
860
100
AcDbEntity
  8
0
100
AcDbPolyline
 90
        2
 70
     0
 43
0.0625
 10
20.06794862014339
 20
35.34131711562077
 10
20.06794862014339
 20
7.341317115620768
  0
LWPOLYLINE
  5
8A4
330
860
100
AcDbEntity
  8
0
100
AcDbPolyline
 90
        4
 70
     1
 43
0.0625
 10
26.89255765402686
 20
35.34131711562077
 10
26.89255765402686
 20
7.341317115620768
 10
42.89255765402685
 20
7.341317115620768
 10
42.89255765402685
 20
35.34131711562077
  0
LWPOLYLINE
  5
8A5
330
860
100
AcDbEntity
  8
0
100
AcDbPolyline
 90
        9
 70
     0
 43
0.0625
 10
30.26755765402686
 20
33.84131711562076
 10
39.51755765402685
 20
33.84131711562076
 42
0.4142135623730951
 10
40.89255765402685
 20
32.46631711562077
 10
40.8925576540264
 20
10.21631711562076
 42
0.414213562373095
 10
39.5175576540264
 20
8.841317115620768
 10
30.2675576540264
 20
8.841317115620768
 42
0.4142135623730951
 10
28.8925576540264
 20
10.21631711562076
 10
28.89255765402685
 20
32.46631711562077
 42
0.4142135623730951
 10
30.26755765402686
 20
33.84131711562076
 42
-1.0
  0
LWPOLYLINE
  5
8A6
330
860
100
AcDbEntity
  8
0
100
AcDbPolyline
 90
        2
 70
     0
 43
0.0625
 10
27.39255765402686
 20
35.34131711562077
 10
27.39255765402686
 20
7.341317115620768
  0
LWPOLYLINE
  5
8A7
330
860
100
AcDbEntity
  8
0
100
AcDbPolyline
 90
        2
 70
     0
 43
0.0625
 10
42.39255765402686
 20
35.34131711562077
 10
42.39255765402686
 20
7.341317115620768
  0
DIMENSION
  5
8A8
330
860
100
AcDbEntity
  8
0
100
AcDbDimension
  2
*D24
 10
22.91105845024503
 20
7.341317115620768
 30
0.0
 11
22.238439402626
 21
21.34131711562076
 31
0.0
 12
-1263.880152714835
 22
-3202.028915553677
 32
0.0
 71
     5
 42
-1.0
  3
STANDARD
100
AcDbAlignedDimension
 13
20.56794862014339
 23
35.34131711562077
 33
0.0
 14
26.89255765402686
 24
7.341317115620768
 34
0.0
 50
90.0
100
AcDbRotatedDimension
  0
DIMENSION
  5
8A9
330
860
100
AcDbEntity
  8
0
100
AcDbDimension
  2
*D13
 10
18.56794862014339
 20
29.66587610889746
 30
0.0
 11
17.08668571633643
 21
30.15851730609756
 31
0.0
 12
-1263.880152714835
 22
-3202.028915553677
 32
0.0
 70
   128
 71
     5
 42
-1.0
  3
STANDARD
100
AcDbAlignedDimension
 13
20.06794862014339
 23
35.34131711562077
 33
0.0
 14
18.56794862014339
 24
32.46631711562077
 34
0.0
100
AcDbRotatedDimension
  0
DIMENSION
  5
8AA
330
860
100
AcDbEntity
  8
0
100
AcDbDimension
  2
*D20
 10
26.89255765402686
 20
29.66587610889746
 30
0.0
 11
27.89255765402685
 21
30.33849515651672
 31
0.0
 12
-1241.555543680951
 22
-3202.028915553677
 32
0.0
 71
     5
 42
-1.0
  3
STANDARD
100
AcDbAlignedDimension
 13
28.89255765402685
 23
32.46631711562077
 33
0.0
 14
26.89255765402686
 24
35.34131711562077
 34
0.0
100
AcDbRotatedDimension
  0
DIMENSION
  5
8AB
330
860
100
AcDbEntity
  8
0
100
AcDbDimension
  2
*D21
 10
40.89255765402685
 20
29.66587610889746
 30
0.0
 11
39.41129475021989
 21
30.15851730609756
 31
0.0
 12
-1241.555543680951
 22
-3202.028915553677
 32
0.0
 70
   128
 71
     5
 42
-1.0
  3
STANDARD
100
AcDbAlignedDimension
 13
42.39255765402686
 23
35.34131711562077
 33
0.0
 14
40.89255765402685
 24
32.46631711562077
 34
0.0
100
AcDbRotatedDimension
  0
TEXT
  5
8AC
330
860
100
AcDbEntity
  8
0
100
AcDbText
 10
15.85396174268498
 20
2.561927992837809
 30
0.0
 40
0.5
  1
NASH2TP
 41
0.8
 51
10.0
  7
ROMANS
100
AcDbText
  0
TEXT
  5
8AD
330
860
100
AcDbEntity
  8
0
100
AcDbText
 10
33.30559889022286
 20
19.21773743180165
 30
0.0
 40
0.75
  1
TP-2
 41
0.8
 51
10.0
  7
ROMANS
 72
     4
 11
34.46274174736572
 21
19.59273743180165
 31
0.0
100
AcDbText
  0
LINE
  5
8AE
330
860
100
AcDbEntity
  8
0
100
AcDbLine
 10
34.89255765402686
 20
6.909774754814861
 30
0.0
 11
34.89255765402686
 21
9.779619050883411
 31
0.0
  0
LINE
  5
8AF
330
860
100
AcDbEntity
  8
0
100
AcDbLine
 10
35.09013509754913
 20
9.216317115621222
 30
0.0
 11
35.26755765402686
 21
9.216317115621222
 31
0.0
  0
LINE
  5
8B0
330
860
100
AcDbEntity
  8
0
100
AcDbLine
 10
34.51755765402686
 20
9.216317115621222
 30
0.0
 11
34.71870593510903
 21
9.216317115621222
 31
0.0
  0
LINE
  5
8B1
330
860
100
AcDbEntity
  8
0
100
AcDbLine
 10
35.26755765402708
 20
8.091317115621222
 30
0.0
 11
35.26755765402708
 21
8.466317115620768
 31
0.0
  0
LINE
  5
8B2
330
860
100
AcDbEntity
  8
0
100
AcDbLine
 10
35.26755765402686
 20
7.341317115620768
 30
0.0
 11
35.26755765402686
 21
7.716317115620768
 31
0.0
  0
LINE
  5
8B3
330
860
100
AcDbEntity
  8
0
100
AcDbLine
 10
34.51755765402686
 20
8.091317115621222
 30
0.0
 11
34.51755765402663
 21
8.466317115620768
 31
0.0
  0
LINE
  5
8B4
330
860
100
AcDbEntity
  8
0
100
AcDbLine
 10
34.51755765402686
 20
7.341317115620768
 30
0.0
 11
34.51755765402708
 21
7.716317115620768
 31
0.0
  0
LINE
  5
8B5
330
860
100
AcDbEntity
  8
0
100
AcDbLine
 10
34.51755765402663
 20
8.841317115621222
 30
0.0
 11
34.51755765402686
 21
9.216317115621222
 31
0.0
  0
LINE
  5
8B6
330
860
100
AcDbEntity
  8
0
100
AcDbLine
 10
35.26755765402708
 20
8.841317115621222
 30
0.0
 11
35.26755765402708
 21
9.216317115621222
 31
0.0
  0
TEXT
  5
8B7
330
860
100
AcDbEntity
  8
0
100
AcDbText
 10
16.53513144719306
 20
4.67568847602875
 30
0.0
 40
0.75
  1
BALUSTRADE PIER "TP" DETAILS.
 41
0.8
 51
10.0
  7
ROMANS
 72
     4
 11
23.94941716147877
 21
5.122117047457322
 31
0.0
100
AcDbText
  0
TEXT
  5
8B8
330
860
100
AcDbEntity
  8
0
100
AcDbText
 10
30.25151704973541
 20
27.82560747658862
 30
0.0
 40
0.5
  1
2 #4'S LONG WAY.
 41
0.8
 51
10.0
  7
ROMANS
100
AcDbText
  0
LWPOLYLINE
  5
8B9
330
860
100
AcDbEntity
  8
0
100
AcDbPolyline
 90
        2
 70
     0
 43
0.0625
 10
15.77237672972842
 20
3.695523185762795
 10
32.12644612016083
 20
3.695523185762795
  0
TEXT
  5
8BA
330
860
100
AcDbEntity
  8
0
100
AcDbText
 10
27.32406002684729
 20
2.268935534561933
 30
0.0
 40
0.5
  1
3"= 1'-0"
 41
0.8
 51
10.0
  7
ROMANS
100
AcDbText
  0
LWPOLYLINE
  5
8BB
330
860
100
AcDbEntity
  8
0
100
AcDbPolyline
 90
        2
 70
     0
 43
0.0625
 10
14.56794862014339
 20
41.16798019231191
 10
15.06794862014339
 20
41.16798019231191
  0
LWPOLYLINE
  5
8BC
330
860
100
AcDbEntity
  8
0
100
AcDbPolyline
 90
        2
 70
     0
 43
0.0625
 10
15.56794862014339
 20
41.16798019231191
 10
16.06794862014339
 20
41.16798019231191
  0
LWPOLYLINE
  5
8BD
330
860
100
AcDbEntity
  8
0
100
AcDbPolyline
 90
        2
 70
     0
 43
0.0625
 10
16.56794862014339
 20
41.16798019231191
 10
17.06794862014339
 20
41.16798019231191
  0
LWPOLYLINE
  5
8BE
330
860
100
AcDbEntity
  8
0
100
AcDbPolyline
 90
        2
 70
     0
 43
0.0625
 10
17.56794862014339
 20
41.16798019231191
 10
18.06794862014339
 20
41.16798019231191
  0
LWPOLYLINE
  5
8BF
330
860
100
AcDbEntity
  8
0
100
AcDbPolyline
 90
        2
 70
     0
 43
0.0625
 10
18.56794862014339
 20
40.91798019231191
 10
18.56794862014339
 20
41.16798019231191
  0
LWPOLYLINE
  5
8C0
330
860
100
AcDbEntity
  8
0
100
AcDbPolyline
 90
        2
 70
     0
 43
0.0625
 10
20.3179486201434
 20
49.91798019231191
 10
20.3179486201434
 20
50.41798019231191
  0
LWPOLYLINE
  5
8C1
330
860
100
AcDbEntity
  8
0
100
AcDbPolyline
 90
        2
 70
     0
 43
0.0625
 10
20.3179486201434
 20
48.91798019231192
 10
20.3179486201434
 20
49.41798019231192
  0
LWPOLYLINE
  5
8C2
330
860
100
AcDbEntity
  8
0
100
AcDbPolyline
 90
        2
 70
     0
 43
0.0625
 10
20.3179486201434
 20
47.91798019231191
 10
20.3179486201434
 20
48.41798019231191
  0
LWPOLYLINE
  5
8C3
330
860
100
AcDbEntity
  8
0
100
AcDbPolyline
 90
        2
 70
     0
 43
0.0625
 10
20.3179486201434
 20
46.91798019231192
 10
20.3179486201434
 20
47.41798019231191
  0
LWPOLYLINE
  5
8C4
330
860
100
AcDbEntity
  8
0
100
AcDbPolyline
 90
        2
 70
     0
 43
0.0625
 10
20.3179486201434
 20
45.91798019231191
 10
20.3179486201434
 20
46.41798019231191
  0
LWPOLYLINE
  5
8C5
330
860
100
AcDbEntity
  8
0
100
AcDbPolyline
 90
        2
 70
     0
 43
0.0625
 10
20.3179486201434
 20
44.91798019231191
 10
20.3179486201434
 20
45.41798019231191
  0
LWPOLYLINE
  5
8C6
330
860
100
AcDbEntity
  8
0
100
AcDbPolyline
 90
        2
 70
     0
 43
0.0625
 10
20.3179486201434
 20
43.91798019231191
 10
20.3179486201434
 20
44.41798019231192
  0
LWPOLYLINE
  5
8C7
330
860
100
AcDbEntity
  8
0
100
AcDbPolyline
 90
        2
 70
     0
 43
0.0625
 10
20.3179486201434
 20
42.91798019231191
 10
20.3179486201434
 20
43.41798019231191
  0
LWPOLYLINE
  5
8C8
330
860
100
AcDbEntity
  8
0
100
AcDbPolyline
 90
        2
 70
     0
 43
0.0625
 10
20.56794862014339
 20
42.91798019231191
 10
20.3179486201434
 20
42.91798019231191
  0
LWPOLYLINE
  5
8C9
330
860
100
AcDbEntity
  8
0
100
AcDbPolyline
 90
        2
 70
     0
 43
0.0625
 10
20.56794862014339
 20
54.91798019231191
 10
20.3179486201434
 20
54.91798019231191
  0
LWPOLYLINE
  5
8CA
330
860
100
AcDbEntity
  8
0
100
AcDbPolyline
 90
        2
 70
     0
 43
0.0625
 10
20.3179486201434
 20
53.91798019231192
 10
20.3179486201434
 20
54.41798019231192
  0
LWPOLYLINE
  5
8CB
330
860
100
AcDbEntity
  8
0
100
AcDbPolyline
 90
        2
 70
     0
 43
0.0625
 10
20.3179486201434
 20
52.91798019231191
 10
20.3179486201434
 20
53.41798019231191
  0
LWPOLYLINE
  5
8CC
330
860
100
AcDbEntity
  8
0
100
AcDbPolyline
 90
        2
 70
     0
 43
0.0625
 10
20.3179486201434
 20
51.91798019231192
 10
20.3179486201434
 20
52.41798019231191
  0
LWPOLYLINE
  5
8CD
330
860
100
AcDbEntity
  8
0
100
AcDbPolyline
 90
        2
 70
     0
 43
0.0625
 10
20.3179486201434
 20
50.91798019231191
 10
20.3179486201434
 20
51.41798019231192
  0
LWPOLYLINE
  5
8CE
330
860
100
AcDbEntity
  8
0
100
AcDbPolyline
 90
        2
 70
     0
 43
0.0625
 10
14.56794862014339
 20
56.66798019231191
 10
14.06794862014339
 20
56.66798019231191
  0
LWPOLYLINE
  5
8CF
330
860
100
AcDbEntity
  8
0
100
AcDbPolyline
 90
        2
 70
     0
 43
0.0625
 10
15.56794862014339
 20
56.66798019231191
 10
15.06794862014339
 20
56.66798019231191
  0
LWPOLYLINE
  5
8D0
330
860
100
AcDbEntity
  8
0
100
AcDbPolyline
 90
        2
 70
     0
 43
0.0625
 10
16.56794862014339
 20
56.66798019231191
 10
16.06794862014339
 20
56.66798019231191
  0
LWPOLYLINE
  5
8D1
330
860
100
AcDbEntity
  8
0
100
AcDbPolyline
 90
        2
 70
     0
 43
0.0625
 10
17.56794862014339
 20
56.66798019231191
 10
17.06794862014339
 20
56.66798019231191
  0
LWPOLYLINE
  5
8D2
330
860
100
AcDbEntity
  8
0
100
AcDbPolyline
 90
        2
 70
     0
 43
0.0625
 10
18.56794862014339
 20
56.66798019231191
 10
18.06794862014339
 20
56.66798019231191
  0
LWPOLYLINE
  5
8D3
330
860
100
AcDbEntity
  8
0
100
AcDbPolyline
 90
        2
 70
     0
 43
0.0625
 10
18.56794862014339
 20
56.91798019231192
 10
18.56794862014339
 20
56.66798019231191
  0
DIMENSION
  5
8D4
330
860
100
AcDbEntity
  8
0
100
AcDbDimension
  2
*D11
 10
23.0031183625033
 20
56.91798019231192
 30
0.0
 11
22.33049931488426
 21
48.91798019231192
 31
0.0
 12
-1263.880152714835
 22
-3202.028915553677
 32
0.0
 71
     5
 42
-1.0
  3
STANDARD
100
AcDbAlignedDimension
 13
20.06794862014339
 23
40.91798019231191
 33
0.0
 14
20.06794862014339
 24
56.91798019231192
 34
0.0
 50
90.0
100
AcDbRotatedDimension
  0
LINE
  5
8D5
330
860
100
AcDbEntity
  8
0
100
AcDbLine
 10
33.27619686630169
 20
35.34131711562077
 30
0.0
 11
36.10939114752727
 21
35.34131711562031
 31
0.0
  0
LEADER
  5
8D6
330
860
100
AcDbEntity
  8
0
100
AcDbLeader
  3
STANDARD
 76
     3
 10
34.42615412770101
 20
45.0745081520854
 30
0.0
 10
31.57749414835416
 20
47.53771413808135
 30
0.0
 10
38.8634786123257
 20
47.53771413808135
 30
0.0
1001
ACAD
1000
DSTYLE
1002
{
1070
     5
1000

1070
   342
1005
0
1002
}
  0
TEXT
  5
8D7
330
860
100
AcDbEntity
  8
0
100
AcDbText
 10
32.56357008040504
 20
47.64718650940722
 30
0.0
 40
0.5
  1
3/4"%%C DOWEL HOLE
 41
0.8
 51
10.0
  7
ROMANS
100
AcDbText
  0
TEXT
  5
8D8
330
860
100
AcDbEntity
  8
0
100
AcDbText
 10
32.72791033254543
 20
46.82612198773767
 30
0.0
 40
0.5
  1
ONE @ EACH END.
 41
0.8
 51
10.0
  7
ROMANS
100
AcDbText
  0
DIMENSION
  5
8D9
330
860
100
AcDbEntity
  8
0
100
AcDbDimension
  2
*D23
 10
36.61741867927594
 20
33.84131711562076
 30
0.0
 11
36.06960254138175
 21
32.45750541936468
 31
0.0
 12
-1241.555543680951
 22
-3202.028915553677
 32
0.0
 70
   128
 71
     5
 42
-1.0
  3
STANDARD
100
AcDbAlignedDimension
 13
42.89255765402685
 23
35.34131711562077
 33
0.0
 14
39.51755765402685
 24
33.84131711562076
 34
0.0
 50
90.0
100
AcDbRotatedDimension
  0
DIMENSION
  5
8DA
330
860
100
AcDbEntity
  8
0
100
AcDbDimension
  2
*D18
 10
42.89255765402685
 20
38.04076404029729
 30
0.0
 11
34.89255765402686
 21
38.71338308791655
 31
0.0
 12
-1241.555543680951
 22
-3202.028915553677
 32
0.0
 71
     5
 42
-1.0
  3
STANDARD
100
AcDbAlignedDimension
 13
26.89255765402686
 23
35.34131711562077
 33
0.0
 14
42.89255765402685
 24
41.41798019231191
 34
0.0
100
AcDbRotatedDimension
  0
LWPOLYLINE
  5
8DB
330
860
100
AcDbEntity
  8
0
100
AcDbPolyline
 90
        2
 70
     0
 43
0.0625
 10
35.89255765402686
 20
41.16798019231191
 10
36.39255765402686
 20
41.16798019231191
  0
LWPOLYLINE
  5
8DC
330
860
100
AcDbEntity
  8
0
100
AcDbPolyline
 90
        6
 70
     0
 43
0.0625
 10
26.89255765402686
 20
48.54298019231191
 10
26.89255765402686
 20
41.41798019231191
 10
27.39255765402686
 20
40.91798019231191
 10
42.39255765402686
 20
40.91798019231191
 10
42.89255765402685
 20
41.41798019231191
 10
42.89255765402685
 20
48.54298019231191
  0
LINE
  5
8DD
330
860
100
AcDbEntity
  8
0
100
AcDbLine
 10
34.89255765402686
 20
35.77285947642667
 30
0.0
 11
34.89255765402686
 21
32.90301518035812
 31
0.0
  0
LINE
  5
8DE
330
860
100
AcDbEntity
  8
0
100
AcDbLine
 10
35.09013509754913
 20
33.46631711562031
 30
0.0
 11
35.26755765402686
 21
33.46631711562031
 31
0.0
  0
LINE
  5
8DF
330
860
100
AcDbEntity
  8
0
100
AcDbLine
 10
34.51755765402686
 20
33.46631711562031
 30
0.0
 11
34.71870593510903
 21
33.46631711562031
 31
0.0
  0
LINE
  5
8E0
330
860
100
AcDbEntity
  8
0
100
AcDbLine
 10
35.26755765402708
 20
34.59131711562031
 30
0.0
 11
35.26755765402708
 21
34.21631711562076
 31
0.0
  0
LINE
  5
8E1
330
860
100
AcDbEntity
  8
0
100
AcDbLine
 10
35.26755765402686
 20
35.34131711562077
 30
0.0
 11
35.26755765402686
 21
34.96631711562077
 31
0.0
  0
LINE
  5
8E2
330
860
100
AcDbEntity
  8
0
100
AcDbLine
 10
34.51755765402686
 20
34.59131711562031
 30
0.0
 11
34.51755765402663
 21
34.21631711562076
 31
0.0
  0
LINE
  5
8E3
330
860
100
AcDbEntity
  8
0
100
AcDbLine
 10
34.51755765402686
 20
35.34131711562077
 30
0.0
 11
34.51755765402708
 21
34.96631711562077
 31
0.0
  0
LINE
  5
8E4
330
860
100
AcDbEntity
  8
0
100
AcDbLine
 10
34.51755765402663
 20
33.84131711562031
 30
0.0
 11
34.51755765402686
 21
33.46631711562031
 31
0.0
  0
LINE
  5
8E5
330
860
100
AcDbEntity
  8
0
100
AcDbLine
 10
35.26755765402708
 20
33.84131711562031
 30
0.0
 11
35.26755765402708
 21
33.46631711562031
 31
0.0
  0
CIRCLE
  5
8E6
330
860
100
AcDbEntity
  8
0
100
AcDbCircle
 10
34.89255765402686
 20
44.73048019231192
 30
0.0
 40
0.375
  0
DIMENSION
  5
8E7
330
860
100
AcDbEntity
  8
0
100
AcDbDimension
  2
*D22
 10
28.89255765402777
 20
33.84131711562122
 30
0.0
 11
31.30358607940616
 21
31.74591326902009
 31
0.0
 12
-1241.555543680951
 22
-3202.028915553677
 32
0.0
 70
   132
 71
     5
 42
-1.0
  3
STANDARD
100
AcDbRadialDimension
 15
29.91041175113696
 25
32.91687239742623
 35
0.0
 40
0.0
1001
ACAD
1000
DSTYLE
1002
{
1070
   288
1070
     1
1002
}
  0
DIMENSION
  5
8E8
330
860
100
AcDbEntity
  8
0
100
AcDbDimension
  2
*D17
 10
27.39255765402686
 20
36.39862878646454
 30
0.0
 11
28.89318589421782
 21
36.89126998366373
 31
0.0
 12
-1241.555543680951
 22
-3202.028915553677
 32
0.0
 70
   128
 71
     5
 42
-1.0
  3
STANDARD
100
AcDbAlignedDimension
 13
26.89255765402686
 23
35.34131711562077
 33
0.0
 14
27.39255765402686
 24
35.34131711562077
 34
0.0
100
AcDbRotatedDimension
  0
DIMENSION
  5
8E9
330
860
100
AcDbEntity
  8
0
100
AcDbDimension
  2
*D16
 10
28.45493757312942
 20
41.16798019231191
 30
0.0
 11
27.96189387056983
 21
42.47452239410267
 31
0.0
 12
-1241.555543680951
 22
-3202.028915553677
 32
0.0
 70
   128
 71
     5
 42
-1.0
  3
STANDARD
100
AcDbAlignedDimension
 13
28.89255765402685
 23
40.91798019231191
 33
0.0
 14
28.89255765402685
 24
41.16798019231191
 34
0.0
 50
90.0
100
AcDbRotatedDimension
  0
LWPOLYLINE
  5
8EA
330
860
100
AcDbEntity
  8
0
100
AcDbPolyline
 90
        2
 70
     0
 43
0.0625
 10
27.14255765402686
 20
46.91798019231192
 10
27.14255765402686
 20
46.41798019231191
  0
LWPOLYLINE
  5
8EB
330
860
100
AcDbEntity
  8
0
100
AcDbPolyline
 90
        2
 70
     0
 43
0.0625
 10
27.14255765402686
 20
45.91798019231191
 10
27.14255765402686
 20
45.41798019231191
  0
LWPOLYLINE
  5
8EC
330
860
100
AcDbEntity
  8
0
100
AcDbPolyline
 90
        2
 70
     0
 43
0.0625
 10
27.14255765402686
 20
44.91798019231191
 10
27.14255765402686
 20
44.41798019231192
  0
LWPOLYLINE
  5
8ED
330
860
100
AcDbEntity
  8
0
100
AcDbPolyline
 90
        2
 70
     0
 43
0.0625
 10
27.14255765402686
 20
43.91798019231191
 10
27.14255765402686
 20
43.41798019231191
  0
LWPOLYLINE
  5
8EE
330
860
100
AcDbEntity
  8
0
100
AcDbPolyline
 90
        2
 70
     0
 43
0.0625
 10
26.89255765402686
 20
42.91798019231191
 10
27.14255765402686
 20
42.91798019231191
  0
LWPOLYLINE
  5
8EF
330
860
100
AcDbEntity
  8
0
100
AcDbPolyline
 90
        2
 70
     0
 43
0.0625
 10
34.89255765402686
 20
41.16798019231191
 10
35.39255765402685
 20
41.16798019231191
  0
LWPOLYLINE
  5
8F0
330
860
100
AcDbEntity
  8
0
100
AcDbPolyline
 90
        2
 70
     0
 43
0.0625
 10
33.89255765402686
 20
41.16798019231191
 10
34.39255765402686
 20
41.16798019231191
  0
LWPOLYLINE
  5
8F1
330
860
100
AcDbEntity
  8
0
100
AcDbPolyline
 90
        2
 70
     0
 43
0.0625
 10
32.89255765402685
 20
41.16798019231191
 10
33.39255765402686
 20
41.16798019231191
  0
LWPOLYLINE
  5
8F2
330
860
100
AcDbEntity
  8
0
100
AcDbPolyline
 90
        2
 70
     0
 43
0.0625
 10
31.89255765402686
 20
41.16798019231191
 10
32.39255765402686
 20
41.16798019231191
  0
LWPOLYLINE
  5
8F3
330
860
100
AcDbEntity
  8
0
100
AcDbPolyline
 90
        2
 70
     0
 43
0.0625
 10
30.89255765402686
 20
41.16798019231191
 10
31.39255765402686
 20
41.16798019231191
  0
LWPOLYLINE
  5
8F4
330
860
100
AcDbEntity
  8
0
100
AcDbPolyline
 90
        2
 70
     0
 43
0.0625
 10
29.89255765402686
 20
41.16798019231191
 10
30.39255765402685
 20
41.16798019231191
  0
LWPOLYLINE
  5
8F5
330
860
100
AcDbEntity
  8
0
100
AcDbPolyline
 90
        2
 70
     0
 43
0.0625
 10
28.89255765402685
 20
41.16798019231191
 10
29.39255765402686
 20
41.16798019231191
  0
LWPOLYLINE
  5
8F6
330
860
100
AcDbEntity
  8
0
100
AcDbPolyline
 90
        2
 70
     0
 43
0.0625
 10
28.89255765402685
 20
40.91798019231191
 10
28.89255765402685
 20
41.16798019231191
  0
DIMENSION
  5
8F7
330
860
100
AcDbEntity
  8
0
100
AcDbDimension
  2
*D19
 10
45.32772739638676
 20
48.54298019231191
 30
0.0
 11
44.57177501543447
 21
44.73048019231192
 31
0.0
 12
-1263.880152714835
 22
-3202.028915553677
 32
0.0
 71
     5
 42
-1.0
  3
STANDARD
100
AcDbAlignedDimension
 13
42.39255765402686
 23
40.91798019231191
 33
0.0
 14
42.39255765402686
 24
48.54298019231191
 34
0.0
 50
90.0
100
AcDbRotatedDimension
  0
LWPOLYLINE
  5
8F8
330
860
100
AcDbEntity
  8
0
100
AcDbPolyline
 90
        2
 70
     0
 43
0.0625
 10
42.89255765402685
 20
42.91798019231191
 10
42.64255765402686
 20
42.91798019231191
  0
LWPOLYLINE
  5
8F9
330
860
100
AcDbEntity
  8
0
100
AcDbPolyline
 90
        2
 70
     0
 43
0.0625
 10
42.64255765402686
 20
42.91798019231191
 10
42.64255765402686
 20
43.41798019231191
  0
LWPOLYLINE
  5
8FA
330
860
100
AcDbEntity
  8
0
100
AcDbPolyline
 90
        2
 70
     0
 43
0.0625
 10
42.64255765402686
 20
43.91798019231191
 10
42.64255765402686
 20
44.41798019231192
  0
LWPOLYLINE
  5
8FB
330
860
100
AcDbEntity
  8
0
100
AcDbPolyline
 90
        2
 70
     0
 43
0.0625
 10
42.64255765402686
 20
44.91798019231191
 10
42.64255765402686
 20
45.41798019231191
  0
LWPOLYLINE
  5
8FC
330
860
100
AcDbEntity
  8
0
100
AcDbPolyline
 90
        2
 70
     0
 43
0.0625
 10
42.64255765402686
 20
45.91798019231191
 10
42.64255765402686
 20
46.41798019231191
  0
LWPOLYLINE
  5
8FD
330
860
100
AcDbEntity
  8
0
100
AcDbPolyline
 90
        2
 70
     0
 43
0.0625
 10
42.64255765402686
 20
46.91798019231192
 10
42.64255765402686
 20
47.04298019231191
  0
LWPOLYLINE
  5
8FE
330
860
100
AcDbEntity
  8
0
100
AcDbPolyline
 90
        2
 70
     0
 43
0.0625
 10
40.89255765402685
 20
40.91798019231191
 10
40.89255765402685
 20
41.16798019231191
  0
LWPOLYLINE
  5
8FF
330
860
100
AcDbEntity
  8
0
100
AcDbPolyline
 90
        2
 70
     0
 43
0.0625
 10
39.89255765402686
 20
41.16798019231191
 10
40.39255765402685
 20
41.16798019231191
  0
LWPOLYLINE
  5
900
330
860
100
AcDbEntity
  8
0
100
AcDbPolyline
 90
        2
 70
     0
 43
0.0625
 10
38.89255765402685
 20
41.16798019231191
 10
39.39255765402686
 20
41.16798019231191
  0
LWPOLYLINE
  5
901
330
860
100
AcDbEntity
  8
0
100
AcDbPolyline
 90
        2
 70
     0
 43
0.0625
 10
37.89255765402685
 20
41.16798019231191
 10
38.39255765402686
 20
41.16798019231191
  0
LWPOLYLINE
  5
902
330
860
100
AcDbEntity
  8
0
100
AcDbPolyline
 90
        2
 70
     0
 43
0.0625
 10
36.89255765402686
 20
41.16798019231191
 10
37.39255765402686
 20
41.16798019231191
  0
LWPOLYLINE
  5
903
330
860
100
AcDbEntity
  8
0
100
AcDbPolyline
 90
        2
 70
     0
 43
0.0625
 10
26.89255765402686
 20
47.04298019231191
 10
27.15721864548504
 20
47.04298019231191
  0
LWPOLYLINE
  5
904
330
860
100
AcDbEntity
  8
0
100
AcDbPolyline
 90
        2
 70
     0
 43
0.0625
 10
42.89255765402685
 20
47.04298019231191
 10
42.64255765402686
 20
47.04298019231191
  0
LWPOLYLINE
  5
905
330
860
100
AcDbEntity
  8
0
100
AcDbPolyline
 90
        2
 70
     0
 43
0.0625
 10
26.89255765402686
 20
48.54298019231191
 10
42.89255765402685
 20
48.54298019231191
  0
ENDBLK
  5
907
330
860
100
AcDbEntity
  8
0
 62
     7
100
AcDbBlockEnd
  0
BLOCK
  5
943
330
90B
100
AcDbEntity
  8
0
 62
     7
100
AcDbBlockBegin
  2
TOPA
 70
     0
 10
0.0
 20
0.0
 30
0.0
  3
TOPA
  1

  0
LINE
  5
90C
330
90B
100
AcDbEntity
  8
0
100
AcDbLine
 10
4.803458389110573
 20
0.0370550198640558
 30
0.0
 11
-5.193264451520462
 21
0.0370550198636011
 31
0.0
  0
LWPOLYLINE
  5
90D
330
90B
100
AcDbEntity
  8
0
100
AcDbPolyline
 90
        3
 70
     0
 43
0.0625
 10
6.790830824806334
 20
3.407507979841284
 10
-0.1949030312055129
 20
4.156951890578966
 10
-7.194903031205512
 20
3.408592033239983
  0
LWPOLYLINE
  5
90E
330
90B
100
AcDbEntity
  8
0
100
AcDbPolyline
 90
        2
 70
     0
 43
0.015625
 10
-6.65730496126298
 20
2.011226067361803
 42
0.3260930663123111
 10
-7.180636887216451
 20
2.529983767778958
  0
LWPOLYLINE
  5
90F
330
90B
100
AcDbEntity
  8
0
100
AcDbPolyline
 90
        2
 70
     0
 43
0.0625
 10
-6.65730496126298
 20
2.011226067361803
 42
0.3260930663124294
 10
-7.180636887216451
 20
2.529983767778958
  0
LWPOLYLINE
  5
910
330
90B
100
AcDbEntity
  8
0
100
AcDbPolyline
 90
        3
 70
     0
 43
0.015625
 10
-5.688268945702475
 20
0.7112415786887141
 10
-5.719959627922662
 20
0.9964664155190803
 42
0.3162865687620653
 10
-5.791323721746493
 20
1.07729093754142
  0
LWPOLYLINE
  5
911
330
90B
100
AcDbEntity
  8
0
100
AcDbPolyline
 90
        2
 70
     0
 43
0.015625
 10
-5.193264451520462
 20
0.0370550198636011
 42
0.2641394196663129
 10
-5.599287158504239
 20
0.5020082294154236
  0
LWPOLYLINE
  5
912
330
90B
100
AcDbEntity
  8
0
100
AcDbPolyline
 90
        2
 70
     0
 43
0.015625
 10
-5.688268945702475
 20
0.7112415786887141
 42
0.2405217378281349
 10
-5.599287158504239
 20
0.5020082294154236
  0
LWPOLYLINE
  5
913
330
90B
100
AcDbEntity
  8
0
100
AcDbPolyline
 90
        2
 70
     0
 43
0.015625
 10
-6.65730496126298
 20
2.011226067361803
 42
0.3102794031261575
 10
-5.791323721746493
 20
1.07729093754142
  0
LWPOLYLINE
  5
914
330
90B
100
AcDbEntity
  8
0
100
AcDbPolyline
 90
        2
 70
     0
 43
0.0625
 10
-5.193264451520462
 20
0.0370550198636011
 42
0.2641394196664028
 10
-5.599287158504694
 20
0.5020082294154236
  0
LWPOLYLINE
  5
915
330
90B
100
AcDbEntity
  8
0
100
AcDbPolyline
 90
        2
 70
     0
 43
0.0625
 10
-6.657304955552262
 20
2.011226028510009
 42
0.3102793839967612
 10
-5.791323760041905
 20
1.07729094616161
  0
LWPOLYLINE
  5
916
330
90B
100
AcDbEntity
  8
0
100
AcDbPolyline
 90
        3
 70
     0
 43
0.0625
 10
-5.719959627922662
 20
0.9964664155190803
 10
-5.688268945702475
 20
0.7112415786887141
 42
0.2405217378278687
 10
-5.599287158504694
 20
0.5020082294154236
  0
LWPOLYLINE
  5
917
330
90B
100
AcDbEntity
  8
0
100
AcDbPolyline
 90
        2
 70
     0
 43
0.0625
 10
-5.719959627922662
 20
0.996466415519535
 42
0.2267278650325836
 10
-5.791323721746266
 20
1.07729093754142
  0
LWPOLYLINE
  5
918
330
90B
100
AcDbEntity
  8
RIGHT
100
AcDbPolyline
 90
        2
 70
     0
 43
0.015625
 10
-5.805589865734646
 20
1.072742456978176
 42
-0.3102794031261578
 10
-6.671571105251359
 20
2.006677586798559
  0
LWPOLYLINE
  5
919
330
90B
100
AcDbEntity
  8
RIGHT
100
AcDbPolyline
 90
        2
 70
     0
 43
0.015625
 10
-5.613553302492618
 20
0.4974597488521795
 42
-0.2641394196663124
 10
-5.207530595508615
 20
0.032506539300357
  0
LWPOLYLINE
  5
91A
330
90B
100
AcDbEntity
  8
RIGHT
100
AcDbPolyline
 90
        2
 70
     0
 43
0.015625
 10
-5.613553302492618
 20
0.4974597488521795
 42
-0.2405217378281345
 10
-5.702535089690854
 20
0.70669309812547
  0
LWPOLYLINE
  5
91B
330
90B
100
AcDbEntity
  8
RIGHT
100
AcDbPolyline
 90
        3
 70
     0
 43
0.015625
 10
-5.805589865734646
 20
1.072742456978176
 42
-0.3162865687620697
 10
-5.734225771910814
 20
0.9919179349558362
 10
-5.702535089690854
 20
0.70669309812547
  0
LWPOLYLINE
  5
91C
330
90B
100
AcDbEntity
  8
0
100
AcDbPolyline
 90
        2
 70
     0
 43
0.0625
 10
-7.180636887216451
 20
3.409701330683219
 10
-7.180636887217815
 20
2.529983767778958
  0
LINE
  5
91D
330
90B
100
AcDbEntity
  8
0
100
AcDbLine
 10
-7.180636887216451
 20
3.412055019863601
 30
0.0
 11
-7.180636887216451
 21
2.529983767778958
 31
0.0
  0
ARC
  5
91E
330
90B
100
AcDbEntity
  8
0
100
AcDbCircle
 10
-5.52433688721635
 20
2.193305019863601
 30
0.0
 40
1.147505730597223
100
AcDbArc
 50
189.1299200209077
 51
256.5458536994319
  0
ARC
  5
91F
330
90B
100
AcDbEntity
  8
0
100
AcDbCircle
 10
-5.805636887216223
 20
-0.087944980136399
 30
0.0
 40
0.625
100
AcDbArc
 50
11.5369590328309
 51
70.72153922280143
  0
ARC
  5
920
330
90B
100
AcDbEntity
  8
0
100
AcDbCircle
 10
-5.813136262694797
 20
0.9861137717743986
 30
0.0
 40
0.09375
100
AcDbArc
 50
6.340000000005793
 51
76.54585369943186
  0
LINE
  5
921
330
90B
100
AcDbEntity
  8
0
100
AcDbLine
 10
-5.688268945702475
 20
0.7112415786887141
 30
0.0
 11
-5.719959627922662
 21
0.9964664155190803
 31
0.0
  0
ARC
  5
922
330
90B
100
AcDbEntity
  8
0
100
AcDbCircle
 10
-5.461836887216122
 20
0.6839999978064953
 30
0.0
 40
0.2280648610359433
100
AcDbArc
 50
173.1398324309641
 51
232.9378750585104
  0
ARC
  5
923
330
90B
100
AcDbEntity
  8
0
100
AcDbCircle
 10
-7.274386887216223
 20
1.912055019863601
 30
0.0
 40
0.625
100
AcDbArc
 50
9.129920020907777
 51
81.37307344132786
  0
LWPOLYLINE
  5
924
330
90B
100
AcDbEntity
  8
RIGHT
100
AcDbPolyline
 90
        2
 70
     0
 43
0.015625
 10
5.22374724008273
 20
0.4974597488526343
 42
0.2641394196663124
 10
4.817724533098726
 20
0.0325065393008117
  0
LWPOLYLINE
  5
925
330
90B
100
AcDbEntity
  8
0
100
AcDbPolyline
 90
        2
 70
     0
 43
0.0625
 10
4.803458389110573
 20
0.0370550198640558
 42
-0.2641394196664028
 10
5.209481096094805
 20
0.5020082294158783
  0
LWPOLYLINE
  5
926
330
90B
100
AcDbEntity
  8
0
100
AcDbPolyline
 90
        2
 70
     0
 43
0.015625
 10
4.803458389110573
 20
0.0370550198640558
 42
-0.2641394196663129
 10
5.20948109609435
 20
0.5020082294158783
  0
ARC
  5
927
330
90B
100
AcDbEntity
  8
0
100
AcDbCircle
 10
5.415830824806334
 20
-0.0879449801359442
 30
0.0
 40
0.625
100
AcDbArc
 50
109.2784607772108
 51
168.4630409671946
  0
LINE
  5
928
330
90B
100
AcDbEntity
  8
0
100
AcDbLine
 10
-0.1949030312057402
 20
-0.3973162299453179
 30
0.0
 11
-0.1949030312057402
 21
2.472528066123231
 31
0.0
  0
LINE
  5
929
330
90B
100
AcDbEntity
  8
0
100
AcDbLine
 10
0.0026744123165372
 20
1.909226130861043
 30
0.0
 11
0.1800969687942597
 21
1.909226130861043
 31
0.0
  0
LINE
  5
92A
330
90B
100
AcDbEntity
  8
0
100
AcDbLine
 10
-0.5699030312057403
 20
1.909226130861043
 30
0.0
 11
-0.3687547501235713
 21
1.909226130861043
 31
0.0
  0
LINE
  5
92B
330
90B
100
AcDbEntity
  8
0
100
AcDbLine
 10
0.1800969687944871
 20
0.7842261308610432
 30
0.0
 11
0.1800969687944871
 21
1.159226130860588
 31
0.0
  0
LINE
  5
92C
330
90B
100
AcDbEntity
  8
0
100
AcDbLine
 10
0.1800969687942597
 20
0.0342261308605885
 30
0.0
 11
0.1800969687942597
 21
0.4092261308605885
 31
0.0
  0
LINE
  5
92D
330
90B
100
AcDbEntity
  8
0
100
AcDbLine
 10
-0.5699030312057403
 20
0.7842261308610432
 30
0.0
 11
-0.5699030312059677
 21
1.159226130860588
 31
0.0
  0
LINE
  5
92E
330
90B
100
AcDbEntity
  8
0
100
AcDbLine
 10
-0.5699030312057403
 20
0.0342261308605885
 30
0.0
 11
-0.5699030312055129
 21
0.4092261308605885
 31
0.0
  0
LINE
  5
92F
330
90B
100
AcDbEntity
  8
0
100
AcDbLine
 10
-0.5699030312059677
 20
1.534226130861043
 30
0.0
 11
-0.5699030312057403
 21
1.909226130861043
 31
0.0
  0
LINE
  5
930
330
90B
100
AcDbEntity
  8
0
100
AcDbLine
 10
0.1800969687944871
 20
1.534226130861043
 30
0.0
 11
0.1800969687944871
 21
1.909226130861043
 31
0.0
  0
LWPOLYLINE
  5
931
330
90B
100
AcDbEntity
  8
0
100
AcDbPolyline
 90
        2
 70
     0
 43
0.0625
 10
6.790830824806334
 20
3.409701330683674
 10
6.790830824807699
 20
2.529983767779413
  0
LWPOLYLINE
  5
932
330
90B
100
AcDbEntity
  8
RIGHT
100
AcDbPolyline
 90
        3
 70
     0
 43
0.015625
 10
5.415783803324757
 20
1.07274245697863
 42
0.3162865687620697
 10
5.344419709500925
 20
0.9919179349562909
 10
5.312729027280965
 20
0.7066930981259248
  0
LWPOLYLINE
  5
933
330
90B
100
AcDbEntity
  8
RIGHT
100
AcDbPolyline
 90
        2
 70
     0
 43
0.015625
 10
5.22374724008273
 20
0.4974597488526343
 42
0.2405217378281345
 10
5.312729027280965
 20
0.7066930981259248
  0
LWPOLYLINE
  5
934
330
90B
100
AcDbEntity
  8
RIGHT
100
AcDbPolyline
 90
        2
 70
     0
 43
0.015625
 10
5.415783803324757
 20
1.07274245697863
 42
0.3102794031261578
 10
6.28176504284147
 20
2.006677586799014
  0
LWPOLYLINE
  5
935
330
90B
100
AcDbEntity
  8
0
100
AcDbPolyline
 90
        2
 70
     0
 43
0.0625
 10
5.330153565512773
 20
0.9964664155199898
 42
-0.2267278650325836
 10
5.401517659336377
 20
1.077290937541874
  0
LWPOLYLINE
  5
936
330
90B
100
AcDbEntity
  8
0
100
AcDbPolyline
 90
        3
 70
     0
 43
0.0625
 10
5.330153565512773
 20
0.996466415519535
 10
5.298462883292586
 20
0.7112415786891689
 42
-0.2405217378278687
 10
5.209481096094805
 20
0.5020082294158783
  0
LWPOLYLINE
  5
937
330
90B
100
AcDbEntity
  8
0
100
AcDbPolyline
 90
        2
 70
     0
 43
0.0625
 10
6.267498893142374
 20
2.011226028510463
 42
-0.3102793839967612
 10
5.401517697632016
 20
1.077290946162065
  0
LWPOLYLINE
  5
938
330
90B
100
AcDbEntity
  8
0
100
AcDbPolyline
 90
        2
 70
     0
 43
0.015625
 10
6.267498898853091
 20
2.011226067362258
 42
-0.3102794031261575
 10
5.401517659336604
 20
1.077290937541874
  0
LWPOLYLINE
  5
939
330
90B
100
AcDbEntity
  8
0
100
AcDbPolyline
 90
        2
 70
     0
 43
0.015625
 10
5.298462883292586
 20
0.7112415786891689
 42
-0.2405217378281349
 10
5.20948109609435
 20
0.5020082294158783
  0
LWPOLYLINE
  5
93A
330
90B
100
AcDbEntity
  8
0
100
AcDbPolyline
 90
        3
 70
     0
 43
0.015625
 10
5.298462883292586
 20
0.7112415786891689
 10
5.330153565512773
 20
0.996466415519535
 42
-0.3162865687620653
 10
5.401517659336604
 20
1.077290937541874
  0
LWPOLYLINE
  5
93B
330
90B
100
AcDbEntity
  8
0
100
AcDbPolyline
 90
        2
 70
     0
 43
0.0625
 10
6.267498898853091
 20
2.011226067362258
 42
-0.3260930663124293
 10
6.790830824806334
 20
2.529983767779413
  0
LWPOLYLINE
  5
93C
330
90B
100
AcDbEntity
  8
0
100
AcDbPolyline
 90
        2
 70
     0
 43
0.015625
 10
6.267498898853091
 20
2.011226067362258
 42
-0.326093066312311
 10
6.790830824806334
 20
2.529983767779413
  0
LINE
  5
93D
330
90B
100
AcDbEntity
  8
0
100
AcDbLine
 10
6.790830824806334
 20
3.412055019864055
 30
0.0
 11
6.790830824806334
 21
2.529983767779413
 31
0.0
  0
ARC
  5
93E
330
90B
100
AcDbEntity
  8
0
100
AcDbCircle
 10
5.072030824806233
 20
0.68399999780695
 30
0.0
 40
0.2280648610359433
100
AcDbArc
 50
307.0621249415052
 51
6.860167569035859
  0
LINE
  5
93F
330
90B
100
AcDbEntity
  8
0
100
AcDbLine
 10
5.298462883292586
 20
0.7112415786891689
 30
0.0
 11
5.330153565512773
 21
0.996466415519535
 31
0.0
  0
ARC
  5
940
330
90B
100
AcDbEntity
  8
0
100
AcDbCircle
 10
5.423330200284908
 20
0.9861137717748533
 30
0.0
 40
0.09375
100
AcDbArc
 50
103.4541463005868
 51
173.6599999999941
  0
ARC
  5
941
330
90B
100
AcDbEntity
  8
0
100
AcDbCircle
 10
5.134530824806233
 20
2.193305019864055
 30
0.0
 40
1.147505730597223
100
AcDbArc
 50
283.4541463005868
 51
350.8700799790922
  0
ARC
  5
942
330
90B
100
AcDbEntity
  8
0
100
AcDbCircle
 10
6.884580824806334
 20
1.912055019864055
 30
0.0
 40
0.625
100
AcDbArc
 50
98.62692655868499
 51
170.8700799790922
  0
ENDBLK
  5
944
330
90B
100
AcDbEntity
  8
0
 62
     7
100
AcDbBlockEnd
  0
BLOCK
  5
9C2
330
9B7
100
AcDbEntity
  8
0
 62
     7
100
AcDbBlockBegin
  2
*D27
 70
     1
 10
0.0
 20
0.0
 30
0.0
  3
*D27
  1

  0
LINE
  5
127F
330
9B7
100
AcDbEntity
  8
DIM
 62
     0
100
AcDbLine
 10
619.4343173770095
 20
411.6034518988976
 30
0.0
 11
627.2873868882471
 21
411.6034518988976
 31
0.0
  0
LINE
  5
1280
330
9B7
100
AcDbEntity
  8
DIM
 62
     0
100
AcDbLine
 10
619.3433273578988
 20
438.3534518988975
 30
0.0
 11
627.2873868882471
 21
438.3534518988975
 31
0.0
  0
LINE
  5
1281
330
9B7
100
AcDbEntity
  8
DIM
 62
     0
100
AcDbLine
 10
626.6873868882471
 20
412.8034518988975
 30
0.0
 11
626.6873868882471
 21
422.8436574971202
 31
0.0
  0
LINE
  5
1282
330
9B7
100
AcDbEntity
  8
DIM
 62
     0
100
AcDbLine
 10
626.6873868882471
 20
437.1534518988975
 30
0.0
 11
626.6873868882471
 21
427.8596745063335
 31
0.0
  0
MTEXT
  5
1283
330
9B7
100
AcDbEntity
  8
DIM
 62
     0
100
AcDbMText
 10
626.6873868882471
 20
425.3516660017269
 30
0.0
 40
2.399999999999999
 41
0.0
 71
     5
 72
     1
  1
\A1;26 3/4"
 73
     1
 44
1.0
  0
SOLID
  5
1284
330
9B7
100
AcDbEntity
  8
DIM
 62
     0
100
AcDbTrace
 10
626.4873868882471
 20
412.8034518988975
 30
0.0
 11
626.8873868882471
 21
412.8034518988975
 31
0.0
 12
626.6873868882471
 22
411.6034518988976
 32
0.0
 13
626.6873868882471
 23
411.6034518988976
 33
0.0
  0
SOLID
  5
1285
330
9B7
100
AcDbEntity
  8
DIM
 62
     0
100
AcDbTrace
 10
626.4873868882471
 20
437.1534518988975
 30
0.0
 11
626.8873868882471
 21
437.1534518988975
 31
0.0
 12
626.6873868882471
 22
438.3534518988975
 32
0.0
 13
626.6873868882471
 23
438.3534518988975
 33
0.0
  0
POINT
  5
1286
330
9B7
100
AcDbEntity
  8
Defpoints
 62
     0
100
AcDbPoint
 10
617.0343173770095
 20
411.6034518988976
 30
0.0
  0
POINT
  5
1287
330
9B7
100
AcDbEntity
  8
Defpoints
 62
     0
100
AcDbPoint
 10
616.9433273578988
 20
438.3534518988975
 30
0.0
  0
POINT
  5
1288
330
9B7
100
AcDbEntity
  8
Defpoints
 62
     0
100
AcDbPoint
 10
626.6873868882471
 20
438.3534518988975
 30
0.0
  0
ENDBLK
  5
9C3
330
9B7
100
AcDbEntity
  8
0
 62
     7
100
AcDbBlockEnd
  0
BLOCK
  5
A0B
330
A00
100
AcDbEntity
  8
0
 62
     7
100
AcDbBlockBegin
  2
*D28
 70
     1
 10
0.0
 20
0.0
 30
0.0
  3
*D28
  1

  0
LINE
  5
E97
330
A00
100
AcDbEntity
  8
LINEWORK
 62
     0
100
AcDbLine
 10
648.5491631084382
 20
444.1284518988979
 30
0.0
 11
648.5491631084382
 21
448.0196882928155
 31
0.0
  0
LINE
  5
E98
330
A00
100
AcDbEntity
  8
LINEWORK
 62
     0
100
AcDbLine
 10
634.5634292524264
 20
444.1249889122738
 30
0.0
 11
634.5634292524264
 21
448.0196882928155
 31
0.0
  0
LINE
  5
E99
330
A00
100
AcDbEntity
  8
LINEWORK
 62
     0
100
AcDbLine
 10
647.3491631084382
 20
447.4196882928155
 30
0.0
 11
645.876728384031
 21
447.4196882928155
 31
0.0
  0
LINE
  5
E9A
330
A00
100
AcDbEntity
  8
LINEWORK
 62
     0
100
AcDbLine
 10
635.7634292524265
 20
447.4196882928155
 30
0.0
 11
637.4639714740382
 21
447.4196882928155
 31
0.0
  0
MTEXT
  5
E9B
330
A00
100
AcDbEntity
  8
LINEWORK
 62
     0
100
AcDbMText
 10
641.6703499290346
 20
447.4196882928155
 30
0.0
 40
2.399999999999999
 41
0.0
 71
     5
 72
     1
  1
\A1;14"
 73
     1
 44
1.0
1001
ACAD
1000
MTEXTBEGIN
1070
    73
1070
     1
1070
    44
1040
1.0
1070
    74
1070
     0
1000
MTEXTEND
1000
MTEXTBEGIN
1070
    73
1070
     1
1070
    44
1040
1.0
1070
    74
1070
     0
1000
MTEXTEND
1000
MTEXTBEGIN
1070
    73
1070
     1
1070
    44
1040
1.0
1070
    74
1070
     0
1000
MTEXTEND
  0
SOLID
  5
E9C
330
A00
100
AcDbEntity
  8
LINEWORK
 62
     0
100
AcDbTrace
 10
647.3491631084382
 20
447.6196882928156
 30
0.0
 11
647.3491631084382
 21
447.2196882928155
 31
0.0
 12
648.5491631084382
 22
447.4196882928155
 32
0.0
 13
648.5491631084382
 23
447.4196882928155
 33
0.0
  0
SOLID
  5
E9D
330
A00
100
AcDbEntity
  8
LINEWORK
 62
     0
100
AcDbTrace
 10
635.7634292524265
 20
447.6196882928156
 30
0.0
 11
635.7634292524265
 21
447.2196882928155
 31
0.0
 12
634.5634292524264
 22
447.4196882928155
 32
0.0
 13
634.5634292524264
 23
447.4196882928155
 33
0.0
  0
POINT
  5
E9E
330
A00
100
AcDbEntity
  8
Defpoints
 62
     0
100
AcDbPoint
 10
648.5491631084382
 20
441.7284518988979
 30
0.0
  0
POINT
  5
E9F
330
A00
100
AcDbEntity
  8
Defpoints
 62
     0
100
AcDbPoint
 10
634.5634292524264
 20
441.7249889122738
 30
0.0
  0
POINT
  5
EA0
330
A00
100
AcDbEntity
  8
Defpoints
 62
     0
100
AcDbPoint
 10
634.5634292524264
 20
447.4196882928155
 30
0.0
  0
ENDBLK
  5
A0C
330
A00
100
AcDbEntity
  8
0
 62
     7
100
AcDbBlockEnd
  0
BLOCK
  5
A1A
330
A0F
100
AcDbEntity
  8
0
 62
     7
100
AcDbBlockBegin
  2
*D29
 70
     1
 10
0.0
 20
0.0
 30
0.0
  3
*D29
  1

  0
LINE
  5
EA1
330
A0F
100
AcDbEntity
  8
LINEWORK
 62
     0
100
AcDbLine
 10
650.7043056234431
 20
407.2284518988979
 30
0.0
 11
660.472047380631
 21
407.2284518988979
 31
0.0
  0
LINE
  5
EA2
330
A0F
100
AcDbEntity
  8
LINEWORK
 62
     0
100
AcDbLine
 10
643.9634292524264
 20
442.4733487696128
 30
0.0
 11
660.472047380631
 21
442.4733487696128
 31
0.0
  0
LINE
  5
EA3
330
A0F
100
AcDbEntity
  8
LINEWORK
 62
     0
100
AcDbLine
 10
659.872047380631
 20
408.4284518988979
 30
0.0
 11
659.872047380631
 21
422.4468568229729
 31
0.0
  0
LINE
  5
EA4
330
A0F
100
AcDbEntity
  8
LINEWORK
 62
     0
100
AcDbLine
 10
659.872047380631
 20
441.2733487696129
 30
0.0
 11
659.872047380631
 21
427.3370056535895
 31
0.0
  0
MTEXT
  5
EA5
330
A0F
100
AcDbEntity
  8
LINEWORK
 62
     0
100
AcDbMText
 10
659.872047380631
 20
424.8919312382814
 30
0.0
 40
2.399999999999999
 41
0.0
 71
     5
 72
     1
  1
\A1;36"
 73
     1
 44
1.0
1001
ACAD
1000
MTEXTBEGIN
1070
    73
1070
     1
1070
    44
1040
1.0
1070
    74
1070
     0
1000
MTEXTEND
1000
MTEXTBEGIN
1070
    73
1070
     1
1070
    44
1040
1.0
1070
    74
1070
     0
1000
MTEXTEND
1000
MTEXTBEGIN
1070
    73
1070
     1
1070
    44
1040
1.0
1070
    74
1070
     0
1000
MTEXTEND
  0
SOLID
  5
EA6
330
A0F
100
AcDbEntity
  8
LINEWORK
 62
     0
100
AcDbTrace
 10
659.672047380631
 20
408.4284518988979
 30
0.0
 11
660.0720473806311
 21
408.4284518988979
 31
0.0
 12
659.872047380631
 22
407.2284518988979
 32
0.0
 13
659.872047380631
 23
407.2284518988979
 33
0.0
  0
SOLID
  5
EA7
330
A0F
100
AcDbEntity
  8
LINEWORK
 62
     0
100
AcDbTrace
 10
659.672047380631
 20
441.2733487696129
 30
0.0
 11
660.0720473806311
 21
441.2733487696129
 31
0.0
 12
659.872047380631
 22
442.4733487696128
 32
0.0
 13
659.872047380631
 23
442.4733487696128
 33
0.0
  0
POINT
  5
EA8
330
A0F
100
AcDbEntity
  8
Defpoints
 62
     0
100
AcDbPoint
 10
648.3043056234431
 20
407.2284518988979
 30
0.0
  0
POINT
  5
EA9
330
A0F
100
AcDbEntity
  8
Defpoints
 62
     0
100
AcDbPoint
 10
641.5634292524264
 20
442.4733487696128
 30
0.0
  0
POINT
  5
EAA
330
A0F
100
AcDbEntity
  8
Defpoints
 62
     0
100
AcDbPoint
 10
659.872047380631
 20
442.4733487696128
 30
0.0
  0
ENDBLK
  5
A1B
330
A0F
100
AcDbEntity
  8
0
 62
     7
100
AcDbBlockEnd
  0
BLOCK
  5
A72
330
A71
100
AcDbEntity
  8
0
 62
     7
100
AcDbBlockBegin
  2
dowel
 70
     0
 10
0.0
 20
0.0
 30
0.0
  3
dowel
  1

  0
LWPOLYLINE
  5
A74
330
A71
100
AcDbEntity
  8
leaders
  6
DASHED
 62
     7
 48
2.5
100
AcDbPolyline
 90
        4
 70
     1
 43
0.0
 10
-0.3750000000001137
 20
0.0
 10
0.3750000000001137
 20
0.0
 10
0.3750000000001137
 20
4.113445190582979
 10
-0.3750000000001137
 20
4.113445190582979
  0
ENDBLK
  5
A73
330
A71
100
AcDbEntity
  8
0
 62
     7
100
AcDbBlockEnd
  0
BLOCK
  5
A95
330
A8A
100
AcDbEntity
  8
0
 62
     7
100
AcDbBlockBegin
  2
*D31
 70
     1
 10
0.0
 20
0.0
 30
0.0
  3
*D31
  1

  0
LINE
  5
128A
330
A8A
100
AcDbEntity
  8
leaders
 62
     0
100
AcDbLine
 10
585.8822027852975
 20
408.3884518988973
 30
0.0
 11
585.8822027852975
 21
401.1779662489233
 31
0.0
  0
LINE
  5
128B
330
A8A
100
AcDbEntity
  8
leaders
 62
     0
100
AcDbLine
 10
597.8822027852975
 20
408.3884518988973
 30
0.0
 11
597.8822027852975
 21
401.1779662489233
 31
0.0
  0
LINE
  5
128C
330
A8A
100
AcDbEntity
  8
leaders
 62
     0
100
AcDbLine
 10
587.0822027852975
 20
401.7779662489234
 30
0.0
 11
588.1607677637283
 21
401.7779662489234
 31
0.0
  0
LINE
  5
128D
330
A8A
100
AcDbEntity
  8
leaders
 62
     0
100
AcDbLine
 10
596.6822027852974
 20
401.7779662489234
 30
0.0
 11
596.5735246737211
 21
401.7779662489234
 31
0.0
  0
MTEXT
  5
128E
330
A8A
100
AcDbEntity
  8
leaders
 62
     0
100
AcDbMText
 10
592.3671462187248
 20
401.7779662489234
 30
0.0
 40
2.399999999999999
 41
0.0
 71
     5
 72
     1
  1
\A1;12"
 73
     1
 44
1.0
  0
SOLID
  5
128F
330
A8A
100
AcDbEntity
  8
leaders
 62
     0
100
AcDbTrace
 10
587.0822027852975
 20
401.9779662489233
 30
0.0
 11
587.0822027852975
 21
401.5779662489234
 31
0.0
 12
585.8822027852975
 22
401.7779662489234
 32
0.0
 13
585.8822027852975
 23
401.7779662489234
 33
0.0
  0
SOLID
  5
1290
330
A8A
100
AcDbEntity
  8
leaders
 62
     0
100
AcDbTrace
 10
596.6822027852974
 20
401.9779662489233
 30
0.0
 11
596.6822027852974
 21
401.5779662489234
 31
0.0
 12
597.8822027852975
 22
401.7779662489234
 32
0.0
 13
597.8822027852975
 23
401.7779662489234
 33
0.0
  0
POINT
  5
1291
330
A8A
100
AcDbEntity
  8
Defpoints
 62
     0
100
AcDbPoint
 10
585.8822027852975
 20
410.7884518988973
 30
0.0
  0
POINT
  5
1292
330
A8A
100
AcDbEntity
  8
Defpoints
 62
     0
100
AcDbPoint
 10
597.8822027852975
 20
410.7884518988973
 30
0.0
  0
POINT
  5
1293
330
A8A
100
AcDbEntity
  8
Defpoints
 62
     0
100
AcDbPoint
 10
597.8822027852975
 20
401.7779662489234
 30
0.0
  0
ENDBLK
  5
A96
330
A8A
100
AcDbEntity
  8
0
 62
     7
100
AcDbBlockEnd
  0
BLOCK
  5
AA4
330
A99
100
AcDbEntity
  8
0
 62
     7
100
AcDbBlockBegin
  2
*D32
 70
     1
 10
0.0
 20
0.0
 30
0.0
  3
*D32
  1

  0
LINE
  5
A9A
330
A99
100
AcDbEntity
  8
A1
 62
     0
100
AcDbLine
 10
30.33598876180066
 20
28.06479803969585
 30
0.0
 11
30.3359887618006
 21
30.97600743926109
 31
0.0
  0
LINE
  5
A9B
330
A99
100
AcDbEntity
  8
A1
 62
     0
100
AcDbLine
 10
22.08598876180054
 20
28.0647980396957
 30
0.0
 11
22.08598876180049
 21
30.97600743926093
 31
0.0
  0
LINE
  5
A9C
330
A99
100
AcDbEntity
  8
A1
 62
     0
100
AcDbLine
 10
29.8359887618006
 20
30.72600743926108
 30
0.0
 11
29.11347862659727
 21
30.72600743926107
 31
0.0
  0
LINE
  5
A9D
330
A99
100
AcDbEntity
  8
A1
 62
     0
100
AcDbLine
 10
22.58598876180049
 20
30.72600743926094
 30
0.0
 11
23.53091307025425
 21
30.72600743926096
 31
0.0
  0
SOLID
  5
A9E
330
A99
100
AcDbEntity
  8
A1
 62
     0
100
AcDbTrace
 10
29.8359887618006
 20
30.80934077259442
 30
0.0
 11
29.8359887618006
 21
30.64267410592775
 31
0.0
 12
30.3359887618006
 22
30.72600743926109
 32
0.0
 13
30.3359887618006
 23
30.72600743926109
 33
0.0
  0
SOLID
  5
A9F
330
A99
100
AcDbEntity
  8
A1
 62
     0
100
AcDbTrace
 10
22.58598876180049
 20
30.80934077259427
 30
0.0
 11
22.58598876180049
 21
30.64267410592761
 31
0.0
 12
22.08598876180049
 22
30.72600743926093
 32
0.0
 13
22.08598876180049
 23
30.72600743926093
 33
0.0
  0
MTEXT
  5
AA0
330
A99
100
AcDbEntity
  8
A1
 62
     0
100
AcDbMText
 10
26.32219584842576
 20
30.72600743926102
 30
0.0
 40
1.0
 41
0.0
 71
     5
 72
     1
  1
\A1;8 1/4"
 73
     1
 44
1.0
1001
ACAD
1000
MTEXTBEGIN
1070
    73
1070
     1
1070
    44
1040
1.0
1070
    74
1070
     0
1000
MTEXTEND
1000
MTEXTBEGIN
1070
    73
1070
     1
1070
    44
1040
1.0
1070
    74
1070
     0
1000
MTEXTEND
1000
MTEXTBEGIN
1070
    73
1070
     1
1070
    44
1040
1.0
1070
    74
1070
     0
1000
MTEXTEND
1000
MTEXTBEGIN
1070
    73
1070
     1
1070
    44
1040
1.0
1070
    74
1070
     0
1000
MTEXTEND
1000
MTEXTBEGIN
1070
    73
1070
     1
1070
    44
1040
1.0
1070
    74
1070
     0
1000
MTEXTEND
  0
POINT
  5
AA1
330
A99
100
AcDbEntity
  8
Defpoints
 62
     0
100
AcDbPoint
 10
30.33598876180068
 20
27.06479803969585
 30
0.0
  0
POINT
  5
AA2
330
A99
100
AcDbEntity
  8
Defpoints
 62
     0
100
AcDbPoint
 10
22.08598876180056
 20
27.0647980396957
 30
0.0
  0
POINT
  5
AA3
330
A99
100
AcDbEntity
  8
Defpoints
 62
     0
100
AcDbPoint
 10
22.08598876180049
 20
30.72600743926093
 30
0.0
  0
ENDBLK
  5
AA5
330
A99
100
AcDbEntity
  8
0
 62
     7
100
AcDbBlockEnd
  0
BLOCK
  5
AB1
330
AA6
100
AcDbEntity
  8
0
 62
     7
100
AcDbBlockBegin
  2
*D33
 70
     1
 10
0.0
 20
0.0
 30
0.0
  3
*D33
  1

  0
LINE
  5
AA7
330
AA6
100
AcDbEntity
  8
A1
 62
     0
100
AcDbLine
 10
20.08598876180062
 20
19.56479803969573
 30
0.0
 11
20.08598876180062
 21
17.14096422568284
 31
0.0
  0
LINE
  5
AA8
330
AA6
100
AcDbEntity
  8
A1
 62
     0
100
AcDbLine
 10
32.33598876180062
 20
19.56479803969574
 30
0.0
 11
32.33598876180062
 21
17.14096422568284
 31
0.0
  0
LINE
  5
AA9
330
AA6
100
AcDbEntity
  8
A1
 62
     0
100
AcDbLine
 10
20.58598876180062
 20
17.39096422568284
 30
0.0
 11
23.1267031114576
 21
17.39096422568284
 31
0.0
  0
LINE
  5
AAA
330
AA6
100
AcDbEntity
  8
A1
 62
     0
100
AcDbLine
 10
31.83598876180062
 20
17.39096422568284
 30
0.0
 11
29.41585973796363
 21
17.39096422568284
 31
0.0
  0
SOLID
  5
AAB
330
AA6
100
AcDbEntity
  8
A1
 62
     0
100
AcDbTrace
 10
20.58598876180062
 20
17.47429755901617
 30
0.0
 11
20.58598876180062
 21
17.30763089234951
 31
0.0
 12
20.08598876180062
 22
17.39096422568284
 32
0.0
 13
20.08598876180062
 23
17.39096422568284
 33
0.0
  0
SOLID
  5
AAC
330
AA6
100
AcDbEntity
  8
A1
 62
     0
100
AcDbTrace
 10
31.83598876180062
 20
17.47429755901617
 30
0.0
 11
31.83598876180062
 21
17.30763089234951
 31
0.0
 12
32.33598876180062
 22
17.39096422568284
 32
0.0
 13
32.33598876180062
 23
17.39096422568284
 33
0.0
  0
MTEXT
  5
AAD
330
AA6
100
AcDbEntity
  8
A1
 62
     0
100
AcDbMText
 10
26.27128142471062
 20
17.39096422568284
 30
0.0
 40
1.0
 41
0.0
 71
     5
 72
     1
  1
\A1;12 1/4"
 73
     1
 44
1.0
1001
ACAD
1000
MTEXTBEGIN
1070
    73
1070
     1
1070
    44
1040
1.0
1070
    74
1070
     0
1000
MTEXTEND
1000
MTEXTBEGIN
1070
    73
1070
     1
1070
    44
1040
1.0
1070
    74
1070
     0
1000
MTEXTEND
1000
MTEXTBEGIN
1070
    73
1070
     1
1070
    44
1040
1.0
1070
    74
1070
     0
1000
MTEXTEND
1000
MTEXTBEGIN
1070
    73
1070
     1
1070
    44
1040
1.0
1070
    74
1070
     0
1000
MTEXTEND
1000
MTEXTBEGIN
1070
    73
1070
     1
1070
    44
1040
1.0
1070
    74
1070
     0
1000
MTEXTEND
  0
POINT
  5
AAE
330
AA6
100
AcDbEntity
  8
Defpoints
 62
     0
100
AcDbPoint
 10
20.08598876180062
 20
20.56479803969573
 30
0.0
  0
POINT
  5
AAF
330
AA6
100
AcDbEntity
  8
Defpoints
 62
     0
100
AcDbPoint
 10
32.33598876180062
 20
20.56479803969574
 30
0.0
  0
POINT
  5
AB0
330
AA6
100
AcDbEntity
  8
Defpoints
 62
     0
100
AcDbPoint
 10
32.33598876180062
 20
17.39096422568284
 30
0.0
  0
ENDBLK
  5
AB2
330
AA6
100
AcDbEntity
  8
0
 62
     7
100
AcDbBlockEnd
  0
BLOCK
  5
ABE
330
AB3
100
AcDbEntity
  8
0
 62
     7
100
AcDbBlockBegin
  2
*D34
 70
     1
 10
0.0
 20
0.0
 30
0.0
  3
*D34
  1

  0
LINE
  5
AB4
330
AB3
100
AcDbEntity
  8
A1
 62
     0
100
AcDbLine
 10
19.08598876180062
 20
20.56479803969573
 30
0.0
 11
16.39844887713399
 21
20.56479803969573
 31
0.0
  0
LINE
  5
AB5
330
AB3
100
AcDbEntity
  8
A1
 62
     0
100
AcDbLine
 10
21.08598876180056
 20
27.0647980396957
 30
0.0
 11
16.39844887713399
 21
27.0647980396957
 31
0.0
  0
LINE
  5
AB6
330
AB3
100
AcDbEntity
  8
A1
 62
     0
100
AcDbLine
 10
16.64844887713399
 20
21.06479803969573
 30
0.0
 11
16.64844887713399
 21
22.80989381803998
 31
0.0
  0
LINE
  5
AB7
330
AB3
100
AcDbEntity
  8
A1
 62
     0
100
AcDbLine
 10
16.64844887713399
 20
26.5647980396957
 30
0.0
 11
16.64844887713399
 21
24.8999009052122
 31
0.0
  0
SOLID
  5
AB8
330
AB3
100
AcDbEntity
  8
A1
 62
     0
100
AcDbTrace
 10
16.56511554380065
 20
21.06479803969573
 30
0.0
 11
16.73178221046732
 21
21.06479803969573
 31
0.0
 12
16.64844887713399
 22
20.56479803969573
 32
0.0
 13
16.64844887713399
 23
20.56479803969573
 33
0.0
  0
SOLID
  5
AB9
330
AB3
100
AcDbEntity
  8
A1
 62
     0
100
AcDbTrace
 10
16.56511554380066
 20
26.5647980396957
 30
0.0
 11
16.73178221046732
 21
26.5647980396957
 31
0.0
 12
16.64844887713399
 22
27.0647980396957
 32
0.0
 13
16.64844887713399
 23
27.0647980396957
 33
0.0
  0
MTEXT
  5
ABA
330
AB3
100
AcDbEntity
  8
A1
 62
     0
100
AcDbMText
 10
16.64844887713398
 20
23.85489736162609
 30
0.0
 40
1.0
 41
0.0
 71
     5
 72
     1
  1
\A1;6 1/2"
 73
     1
 44
1.0
1001
ACAD
1000
MTEXTBEGIN
1070
    73
1070
     1
1070
    44
1040
1.0
1070
    74
1070
     0
1000
MTEXTEND
1000
MTEXTBEGIN
1070
    73
1070
     1
1070
    44
1040
1.0
1070
    74
1070
     0
1000
MTEXTEND
1000
MTEXTBEGIN
1070
    73
1070
     1
1070
    44
1040
1.0
1070
    74
1070
     0
1000
MTEXTEND
1000
MTEXTBEGIN
1070
    73
1070
     1
1070
    44
1040
1.0
1070
    74
1070
     0
1000
MTEXTEND
1000
MTEXTBEGIN
1070
    73
1070
     1
1070
    44
1040
1.0
1070
    74
1070
     0
1000
MTEXTEND
  0
POINT
  5
ABB
330
AB3
100
AcDbEntity
  8
Defpoints
 62
     0
100
AcDbPoint
 10
20.08598876180062
 20
20.56479803969573
 30
0.0
  0
POINT
  5
ABC
330
AB3
100
AcDbEntity
  8
Defpoints
 62
     0
100
AcDbPoint
 10
22.08598876180056
 20
27.0647980396957
 30
0.0
  0
POINT
  5
ABD
330
AB3
100
AcDbEntity
  8
Defpoints
 62
     0
100
AcDbPoint
 10
16.64844887713399
 20
27.0647980396957
 30
0.0
  0
ENDBLK
  5
ABF
330
AB3
100
AcDbEntity
  8
0
 62
     7
100
AcDbBlockEnd
  0
BLOCK
  5
ACB
330
AC0
100
AcDbEntity
  8
0
 62
     7
100
AcDbBlockBegin
  2
*D35
 70
     1
 10
0.0
 20
0.0
 30
0.0
  3
*D35
  1

  0
LINE
  5
AC1
330
AC0
100
AcDbEntity
  8
A1
 62
     0
100
AcDbLine
 10
33.33598876180062
 20
20.56479803969574
 30
0.0
 11
37.61755535761436
 21
20.56479803969574
 31
0.0
  0
LINE
  5
AC2
330
AC0
100
AcDbEntity
  8
A1
 62
     0
100
AcDbLine
 10
33.33598876180067
 20
23.56479803969574
 30
0.0
 11
37.61755535761436
 21
23.56479803969574
 31
0.0
  0
LINE
  5
AC3
330
AC0
100
AcDbEntity
  8
A1
 62
     0
100
AcDbLine
 10
37.36755535761435
 20
20.06479803969574
 30
0.0
 11
37.36755535761435
 21
19.56479803969574
 31
0.0
  0
LINE
  5
AC4
330
AC0
100
AcDbEntity
  8
A1
 62
     0
100
AcDbLine
 10
37.36755535761435
 20
24.06479803969574
 30
0.0
 11
37.36755535761435
 21
24.56479803969574
 31
0.0
  0
SOLID
  5
AC5
330
AC0
100
AcDbEntity
  8
A1
 62
     0
100
AcDbTrace
 10
37.28422202428102
 20
20.06479803969574
 30
0.0
 11
37.45088869094769
 21
20.06479803969574
 31
0.0
 12
37.36755535761435
 22
20.56479803969574
 32
0.0
 13
37.36755535761435
 23
20.56479803969574
 33
0.0
  0
SOLID
  5
AC6
330
AC0
100
AcDbEntity
  8
A1
 62
     0
100
AcDbTrace
 10
37.28422202428102
 20
24.06479803969574
 30
0.0
 11
37.45088869094769
 21
24.06479803969574
 31
0.0
 12
37.36755535761435
 22
23.56479803969574
 32
0.0
 13
37.36755535761435
 23
23.56479803969574
 33
0.0
  0
MTEXT
  5
AC7
330
AC0
100
AcDbEntity
  8
A1
 62
     0
100
AcDbMText
 10
37.36755535761435
 20
22.1361934100777
 30
0.0
 40
1.0
 41
0.0
 71
     5
 72
     1
  1
\A1;3"
 73
     1
 44
1.0
1001
ACAD
1000
MTEXTBEGIN
1070
    73
1070
     1
1070
    44
1040
1.0
1070
    74
1070
     0
1000
MTEXTEND
1000
MTEXTBEGIN
1070
    73
1070
     1
1070
    44
1040
1.0
1070
    74
1070
     0
1000
MTEXTEND
1000
MTEXTBEGIN
1070
    73
1070
     1
1070
    44
1040
1.0
1070
    74
1070
     0
1000
MTEXTEND
1000
MTEXTBEGIN
1070
    73
1070
     1
1070
    44
1040
1.0
1070
    74
1070
     0
1000
MTEXTEND
1000
MTEXTBEGIN
1070
    73
1070
     1
1070
    44
1040
1.0
1070
    74
1070
     0
1000
MTEXTEND
  0
POINT
  5
AC8
330
AC0
100
AcDbEntity
  8
Defpoints
 62
     0
100
AcDbPoint
 10
32.33598876180062
 20
20.56479803969574
 30
0.0
  0
POINT
  5
AC9
330
AC0
100
AcDbEntity
  8
Defpoints
 62
     0
100
AcDbPoint
 10
32.33598876180067
 20
23.56479803969574
 30
0.0
  0
POINT
  5
ACA
330
AC0
100
AcDbEntity
  8
Defpoints
 62
     0
100
AcDbPoint
 10
37.36755535761435
 20
23.56479803969574
 30
0.0
  0
ENDBLK
  5
ACC
330
AC0
100
AcDbEntity
  8
0
 62
     7
100
AcDbBlockEnd
  0
BLOCK
  5
AEE
330
ACD
100
AcDbEntity
  8
0
 62
     7
100
AcDbBlockBegin
  2
ts0562
 70
     0
 10
0.0
 20
0.0
 30
0.0
  3
ts0562
  1

  0
INSERT
  5
ACE
330
ACD
100
AcDbEntity
  8
A1
 62
     7
100
AcDbBlockReference
 66
     1
  2
TSFORMB
 10
1.618556714433591
 20
1.414218451519719
 30
0.0
 41
0.5174399999999573
 42
0.5174399999999573
 43
0.5174400000000002
  0
ATTRIB
  5
ACF
330
ACE
100
AcDbEntity
  8
A1
 62
     1
100
AcDbText
 10
21.01530172285955
 20
1.88844401011919
 30
0.0
 40
0.5306810826240002
  1
BASE RAIL
 72
     1
 11
22.96821562897232
 21
1.88844401011919
 31
0.0
100
AcDbAttribute
  2
XXXXXX
 70
     0
  0
ATTRIB
  5
AD0
330
ACE
100
AcDbEntity
  8
A1
 62
     1
100
AcDbText
 10
10.35163186175405
 20
2.384428129772118
 30
0.0
 40
0.4346496000000003
  1
TS0562
 72
     2
 11
12.77131478733875
 21
2.384428129772118
 31
0.0
100
AcDbAttribute
  2
XXXXXX
 70
     0
  0
ATTRIB
  5
AD1
330
ACE
100
AcDbEntity
  8
A1
 62
     1
100
AcDbText
 10
5.135373484127216
 20
3.027577124030891
 30
0.0
 40
3.172942080000001
  1
TS0562
  7
barcoder
 72
     1
 11
8.268653788127217
 21
3.027577124030891
 31
0.0
100
AcDbAttribute
  2
BARCODE
 70
     0
  0
ATTRIB
  5
AD2
330
ACE
100
AcDbEntity
  8
A1
 62
     1
100
AcDbText
 10
49.95574314873145
 20
39.39432290258178
 30
0.0
 40
1.07575776
  1
TS0562
 72
     1
 11
52.95010076914252
 21
39.39432290258178
 31
0.0
100
AcDbAttribute
  2
TS00XX
 70
     0
  0
ATTRIB
  5
AD3
330
ACE
100
AcDbEntity
  8
A1
 62
     1
100
AcDbText
 10
52.79642411855164
 20
6.629498496157559
 30
0.0
 40
0.4889808000000003
  1
71.06"
 72
     1
 11
53.97105234080536
 21
6.629498496157559
 31
0.0
100
AcDbAttribute
  2
XXXXX
 70
     0
  0
ATTRIB
  5
AD4
330
ACE
100
AcDbEntity
  8
A1
 62
     1
100
AcDbText
 10
52.94820722521485
 20
5.149896512731164
 30
0.0
 40
0.4889808000000003
  1
64.15
 72
     1
 11
53.95337293067198
 21
5.149896512731164
 31
0.0
100
AcDbAttribute
  2
XXXXX
 70
     0
  0
SEQEND
  5
AD5
330
ACE
100
AcDbEntity
  8
A1
 62
     7
  0
INSERT
  5
AD6
330
ACD
100
AcDbEntity
  8
A1
 62
     7
100
AcDbBlockReference
 66
     1
  2
LINK FLAG
 10
30.33598876180068
 20
27.06479803969585
 30
0.0
  0
ATTRIB
  5
AD7
330
AD6
100
AcDbEntity
  8
A1
 62
     1
100
AcDbText
 10
41.09452207009261
 20
32.01826526877806
 30
0.0
 40
1.0
  1
TS0562
100
AcDbAttribute
  2
XXXXXX
 70
     0
  0
SEQEND
  5
AD8
330
AD6
100
AcDbEntity
  8
A1
 62
     7
  0
INSERT
  5
AD9
330
ACD
100
AcDbEntity
  8
A1
 62
     7
100
AcDbBlockReference
 66
     1
  2
PROFILE LOGO
 10
20.53242718456455
 20
22.47347445454008
 30
0.0
 41
0.8893500000000578
 42
0.8893500000000578
 43
0.8893500000000001
  0
ATTRIB
  5
ADA
330
AD9
100
AcDbEntity
  8
A1
 62
    22
100
AcDbText
 10
20.78367842636712
 20
20.98087990687512
 30
0.0
 40
0.1891605761718751
  1
0562
 72
     1
 11
21.13552246050113
 21
20.98087990687512
 31
0.0
100
AcDbAttribute
  2
XXXX
 70
     0
  0
SEQEND
  5
ADB
330
AD9
100
AcDbEntity
  8
A1
 62
     7
  0
DIMENSION
  5
ADC
330
ACD
100
AcDbEntity
  8
A1
 62
     7
100
AcDbDimension
  2
*D35
 10
37.36755535761435
 20
23.56479803969574
 30
0.0
 11
37.36755535761435
 21
22.1361934100777
 31
0.0
 70
   160
 71
     5
 42
-1.0
  3
STANDARD
100
AcDbAlignedDimension
 13
32.33598876180062
 23
20.56479803969574
 33
0.0
 14
32.33598876180067
 24
23.56479803969574
 34
0.0
 50
90.0
100
AcDbRotatedDimension
1001
ACAD
1000
DSTYLE
1002
{
1070
   287
1070
     3
1070
   287
1070
     3
1070
   287
1070
     3
1070
   287
1070
     3
1070
   287
1070
     3
1070
   287
1070
     3
1070
   287
1070
     3
1070
   287
1070
     3
1070
    73
1070
     1
1070
    74
1070
     1
1070
    77
1070
     0
1070
   147
1040
0.5
1070
   288
1070
     1
1070
   289
1070
     3
1002
}
  0
DIMENSION
  5
ADD
330
ACD
100
AcDbEntity
  8
A1
 62
     7
100
AcDbDimension
  2
*D32
 10
22.08598876180049
 20
30.72600743926093
 30
0.0
 11
26.32219584842576
 21
30.72600743926102
 31
0.0
 70
   161
 71
     5
 42
-1.0
  3
STANDARD
100
AcDbAlignedDimension
 13
30.33598876180068
 23
27.06479803969585
 33
0.0
 14
22.08598876180056
 24
27.0647980396957
 34
0.0
1001
ACAD
1000
DSTYLE
1002
{
1070
   287
1070
     3
1070
   287
1070
     3
1070
   287
1070
     3
1070
   287
1070
     3
1070
   287
1070
     3
1070
   287
1070
     3
1070
   287
1070
     3
1070
   287
1070
     3
1070
    73
1070
     1
1070
    74
1070
     1
1070
    77
1070
     0
1070
   147
1040
0.5
1070
   288
1070
     1
1070
   289
1070
     3
1002
}
  0
DIMENSION
  5
ADE
330
ACD
100
AcDbEntity
  8
A1
 62
     7
100
AcDbDimension
  2
*D33
 10
32.33598876180062
 20
17.39096422568284
 30
0.0
 11
26.27128142471062
 21
17.39096422568284
 31
0.0
 70
   161
 71
     5
 42
-1.0
  3
STANDARD
100
AcDbAlignedDimension
 13
20.08598876180062
 23
20.56479803969573
 33
0.0
 14
32.33598876180062
 24
20.56479803969574
 34
0.0
1001
ACAD
1000
DSTYLE
1002
{
1070
   287
1070
     3
1070
   287
1070
     3
1070
   287
1070
     3
1070
   287
1070
     3
1070
   287
1070
     3
1070
   287
1070
     3
1070
   287
1070
     3
1070
   287
1070
     3
1070
    73
1070
     1
1070
    74
1070
     1
1070
    77
1070
     0
1070
   147
1040
0.5
1070
   288
1070
     1
1070
   289
1070
     3
1002
}
  0
DIMENSION
  5
ADF
330
ACD
100
AcDbEntity
  8
A1
 62
     7
100
AcDbDimension
  2
*D34
 10
16.64844887713399
 20
27.0647980396957
 30
0.0
 11
16.64844887713398
 21
23.85489736162609
 31
0.0
 70
   160
 71
     5
 42
-1.0
  3
STANDARD
100
AcDbAlignedDimension
 13
20.08598876180062
 23
20.56479803969573
 33
0.0
 14
22.08598876180056
 24
27.0647980396957
 34
0.0
 50
90.0
100
AcDbRotatedDimension
1001
ACAD
1000
DSTYLE
1002
{
1070
   287
1070
     3
1070
   287
1070
     3
1070
   287
1070
     3
1070
   287
1070
     3
1070
   287
1070
     3
1070
   287
1070
     3
1070
   287
1070
     3
1070
   287
1070
     3
1070
    73
1070
     1
1070
    74
1070
     1
1070
    77
1070
     0
1070
   147
1040
0.5
1070
   288
1070
     1
1070
   289
1070
     3
1002
}
  0
LINE
  5
AE0
330
ACD
100
AcDbEntity
  8
A1
 62
     7
370
    50
100
AcDbLine
 10
20.58598876180056
 20
23.56479803969574
 30
0.0
 11
20.08598876180056
 21
23.56479803969574
 31
0.0
  0
LINE
  5
AE1
330
ACD
100
AcDbEntity
  8
A1
 62
     7
370
    50
100
AcDbLine
 10
20.08598876180056
 20
23.56479803969574
 30
0.0
 11
20.08598876180062
 21
20.56479803969573
 31
0.0
  0
LINE
  5
AE2
330
ACD
100
AcDbEntity
  8
A1
 62
     7
370
    30
100
AcDbLine
 10
20.08598876180062
 20
20.56479803969573
 30
0.0
 11
32.33598876180062
 21
20.56479803969574
 31
0.0
  0
LINE
  5
AE3
330
ACD
100
AcDbEntity
  8
A1
 62
     7
370
    50
100
AcDbLine
 10
32.33598876180062
 20
20.56479803969574
 30
0.0
 11
32.33598876180067
 21
23.56479803969574
 31
0.0
  0
LINE
  5
AE4
330
ACD
100
AcDbEntity
  8
A1
 62
     7
370
    50
100
AcDbLine
 10
32.33598876180067
 20
23.56479803969574
 30
0.0
 11
31.83598876180067
 21
23.56479803969574
 31
0.0
  0
LINE
  5
AE5
330
ACD
100
AcDbEntity
  8
A1
 62
     7
370
    50
100
AcDbLine
 10
31.83598876180067
 20
23.56479803969574
 30
0.0
 11
31.83598876179934
 21
24.06479803969276
 31
0.0
  0
ARC
  5
AE6
330
ACD
100
AcDbEntity
  8
A1
 62
     7
370
    50
100
AcDbCircle
 10
32.32642587889305
 20
25.15775084357462
 30
0.0
 40
1.197945907516865
100
AcDbArc
 50
170.0745434198433
 51
245.8329522539466
  0
ARC
  5
AE7
330
ACD
100
AcDbEntity
  8
A1
 62
     7
370
    50
100
AcDbCircle
 10
29.91526638914629
 20
25.4069836699148
 30
0.0
 40
1.231885315166623
100
AcDbArc
 50
358.0114213770298
 51
70.0300518175582
  0
LINE
  5
AE8
330
ACD
100
AcDbEntity
  8
A1
 62
     7
370
    50
100
AcDbLine
 10
30.33598876180068
 20
26.56479803969574
 30
0.0
 11
30.33598876180068
 21
27.06479803969585
 31
0.0
  0
LINE
  5
AE9
330
ACD
100
AcDbEntity
  8
A1
 62
     7
370
    50
100
AcDbLine
 10
30.33598876180068
 20
27.06479803969585
 30
0.0
 11
22.08598876180056
 21
27.0647980396957
 31
0.0
  0
LINE
  5
AEA
330
ACD
100
AcDbEntity
  8
A1
 62
     7
370
    50
100
AcDbLine
 10
22.08598876180056
 20
27.0647980396957
 30
0.0
 11
22.08598876180056
 21
26.56479803969574
 31
0.0
  0
ARC
  5
AEB
330
ACD
100
AcDbEntity
  8
A1
 62
     7
370
    50
100
AcDbCircle
 10
22.50671113445494
 20
25.4069836699148
 30
0.0
 40
1.231885315166624
100
AcDbArc
 50
109.9699481824417
 51
181.9885786229701
  0
ARC
  5
AEC
330
ACD
100
AcDbEntity
  8
A1
 62
     7
370
    50
100
AcDbCircle
 10
20.09555164470819
 20
25.15775084357462
 30
0.0
 40
1.197945907516864
100
AcDbArc
 50
294.1670477460532
 51
9.925456580156666
  0
LINE
  5
AED
330
ACD
100
AcDbEntity
  8
A1
 62
     7
370
    50
100
AcDbLine
 10
20.5859887618019
 20
24.06479803969276
 30
0.0
 11
20.58598876180056
 21
23.56479803969574
 31
0.0
  0
ENDBLK
  5
AEF
330
ACD
100
AcDbEntity
  8
0
 62
     7
100
AcDbBlockEnd
  0
BLOCK
  5
B7A
330
B6F
100
AcDbEntity
  8
0
 62
     7
100
AcDbBlockBegin
  2
*D37
 70
     1
 10
0.0
 20
0.0
 30
0.0
  3
*D37
  1

  0
LINE
  5
EB6
330
B6F
100
AcDbEntity
  8
leaders
 62
     0
100
AcDbLine
 10
636.554305623443
 20
405.2034518988977
 30
0.0
 11
636.554305623443
 21
400.1779662489232
 31
0.0
  0
LINE
  5
EB7
330
B6F
100
AcDbEntity
  8
leaders
 62
     0
100
AcDbLine
 10
646.5543056234432
 20
405.2034518988977
 30
0.0
 11
646.5543056234432
 21
400.1779662489232
 31
0.0
  0
LINE
  5
EB8
330
B6F
100
AcDbEntity
  8
leaders
 62
     0
100
AcDbLine
 10
637.754305623443
 20
400.7779662489232
 30
0.0
 11
645.3543056234432
 21
400.7779662489232
 31
0.0
  0
LINE
  5
EB9
330
B6F
100
AcDbEntity
  8
leaders
 62
     0
100
AcDbLine
 10
648.8598990408319
 20
400.7779662489232
 30
0.0
 11
646.5543056234432
 21
400.7779662489232
 31
0.0
  0
MTEXT
  5
EBA
330
B6F
100
AcDbEntity
  8
leaders
 62
     0
100
AcDbMText
 10
655.5317629671253
 20
400.7779662489232
 30
0.0
 40
2.399999999999999
 41
0.0
 71
     5
 72
     1
  1
\A1;9 5/8"
 73
     1
 44
1.0
1001
ACAD
1000
MTEXTBEGIN
1070
    73
1070
     1
1070
    44
1040
1.0
1070
    74
1070
     0
1000
MTEXTEND
1000
MTEXTBEGIN
1070
    73
1070
     1
1070
    44
1040
1.0
1070
    74
1070
     0
1000
MTEXTEND
1000
MTEXTBEGIN
1070
    73
1070
     1
1070
    44
1040
1.0
1070
    74
1070
     0
1000
MTEXTEND
  0
SOLID
  5
EBB
330
B6F
100
AcDbEntity
  8
leaders
 62
     0
100
AcDbTrace
 10
637.754305623443
 20
400.9779662489233
 30
0.0
 11
637.754305623443
 21
400.5779662489232
 31
0.0
 12
636.554305623443
 22
400.7779662489232
 32
0.0
 13
636.554305623443
 23
400.7779662489232
 33
0.0
  0
SOLID
  5
EBC
330
B6F
100
AcDbEntity
  8
leaders
 62
     0
100
AcDbTrace
 10
645.3543056234432
 20
400.9779662489233
 30
0.0
 11
645.3543056234432
 21
400.5779662489232
 31
0.0
 12
646.5543056234432
 22
400.7779662489232
 32
0.0
 13
646.5543056234432
 23
400.7779662489232
 33
0.0
  0
POINT
  5
EBD
330
B6F
100
AcDbEntity
  8
Defpoints
 62
     0
100
AcDbPoint
 10
636.554305623443
 20
407.6034518988977
 30
0.0
  0
POINT
  5
EBE
330
B6F
100
AcDbEntity
  8
Defpoints
 62
     0
100
AcDbPoint
 10
646.5543056234432
 20
407.6034518988977
 30
0.0
  0
POINT
  5
EBF
330
B6F
100
AcDbEntity
  8
Defpoints
 62
     0
100
AcDbPoint
 10
646.5543056234432
 20
400.7779662489232
 30
0.0
  0
ENDBLK
  5
B7B
330
B6F
100
AcDbEntity
  8
0
 62
     7
100
AcDbBlockEnd
  0
BLOCK
  5
B89
330
B7E
100
AcDbEntity
  8
0
 62
     7
100
AcDbBlockBegin
  2
*D38
 70
     1
 10
0.0
 20
0.0
 30
0.0
  3
*D38
  1

  0
LINE
  5
1294
330
B7E
100
AcDbEntity
  8
leaders
 62
     0
100
AcDbLine
 10
580.1477884446216
 20
405.2034518988976
 30
0.0
 11
580.1477884446216
 21
394.9798272131949
 31
0.0
  0
LINE
  5
1295
330
B7E
100
AcDbEntity
  8
leaders
 62
     0
100
AcDbLine
 10
615.7737884446215
 20
405.2034518988976
 30
0.0
 11
615.7737884446215
 21
394.9798272131949
 31
0.0
  0
LINE
  5
1296
330
B7E
100
AcDbEntity
  8
leaders
 62
     0
100
AcDbLine
 10
581.3477884446216
 20
395.5798272131949
 30
0.0
 11
594.0318279197948
 21
395.5798272131949
 31
0.0
  0
LINE
  5
1297
330
B7E
100
AcDbEntity
  8
leaders
 62
     0
100
AcDbLine
 10
614.5737884446215
 20
395.5798272131949
 30
0.0
 11
602.9225437241888
 21
395.5798272131949
 31
0.0
  0
MTEXT
  5
1298
330
B7E
100
AcDbEntity
  8
leaders
 62
     0
100
AcDbMText
 10
598.4771858219918
 20
395.5798272131949
 30
0.0
 40
2.399999999999999
 41
0.0
 71
     5
 72
     1
  1
\A1;36"
 73
     1
 44
1.0
  0
SOLID
  5
1299
330
B7E
100
AcDbEntity
  8
leaders
 62
     0
100
AcDbTrace
 10
581.3477884446216
 20
395.7798272131949
 30
0.0
 11
581.3477884446216
 21
395.3798272131949
 31
0.0
 12
580.1477884446216
 22
395.5798272131949
 32
0.0
 13
580.1477884446216
 23
395.5798272131949
 33
0.0
  0
SOLID
  5
129A
330
B7E
100
AcDbEntity
  8
leaders
 62
     0
100
AcDbTrace
 10
614.5737884446215
 20
395.7798272131949
 30
0.0
 11
614.5737884446215
 21
395.3798272131949
 31
0.0
 12
615.7737884446215
 22
395.5798272131949
 32
0.0
 13
615.7737884446215
 23
395.5798272131949
 33
0.0
  0
POINT
  5
129B
330
B7E
100
AcDbEntity
  8
Defpoints
 62
     0
100
AcDbPoint
 10
580.1477884446216
 20
407.6034518988976
 30
0.0
  0
POINT
  5
129C
330
B7E
100
AcDbEntity
  8
Defpoints
 62
     0
100
AcDbPoint
 10
615.7737884446215
 20
407.6034518988975
 30
0.0
  0
POINT
  5
129D
330
B7E
100
AcDbEntity
  8
Defpoints
 62
     0
100
AcDbPoint
 10
615.7737884446215
 20
395.5798272131949
 30
0.0
  0
ENDBLK
  5
B8A
330
B7E
100
AcDbEntity
  8
0
 62
     7
100
AcDbBlockEnd
  0
BLOCK
  5
ED1
330
ED0
100
AcDbEntity
  8
0
 62
     7
100
AcDbBlockBegin
  2
END3
 70
     2
 10
0.0
 20
0.0
 30
0.0
  3
END3
  1

  0
DIMENSION
  5
ED3
330
ED0
100
AcDbEntity
  8
leaders
 62
     7
100
AcDbDimension
  2
*D37
 10
-32.38226864284285
 20
23.7969410230545
 30
0.0
 11
-23.40481129916077
 21
23.7969410230545
 31
0.0
 12
-678.9365742662861
 22
-376.9810252258687
 32
0.0
 70
   129
  1
9 5/8"
 71
     5
 42
-1.0
  3
STANDARD
100
AcDbAlignedDimension
 13
-42.38226864284309
 23
30.62242667302899
 33
0.0
 14
-32.38226864284285
 24
30.62242667302899
 34
0.0
1001
ACAD
1000
DSTYLE
1002
{
1070
   287
1070
     4
1070
   287
1070
     4
1070
   287
1070
     4
1070
   287
1070
     4
1070
    40
1040
2.399999999999999
1070
    73
1070
     1
1070
    74
1070
     1
1070
    77
1070
     0
1070
   147
1040
0.5
1070
   279
1070
     1
1070
   288
1070
     1
1070
   289
1070
     3
1002
}
  0
DIMENSION
  5
ED4
330
ED0
100
AcDbEntity
  8
LINEWORK
 62
     7
100
AcDbDimension
  2
*D29
 10
-19.06452688565502
 20
65.49232354374407
 30
0.0
 11
-19.06452688565502
 21
47.91090601241262
 31
0.0
 12
-678.9365742662861
 22
-376.9810252258687
 32
0.0
 70
   128
  1
36"
 71
     5
 42
-1.0
  3
STANDARD
100
AcDbAlignedDimension
 13
-30.63226864284297
 23
30.24742667302916
 33
0.0
 14
-37.3731450138597
 24
65.49232354374407
 34
0.0
 50
90.0
100
AcDbRotatedDimension
1001
ACAD
1000
DSTYLE
1002
{
1070
   287
1070
     4
1070
   287
1070
     4
1070
   287
1070
     4
1070
   287
1070
     4
1070
    40
1040
2.399999999999999
1070
    73
1070
     1
1070
    74
1070
     1
1070
    77
1070
     0
1070
   147
1040
0.5
1070
   279
1070
     1
1070
   288
1070
     1
1070
   289
1070
     3
1002
}
  0
ARC
  5
ED5
330
ED0
100
AcDbEntity
  8
LINEWORK
 62
     7
370
    30
100
AcDbCircle
 10
-22.63554018559943
 20
53.39795767476528
 30
0.0
 40
12.74999999999998
100
AcDbArc
 50
175.0837622692387
 51
208.3196601840818
  0
ARC
  5
ED6
330
ED0
100
AcDbEntity
  8
LINEWORK
 62
     7
370
    30
100
AcDbCircle
 10
-52.12365912812129
 20
53.38760994199083
 30
0.0
 40
12.74999999999999
100
AcDbArc
 50
331.7205513595761
 51
4.956449274421734
  0
LINE
  5
ED7
330
ED0
100
AcDbEntity
  8
leaders
 62
     7
100
AcDbLine
 10
-51.85987875683315
 20
17.58805253145647
 30
0.0
 11
-45.21554832968615
 21
17.58805253145647
 31
0.0
  0
TEXT
  5
ED8
330
ED0
100
AcDbEntity
  8
leaders
 62
     7
100
AcDbText
 10
-51.57099510679802
 20
18.16562356725387
 30
0.0
 40
1.5
  1
NOTE: SIZES ARE VARIABLE
100
AcDbText
  0
LINE
  5
ED9
330
ED0
100
AcDbEntity
  8
LINEWORK
 62
     7
370
    30
100
AcDbLine
 10
-32.38226864284309
 20
34.122426673029
 30
0.0
 11
-32.38226864284285
 21
30.62242667302899
 31
0.0
  0
LINE
  5
EDA
330
ED0
100
AcDbEntity
  8
LINEWORK
 62
     7
370
    30
100
AcDbLine
 10
-42.38226864284309
 20
34.122426673029
 30
0.0
 11
-42.38226864284309
 21
30.62242667302899
 31
0.0
  0
LINE
  5
EDB
330
ED0
100
AcDbEntity
  8
leaders
 62
     7
100
AcDbLine
 10
-32.38226864284285
 20
30.62242667302899
 30
0.0
 11
-42.47115097238941
 21
30.62242667302899
 31
0.0
  0
LINE
  5
EDC
330
ED0
100
AcDbEntity
  8
leaders
 62
     7
100
AcDbLine
 10
-32.38226864284285
 20
30.62242667302899
 30
0.0
 11
-42.38226864284309
 21
30.62242667302899
 31
0.0
  0
LINE
  5
EDD
330
ED0
100
AcDbEntity
  8
LINEWORK
  6
PHANTOM
 62
     7
 48
4.0
100
AcDbLine
 10
-30.63226864284297
 20
30.24742667302916
 30
0.0
 11
-44.13226864284297
 21
30.24742667302916
 31
0.0
  0
INSERT
  5
EDE
330
ED0
100
AcDbEntity
  8
LINEWORK
 62
     7
370
    30
100
AcDbBlockReference
 66
     1
  2
PROFILE LOGO
 10
-42.18655238037172
 20
32.19625835291589
 30
0.0
 41
0.8000000000000682
 42
0.8000000000000113
 43
0.8
  0
ATTRIB
  5
EDF
330
EDE
100
AcDbEntity
  8
A1
 62
    22
100
AcDbText
 10
-41.96054350485368
 20
30.85361975379061
 30
0.0
 40
0.17015625
  1
0242
 72
     1
 11
-41.64404805614708
 21
30.85361975379061
 31
0.0
100
AcDbAttribute
  2
XXXX
 70
     0
  0
SEQEND
  5
EE0
330
EDE
100
AcDbEntity
  8
A1
 62
     7
  0
LINE
  5
EE1
330
ED0
100
AcDbEntity
  8
leaders
 62
     7
100
AcDbLine
 10
-32.88226864284308
 20
34.62242667302899
 30
0.0
 11
-41.88226864284309
 21
34.62242667302899
 31
0.0
  0
LINE
  5
EE2
330
ED0
100
AcDbEntity
  8
leaders
 62
     7
100
AcDbLine
 10
-32.88226864284308
 20
34.62242667302899
 30
0.0
 11
-41.88226864284309
 21
34.62242667302899
 31
0.0
  0
LINE
  5
EE3
330
ED0
100
AcDbEntity
  8
leaders
 62
     7
100
AcDbLine
 10
-32.88226864284308
 20
34.62242667302899
 30
0.0
 11
-41.88226864284309
 21
34.62242667302899
 31
0.0
  0
ARC
  5
EE4
330
ED0
100
AcDbEntity
  8
LINEWORK
 62
     7
370
    30
100
AcDbCircle
 10
-33.73538278981107
 20
41.42412584412897
 30
0.0
 40
1.309760156249905
100
AcDbArc
 50
185.311949962749
 51
252.0490940633911
  0
LINE
  5
EE5
330
ED0
100
AcDbEntity
  8
LINEWORK
 62
     7
370
    30
100
AcDbLine
 10
-34.13905344411602
 20
39.64687356894933
 30
0.0
 11
-40.61049786489161
 21
39.64460266188803
 31
0.0
  0
LINE
  5
EE6
330
ED0
100
AcDbEntity
  8
LINEWORK
 62
     7
370
    30
100
AcDbLine
 10
-34.13905344411591
 20
40.17812356894933
 30
0.0
 11
-40.61087070877306
 21
40.17585253105266
 31
0.0
  0
LINE
  5
EE7
330
ED0
100
AcDbEntity
  8
LINEWORK
 62
     7
370
    30
100
AcDbLine
 10
-34.13905344411591
 20
38.11687356894935
 30
0.0
 11
-40.60942407451352
 21
38.11460303869387
 31
0.0
  0
LINE
  5
EE8
330
ED0
100
AcDbEntity
  8
LINEWORK
 62
     7
370
    30
100
AcDbLine
 10
-34.13905344411591
 20
38.36587356894927
 30
0.0
 11
-40.60959882863403
 21
38.36360297737053
 31
0.0
  0
LINE
  5
EE9
330
ED0
100
AcDbEntity
  8
LINEWORK
 62
     7
370
    30
100
AcDbLine
 10
-33.25339602935002
 20
37.92987356894935
 30
0.0
 11
-41.49495003011509
 21
37.9269815093163
 31
0.0
  0
ARC
  5
EEA
330
ED0
100
AcDbEntity
  8
LINEWORK
 62
     7
370
    30
100
AcDbCircle
 10
-37.38226906911586
 20
45.47232074011231
 30
0.0
 40
3.991650000000084
100
AcDbArc
 50
305.9417292865561
 51
28.05194325720719
  0
LINE
  5
EEB
330
ED0
100
AcDbEntity
  8
LINEWORK
 62
     7
370
    30
100
AcDbLine
 10
-33.25339602935002
 20
34.99742667302894
 30
0.0
 11
-41.49289399836982
 21
34.99742667302894
 31
0.0
  0
ARC
  5
EEC
330
ED0
100
AcDbEntity
  8
LINEWORK
 62
     7
370
    30
100
AcDbCircle
 10
-39.71161161586951
 20
41.6138574552126
 30
0.0
 40
0.3126265514021922
100
AcDbArc
 50
90.04021153177344
 51
270.0762287807205
  0
ARC
  5
EED
330
ED0
100
AcDbEntity
  8
LINEWORK
 62
     7
370
    30
100
AcDbCircle
 10
-35.03932154159815
 20
41.61549701754711
 30
0.0
 40
0.3126265514021895
100
AcDbArc
 50
269.9639827629437
 51
90.00000001188764
  0
ARC
  5
EEE
330
ED0
100
AcDbEntity
  8
LINEWORK
 62
     7
370
    30
100
AcDbCircle
 10
-40.61004834676282
 20
39.00410281962933
 30
0.0
 40
0.6405000000000018
100
AcDbArc
 50
90.04021154365455
 51
270.0402115436545
  0
LINE
  5
EEF
330
ED0
100
AcDbEntity
  8
LINEWORK
 62
     7
370
    30
100
AcDbLine
 10
-41.49495003011497
 20
37.9269815093163
 30
0.0
 11
-40.60942407451352
 21
38.11460303869387
 31
0.0
  0
LINE
  5
EF0
330
ED0
100
AcDbEntity
  8
LINEWORK
 62
     7
370
    30
100
AcDbLine
 10
-41.88226864284309
 20
34.62242667302899
 30
0.0
 11
-42.38226864284309
 21
34.122426673029
 31
0.0
  0
LINE
  5
EF1
330
ED0
100
AcDbEntity
  8
LINEWORK
 62
     7
370
    30
100
AcDbLine
 10
-41.49289399836982
 20
34.99742667302894
 30
0.0
 11
-41.49495003011497
 21
37.9269815093163
 31
0.0
  0
CIRCLE
  5
EF2
330
ED0
100
AcDbEntity
  8
leaders
  6
DASHED
 62
     7
 48
2.0
100
AcDbCircle
 10
-37.37314501385992
 20
32.75131871531243
 30
0.0
 40
0.375
  0
LWPOLYLINE
  5
EF3
330
ED0
100
AcDbEntity
  8
LINEWORK
  6
DASHED
 62
     7
 48
2.5
100
AcDbPolyline
 90
        4
 70
     1
 43
0.0
 10
-37.74814501385992
 20
36.86476390589541
 10
-36.9981450138597
 20
36.86476390589541
 10
-36.9981450138597
 20
32.75131871531243
 10
-37.74814501385992
 20
32.75131871531243
  0
LINE
  5
EF4
330
ED0
100
AcDbEntity
  8
LINEWORK
 62
     7
370
    30
100
AcDbLine
 10
-35.03951806469217
 20
41.30287052791402
 30
0.0
 11
-39.71119568412018
 21
41.30123118049732
 31
0.0
  0
LINE
  5
EF5
330
ED0
100
AcDbEntity
  8
LINEWORK
 62
     7
370
    30
100
AcDbLine
 10
-40.61049786489161
 20
39.64460266188803
 30
0.0
 11
-40.61087070877306
 21
40.17585253105266
 31
0.0
  0
LINE
  5
EF6
330
ED0
100
AcDbEntity
  8
LINEWORK
 62
     7
370
    30
100
AcDbLine
 10
-40.60942407451352
 20
38.11460303869387
 30
0.0
 11
-40.60959882863403
 21
38.36360297737053
 31
0.0
  0
ARC
  5
EF7
330
ED0
100
AcDbEntity
  8
LINEWORK
 62
     7
370
    30
100
AcDbCircle
 10
-41.01541573768497
 20
41.42157119370586
 30
0.0
 40
1.309760156249897
100
AcDbArc
 50
287.9911174802661
 51
354.7282615809107
  0
ARC
  5
EF8
330
ED0
100
AcDbEntity
  8
LINEWORK
 62
     7
370
    30
100
AcDbCircle
 10
-37.37137147595944
 20
45.47232456420772
 30
0.0
 40
3.991650000000075
100
AcDbArc
 50
151.9882682864517
 51
234.0984822571048
  0
LINE
  5
EF9
330
ED0
100
AcDbEntity
  8
LINEWORK
 62
     7
370
    30
100
AcDbLine
 10
-35.03932154166295
 20
41.92812356894933
 30
0.0
 11
-39.71183102455154
 21
41.92648392962178
 31
0.0
  0
LINE
  5
EFA
330
ED0
100
AcDbEntity
  8
LINEWORK
 62
     7
370
    30
100
AcDbLine
 10
-35.03932154166295
 20
42.24062356894933
 30
0.0
 11
-39.71205034448166
 21
42.23898385265977
 31
0.0
  0
LINE
  5
EFB
330
ED0
100
AcDbEntity
  8
LINEWORK
 62
     7
370
    30
100
AcDbLine
 10
-39.71183102455166
 20
41.92648392962178
 30
0.0
 11
-39.71205034448166
 21
42.23898385265977
 31
0.0
  0
LINE
  5
EFC
330
ED0
100
AcDbEntity
  8
LINEWORK
 62
     7
370
    30
100
AcDbLine
 10
-35.03932154166295
 20
42.24062356894933
 30
0.0
 11
-35.03932154166295
 21
41.92812356894933
 31
0.0
  0
LINE
  5
EFD
330
ED0
100
AcDbEntity
  8
LINEWORK
 62
     7
370
    30
100
AcDbLine
 10
-34.13905344411591
 20
38.36587356894927
 30
0.0
 11
-34.13905344411591
 21
38.11687356894935
 31
0.0
  0
ARC
  5
EFE
330
ED0
100
AcDbEntity
  8
LINEWORK
 62
     7
370
    30
100
AcDbCircle
 10
-34.13905344411591
 20
39.00637356894936
 30
0.0
 40
0.640500000000003
100
AcDbArc
 50
270.0000000000065
 51
90.0
  0
LINE
  5
EFF
330
ED0
100
AcDbEntity
  8
LINEWORK
 62
     7
370
    30
100
AcDbLine
 10
-34.13905344411591
 20
40.17812356894933
 30
0.0
 11
-34.13905344411602
 21
39.64687356894933
 31
0.0
  0
LINE
  5
F00
330
ED0
100
AcDbEntity
  8
LINEWORK
 62
     7
370
    30
100
AcDbLine
 10
-34.13905344411591
 20
38.11687356894935
 30
0.0
 11
-33.25339602935002
 21
37.92987356894935
 31
0.0
  0
LINE
  5
F01
330
ED0
100
AcDbEntity
  8
LINEWORK
 62
     7
370
    30
100
AcDbLine
 10
-32.88226864284308
 20
34.62242667302899
 30
0.0
 11
-32.38226864284309
 21
34.122426673029
 31
0.0
  0
LINE
  5
F02
330
ED0
100
AcDbEntity
  8
LINEWORK
 62
     7
370
    30
100
AcDbLine
 10
-33.25339602935002
 20
37.92987356894935
 30
0.0
 11
-33.25339602935002
 21
34.99742667302894
 31
0.0
  0
DIMENSION
  5
F03
330
ED0
100
AcDbEntity
  8
LINEWORK
 62
     7
100
AcDbDimension
  2
*D28
 10
-44.37314501385969
 20
70.43866306694678
 30
0.0
 11
-37.26622433725151
 21
70.43866306694678
 31
0.0
 12
-678.9365742662861
 22
-376.9810252258687
 32
0.0
 70
   128
 71
     5
 42
-1.0
  3
STANDARD
100
AcDbAlignedDimension
 13
-30.38741115784785
 23
64.74742667302916
 33
0.0
 14
-44.37314501385969
 24
64.74396368640509
 34
0.0
100
AcDbRotatedDimension
1001
ACAD
1000
DSTYLE
1002
{
1070
   287
1070
     4
1070
   287
1070
     4
1070
   287
1070
     4
1070
   287
1070
     4
1070
    40
1040
2.399999999999999
1070
    73
1070
     1
1070
    74
1070
     1
1070
    77
1070
     0
1070
   147
1040
0.5
1070
   279
1070
     1
1070
   288
1070
     1
1070
   289
1070
     3
1002
}
  0
LWPOLYLINE
  5
F04
330
ED0
100
AcDbEntity
  8
LINEWORK
100
AcDbPolyline
 90
        3
 70
     0
 43
0.0
 10
-30.38741115784785
 20
64.74287963300639
 10
-37.3731450138597
 20
65.49232354374407
 10
-44.37314501385969
 20
64.74396368640509
  0
LINE
  5
F05
330
ED0
100
AcDbEntity
  8
LINEWORK
 62
     7
370
    30
100
AcDbLine
 10
-42.37150643417464
 20
61.37242667302894
 30
0.0
 11
-32.37478359354372
 21
61.37242667302894
 31
0.0
  0
LINE
  5
F06
330
ED0
100
AcDbEntity
  8
LINEWORK
 62
     7
370
    30
100
AcDbLine
 10
-41.06926864284355
 20
60.99742667302894
 30
0.0
 11
-33.69526864284352
 21
60.99742667302894
 31
0.0
  0
ARC
  5
F07
330
ED0
100
AcDbEntity
  8
LINEWORK
 62
     7
370
    30
100
AcDbCircle
 10
-35.60337032374718
 20
58.66877953402582
 30
0.0
 40
1.159344466136347
100
AcDbArc
 50
284.5723961725113
 51
352.5438356834252
  0
LINE
  5
F08
330
ED0
100
AcDbEntity
  8
LINEWORK
 62
     7
370
    30
100
AcDbLine
 10
-33.69526864284352
 20
58.62242667302894
 30
0.0
 11
-34.45382877151041
 21
58.51833415908152
 31
0.0
  0
LINE
  5
F09
330
ED0
100
AcDbEntity
  8
LINEWORK
 62
     7
370
    30
100
AcDbLine
 10
-41.06926864284355
 20
58.62242667302894
 30
0.0
 11
-33.69526864284352
 21
58.62242667302894
 31
0.0
  0
LWPOLYLINE
  5
F0A
330
ED0
100
AcDbEntity
  8
LINEWORK
 62
    22
100
AcDbPolyline
 90
        4
 70
     0
 43
0.0
 10
-40.67145874501352
 20
60.58055050924611
 10
-39.95840501123211
 20
60.58055050924611
 10
-39.95312296707755
 20
60.37466627576304
 10
-39.98217340975259
 20
60.37466627576304
  0
ARC
  5
F0B
330
ED0
100
AcDbEntity
  8
LINEWORK
 62
    22
100
AcDbCircle
 10
-40.52130590423894
 20
60.38522445839419
 30
0.0
 40
0.1373288804184085
100
AcDbArc
 50
359.6316189828548
 51
90.00081606717536
  0
LINE
  5
F0C
330
ED0
100
AcDbEntity
  8
LINEWORK
 62
    22
100
AcDbLine
 10
-40.67938136670363
 20
60.58055050924611
 30
0.0
 11
-40.68466341085832
 21
60.37466627576304
 31
0.0
  0
ARC
  5
F0D
330
ED0
100
AcDbEntity
  8
LINEWORK
 62
    22
100
AcDbCircle
 10
-40.51791884569911
 20
60.38522445839419
 30
0.0
 40
0.1373288804184085
100
AcDbArc
 50
89.99918393282465
 51
180.3683810171452
  0
ARC
  5
F0E
330
ED0
100
AcDbEntity
  8
LINEWORK
 62
    22
100
AcDbCircle
 10
-40.11648047369681
 20
60.38522445839419
 30
0.0
 40
0.1373288804184085
100
AcDbArc
 50
89.99918393282465
 51
180.3683810171452
  0
ARC
  5
F0F
330
ED0
100
AcDbEntity
  8
LINEWORK
 62
    22
100
AcDbCircle
 10
-40.11986753223664
 20
60.38522445839419
 30
0.0
 40
0.1373288804184085
100
AcDbArc
 50
359.6316189828548
 51
90.00081606717536
  0
LWPOLYLINE
  5
F10
330
ED0
100
AcDbEntity
  8
LINEWORK
 62
    22
100
AcDbPolyline
 90
        4
 70
     1
 43
0.0
 10
-40.82991509078351
 20
60.69405075398117
 10
-39.80523035398346
 20
60.69405075398117
 10
-39.80523035398346
 20
59.3320473800585
 10
-40.82991509078351
 20
59.3320473800585
  0
HATCH
  5
F11
330
ED0
100
AcDbEntity
  8
LINEWORK
 62
    22
100
AcDbHatch
 10
0.0
 20
0.0
 30
0.0
210
0.0
220
0.0
230
1.0
  2
LINE
 70
     0
 71
     0
 91
        1
 92
       33
 93
       38
 72
     1
 10
-39.95840501123211
 20
60.58055050924611
 11
-40.67674061135153
 21
60.58055050924611
 72
     1
 10
-40.67674061135142
 20
60.58055050924611
 11
-40.6846634108582
 21
60.37730582142081
 72
     1
 10
-40.68466341085832
 20
60.37730582142081
 11
-40.66089483452117
 21
60.37730582142081
 72
     1
 10
-40.66089483452105
 20
60.37730582142081
 11
-40.65561296818316
 21
60.411619805697
 72
     1
 10
-40.65561296818327
 20
60.411619805697
 11
-40.64769016867649
 21
60.44329435359071
 72
     1
 10
-40.64769016867638
 20
60.44329435359066
 11
-40.63184456966268
 21
60.46968970089341
 72
     1
 10
-40.63184456966268
 20
60.46968970089347
 11
-40.6133580374801
 21
60.48816652049811
 72
     1
 10
-40.6133580374801
 20
60.48816652049811
 11
-40.58958946114296
 21
60.50400379444494
 72
     1
 10
-40.58958946114285
 20
60.504003794445
 11
-40.56582106262237
 21
60.51720152273401
 72
     1
 10
-40.56582106262249
 20
60.51720152273401
 11
-40.5446935972709
 21
60.5224805047743
 72
     1
 10
-40.5446935972709
 20
60.5224805047743
 11
-40.52356595410265
 21
60.5224805047743
 72
     1
 10
-40.52356595410265
 20
60.5224805047743
 11
-40.4733882238927
 21
60.51984106839182
 72
     1
 10
-40.4733882238927
 20
60.51984106839177
 11
-40.43905591487976
 21
60.49872470312931
 72
     1
 10
-40.43905591487987
 20
60.49872470312937
 11
-40.39151911783892
 21
60.44593389924853
 72
     1
 10
-40.39151911783892
 20
60.44593389924853
 11
-40.37831427417745
 21
60.40370116872361
 72
     1
 10
-40.37831427417745
 20
60.40370116872361
 11
-40.37831427417745
 21
59.79132755958994
 72
     1
 10
-40.37831427417745
 20
59.79132755958983
 11
-40.39944191734571
 21
59.75437402965582
 72
     1
 10
-40.39944191734571
 20
59.75437402965588
 11
-40.45226058072467
 21
59.73589721005118
 72
     1
 10
-40.45226058072455
 20
59.73589721005123
 11
-40.49979755558218
 21
59.73589721005123
 72
     1
 10
-40.49979755558228
 20
59.73589721005123
 11
-40.50507942192007
 21
59.71742039044659
 72
     1
 10
-40.50507942192007
 20
59.71742039044659
 11
-40.13534788918469
 21
59.71742039044659
 72
     1
 10
-40.13534788918469
 20
59.71742039044659
 11
-40.13534788918469
 21
59.73589721005123
 72
     1
 10
-40.13534788918469
 20
59.73589721005123
 11
-40.19873046305599
 21
59.73589721005123
 72
     1
 10
-40.19873046305588
 20
59.73589721005123
 11
-40.24890837108251
 21
59.76757164866961
 72
     1
 10
-40.24890837108251
 20
59.76757164866956
 11
-40.25683117058929
 21
59.8045252878789
 72
     1
 10
-40.25683117058929
 20
59.80452528787896
 11
-40.2594721037583
 21
60.4010616230658
 72
     1
 10
-40.2594721037583
 20
60.40106162306575
 11
-40.2462674379135
 21
60.44593389924847
 72
     1
 10
-40.24626743791361
 20
60.44593389924853
 11
-40.21193512890067
 21
60.49080606615598
 72
     1
 10
-40.21193512890067
 20
60.49080606615587
 11
-40.16175722087405
 21
60.51720152273396
 72
     1
 10
-40.16175722087405
 20
60.51720152273401
 11
-40.1010157579883
 21
60.52512005043212
 72
     1
 10
-40.1010157579883
 20
60.52512005043206
 11
-40.04291505045489
 21
60.50400379444494
 72
     1
 10
-40.04291505045489
 20
60.504003794445
 11
-40.00594180827306
 21
60.46968970089347
 72
     1
 10
-40.00594180827306
 20
60.46968970089347
 11
-39.98217340975248
 21
60.42745707964389
 72
     1
 10
-39.98217340975259
 20
60.42745707964389
 11
-39.97689154341469
 21
60.37730582142086
 72
     1
 10
-39.97689154341469
 20
60.37730582142081
 11
-39.95840501123211
 21
60.37730582142081
 72
     1
 10
-39.95840501123211
 20
60.37730582142081
 11
-39.96368687757001
 21
60.57527141793048
 72
     1
 10
-39.96368687756989
 20
60.57527141793048
 11
-39.96368687756989
 21
60.5779109635883
 72
     1
 10
-39.96368687756989
 20
60.57791096358823
 11
-39.9663278107389
 21
60.57791096358823
 97
        0
 75
     0
 76
     1
 52
0.0
 41
0.0625
 77
     0
 78
     1
 53
0.0
 43
-63.39716967238008
 44
34.32318461159912
 45
0.0
 46
0.0078125
 79
     0
 98
        1
 10
-63.39716967238008
 20
34.32318461159912
  0
LINE
  5
F12
330
ED0
100
AcDbEntity
  8
LINEWORK
 62
     7
370
    30
100
AcDbLine
 10
-41.06926864284355
 20
58.62242667302894
 30
0.0
 11
-41.06926864284355
 21
60.99742667302894
 31
0.0
  0
LINE
  5
F13
330
ED0
100
AcDbEntity
  8
LINEWORK
 48
3.0
100
AcDbLine
 10
-36.9981450138597
 20
59.50615259344317
 30
0.0
 11
-36.9981450138597
 21
59.13115259344317
 31
0.0
  0
LINE
  5
F14
330
ED0
100
AcDbEntity
  8
LINEWORK
 48
3.0
100
AcDbLine
 10
-37.74814501386015
 20
59.50615259344317
 30
0.0
 11
-37.74814501385992
 21
59.13115259344317
 31
0.0
  0
LINE
  5
F15
330
ED0
100
AcDbEntity
  8
LINEWORK
 48
3.0
100
AcDbLine
 10
-37.74814501385992
 20
60.25615259344317
 30
0.0
 11
-37.74814501386015
 21
59.88115259344363
 31
0.0
  0
LINE
  5
F16
330
ED0
100
AcDbEntity
  8
LINEWORK
 48
3.0
100
AcDbLine
 10
-36.9981450138597
 20
60.25615259344317
 30
0.0
 11
-36.9981450138597
 21
59.88115259344363
 31
0.0
  0
LINE
  5
F17
330
ED0
100
AcDbEntity
  8
LINEWORK
 48
3.0
100
AcDbLine
 10
-37.74814501385992
 20
59.13115259344317
 30
0.0
 11
-37.54699673277775
 21
59.13115259344317
 31
0.0
  0
LINE
  5
F18
330
ED0
100
AcDbEntity
  8
LINEWORK
 48
3.0
100
AcDbLine
 10
-37.17556757033765
 20
59.13115259344317
 30
0.0
 11
-36.99814501385992
 21
59.13115259344317
 31
0.0
  0
LINE
  5
F19
330
ED0
100
AcDbEntity
  8
LINEWORK
 48
3.0
100
AcDbLine
 10
-37.17556757033765
 20
59.13115259344317
 30
0.0
 11
-36.99814501385992
 21
59.13115259344317
 31
0.0
  0
LINE
  5
F1A
330
ED0
100
AcDbEntity
  8
LINEWORK
 48
3.0
100
AcDbLine
 10
-37.74814501385992
 20
59.13115259344317
 30
0.0
 11
-37.54699673277775
 21
59.13115259344317
 31
0.0
  0
LINE
  5
F1B
330
ED0
100
AcDbEntity
  8
LINEWORK
 48
3.0
100
AcDbLine
 10
-36.9981450138597
 20
60.25615259344317
 30
0.0
 11
-36.9981450138597
 21
59.88115259344363
 31
0.0
  0
LINE
  5
F1C
330
ED0
100
AcDbEntity
  8
LINEWORK
 48
3.0
100
AcDbLine
 10
-37.74814501385992
 20
60.25615259344317
 30
0.0
 11
-37.74814501386015
 21
59.88115259344363
 31
0.0
  0
LINE
  5
F1D
330
ED0
100
AcDbEntity
  8
LINEWORK
 48
3.0
100
AcDbLine
 10
-37.74814501386015
 20
59.50615259344317
 30
0.0
 11
-37.74814501385992
 21
59.13115259344317
 31
0.0
  0
LINE
  5
F1E
330
ED0
100
AcDbEntity
  8
LINEWORK
 48
3.0
100
AcDbLine
 10
-36.9981450138597
 20
59.50615259344317
 30
0.0
 11
-36.9981450138597
 21
59.13115259344317
 31
0.0
  0
LINE
  5
F1F
330
ED0
100
AcDbEntity
  8
LINEWORK
 62
     7
370
    30
100
AcDbLine
 10
-35.33863355862036
 20
54.49062356894933
 30
0.0
 11
-39.4232447682707
 21
54.49062356894933
 31
0.0
  0
LINE
  5
F20
330
ED0
100
AcDbEntity
  8
LINEWORK
 62
     7
370
    30
100
AcDbLine
 10
-35.21389449612001
 20
54.5843735689491
 30
0.0
 11
-39.54614057026038
 21
54.58285333211143
 31
0.0
  0
LINE
  5
F21
330
ED0
100
AcDbEntity
  8
LINEWORK
 62
     7
370
    30
100
AcDbLine
 10
-35.21389449612001
 20
55.05194935020359
 30
0.0
 11
-39.54646872606099
 21
55.05042899821217
 31
0.0
  0
LINE
  5
F22
330
ED0
100
AcDbEntity
  8
LINEWORK
 62
     7
370
    30
100
AcDbLine
 10
-35.31167565243936
 20
57.04777435020367
 30
0.0
 11
-39.45008831126187
 21
57.04632213182413
 31
0.0
  0
LINE
  5
F23
330
ED0
100
AcDbEntity
  8
LINEWORK
 62
     7
370
    30
100
AcDbLine
 10
-35.31167565243936
 20
57.54673060020365
 30
0.0
 11
-39.45043849062153
 21
57.54527825894206
 31
0.0
  0
LINE
  5
F24
330
ED0
100
AcDbEntity
  8
LINEWORK
 62
     7
370
    30
100
AcDbLine
 10
-34.45382877151041
 20
58.51833415908152
 30
0.0
 11
-40.3089670547605
 21
58.51627952119736
 31
0.0
  0
LINE
  5
F25
330
ED0
100
AcDbEntity
  8
LINEWORK
 62
    22
100
AcDbLine
 10
-39.98254149025751
 20
60.38434151370722
 30
0.0
 11
-39.98254149025751
 21
60.37459907143352
 31
0.0
  0
LINE
  5
F26
330
ED0
100
AcDbEntity
  8
LINEWORK
 62
    22
100
AcDbLine
 10
-40.50772035508908
 20
59.71214129913096
 30
0.0
 11
-40.13006602284668
 21
59.71214129913096
 31
0.0
  0
LINE
  5
F27
330
ED0
100
AcDbEntity
  8
LINEWORK
 62
    22
100
AcDbLine
 10
-40.38400096640316
 20
59.81383980795033
 30
0.0
 11
-40.38359614051535
 21
59.8150834705101
 31
0.0
  0
LINE
  5
F28
330
ED0
100
AcDbEntity
  8
LINEWORK
 62
    22
100
AcDbLine
 10
-40.50772035508908
 20
59.73853675570899
 30
0.0
 11
-40.4602596635824
 21
59.73853675570899
 31
0.0
  0
LINE
  5
F29
330
ED0
100
AcDbEntity
  8
LINEWORK
 62
    22
100
AcDbLine
 10
-40.50772035508908
 20
59.71214129913096
 30
0.0
 11
-40.50772035508908
 21
59.73853675570899
 31
0.0
  0
ARC
  5
F2A
330
ED0
100
AcDbEntity
  8
LINEWORK
 62
    22
100
AcDbCircle
 10
-40.46053527941944
 20
59.81521766061849
 30
0.0
 40
0.0765467148011254
100
AcDbArc
 50
270.2063009286808
 51
358.9686114340258
  0
LINE
  5
F2B
330
ED0
100
AcDbEntity
  8
LINEWORK
 62
    22
100
AcDbLine
 10
-40.13006602284668
 20
59.71214129913096
 30
0.0
 11
-40.13006602284668
 21
59.73853675570899
 31
0.0
  0
LINE
  5
F2C
330
ED0
100
AcDbEntity
  8
LINEWORK
 62
    22
100
AcDbLine
 10
-40.13006602284668
 20
59.73853675570899
 30
0.0
 11
-40.17752671435346
 21
59.73853675570899
 31
0.0
  0
ARC
  5
F2D
330
ED0
100
AcDbEntity
  8
LINEWORK
 62
    22
100
AcDbCircle
 10
-40.17725109851631
 20
59.81521766061849
 30
0.0
 40
0.0765467148011254
100
AcDbArc
 50
181.0313885659742
 51
269.7936990713126
  0
LINE
  5
F2E
330
ED0
100
AcDbEntity
  8
LINEWORK
 62
    22
100
AcDbLine
 10
-40.25378541153258
 20
59.81383980795033
 30
0.0
 11
-40.25419023742052
 21
59.8150834705101
 31
0.0
  0
LINE
  5
F2F
330
ED0
100
AcDbEntity
  8
LINEWORK
 62
    22
100
AcDbLine
 10
-40.38359614051535
 20
60.38434151370722
 30
0.0
 11
-40.38359614051535
 21
59.8150834705101
 31
0.0
  0
LINE
  5
F30
330
ED0
100
AcDbEntity
  8
LINEWORK
 62
    22
100
AcDbLine
 10
-40.2541902374204
 20
60.38434151370722
 30
0.0
 11
-40.25419023742052
 21
59.8150834705101
 31
0.0
  0
ARC
  5
F31
330
ED0
100
AcDbEntity
  8
LINEWORK
 62
     7
370
    30
100
AcDbCircle
 10
-39.15953137177211
 20
58.66753163468377
 30
0.0
 40
1.159344466136349
100
AcDbArc
 50
187.4963758602321
 51
255.467815371149
  0
LINE
  5
F32
330
ED0
100
AcDbEntity
  8
LINEWORK
 62
     7
370
    30
100
AcDbLine
 10
-39.45008831126187
 20
57.04632213182413
 30
0.0
 11
-39.45043849062153
 21
57.54527825894206
 31
0.0
  0
ARC
  5
F33
330
ED0
100
AcDbEntity
  8
LINEWORK
 62
     7
370
    30
100
AcDbCircle
 10
-39.61464211815109
 20
56.67581870642061
 30
0.0
 40
0.4054019531249582
100
AcDbArc
 50
312.6441599562704
 51
66.05228345091639
  0
LINE
  5
F34
330
ED0
100
AcDbEntity
  8
LINEWORK
 62
     7
370
    30
100
AcDbLine
 10
-39.82557711048968
 20
55.91885977874937
 30
0.0
 11
-39.34000536002031
 21
56.37761509363065
 31
0.0
  0
ARC
  5
F35
330
ED0
100
AcDbEntity
  8
LINEWORK
 62
     7
370
    30
100
AcDbCircle
 10
-39.48444938953093
 20
55.54942889774998
 30
0.0
 40
0.5028392365780468
100
AcDbArc
 50
132.7189850553575
 51
262.9151951947602
  0
LINE
  5
F36
330
ED0
100
AcDbEntity
  8
LINEWORK
 62
     7
370
    30
100
AcDbLine
 10
-39.54614057026038
 20
54.58285333211143
 30
0.0
 11
-39.54646872606099
 21
55.05042899821217
 31
0.0
  0
LINE
  5
F37
330
ED0
100
AcDbEntity
  8
LINEWORK
 62
     7
370
    30
100
AcDbLine
 10
-39.42133574250147
 20
54.48919090004029
 30
0.0
 11
-39.54614057026038
 21
54.58285333211143
 31
0.0
  0
LINE
  5
F38
330
ED0
100
AcDbEntity
  8
LINEWORK
 62
     7
370
    30
100
AcDbLine
 10
-35.21389449612001
 20
54.5843735689491
 30
0.0
 11
-35.33863355862036
 21
54.49062356894933
 31
0.0
  0
LINE
  5
F39
330
ED0
100
AcDbEntity
  8
LINEWORK
 62
     7
370
    30
100
AcDbLine
 10
-35.21389449612001
 20
55.05194935020359
 30
0.0
 11
-35.21389449612001
 21
54.5843735689491
 31
0.0
  0
ARC
  5
F3A
330
ED0
100
AcDbEntity
  8
LINEWORK
 62
     7
370
    30
100
AcDbCircle
 10
-35.27626402736996
 20
55.55090560020357
 30
0.0
 40
0.5028392365780418
100
AcDbArc
 50
277.1250163488981
 51
47.3212264883035
  0
LINE
  5
F3B
330
ED0
100
AcDbEntity
  8
LINEWORK
 62
     7
370
    30
100
AcDbLine
 10
-35.4212892620709
 20
56.37899021786563
 30
0.0
 11
-34.93539566579966
 21
55.92057580176549
 31
0.0
  0
ARC
  5
F3C
330
ED0
100
AcDbEntity
  8
LINEWORK
 62
     7
370
    30
100
AcDbCircle
 10
-35.1468618579629
 20
56.67738650382125
 30
0.0
 40
0.4054019531249569
100
AcDbArc
 50
113.987928092742
 51
227.3960515873859
  0
LINE
  5
F3D
330
ED0
100
AcDbEntity
  8
LINEWORK
 62
     7
370
    30
100
AcDbLine
 10
-35.31167565243936
 20
57.54673060020355
 30
0.0
 11
-35.31167565243936
 21
57.04777435020367
 31
0.0
  0
LINE
  5
F3E
330
ED0
100
AcDbEntity
  8
LINEWORK
 62
    22
100
AcDbLine
 10
-40.65524488767823
 20
60.38434151370722
 30
0.0
 11
-40.65524488767823
 21
60.37459907143352
 31
0.0
  0
LINE
  5
F3F
330
ED0
100
AcDbEntity
  8
LINEWORK
 62
    22
100
AcDbLine
 10
-40.68466341085832
 20
60.37466627576304
 30
0.0
 11
-40.65561296818327
 21
60.37466627576304
 31
0.0
  0
ATTDEF
  5
F40
330
ED0
100
AcDbEntity
  8
LINEWORK
 62
    22
100
AcDbText
 10
-40.30844724413691
 20
59.37441837889821
 30
0.0
 40
0.17015625
  1

 72
     1
 11
-40.30844724413691
 21
59.37441837889821
 31
0.0
100
AcDbAttributeDefinition
  3
ADD STONE MARKER
  2
0989
 70
     0
  0
LINE
  5
F41
330
ED0
100
AcDbEntity
  8
LINEWORK
 62
    22
100
AcDbLine
 10
-40.82991509078351
 20
59.58808287176452
 30
0.0
 11
-39.80523035398346
 21
59.58808287176452
 31
0.0
  0
LINE
  5
F42
330
ED0
100
AcDbEntity
  8
LINEWORK
 62
     7
370
    30
100
AcDbLine
 10
-40.3089670547605
 20
58.51627952119736
 30
0.0
 11
-41.06926864284355
 21
58.62242667302894
 31
0.0
  0
INSERT
  5
F43
330
ED0
100
AcDbEntity
  8
LINEWORK
 62
     7
370
    30
100
AcDbBlockReference
 66
     1
  2
PROFILE LOGO
 10
-41.4606968723607
 20
64.18911494313255
 30
0.0
 41
0.7000000000000455
 42
0.7000000000000455
 43
0.7
  0
ATTRIB
  5
F44
330
F43
100
AcDbEntity
  8
A1
 62
    22
100
AcDbText
 10
-41.263044624864
 20
63.01430616889803
 30
0.0
 40
0.14888671875
  1
0243
 72
     1
 11
-40.98600558866405
 21
63.01430616889803
 31
0.0
100
AcDbAttribute
  2
XXXX
 70
     0
  0
SEQEND
  5
F45
330
F43
100
AcDbEntity
  8
A1
 62
     7
  0
ARC
  5
F46
330
ED0
100
AcDbEntity
  8
LINEWORK
370
    30
100
AcDbCircle
 10
-44.45262886987063
 20
63.2474266730286
 30
0.0
 40
0.6250000000002867
100
AcDbArc
 50
9.129920020904561
 51
81.37307344132288
  0
ARC
  5
F47
330
ED0
100
AcDbEntity
  8
LINEWORK
370
    30
100
AcDbCircle
 10
-44.45262886987052
 20
63.24742667302877
 30
0.0
 40
0.6250000000001475
100
AcDbArc
 50
9.129920020891699
 51
81.37307344133576
  0
ARC
  5
F48
330
ED0
100
AcDbEntity
  8
LINEWORK
370
    30
100
AcDbCircle
 10
-42.99137824534898
 20
62.32148542493923
 30
0.0
 40
0.0937499999998401
100
AcDbArc
 50
6.340000000060821
 51
76.5458536994833
  0
LINE
  5
F49
330
ED0
100
AcDbEntity
  8
LINEWORK
370
    30
100
AcDbLine
 10
-42.86651092835666
 20
62.04661323185383
 30
0.0
 11
-42.89820161057685
 21
62.33183806868419
 31
0.0
  0
ARC
  5
F4A
330
ED0
100
AcDbEntity
  8
LINEWORK
370
    30
100
AcDbCircle
 10
-42.98387886987029
 20
61.24742667302882
 30
0.0
 40
0.6249999999998331
100
AcDbArc
 50
11.53695903280856
 51
70.72153922279127
  0
ARC
  5
F4B
330
ED0
100
AcDbEntity
  8
LINEWORK
370
    30
100
AcDbCircle
 10
-42.61712269990312
 20
62.02913434433771
 30
0.0
 40
0.2499999999999927
100
AcDbArc
 50
175.9908632908028
 51
230.0868441986332
  0
ARC
  5
F4C
330
ED0
100
AcDbEntity
  8
LINEWORK
370
    30
100
AcDbCircle
 10
-42.72250626531888
 20
63.51019921130779
 30
0.0
 40
1.12500000000011
100
AcDbArc
 50
188.3618066416637
 51
257.3139670786508
  0
ARC
  5
F4D
330
ED0
100
AcDbEntity
  8
LINEWORK
370
    30
100
AcDbCircle
 10
-42.98387886987041
 20
61.24742667302854
 30
0.0
 40
0.6250000000000013
100
AcDbArc
 50
11.5369590328309
 51
70.72153922283248
  0
ARC
  5
F4E
330
ED0
100
AcDbEntity
  8
LINEWORK
370
    30
100
AcDbCircle
 10
-42.72250626531888
 20
63.51019921130745
 30
0.0
 40
1.125000000000017
100
AcDbArc
 50
188.3618086416108
 51
257.313965079473
  0
ARC
  5
F4F
330
ED0
100
AcDbEntity
  8
LINEWORK
370
    30
100
AcDbCircle
 10
-42.61712269990312
 20
62.02913434433736
 30
0.0
 40
0.2500000000000165
100
AcDbArc
 50
175.9908632907244
 51
230.0868441984989
  0
LINE
  5
F50
330
ED0
100
AcDbEntity
  8
LINEWORK
370
    30
100
AcDbLine
 10
-42.89820161057685
 20
62.33183806868419
 30
0.0
 11
-42.86651092835666
 21
62.04661323185383
 31
0.0
  0
ARC
  5
F51
330
ED0
100
AcDbEntity
  8
LINEWORK
370
    30
100
AcDbCircle
 10
-43.01842299613702
 20
62.29760623475795
 30
0.0
 40
0.1249999999999692
100
AcDbArc
 50
15.89377168782751
 51
66.99208201183518
  0
ARC
  5
F52
330
ED0
100
AcDbEntity
  8
LINEWORK
370
    30
100
AcDbCircle
 10
-42.73677240930715
 20
63.50565073074466
 30
0.0
 40
1.125000000000195
100
AcDbArc
 50
188.3618066416669
 51
257.3139670786579
  0
ARC
  5
F53
330
ED0
100
AcDbEntity
  8
LINEWORK
370
    30
100
AcDbCircle
 10
-42.99814501385855
 20
61.24287819246541
 30
0.0
 40
0.6249999999999836
100
AcDbArc
 50
11.53695903282132
 51
70.72153922280573
  0
ARC
  5
F54
330
ED0
100
AcDbEntity
  8
LINEWORK
370
    30
100
AcDbCircle
 10
-42.6313888438915
 20
62.02458586377446
 30
0.0
 40
0.2499999999999473
100
AcDbArc
 50
175.9908632908028
 51
230.0868441986332
  0
LINE
  5
F55
330
ED0
100
AcDbEntity
  8
LINEWORK
370
    30
100
AcDbLine
 10
-42.912467754565
 20
62.32728958812095
 30
0.0
 11
-42.88077707234504
 21
62.04206475129058
 31
0.0
  0
ARC
  5
F56
330
ED0
100
AcDbEntity
  8
LINEWORK
370
    30
100
AcDbCircle
 10
-43.00564438933713
 20
62.31693694437598
 30
0.0
 40
0.0937499999998943
100
AcDbArc
 50
6.340000000060821
 51
76.5458536994833
  0
LINE
  5
F57
330
ED0
100
AcDbEntity
  8
LINEWORK
370
    30
100
AcDbLine
 10
-44.35887886987063
 20
64.74507298384833
 30
0.0
 11
-44.358878869872
 21
63.86535542094406
 31
0.0
  0
ARC
  5
F58
330
ED0
100
AcDbEntity
  8
LINEWORK
370
    30
100
AcDbCircle
 10
-44.4526288698704
 20
63.24742667302871
 30
0.0
 40
0.625
100
AcDbArc
 50
9.129920020907777
 51
81.37307344132933
  0
ARC
  5
F59
330
ED0
100
AcDbEntity
  8
LINEWORK
370
    30
100
AcDbCircle
 10
-42.6400788698703
 20
62.0193716509716
 30
0.0
 40
0.2280648610359433
100
AcDbArc
 50
173.1398324309633
 51
232.9378750585097
  0
LINE
  5
F5A
330
ED0
100
AcDbEntity
  8
LINEWORK
370
    30
100
AcDbLine
 10
-42.86651092835666
 20
62.04661323185383
 30
0.0
 11
-42.89820161057685
 21
62.33183806868419
 31
0.0
  0
ARC
  5
F5B
330
ED0
100
AcDbEntity
  8
LINEWORK
370
    30
100
AcDbCircle
 10
-42.99137824534898
 20
62.32148542493951
 30
0.0
 40
0.09375
100
AcDbArc
 50
6.340000000005793
 51
76.54585369942958
  0
ARC
  5
F5C
330
ED0
100
AcDbEntity
  8
LINEWORK
370
    30
100
AcDbCircle
 10
-42.98387886987041
 20
61.24742667302871
 30
0.0
 40
0.625
100
AcDbArc
 50
11.5369590328309
 51
70.72153922279851
  0
ARC
  5
F5D
330
ED0
100
AcDbEntity
  8
LINEWORK
370
    30
100
AcDbCircle
 10
-42.70257886987053
 20
63.52867667302871
 30
0.0
 40
1.147505730597223
100
AcDbArc
 50
189.1299200209077
 51
256.5458536994295
  0
LINE
  5
F5E
330
ED0
100
AcDbEntity
  8
LINEWORK
370
    30
100
AcDbLine
 10
-44.35887886987063
 20
64.74742667302871
 30
0.0
 11
-44.35887886987063
 21
63.86535542094406
 31
0.0
  0
CIRCLE
  5
F5F
330
ED0
100
AcDbEntity
  8
LINEWORK
  6
DASHED
 62
     7
 48
2.0
100
AcDbCircle
 10
-37.37879511549897
 20
63.26468155475049
 30
0.0
 40
0.3765804613419691
  0
LINE
  5
F60
330
ED0
100
AcDbEntity
  8
LINEWORK
 48
3.0
100
AcDbLine
 10
-37.17556757033765
 20
63.24459778402616
 30
0.0
 11
-36.99814501385992
 21
63.24459778402616
 31
0.0
  0
LINE
  5
F61
330
ED0
100
AcDbEntity
  8
LINEWORK
 48
3.0
100
AcDbLine
 10
-37.74814501385992
 20
63.24459778402616
 30
0.0
 11
-37.54699673277775
 21
63.24459778402616
 31
0.0
  0
LINE
  5
F62
330
ED0
100
AcDbEntity
  8
LINEWORK
 48
3.0
100
AcDbLine
 10
-36.9981450138597
 20
62.11959778402615
 30
0.0
 11
-36.9981450138597
 21
62.4945977840257
 31
0.0
  0
LINE
  5
F63
330
ED0
100
AcDbEntity
  8
LINEWORK
 48
3.0
100
AcDbLine
 10
-36.99814501385992
 20
61.3695977840257
 30
0.0
 11
-36.99814501385992
 21
61.7445977840257
 31
0.0
  0
LINE
  5
F64
330
ED0
100
AcDbEntity
  8
LINEWORK
 48
3.0
100
AcDbLine
 10
-37.74814501385992
 20
62.11959778402615
 30
0.0
 11
-37.74814501386015
 21
62.4945977840257
 31
0.0
  0
LINE
  5
F65
330
ED0
100
AcDbEntity
  8
LINEWORK
 48
3.0
100
AcDbLine
 10
-37.74814501385992
 20
61.3695977840257
 30
0.0
 11
-37.7481450138597
 21
61.7445977840257
 31
0.0
  0
LINE
  5
F66
330
ED0
100
AcDbEntity
  8
LINEWORK
 48
3.0
100
AcDbLine
 10
-37.74814501386015
 20
62.86959778402615
 30
0.0
 11
-37.74814501385992
 21
63.24459778402616
 31
0.0
  0
LINE
  5
F67
330
ED0
100
AcDbEntity
  8
LINEWORK
 48
3.0
100
AcDbLine
 10
-36.9981450138597
 20
62.86959778402615
 30
0.0
 11
-36.9981450138597
 21
63.24459778402616
 31
0.0
  0
LINE
  5
F68
330
ED0
100
AcDbEntity
  8
LINEWORK
 48
3.0
100
AcDbLine
 10
-37.74814501385992
 20
61.00615259344363
 30
0.0
 11
-37.7481450138597
 21
60.63115259344363
 31
0.0
  0
LINE
  5
F69
330
ED0
100
AcDbEntity
  8
LINEWORK
 48
3.0
100
AcDbLine
 10
-36.99814501385992
 20
61.00615259344363
 30
0.0
 11
-36.99814501385992
 21
60.63115259344363
 31
0.0
  0
LINE
  5
F6A
330
ED0
100
AcDbEntity
  8
LINEWORK
 48
3.0
100
AcDbLine
 10
-36.99814501385992
 20
61.00615259344363
 30
0.0
 11
-36.99814501385992
 21
60.63115259344363
 31
0.0
  0
LINE
  5
F6B
330
ED0
100
AcDbEntity
  8
LINEWORK
 48
3.0
100
AcDbLine
 10
-37.74814501385992
 20
61.00615259344363
 30
0.0
 11
-37.7481450138597
 21
60.63115259344363
 31
0.0
  0
LINE
  5
F6C
330
ED0
100
AcDbEntity
  8
LINEWORK
 48
3.0
100
AcDbLine
 10
-36.9981450138597
 20
62.86959778402615
 30
0.0
 11
-36.9981450138597
 21
63.24459778402616
 31
0.0
  0
LINE
  5
F6D
330
ED0
100
AcDbEntity
  8
LINEWORK
 48
3.0
100
AcDbLine
 10
-37.74814501386015
 20
62.86959778402615
 30
0.0
 11
-37.74814501385992
 21
63.24459778402616
 31
0.0
  0
LINE
  5
F6E
330
ED0
100
AcDbEntity
  8
LINEWORK
 48
3.0
100
AcDbLine
 10
-37.74814501385992
 20
61.3695977840257
 30
0.0
 11
-37.7481450138597
 21
61.7445977840257
 31
0.0
  0
LINE
  5
F6F
330
ED0
100
AcDbEntity
  8
LINEWORK
 48
3.0
100
AcDbLine
 10
-37.74814501385992
 20
62.11959778402615
 30
0.0
 11
-37.74814501386015
 21
62.4945977840257
 31
0.0
  0
LINE
  5
F70
330
ED0
100
AcDbEntity
  8
LINEWORK
 48
3.0
100
AcDbLine
 10
-36.99814501385992
 20
61.3695977840257
 30
0.0
 11
-36.99814501385992
 21
61.7445977840257
 31
0.0
  0
LINE
  5
F71
330
ED0
100
AcDbEntity
  8
LINEWORK
 48
3.0
100
AcDbLine
 10
-36.9981450138597
 20
62.11959778402615
 30
0.0
 11
-36.9981450138597
 21
62.4945977840257
 31
0.0
  0
LINE
  5
F72
330
ED0
100
AcDbEntity
  8
LINEWORK
 48
3.0
100
AcDbLine
 10
-37.74814501385992
 20
63.24459778402616
 30
0.0
 11
-37.54699673277775
 21
63.24459778402616
 31
0.0
  0
LINE
  5
F73
330
ED0
100
AcDbEntity
  8
LINEWORK
 48
3.0
100
AcDbLine
 10
-37.17556757033765
 20
63.24459778402616
 30
0.0
 11
-36.99814501385992
 21
63.24459778402616
 31
0.0
  0
LINE
  5
F74
330
ED0
100
AcDbEntity
  8
LINEWORK
 62
     7
370
    30
100
AcDbLine
 10
-33.69526864284352
 20
60.99742667302894
 30
0.0
 11
-33.69526864284352
 21
58.62242667302894
 31
0.0
  0
LINE
  5
F75
330
ED0
100
AcDbEntity
  8
LINEWORK
370
    30
100
AcDbLine
 10
-30.38741115784785
 20
64.74507298384878
 30
0.0
 11
-30.38741115784648
 21
63.86535542094453
 31
0.0
  0
ARC
  5
F76
330
ED0
100
AcDbEntity
  8
LINEWORK
370
    30
100
AcDbCircle
 10
-30.29366115784785
 20
63.24742667302934
 30
0.0
 40
0.6250000000000171
100
AcDbArc
 50
98.62692655867711
 51
170.870079979119
  0
ARC
  5
F77
330
ED0
100
AcDbEntity
  8
LINEWORK
370
    30
100
AcDbCircle
 10
-30.29366115784773
 20
63.24742667302922
 30
0.0
 40
0.6250000000001475
100
AcDbArc
 50
98.62692655868404
 51
170.8700799791083
  0
ARC
  5
F78
330
ED0
100
AcDbEntity
  8
LINEWORK
370
    30
100
AcDbCircle
 10
-31.7481450138597
 20
61.24287819246586
 30
0.0
 40
0.6249999999999836
100
AcDbArc
 50
109.2784607771942
 51
168.4630409671786
  0
ARC
  5
F79
330
ED0
100
AcDbEntity
  8
LINEWORK
370
    30
100
AcDbCircle
 10
-31.76241115784785
 20
61.247426673029
 30
0.0
 40
0.6250000000000013
100
AcDbArc
 50
109.2784607771675
 51
168.463040967169
  0
ARC
  5
F7A
330
ED0
100
AcDbEntity
  8
LINEWORK
370
    30
100
AcDbCircle
 10
-31.76241115784796
 20
61.24742667302928
 30
0.0
 40
0.6249999999998331
100
AcDbArc
 50
109.2784607772087
 51
168.4630409671914
  0
LINE
  5
F7B
330
ED0
100
AcDbEntity
  8
LINEWORK
370
    30
100
AcDbLine
 10
-31.83382227315326
 20
62.3272895881214
 30
0.0
 11
-31.86551295537322
 21
62.04206475129104
 31
0.0
  0
ARC
  5
F7C
330
ED0
100
AcDbEntity
  8
LINEWORK
370
    30
100
AcDbCircle
 10
-31.74064563838112
 20
62.31693694437644
 30
0.0
 40
0.0937499999998943
100
AcDbArc
 50
103.4541463005167
 51
173.6599999999391
  0
ARC
  5
F7D
330
ED0
100
AcDbEntity
  8
LINEWORK
370
    30
100
AcDbCircle
 10
-32.11490118382676
 20
62.02458586377492
 30
0.0
 40
0.2499999999999473
100
AcDbArc
 50
309.9131558013667
 51
4.009136709197182
  0
ARC
  5
F7E
330
ED0
100
AcDbEntity
  8
LINEWORK
370
    30
100
AcDbCircle
 10
-31.72786703158124
 20
62.2976062347584
 30
0.0
 40
0.1249999999999692
100
AcDbArc
 50
113.0079179881648
 51
164.1062283121724
  0
ARC
  5
F7F
330
ED0
100
AcDbEntity
  8
LINEWORK
370
    30
100
AcDbCircle
 10
-32.12916732781514
 20
62.02913434433781
 30
0.0
 40
0.2500000000000165
100
AcDbArc
 50
309.913155801501
 51
4.009136709275612
  0
LINE
  5
F80
330
ED0
100
AcDbEntity
  8
LINEWORK
370
    30
100
AcDbLine
 10
-31.84808841714141
 20
62.33183806868464
 30
0.0
 11
-31.8797790993616
 21
62.04661323185428
 31
0.0
  0
ARC
  5
F81
330
ED0
100
AcDbEntity
  8
LINEWORK
370
    30
100
AcDbCircle
 10
-32.12916732781514
 20
62.02913434433816
 30
0.0
 40
0.2499999999999927
100
AcDbArc
 50
309.9131558013667
 51
4.009136709197182
  0
ARC
  5
F82
330
ED0
100
AcDbEntity
  8
LINEWORK
370
    30
100
AcDbCircle
 10
-31.75491178236927
 20
62.32148542493968
 30
0.0
 40
0.0937499999998401
100
AcDbArc
 50
103.4541463005167
 51
173.6599999999391
  0
LINE
  5
F83
330
ED0
100
AcDbEntity
  8
LINEWORK
370
    30
100
AcDbLine
 10
-31.8797790993616
 20
62.04661323185428
 30
0.0
 11
-31.84808841714141
 21
62.33183806868464
 31
0.0
  0
ARC
  5
F84
330
ED0
100
AcDbEntity
  8
LINEWORK
370
    30
100
AcDbCircle
 10
-32.0095176184111
 20
63.50565073074512
 30
0.0
 40
1.125000000000195
100
AcDbArc
 50
282.6860329213421
 51
351.638193358333
  0
ARC
  5
F85
330
ED0
100
AcDbEntity
  8
LINEWORK
370
    30
100
AcDbCircle
 10
-32.02378376239937
 20
63.51019921130791
 30
0.0
 40
1.125000000000017
100
AcDbArc
 50
282.6860349205269
 51
351.6381913583892
  0
ARC
  5
F86
330
ED0
100
AcDbEntity
  8
LINEWORK
370
    30
100
AcDbCircle
 10
-32.02378376239937
 20
63.51019921130824
 30
0.0
 40
1.12500000000011
100
AcDbArc
 50
282.6860329213491
 51
351.6381933583362
  0
ARC
  5
F87
330
ED0
100
AcDbEntity
  8
LINEWORK
370
    30
100
AcDbCircle
 10
-30.29366115784785
 20
63.24742667302917
 30
0.0
 40
0.625
100
AcDbArc
 50
98.62692655868404
 51
170.8700799790922
  0
ARC
  5
F88
330
ED0
100
AcDbEntity
  8
LINEWORK
370
    30
100
AcDbCircle
 10
-32.04371115784795
 20
63.52867667302916
 30
0.0
 40
1.147505730597223
100
AcDbArc
 50
283.4541463005838
 51
350.8700799790922
  0
ARC
  5
F89
330
ED0
100
AcDbEntity
  8
LINEWORK
370
    30
100
AcDbCircle
 10
-31.75491178236927
 20
62.32148542493996
 30
0.0
 40
0.09375
100
AcDbArc
 50
103.4541463005838
 51
173.6599999999941
  0
LINE
  5
F8A
330
ED0
100
AcDbEntity
  8
LINEWORK
370
    30
100
AcDbLine
 10
-31.8797790993616
 20
62.04661323185428
 30
0.0
 11
-31.84808841714141
 21
62.33183806868464
 31
0.0
  0
ARC
  5
F8B
330
ED0
100
AcDbEntity
  8
LINEWORK
370
    30
100
AcDbCircle
 10
-32.10621115784795
 20
62.01937165097206
 30
0.0
 40
0.2280648610359433
100
AcDbArc
 50
307.0621249415065
 51
6.860167569036637
  0
LINE
  5
F8C
330
ED0
100
AcDbEntity
  8
LINEWORK
370
    30
100
AcDbLine
 10
-30.38741115784785
 20
64.74742667302916
 30
0.0
 11
-30.38741115784785
 21
63.86535542094453
 31
0.0
  0
ARC
  5
F8D
330
ED0
100
AcDbEntity
  8
LINEWORK
370
    30
100
AcDbCircle
 10
-31.76241115784785
 20
61.24742667302917
 30
0.0
 40
0.625
100
AcDbArc
 50
109.2784607772087
 51
168.4630409671946
  0
ENDBLK
  5
ED2
330
ED0
100
AcDbEntity
  8
0
 62
     7
100
AcDbBlockEnd
  0
BLOCK
  5
1061
330
1056
100
AcDbEntity
  8
0
 62
     7
100
AcDbBlockBegin
  2
*D40
 70
     1
 10
0.0
 20
0.0
 30
0.0
  3
*D40
  1

  0
LINE
  5
1057
330
1056
100
AcDbEntity
  8
DIM
 62
     0
100
AcDbLine
 10
144.9811148766469
 20
53.19480845571152
 30
0.0
 11
155.6604633287398
 21
53.19480845571152
 31
0.0
  0
LINE
  5
1058
330
1056
100
AcDbEntity
  8
DIM
 62
     0
100
AcDbLine
 10
145.1028658595455
 20
88.99480845571153
 30
0.0
 11
155.6604633287399
 21
88.99480845571153
 31
0.0
  0
LINE
  5
1059
330
1056
100
AcDbEntity
  8
DIM
 62
     0
100
AcDbLine
 10
155.0604633287398
 20
54.39480845571152
 30
0.0
 11
155.0604633287399
 21
68.37241023326246
 31
0.0
  0
LINE
  5
105A
330
1056
100
AcDbEntity
  8
DIM
 62
     0
100
AcDbLine
 10
155.0604633287399
 20
87.79480845571153
 30
0.0
 11
155.0604633287399
 21
73.26255906387905
 31
0.0
  0
MTEXT
  5
105B
330
1056
100
AcDbEntity
  8
DIM
 62
     0
100
AcDbMText
 10
155.0604633287399
 20
70.81748464857077
 30
0.0
 40
2.399999999999999
 41
0.0
 71
     5
 72
     1
  1
\A1;36"
 73
     1
 44
1.0
1001
ACAD
1000
MTEXTBEGIN
1070
    73
1070
     1
1070
    44
1040
1.0
1070
    74
1070
     0
1000
MTEXTEND
1000
MTEXTBEGIN
1070
    73
1070
     1
1070
    44
1040
1.0
1070
    74
1070
     0
1000
MTEXTEND
  0
SOLID
  5
105C
330
1056
100
AcDbEntity
  8
DIM
 62
     0
100
AcDbTrace
 10
154.8604633287398
 20
54.39480845571152
 30
0.0
 11
155.2604633287398
 21
54.39480845571152
 31
0.0
 12
155.0604633287398
 22
53.19480845571152
 32
0.0
 13
155.0604633287398
 23
53.19480845571152
 33
0.0
  0
SOLID
  5
105D
330
1056
100
AcDbEntity
  8
DIM
 62
     0
100
AcDbTrace
 10
154.8604633287399
 20
87.79480845571153
 30
0.0
 11
155.2604633287398
 21
87.79480845571153
 31
0.0
 12
155.0604633287399
 22
88.99480845571153
 32
0.0
 13
155.0604633287399
 23
88.99480845571153
 33
0.0
  0
POINT
  5
105E
330
1056
100
AcDbEntity
  8
Defpoints
 62
     0
100
AcDbPoint
 10
142.5811148766468
 20
53.19480845571153
 30
0.0
  0
POINT
  5
105F
330
1056
100
AcDbEntity
  8
Defpoints
 62
     0
100
AcDbPoint
 10
142.7028658595455
 20
88.99480845571153
 30
0.0
  0
POINT
  5
1060
330
1056
100
AcDbEntity
  8
Defpoints
 62
     0
100
AcDbPoint
 10
155.0604633287399
 20
88.99480845571153
 30
0.0
  0
ENDBLK
  5
1062
330
1056
100
AcDbEntity
  8
0
 62
     7
100
AcDbBlockEnd
  0
BLOCK
  5
106E
330
1063
100
AcDbEntity
  8
0
 62
     7
100
AcDbBlockBegin
  2
*D41
 70
     1
 10
0.0
 20
0.0
 30
0.0
  3
*D41
  1

  0
LINE
  5
1064
330
1063
100
AcDbEntity
  8
DIM
 62
     0
100
AcDbLine
 10
131.9474912476636
 20
51.16980845571152
 30
0.0
 11
131.9474912476636
 21
47.04572298168963
 31
0.0
  0
LINE
  5
1065
330
1063
100
AcDbEntity
  8
DIM
 62
     0
100
AcDbLine
 10
141.5714912476636
 20
51.16980845571178
 30
0.0
 11
141.5714912476636
 21
47.04572298168963
 31
0.0
  0
LINE
  5
1066
330
1063
100
AcDbEntity
  8
DIM
 62
     0
100
AcDbLine
 10
133.1474912476636
 20
47.64572298168963
 30
0.0
 11
140.3714912476637
 21
47.64572298168963
 31
0.0
  0
LINE
  5
1067
330
1063
100
AcDbEntity
  8
DIM
 62
     0
100
AcDbLine
 10
149.1210792964777
 20
47.64572298168963
 30
0.0
 11
141.5714912476636
 21
47.64572298168963
 31
0.0
  0
MTEXT
  5
1068
330
1063
100
AcDbEntity
  8
DIM
 62
     0
100
AcDbMText
 10
155.7929432227712
 20
47.64572298168963
 30
0.0
 40
2.399999999999999
 41
0.0
 71
     5
 72
     1
  1
\A1;9 5/8"
 73
     1
 44
1.0
1001
ACAD
1000
MTEXTBEGIN
1070
    73
1070
     1
1070
    44
1040
1.0
1070
    74
1070
     0
1000
MTEXTEND
1000
MTEXTBEGIN
1070
    73
1070
     1
1070
    44
1040
1.0
1070
    74
1070
     0
1000
MTEXTEND
  0
SOLID
  5
1069
330
1063
100
AcDbEntity
  8
DIM
 62
     0
100
AcDbTrace
 10
133.1474912476636
 20
47.84572298168963
 30
0.0
 11
133.1474912476636
 21
47.44572298168963
 31
0.0
 12
131.9474912476636
 22
47.64572298168963
 32
0.0
 13
131.9474912476636
 23
47.64572298168963
 33
0.0
  0
SOLID
  5
106A
330
1063
100
AcDbEntity
  8
DIM
 62
     0
100
AcDbTrace
 10
140.3714912476637
 20
47.84572298168963
 30
0.0
 11
140.3714912476637
 21
47.44572298168963
 31
0.0
 12
141.5714912476636
 22
47.64572298168963
 32
0.0
 13
141.5714912476636
 23
47.64572298168963
 33
0.0
  0
POINT
  5
106B
330
1063
100
AcDbEntity
  8
Defpoints
 62
     0
100
AcDbPoint
 10
131.9474912476636
 20
53.56980845571152
 30
0.0
  0
POINT
  5
106C
330
1063
100
AcDbEntity
  8
Defpoints
 62
     0
100
AcDbPoint
 10
141.5714912476636
 20
53.56980845571178
 30
0.0
  0
POINT
  5
106D
330
1063
100
AcDbEntity
  8
Defpoints
 62
     0
100
AcDbPoint
 10
141.5714912476636
 20
47.64572298168963
 30
0.0
  0
ENDBLK
  5
106F
330
1063
100
AcDbEntity
  8
0
 62
     7
100
AcDbBlockEnd
  0
BLOCK
  5
107B
330
1070
100
AcDbEntity
  8
0
 62
     7
100
AcDbBlockBegin
  2
*D42
 70
     1
 10
0.0
 20
0.0
 30
0.0
  3
*D42
  1

  0
LINE
  5
1071
330
1070
100
AcDbEntity
  8
LINEWORK
 62
     0
370
    -2
100
AcDbLine
 10
129.7594912476627
 20
90.56980845571144
 30
0.0
 11
129.7594912476627
 21
94.48257569240988
 31
0.0
  0
LINE
  5
1072
330
1070
100
AcDbEntity
  8
LINEWORK
 62
     0
370
    -2
100
AcDbLine
 10
143.7594912476638
 20
90.56980845571144
 30
0.0
 11
143.7594912476638
 21
94.48257569240988
 31
0.0
  0
LINE
  5
1073
330
1070
100
AcDbEntity
  8
LINEWORK
 62
     0
370
    -2
100
AcDbLine
 10
130.9594912476627
 20
93.88257569240989
 30
0.0
 11
132.8463339972424
 21
93.88257569240989
 31
0.0
  0
LINE
  5
1074
330
1070
100
AcDbEntity
  8
LINEWORK
 62
     0
370
    -2
100
AcDbLine
 10
142.5594912476638
 20
93.88257569240989
 30
0.0
 11
141.2590909072353
 21
93.88257569240989
 31
0.0
  0
MTEXT
  5
1075
330
1070
100
AcDbEntity
  8
LINEWORK
 62
     0
100
AcDbMText
 10
137.0527124522388
 20
93.88257569240989
 30
0.0
 40
2.399999999999999
 41
0.0
 71
     5
 72
     1
  1
\A1;14"
 73
     1
 44
1.0
1001
ACAD
1000
MTEXTBEGIN
1070
    73
1070
     1
1070
    44
1040
1.0
1070
    74
1070
     0
1000
MTEXTEND
1000
MTEXTBEGIN
1070
    73
1070
     1
1070
    44
1040
1.0
1070
    74
1070
     0
1000
MTEXTEND
  0
SOLID
  5
1076
330
1070
100
AcDbEntity
  8
LINEWORK
 62
     0
100
AcDbTrace
 10
130.9594912476627
 20
94.08257569240989
 30
0.0
 11
130.9594912476627
 21
93.68257569240988
 31
0.0
 12
129.7594912476627
 22
93.88257569240989
 32
0.0
 13
129.7594912476627
 23
93.88257569240989
 33
0.0
  0
SOLID
  5
1077
330
1070
100
AcDbEntity
  8
LINEWORK
 62
     0
100
AcDbTrace
 10
142.5594912476638
 20
94.08257569240989
 30
0.0
 11
142.5594912476638
 21
93.68257569240988
 31
0.0
 12
143.7594912476638
 22
93.88257569240989
 32
0.0
 13
143.7594912476638
 23
93.88257569240989
 33
0.0
  0
POINT
  5
1078
330
1070
100
AcDbEntity
  8
Defpoints
 62
     0
100
AcDbPoint
 10
129.7594912476627
 20
88.16980845571142
 30
0.0
  0
POINT
  5
1079
330
1070
100
AcDbEntity
  8
Defpoints
 62
     0
100
AcDbPoint
 10
143.7594912476638
 20
88.16980845571142
 30
0.0
  0
POINT
  5
107A
330
1070
100
AcDbEntity
  8
Defpoints
 62
     0
100
AcDbPoint
 10
143.7594912476638
 20
93.88257569240989
 30
0.0
  0
ENDBLK
  5
107C
330
1070
100
AcDbEntity
  8
0
 62
     7
100
AcDbBlockEnd
  0
BLOCK
  5
1088
330
107D
100
AcDbEntity
  8
0
 62
     7
100
AcDbBlockBegin
  2
*D43
 70
     1
 10
0.0
 20
0.0
 30
0.0
  3
*D43
  1

  0
LINE
  5
107E
330
107D
100
AcDbEntity
  8
DIM
 62
     0
370
    -2
100
AcDbLine
 10
143.2883638611567
 20
57.94480845571152
 30
0.0
 11
148.1725047082341
 21
57.94480845571151
 31
0.0
  0
LINE
  5
107F
330
107D
100
AcDbEntity
  8
DIM
 62
     0
370
    -2
100
AcDbLine
 10
142.8464912476632
 20
83.94480845571152
 30
0.0
 11
148.1725047082341
 21
83.94480845571152
 31
0.0
  0
LINE
  5
1080
330
107D
100
AcDbEntity
  8
DIM
 62
     0
370
    -2
100
AcDbLine
 10
147.5725047082341
 20
59.14480845571151
 30
0.0
 11
147.5725047082342
 21
68.43644531445514
 31
0.0
  0
LINE
  5
1081
330
107D
100
AcDbEntity
  8
DIM
 62
     0
370
    -2
100
AcDbLine
 10
147.5725047082342
 20
82.74480845571153
 30
0.0
 11
147.5725047082342
 21
73.32659414507173
 31
0.0
  0
MTEXT
  5
1082
330
107D
100
AcDbEntity
  8
DIM
 62
     0
100
AcDbMText
 10
147.5725047082342
 20
70.88151972976345
 30
0.0
 40
2.399999999999999
 41
0.0
 71
     5
 72
     1
  1
\A1;26"
 73
     1
 44
1.0
1001
ACAD
1000
MTEXTBEGIN
1070
    73
1070
     1
1070
    44
1040
1.0
1070
    74
1070
     0
1000
MTEXTEND
1000
MTEXTBEGIN
1070
    73
1070
     1
1070
    44
1040
1.0
1070
    74
1070
     0
1000
MTEXTEND
  0
SOLID
  5
1083
330
107D
100
AcDbEntity
  8
DIM
 62
     0
100
AcDbTrace
 10
147.3725047082341
 20
59.14480845571151
 30
0.0
 11
147.7725047082341
 21
59.14480845571151
 31
0.0
 12
147.5725047082341
 22
57.94480845571151
 32
0.0
 13
147.5725047082341
 23
57.94480845571151
 33
0.0
  0
SOLID
  5
1084
330
107D
100
AcDbEntity
  8
DIM
 62
     0
100
AcDbTrace
 10
147.3725047082341
 20
82.74480845571153
 30
0.0
 11
147.7725047082341
 21
82.74480845571153
 31
0.0
 12
147.5725047082342
 22
83.94480845571152
 32
0.0
 13
147.5725047082342
 23
83.94480845571152
 33
0.0
  0
POINT
  5
1085
330
107D
100
AcDbEntity
  8
Defpoints
 62
     0
100
AcDbPoint
 10
140.8883638611567
 20
57.94480845571152
 30
0.0
  0
POINT
  5
1086
330
107D
100
AcDbEntity
  8
Defpoints
 62
     0
100
AcDbPoint
 10
140.4464912476632
 20
83.94480845571152
 30
0.0
  0
POINT
  5
1087
330
107D
100
AcDbEntity
  8
Defpoints
 62
     0
100
AcDbPoint
 10
147.5725047082342
 20
83.94480845571152
 30
0.0
  0
ENDBLK
  5
1089
330
107D
100
AcDbEntity
  8
0
 62
     7
100
AcDbBlockEnd
  0
BLOCK
  5
1104
330
108A
100
AcDbEntity
  8
0
 62
     7
100
AcDbBlockBegin
  2
PIER
 70
     2
 10
0.0
 20
0.0
 30
0.0
  3
PIER
  1

  0
LINE
  5
108B
330
108A
100
AcDbEntity
  8
LINEWORK
 62
     7
370
    30
100
AcDbLine
 10
24.12193778927928
 20
30.75
 30
0.0
 11
31.49593778927931
 21
30.75
 31
0.0
  0
LINE
  5
108C
330
108A
100
AcDbEntity
  8
LINEWORK
 62
     7
370
    30
100
AcDbLine
 10
31.93781040277275
 20
4.75
 30
0.0
 11
23.69831243375295
 21
4.75
 31
0.0
  0
ARC
  5
108D
330
108A
100
AcDbEntity
  8
LINEWORK
 62
     7
370
    30
100
AcDbCircle
 10
42.55566624652328
 20
23.15053100173634
 30
0.0
 40
12.74999999999998
100
AcDbArc
 50
175.0837622692387
 51
208.3196601840818
  0
LINE
  5
108E
330
108A
100
AcDbEntity
  8
LINEWORK
 62
     7
370
    30
100
AcDbLine
 10
29.85257287350242
 20
24.24319689592044
 30
0.0
 11
25.76796166385207
 21
24.24319689592044
 31
0.0
  0
LINE
  5
108F
330
108A
100
AcDbEntity
  8
LINEWORK
 62
     7
370
    30
100
AcDbLine
 10
29.97731193600282
 20
24.33694689592016
 30
0.0
 11
25.6450658618624
 21
24.33542665908254
 31
0.0
  0
LINE
  5
1090
330
108A
100
AcDbEntity
  8
LINEWORK
 62
     7
370
    30
100
AcDbLine
 10
29.97731193600282
 20
24.8045226771747
 30
0.0
 11
25.64473770606173
 21
24.80300232518328
 31
0.0
  0
LINE
  5
1091
330
108A
100
AcDbEntity
  8
LINEWORK
 62
     7
370
    30
100
AcDbLine
 10
29.87953077968336
 20
26.80034767717472
 30
0.0
 11
25.74111812086096
 21
26.79889545879524
 31
0.0
  0
LINE
  5
1092
330
108A
100
AcDbEntity
  8
LINEWORK
 62
     7
370
    30
100
AcDbLine
 10
29.87953077968342
 20
27.29930392717472
 30
0.0
 11
25.74076794150125
 21
27.29785158591312
 31
0.0
  0
LINE
  5
1093
330
108A
100
AcDbEntity
  8
LINEWORK
 62
     7
370
    30
100
AcDbLine
 10
31.05215298800675
 20
9.399446895920448
 30
0.0
 11
24.58070856723111
 21
9.397175988859146
 31
0.0
  0
LINE
  5
1094
330
108A
100
AcDbEntity
  8
LINEWORK
 62
     7
370
    30
100
AcDbLine
 10
31.05215298800686
 20
9.930696895920448
 30
0.0
 11
24.58033572334972
 21
9.928425858023786
 31
0.0
  0
LINE
  5
1095
330
108A
100
AcDbEntity
  8
LINEWORK
 62
     7
370
    30
100
AcDbLine
 10
31.93781040277275
 20
7.682446895920406
 30
0.0
 11
23.69625640200769
 21
7.679554836287422
 31
0.0
  0
LINE
  5
1096
330
108A
100
AcDbEntity
  8
LINEWORK
 62
     7
370
    30
100
AcDbLine
 10
31.05215298800686
 20
7.869446895920418
 30
0.0
 11
24.5817823576092
 21
7.867176365664988
 31
0.0
  0
LINE
  5
1097
330
108A
100
AcDbEntity
  8
LINEWORK
 62
     7
370
    30
100
AcDbLine
 10
31.05215298800686
 20
8.118446895920385
 30
0.0
 11
24.5816076034888
 21
8.116176304341649
 31
0.0
  0
LINE
  5
1098
330
108A
100
AcDbEntity
  8
LINEWORK
 62
     7
370
    30
100
AcDbLine
 10
30.15168836743055
 20
11.05544385488514
 30
0.0
 11
25.48001074800265
 21
11.05380450746838
 31
0.0
  0
LINE
  5
1099
330
108A
100
AcDbEntity
  8
LINEWORK
 62
     7
370
    30
100
AcDbLine
 10
30.15188489045982
 20
11.68069689592044
 30
0.0
 11
25.47937540757124
 21
11.67905725659284
 31
0.0
  0
LINE
  5
109A
330
108A
100
AcDbEntity
  8
LINEWORK
 62
     7
370
    30
100
AcDbLine
 10
30.15188489045982
 20
11.99319689592044
 30
0.0
 11
25.47915608764105
 21
11.99155717963088
 31
0.0
  0
LINE
  5
109B
330
108A
100
AcDbEntity
  8
LINEWORK
 62
     7
370
    30
100
AcDbLine
 10
30.73737766061242
 20
28.27090748605257
 30
0.0
 11
24.88223937736228
 21
28.26885284816842
 31
0.0
  0
LINE
  5
109C
330
108A
100
AcDbEntity
  8
LINEWORK
 62
     7
370
    30
100
AcDbLine
 10
24.12193778927928
 20
28.375
 30
0.0
 11
31.49593778927931
 21
28.375
 31
0.0
  0
LINE
  5
109D
330
108A
100
AcDbEntity
  8
LINEWORK
370
    30
100
AcDbLine
 10
32.05893778927924
 20
31.125
 30
0.0
 11
23.55893778927924
 21
31.125
 31
0.0
  0
ARC
  5
109E
330
108A
100
AcDbEntity
  8
LINEWORK
 62
     7
370
    30
100
AcDbCircle
 10
13.06754730400155
 20
23.14018326896194
 30
0.0
 40
12.74999999999999
100
AcDbArc
 50
331.7205513595759
 51
4.956449274421593
  0
ARC
  5
109F
330
108A
100
AcDbEntity
  8
LINEWORK
 62
     7
370
    30
100
AcDbCircle
 10
24.1757906944378
 20
11.17414452067691
 30
0.0
 40
1.309760156249897
100
AcDbArc
 50
287.9911174802658
 51
354.7282615809109
  0
LINE
  5
10A0
330
108A
100
AcDbEntity
  8
LINEWORK
 62
     7
370
    30
100
AcDbLine
 10
24.58070856723111
 20
9.397175988859146
 30
0.0
 11
24.58033572334972
 21
9.928425858023786
 31
0.0
  0
ARC
  5
10A1
330
108A
100
AcDbEntity
  8
LINEWORK
 62
     7
370
    30
100
AcDbCircle
 10
24.58115808535996
 20
8.756676146600398
 30
0.0
 40
0.6405000000000018
100
AcDbArc
 50
90.04021154365782
 51
270.0402115436578
  0
LINE
  5
10A2
330
108A
100
AcDbEntity
  8
LINEWORK
 62
     7
370
    30
100
AcDbLine
 10
24.5817823576092
 20
7.867176365664988
 30
0.0
 11
24.5816076034888
 21
8.116176304341649
 31
0.0
  0
LINE
  5
10A3
330
108A
100
AcDbEntity
  8
LINEWORK
 62
     7
370
    30
100
AcDbLine
 10
23.69625640200774
 20
7.679554836287422
 30
0.0
 11
24.5817823576092
 21
7.867176365664988
 31
0.0
  0
LINE
  5
10A4
330
108A
100
AcDbEntity
  8
LINEWORK
 62
     7
370
    30
100
AcDbLine
 10
23.69831243375295
 20
4.75
 30
0.0
 11
23.69625640200774
 21
7.679554836287422
 31
0.0
  0
LINE
  5
10A5
330
108A
100
AcDbEntity
  8
LINEWORK
  6
DASHED
 62
     7
 48
2.0
370
    30
100
AcDbLine
 10
28.05893778927964
 20
6.560000000000115
 30
0.0
 11
27.55893778927964
 21
6.560000000000115
 31
0.0
  0
LINE
  5
10A6
330
108A
100
AcDbEntity
  8
LINEWORK
  6
DASHED
 62
     7
 48
2.0
370
    30
100
AcDbLine
 10
27.55893778927964
 20
2.560000000000115
 30
0.0
 11
28.05893778927964
 21
2.560000000000115
 31
0.0
  0
LINE
  5
10A7
330
108A
100
AcDbEntity
  8
LINEWORK
  6
DASHED
 62
     7
 48
2.0
370
    30
100
AcDbLine
 10
27.55893778927964
 20
6.560000000000115
 30
0.0
 11
27.55893778927964
 21
2.560000000000115
 31
0.0
  0
LINE
  5
10A8
330
108A
100
AcDbEntity
  8
LINEWORK
  6
DASHED
 62
     7
 48
2.0
370
    30
100
AcDbLine
 10
28.05893778927964
 20
2.560000000000115
 30
0.0
 11
28.05893778927964
 21
6.560000000000115
 31
0.0
  0
LINE
  5
10A9
330
108A
100
AcDbEntity
  8
LINEWORK
 62
     7
370
    30
100
AcDbLine
 10
22.99693778927968
 20
3.875
 30
0.0
 11
22.99693778927968
 21
0.375
 31
0.0
  0
LINE
  5
10AA
330
108A
100
AcDbEntity
  8
LINEWORK
 62
     7
370
    30
100
AcDbLine
 10
23.49693778927968
 20
4.375
 30
0.0
 11
22.99693778927968
 21
3.875
 31
0.0
  0
INSERT
  5
10AB
330
108A
100
AcDbEntity
  8
DIM
 62
     7
370
    30
100
AcDbBlockReference
 66
     1
  2
PROFILE LOGO
 10
23.20702869622425
 20
1.948831679886893
 30
0.0
 41
0.8000000000000113
 42
0.8000000000000113
 43
0.8
  0
ATTRIB
  5
10AC
330
10AB
100
AcDbEntity
  8
A1
 62
    22
100
AcDbText
 10
23.40108051557657
 20
0.6061930807616705
 30
0.0
 40
0.17015625
  1
054M
 72
     1
 11
23.749533020449
 21
0.6061930807616705
 31
0.0
100
AcDbAttribute
  2
XXXX
 70
     0
  0
SEQEND
  5
10AD
330
10AB
100
AcDbEntity
  8
A1
 62
     7
  0
ARC
  5
10AE
330
108A
100
AcDbEntity
  8
LINEWORK
 62
     7
370
    30
100
AcDbCircle
 10
27.81983495616339
 20
15.22489789117884
 30
0.0
 40
3.991650000000075
100
AcDbArc
 50
151.9882682864517
 51
234.0984822571084
  0
LINE
  5
10AF
330
108A
100
AcDbEntity
  8
LINEWORK
 62
     7
370
    30
100
AcDbLine
 10
25.47937540757118
 20
11.67905725659284
 30
0.0
 11
25.47915608764105
 21
11.99155717963083
 31
0.0
  0
ARC
  5
10B0
330
108A
100
AcDbEntity
  8
LINEWORK
 62
     7
370
    30
100
AcDbCircle
 10
25.47959481625332
 20
11.36643078218372
 30
0.0
 40
0.3126265514021922
100
AcDbArc
 50
90.04021153177344
 51
270.0762287807173
  0
ARC
  5
10B1
330
108A
100
AcDbEntity
  8
LINEWORK
370
    30
100
AcDbCircle
 10
23.008937789279
 20
31.12499999999971
 30
0.0
 40
0.5500000000002502
100
AcDbArc
 50
0.0000000000260551
 51
90.00000000002605
  0
ARC
  5
10B2
330
108A
100
AcDbEntity
  8
LINEWORK
370
    30
100
AcDbCircle
 10
22.52204376964419
 20
33.52283818206291
 30
0.0
 40
1.299371506374636
100
AcDbArc
 50
185.7015478593825
 51
267.2162470626179
  0
LINE
  5
10B3
330
108A
100
AcDbEntity
  8
LINEWORK
370
    30
100
AcDbLine
 10
22.45893778927882
 20
31.67500000000001
 30
0.0
 11
22.45893778927882
 21
32.22499999999996
 31
0.0
  0
ARC
  5
10B4
330
108A
100
AcDbEntity
  8
LINEWORK
370
    30
100
AcDbCircle
 10
20.43864728537619
 20
33.30902312383807
 30
0.0
 40
0.7949809888151388
100
AcDbArc
 50
6.118045468726062
 51
62.23893912946991
  0
LINE
  5
10B5
330
108A
100
AcDbEntity
  8
LINEWORK
370
    30
100
AcDbLine
 10
20.80893778928225
 20
34.01249999999993
 30
0.0
 11
20.80893778927872
 21
34.97499999999991
 31
0.0
  0
INSERT
  5
10B6
330
108A
100
AcDbEntity
  8
DIM
 62
     7
370
    30
100
AcDbBlockReference
 66
     1
  2
PROFILE LOGO
 10
21.83984462537466
 20
34.12222735175464
 30
0.0
 41
0.7940625000000097
 42
0.7940625000000168
 43
0.7940625000000012
  0
ATTRIB
  5
10B7
330
10B6
100
AcDbEntity
  8
A1
 62
    22
100
AcDbText
 10
22.06579200942463
 20
32.78955364848235
 30
0.0
 40
0.1688933715820315
  1
1155
 72
     1
 11
22.3783225503181
 21
32.78955364848235
 31
0.0
100
AcDbAttribute
  2
XXXX
 70
     0
  0
SEQEND
  5
10B8
330
10B6
100
AcDbEntity
  8
A1
 62
     7
  0
LWPOLYLINE
  5
10B9
330
108A
100
AcDbEntity
  8
LINEWORK
 62
    22
370
    30
100
AcDbPolyline
 90
        4
 70
     0
 43
0.0
 10
24.51974768710925
 20
30.33312383621717
 10
25.23280142089072
 20
30.33312383621717
 10
25.23808346504523
 20
30.1272396027341
 10
25.20903302237019
 20
30.1272396027341
  0
ARC
  5
10BA
330
108A
100
AcDbEntity
  8
LINEWORK
 62
    22
370
    30
100
AcDbCircle
 10
24.66990052788389
 20
30.1377977853653
 30
0.0
 40
0.1373288804184085
100
AcDbArc
 50
359.6316189828548
 51
90.00081606717209
  0
LINE
  5
10BB
330
108A
100
AcDbEntity
  8
LINEWORK
 62
    22
370
    30
100
AcDbLine
 10
24.51182506541909
 20
30.33312383621717
 30
0.0
 11
24.50654302126451
 21
30.1272396027341
 31
0.0
  0
ARC
  5
10BC
330
108A
100
AcDbEntity
  8
LINEWORK
 62
    22
370
    30
100
AcDbCircle
 10
24.67328758642372
 20
30.1377977853653
 30
0.0
 40
0.1373288804184085
100
AcDbArc
 50
89.9991839328279
 51
180.3683810171452
  0
LINE
  5
10BD
330
108A
100
AcDbEntity
  8
LINEWORK
 62
    22
370
    30
100
AcDbLine
 10
24.53596154444454
 20
30.13691484067829
 30
0.0
 11
24.53596154444454
 21
30.12717239840458
 31
0.0
  0
LINE
  5
10BE
330
108A
100
AcDbEntity
  8
LINEWORK
 62
    22
370
    30
100
AcDbLine
 10
24.50654302126451
 20
30.1272396027341
 30
0.0
 11
24.53559346393956
 21
30.1272396027341
 31
0.0
  0
ARC
  5
10BF
330
108A
100
AcDbEntity
  8
LINEWORK
 62
    22
370
    30
100
AcDbCircle
 10
25.07472595842591
 20
30.1377977853653
 30
0.0
 40
0.1373288804184085
100
AcDbArc
 50
89.9991839328279
 51
180.3683810171452
  0
ARC
  5
10C0
330
108A
100
AcDbEntity
  8
LINEWORK
 62
    22
370
    30
100
AcDbCircle
 10
25.07133889988608
 20
30.1377977853653
 30
0.0
 40
0.1373288804184085
100
AcDbArc
 50
359.6316189828548
 51
90.00081606717209
  0
LINE
  5
10C1
330
108A
100
AcDbEntity
  8
LINEWORK
 62
    22
370
    30
100
AcDbLine
 10
25.2086649418652
 20
30.13691484067829
 30
0.0
 11
25.2086649418652
 21
30.12717239840458
 31
0.0
  0
LINE
  5
10C2
330
108A
100
AcDbEntity
  8
LINEWORK
 62
    22
370
    30
100
AcDbLine
 10
24.68348607703376
 20
29.46471462610202
 30
0.0
 11
25.06114040927605
 21
29.46471462610202
 31
0.0
  0
LINE
  5
10C3
330
108A
100
AcDbEntity
  8
LINEWORK
 62
    22
370
    30
100
AcDbLine
 10
24.80720546571956
 20
29.56641313492145
 30
0.0
 11
24.80761029160743
 21
29.56765679748122
 31
0.0
  0
LINE
  5
10C4
330
108A
100
AcDbEntity
  8
LINEWORK
 62
    22
370
    30
100
AcDbLine
 10
24.68348607703376
 20
29.4911100826801
 30
0.0
 11
24.73094676854037
 21
29.4911100826801
 31
0.0
  0
LINE
  5
10C5
330
108A
100
AcDbEntity
  8
LINEWORK
 62
    22
370
    30
100
AcDbLine
 10
24.68348607703376
 20
29.46471462610202
 30
0.0
 11
24.68348607703376
 21
29.4911100826801
 31
0.0
  0
ARC
  5
10C6
330
108A
100
AcDbEntity
  8
LINEWORK
 62
    22
370
    30
100
AcDbCircle
 10
24.73067115270334
 20
29.5677909875896
 30
0.0
 40
0.0765467148011254
100
AcDbArc
 50
270.206300928684
 51
358.9686114340257
  0
LINE
  5
10C7
330
108A
100
AcDbEntity
  8
LINEWORK
 62
    22
370
    30
100
AcDbLine
 10
25.06114040927605
 20
29.46471462610202
 30
0.0
 11
25.06114040927605
 21
29.4911100826801
 31
0.0
  0
LINE
  5
10C8
330
108A
100
AcDbEntity
  8
LINEWORK
 62
    22
370
    30
100
AcDbLine
 10
25.06114040927605
 20
29.4911100826801
 30
0.0
 11
25.01367971776938
 21
29.4911100826801
 31
0.0
  0
ARC
  5
10C9
330
108A
100
AcDbEntity
  8
LINEWORK
 62
    22
370
    30
100
AcDbCircle
 10
25.01395533360641
 20
29.5677909875896
 30
0.0
 40
0.0765467148011254
100
AcDbArc
 50
181.0313885659742
 51
269.7936990713126
  0
LINE
  5
10CA
330
108A
100
AcDbEntity
  8
LINEWORK
 62
    22
370
    30
100
AcDbLine
 10
24.93742102059019
 20
29.56641313492145
 30
0.0
 11
24.93701619470232
 21
29.56765679748122
 31
0.0
  0
ATTDEF
  5
10CB
330
108A
100
AcDbEntity
  8
LINEWORK
 62
    22
370
    30
100
AcDbText
 10
24.88275918798581
 20
29.12699170586932
 30
0.0
 40
0.17015625
  1

 72
     1
 11
24.88275918798581
 21
29.12699170586932
 31
0.0
100
AcDbAttributeDefinition
  3
ADD STONE MARKER
  2
0989
 70
     0
  0
LINE
  5
10CC
330
108A
100
AcDbEntity
  8
LINEWORK
 62
    22
370
    30
100
AcDbLine
 10
24.36129134133932
 20
29.34065619873564
 30
0.0
 11
25.38597607813938
 21
29.34065619873564
 31
0.0
  0
LWPOLYLINE
  5
10CD
330
108A
100
AcDbEntity
  8
LINEWORK
 62
    22
370
    30
100
AcDbPolyline
 90
        4
 70
     1
 43
0.0
 10
24.36129134133932
 20
30.44662408095229
 10
25.38597607813938
 20
30.44662408095229
 10
25.38597607813938
 20
29.08462070702956
 10
24.36129134133932
 20
29.08462070702956
  0
HATCH
  5
10CE
330
108A
100
AcDbEntity
  8
LINEWORK
 62
    22
370
    30
100
AcDbHatch
 10
0.0
 20
0.0
 30
0.0
210
0.0
220
0.0
230
1.0
  2
LINE
 70
     0
 71
     0
 91
        1
 92
       33
 93
       38
 72
     1
 10
25.23280142089072
 20
30.33312383621717
 11
24.51446582077136
 21
30.33312383621717
 72
     1
 10
24.51446582077136
 20
30.33312383621717
 11
24.50654302126457
 21
30.12987914839186
 72
     1
 10
24.50654302126451
 20
30.12987914839186
 11
24.53031159760167
 21
30.12987914839186
 72
     1
 10
24.53031159760167
 20
30.12987914839186
 11
24.53559346393956
 21
30.16419313266806
 72
     1
 10
24.53559346393956
 20
30.16419313266806
 11
24.5435162634464
 21
30.19586768056177
 72
     1
 10
24.5435162634464
 20
30.19586768056177
 11
24.55936186246009
 21
30.22226302786453
 72
     1
 10
24.55936186246003
 20
30.22226302786453
 11
24.57784839464267
 21
30.24073984746917
 72
     1
 10
24.57784839464267
 20
30.24073984746923
 11
24.60161697097982
 21
30.25657712141605
 72
     1
 10
24.60161697097987
 20
30.25657712141605
 11
24.62538536950034
 21
30.26977484970507
 72
     1
 10
24.62538536950034
 20
30.26977484970507
 11
24.64651283485187
 21
30.27505383174537
 72
     1
 10
24.64651283485187
 20
30.27505383174537
 11
24.66764047802013
 21
30.27505383174537
 72
     1
 10
24.66764047802007
 20
30.27505383174537
 11
24.71781820822997
 21
30.27241439536288
 72
     1
 10
24.71781820823002
 20
30.27241439536288
 11
24.75215051724296
 21
30.25129803010043
 72
     1
 10
24.75215051724296
 20
30.25129803010043
 11
24.79968731428397
 21
30.19850722621959
 72
     1
 10
24.79968731428391
 20
30.19850722621959
 11
24.81289215794532
 21
30.15627449569467
 72
     1
 10
24.81289215794532
 20
30.15627449569467
 11
24.81289215794532
 21
29.543900886561
 72
     1
 10
24.81289215794532
 20
29.54390088656094
 11
24.79176451477707
 21
29.50694735662693
 72
     1
 10
24.79176451477712
 20
29.50694735662699
 11
24.73894585139822
 21
29.48847053702229
 72
     1
 10
24.73894585139822
 20
29.48847053702229
 11
24.6914088765406
 21
29.48847053702229
 72
     1
 10
24.69140887654055
 20
29.48847053702229
 11
24.68612701020271
 21
29.46999371741765
 72
     1
 10
24.68612701020271
 20
29.46999371741765
 11
25.05585854293809
 21
29.46999371741765
 72
     1
 10
25.05585854293815
 20
29.46999371741765
 11
25.05585854293815
 21
29.48847053702229
 72
     1
 10
25.05585854293815
 20
29.48847053702229
 11
24.99247596906684
 21
29.48847053702229
 72
     1
 10
24.99247596906684
 20
29.48847053702229
 11
24.94229806104027
 21
29.52014497564067
 72
     1
 10
24.94229806104022
 20
29.52014497564067
 11
24.93437526153337
 21
29.55709861485002
 72
     1
 10
24.93437526153343
 20
29.55709861485002
 11
24.93173432836448
 21
30.15363495003686
 72
     1
 10
24.93173432836442
 20
30.15363495003686
 11
24.94493899420916
 21
30.19850722621959
 72
     1
 10
24.94493899420916
 20
30.19850722621959
 11
24.9792713032221
 21
30.24337939312704
 72
     1
 10
24.9792713032221
 20
30.24337939312698
 11
25.02944921124873
 21
30.26977484970507
 72
     1
 10
25.02944921124867
 20
30.26977484970507
 11
25.09019067413436
 21
30.27769337740318
 72
     1
 10
25.09019067413442
 20
30.27769337740318
 11
25.14829138166788
 21
30.25657712141605
 72
     1
 10
25.14829138166783
 20
30.25657712141605
 11
25.18526462384972
 21
30.22226302786453
 72
     1
 10
25.18526462384966
 20
30.22226302786453
 11
25.20903302237019
 21
30.18003040661494
 72
     1
 10
25.20903302237019
 20
30.18003040661494
 11
25.21431488870808
 21
30.12987914839192
 72
     1
 10
25.21431488870808
 20
30.12987914839186
 11
25.23280142089066
 21
30.12987914839186
 72
     1
 10
25.23280142089072
 20
30.12987914839186
 11
25.22751955455282
 21
30.32784474490154
 72
     1
 10
25.22751955455282
 20
30.32784474490154
 11
25.22751955455282
 21
30.33048429055935
 72
     1
 10
25.22751955455282
 20
30.33048429055935
 11
25.22487862138388
 21
30.33048429055935
 97
        0
 75
     0
 76
     1
 52
0.0
 41
0.0625
 77
     0
 78
     1
 53
0.0
 43
1.794036759742709
 44
4.075757938570234
 45
0.0
 46
0.0078125
 79
     0
 98
        1
 10
1.794036759742709
 20
4.075757938570234
  0
LINE
  5
10CF
330
108A
100
AcDbEntity
  8
LINEWORK
 62
    22
370
    30
100
AcDbLine
 10
24.80761029160743
 20
30.13691484067829
 30
0.0
 11
24.80761029160743
 21
29.56765679748122
 31
0.0
  0
LINE
  5
10D0
330
108A
100
AcDbEntity
  8
LINEWORK
 62
    22
370
    30
100
AcDbLine
 10
24.93701619470238
 20
30.13691484067829
 30
0.0
 11
24.93701619470232
 21
29.56765679748122
 31
0.0
  0
LINE
  5
10D1
330
108A
100
AcDbEntity
  8
LINEWORK
 62
     7
370
    30
100
AcDbLine
 10
24.12193778927928
 20
28.375
 30
0.0
 11
24.12193778927928
 21
30.75
 31
0.0
  0
LINE
  5
10D2
330
108A
100
AcDbEntity
  8
LINEWORK
 62
     7
370
    30
100
AcDbLine
 10
24.88223937736228
 20
28.26885284816842
 30
0.0
 11
24.12193778927928
 21
28.375
 31
0.0
  0
ARC
  5
10D3
330
108A
100
AcDbEntity
  8
LINEWORK
 62
     7
370
    30
100
AcDbCircle
 10
26.0316750603506
 20
28.42010496165483
 30
0.0
 40
1.159344466136349
100
AcDbArc
 50
187.4963758602323
 51
255.4678153711493
  0
LINE
  5
10D4
330
108A
100
AcDbEntity
  8
LINEWORK
 62
     7
370
    30
100
AcDbLine
 10
25.74111812086096
 20
26.79889545879524
 30
0.0
 11
25.74076794150125
 21
27.29785158591312
 31
0.0
  0
ARC
  5
10D5
330
108A
100
AcDbEntity
  8
LINEWORK
 62
     7
370
    30
100
AcDbCircle
 10
25.57656431397168
 20
26.42839203339167
 30
0.0
 40
0.4054019531249582
100
AcDbArc
 50
312.6441599562707
 51
66.05228345091937
  0
LINE
  5
10D6
330
108A
100
AcDbEntity
  8
LINEWORK
 62
     7
370
    30
100
AcDbLine
 10
25.36562932163309
 20
25.67143310572044
 30
0.0
 11
25.85120107210241
 21
26.13018842060176
 31
0.0
  0
ARC
  5
10D7
330
108A
100
AcDbEntity
  8
LINEWORK
 62
     7
370
    30
100
AcDbCircle
 10
25.70675704259179
 20
25.30200222472109
 30
0.0
 40
0.5028392365780468
100
AcDbArc
 50
132.7189850553561
 51
262.9151951947604
  0
LINE
  5
10D8
330
108A
100
AcDbEntity
  8
LINEWORK
 62
     7
370
    30
100
AcDbLine
 10
25.64506586186235
 20
24.33542665908254
 30
0.0
 11
25.64473770606173
 21
24.80300232518328
 31
0.0
  0
LINE
  5
10D9
330
108A
100
AcDbEntity
  8
LINEWORK
 62
     7
370
    30
100
AcDbLine
 10
25.76987068962131
 20
24.24176422701134
 30
0.0
 11
25.64506586186235
 21
24.33542665908254
 31
0.0
  0
LINE
  5
10DA
330
108A
100
AcDbEntity
  8
LINEWORK
  6
DASHED
 62
     7
 48
2.0
370
    30
100
AcDbLine
 10
28.05893778927964
 20
32.94000000000142
 30
0.0
 11
28.05893778927964
 21
28.94000000000142
 31
0.0
  0
LINE
  5
10DB
330
108A
100
AcDbEntity
  8
LINEWORK
  6
DASHED
 62
     7
 48
2.0
370
    30
100
AcDbLine
 10
27.55893778927964
 20
28.94000000000142
 30
0.0
 11
27.55893778927964
 21
32.94000000000142
 31
0.0
  0
LINE
  5
10DC
330
108A
100
AcDbEntity
  8
LINEWORK
  6
DASHED
 62
     7
 48
2.0
370
    30
100
AcDbLine
 10
27.55893778927964
 20
32.94000000000142
 30
0.0
 11
28.05893778927964
 21
32.94000000000142
 31
0.0
  0
LINE
  5
10DD
330
108A
100
AcDbEntity
  8
LINEWORK
  6
DASHED
 62
     7
 48
2.0
370
    30
100
AcDbLine
 10
28.05893778927964
 20
28.94000000000142
 30
0.0
 11
27.55893778927964
 21
28.94000000000142
 31
0.0
  0
ARC
  5
10DE
330
108A
100
AcDbEntity
  8
LINEWORK
 62
     7
370
    30
100
AcDbCircle
 10
31.45582364231171
 20
11.17669917110003
 30
0.0
 40
1.309760156249905
100
AcDbArc
 50
185.3119499627489
 51
252.0490940633945
  0
LINE
  5
10DF
330
108A
100
AcDbEntity
  8
LINEWORK
 62
     7
370
    30
100
AcDbLine
 10
31.93781040277275
 20
7.682446895920406
 30
0.0
 11
31.93781040277275
 21
4.75
 31
0.0
  0
LINE
  5
10E0
330
108A
100
AcDbEntity
  8
LINEWORK
 62
     7
370
    30
100
AcDbLine
 10
31.05215298800686
 20
7.869446895920418
 30
0.0
 11
31.93781040277275
 21
7.682446895920406
 31
0.0
  0
LINE
  5
10E1
330
108A
100
AcDbEntity
  8
LINEWORK
 62
     7
370
    30
100
AcDbLine
 10
31.05215298800686
 20
8.118446895920385
 30
0.0
 11
31.05215298800686
 21
7.869446895920418
 31
0.0
  0
ARC
  5
10E2
330
108A
100
AcDbEntity
  8
LINEWORK
 62
     7
370
    30
100
AcDbCircle
 10
31.05215298800681
 20
8.758946895920416
 30
0.0
 40
0.640500000000003
100
AcDbArc
 50
270.0000000000065
 51
90.00000000000325
  0
LINE
  5
10E3
330
108A
100
AcDbEntity
  8
LINEWORK
 62
     7
370
    30
100
AcDbLine
 10
31.05215298800686
 20
9.930696895920391
 30
0.0
 11
31.05215298800675
 21
9.399446895920391
 31
0.0
  0
ARC
  5
10E4
330
108A
100
AcDbEntity
  8
LINEWORK
 62
     7
370
    30
100
AcDbCircle
 10
30.15188489052468
 20
11.36807034451823
 30
0.0
 40
0.3126265514021895
100
AcDbArc
 50
269.9639827629437
 51
90.00000001188764
  0
LINE
  5
10E5
330
108A
100
AcDbEntity
  8
LINEWORK
 62
     7
370
    30
100
AcDbLine
 10
30.15188489045982
 20
11.99319689592039
 30
0.0
 11
30.15188489045982
 21
11.68069689592039
 31
0.0
  0
ARC
  5
10E6
330
108A
100
AcDbEntity
  8
LINEWORK
 62
     7
370
    30
100
AcDbCircle
 10
27.80893736300686
 20
15.22489406708336
 30
0.0
 40
3.991650000000084
100
AcDbArc
 50
305.9417292865536
 51
28.0519432572087
  0
LINE
  5
10E7
330
108A
100
AcDbEntity
  8
LINEWORK
 62
     7
370
    30
100
AcDbLine
 10
29.97731193600282
 20
24.33694689592016
 30
0.0
 11
29.85257287350242
 21
24.24319689592039
 31
0.0
  0
LINE
  5
10E8
330
108A
100
AcDbEntity
  8
LINEWORK
 62
     7
370
    30
100
AcDbLine
 10
29.97731193600282
 20
24.80452267717464
 30
0.0
 11
29.97731193600282
 21
24.33694689592016
 31
0.0
  0
ARC
  5
10E9
330
108A
100
AcDbEntity
  8
LINEWORK
 62
     7
370
    30
100
AcDbCircle
 10
29.91494240475288
 20
25.30347892717463
 30
0.0
 40
0.5028392365780418
100
AcDbArc
 50
277.1250163489014
 51
47.321226488307
  0
LINE
  5
10EA
330
108A
100
AcDbEntity
  8
LINEWORK
 62
     7
370
    30
100
AcDbLine
 10
29.76991717005188
 20
26.13156354483669
 30
0.0
 11
30.25581076632306
 21
25.67314912873655
 31
0.0
  0
ARC
  5
10EB
330
108A
100
AcDbEntity
  8
LINEWORK
 62
     7
370
    30
100
AcDbCircle
 10
30.04434457415988
 20
26.42995983079231
 30
0.0
 40
0.4054019531249569
100
AcDbArc
 50
113.9879280927425
 51
227.3960515873894
  0
LINE
  5
10EC
330
108A
100
AcDbEntity
  8
LINEWORK
 62
     7
370
    30
100
AcDbLine
 10
29.87953077968336
 20
27.29930392717466
 30
0.0
 11
29.87953077968336
 21
26.80034767717472
 31
0.0
  0
ARC
  5
10ED
330
108A
100
AcDbEntity
  8
LINEWORK
 62
     7
370
    30
100
AcDbCircle
 10
29.58783610837565
 20
28.42135286099693
 30
0.0
 40
1.159344466136347
100
AcDbArc
 50
284.5723961725109
 51
352.543835683425
  0
LINE
  5
10EE
330
108A
100
AcDbEntity
  8
LINEWORK
 62
     7
370
    30
100
AcDbLine
 10
31.49593778927931
 20
28.375
 30
0.0
 11
30.73737766061242
 21
28.27090748605257
 31
0.0
  0
LINE
  5
10EF
330
108A
100
AcDbEntity
  8
LINEWORK
 62
     7
370
    30
100
AcDbLine
 10
31.49593778927931
 20
30.75
 30
0.0
 11
31.49593778927931
 21
28.375
 31
0.0
  0
ARC
  5
10F0
330
108A
100
AcDbEntity
  8
LINEWORK
370
    30
100
AcDbCircle
 10
33.09583180891434
 20
33.52283818206291
 30
0.0
 40
1.299371506374636
100
AcDbArc
 50
272.783752937382
 51
354.2984521406174
  0
LINE
  5
10F1
330
108A
100
AcDbEntity
  8
LINEWORK
370
    30
100
AcDbLine
 10
33.15893778927977
 20
31.67500000000001
 30
0.0
 11
33.15893778927977
 21
32.22499999999996
 31
0.0
  0
ARC
  5
10F2
330
108A
100
AcDbEntity
  8
LINEWORK
370
    30
100
AcDbCircle
 10
35.1792282931824
 20
33.30902312383807
 30
0.0
 40
0.7949809888151388
100
AcDbArc
 50
117.76106087053
 51
173.8819545312739
  0
LINE
  5
10F3
330
108A
100
AcDbEntity
  8
LINEWORK
370
    30
100
AcDbLine
 10
34.80893778927634
 20
34.01249999999993
 30
0.0
 11
34.80893778927987
 21
34.97499999999991
 31
0.0
  0
ARC
  5
10F4
330
108A
100
AcDbEntity
  8
LINEWORK
370
    30
100
AcDbCircle
 10
32.60893778927948
 20
31.12499999999971
 30
0.0
 40
0.5500000000002502
100
AcDbArc
 50
89.99999999997395
 51
179.9999999999739
  0
LINE
  5
10F5
330
108A
100
AcDbEntity
  8
LINEWORK
  6
PHANTOM
 62
     7
 48
3.0
370
    30
100
AcDbLine
 10
21.18393778927929
 20
0.0
 30
0.0
 11
34.43226071379086
 21
0.0
 31
0.0
  0
DIMENSION
  5
10F6
330
108A
100
AcDbEntity
  8
DIM
 62
     7
100
AcDbDimension
  2
*D40
 10
46.10990987035592
 20
35.80000000000001
 30
0.0
 11
46.10990987035592
 21
17.62267619285924
 31
0.0
 12
-108.9505534583839
 22
-53.19480845571153
 32
0.0
 70
   128
  1
36"
 71
     5
 42
-1.0
  3
STANDARD
100
AcDbAlignedDimension
 13
33.63056141826291
 23
0.0
 33
0.0
 14
33.75231240116159
 24
35.80000000000001
 34
0.0
 50
90.0
100
AcDbRotatedDimension
1001
ACAD
1000
DSTYLE
1002
{
1070
   287
1070
     4
1070
   287
1070
     4
1070
   287
1070
     4
1070
   287
1070
     4
1070
    40
1040
2.399999999999999
1070
    73
1070
     1
1070
    74
1070
     1
1070
    77
1070
     0
1070
   147
1040
0.5
1070
   279
1070
     1
1070
   288
1070
     1
1070
   289
1070
     3
1002
}
  0
LINE
  5
10F7
330
108A
100
AcDbEntity
  8
LINEWORK
 62
     7
370
    30
100
AcDbLine
 10
32.62093778927971
 20
3.874999999999744
 30
0.0
 11
32.62093778927971
 21
0.3749999999997442
 31
0.0
  0
LINE
  5
10F8
330
108A
100
AcDbEntity
  8
LINEWORK
 62
     7
370
    30
100
AcDbLine
 10
32.1209377892797
 20
4.374999999999744
 30
0.0
 11
32.62093778927971
 21
3.874999999999744
 31
0.0
  0
DIMENSION
  5
10F9
330
108A
100
AcDbEntity
  8
DIM
 62
     7
100
AcDbDimension
  2
*D41
 10
32.62093778927971
 20
-5.549085474021893
 30
0.0
 11
46.84238976438723
 21
-5.549085474021893
 31
0.0
 12
-108.9505534583839
 22
-53.19480845571153
 32
0.0
 70
   128
 71
     5
 42
-1.0
  3
STANDARD
100
AcDbAlignedDimension
 13
22.99693778927968
 23
0.375
 33
0.0
 14
32.62093778927971
 24
0.3750000000002558
 34
0.0
100
AcDbRotatedDimension
1001
ACAD
1000
DSTYLE
1002
{
1070
   287
1070
     4
1070
   287
1070
     4
1070
   287
1070
     4
1070
    40
1040
2.399999999999999
1070
    73
1070
     1
1070
    74
1070
     1
1070
    77
1070
     0
1070
   147
1040
0.5
1070
   279
1070
     1
1070
   288
1070
     1
1070
   289
1070
     3
1002
}
  0
LINE
  5
10FA
330
108A
100
AcDbEntity
  8
LINEWORK
 62
     7
370
    30
100
AcDbLine
 10
22.45893778927882
 20
31.67500000000001
 30
0.0
 11
23.00893778927874
 21
31.67499999999996
 31
0.0
  0
LINE
  5
10FB
330
108A
100
AcDbEntity
  8
LINEWORK
 62
     7
370
    30
100
AcDbLine
 10
32.60893778927973
 20
31.67499999999996
 30
0.0
 11
33.15893778927977
 21
31.67500000000001
 31
0.0
  0
LINE
  5
10FC
330
108A
100
AcDbEntity
  8
LINEWORK
 62
     7
370
    30
100
AcDbLine
 10
32.62093778927971
 20
0.3749999999997442
 30
0.0
 11
22.99693778927968
 21
0.375
 31
0.0
  0
LINE
  5
10FD
330
108A
100
AcDbEntity
  8
LINEWORK
 62
     7
370
    30
100
AcDbLine
 10
32.1209377892797
 20
4.374999999999744
 30
0.0
 11
23.49693778927968
 21
4.375
 31
0.0
  0
LINE
  5
10FE
330
108A
100
AcDbEntity
  8
LINEWORK
 62
     7
370
    30
100
AcDbLine
 10
27.80893778927929
 20
35.42500000000001
 30
0.0
 11
27.77474960501024
 21
35.42500000000001
 31
0.0
  0
LINE
  5
10FF
330
108A
100
AcDbEntity
  8
LINEWORK
  6
PHANTOM
 62
     7
 48
3.0
370
    30
100
AcDbLine
 10
21.18393778927929
 20
35.84235571963694
 30
0.0
 11
34.43226071379086
 21
35.84235571963694
 31
0.0
  0
DIMENSION
  5
1100
330
108A
100
AcDbEntity
  8
LINEWORK
 62
     7
100
AcDbDimension
  2
*D42
 10
34.80893778927987
 20
40.68776723669836
 30
0.0
 11
28.10215899385491
 21
40.68776723669836
 31
0.0
 12
-108.9505534583839
 22
-53.19480845571153
 32
0.0
 70
   128
 71
     5
 42
-1.0
  3
STANDARD
100
AcDbAlignedDimension
 13
20.80893778927872
 23
34.97499999999991
 33
0.0
 14
34.80893778927987
 24
34.97499999999991
 34
0.0
100
AcDbRotatedDimension
1001
ACAD
1000
DSTYLE
1002
{
1070
   287
1070
     4
1070
    40
1040
2.399999999999999
1070
    73
1070
     1
1070
    74
1070
     1
1070
    77
1070
     0
1070
   147
1040
0.5
1070
   279
1070
     1
1070
   288
1070
     1
1070
   289
1070
     3
1002
}
  0
DIMENSION
  5
1101
330
108A
100
AcDbEntity
  8
DIM
 62
     7
100
AcDbDimension
  2
*D43
 10
38.62195124985021
 20
30.75
 30
0.0
 11
38.62195124985021
 21
17.68671127405193
 31
0.0
 12
-108.9505534583839
 22
-53.19480845571153
 32
0.0
 70
   128
 71
     5
 42
-1.0
  3
STANDARD
100
AcDbAlignedDimension
 13
31.93781040277275
 23
4.75
 33
0.0
 14
31.49593778927931
 24
30.75
 34
0.0
 50
90.0
100
AcDbRotatedDimension
1001
ACAD
1000
DSTYLE
1002
{
1070
   287
1070
     4
1070
    40
1040
2.399999999999999
1070
    73
1070
     1
1070
    74
1070
     1
1070
    77
1070
     0
1070
   147
1040
0.5
1070
   279
1070
     1
1070
   288
1070
     1
1070
   289
1070
     3
1002
}
  0
LINE
  5
1102
330
108A
100
AcDbEntity
  8
LINEWORK
 62
     7
100
AcDbLine
 10
27.77474960501024
 20
35.42500000000001
 30
0.0
 11
34.80893778927987
 21
34.97499999999991
 31
0.0
  0
LINE
  5
1103
330
108A
100
AcDbEntity
  8
LINEWORK
 62
     7
100
AcDbLine
 10
27.77474960501024
 20
35.42500000000001
 30
0.0
 11
20.80893778927872
 21
34.97499999999991
 31
0.0
  0
ENDBLK
  5
1105
330
108A
100
AcDbEntity
  8
0
 62
     7
100
AcDbBlockEnd
  0
ENDSEC
  0
SECTION
  2
ENTITIES
  0
INSERT
  5
26
330
2
100
AcDbEntity
  8
LINEWORK
 62
     7
100
AcDbBlockReference
 66
     1
  2
TSFORMB
 10
513.5702154435931
 20
357.5339674769554
 30
0.0
 41
1.560169799999981
 42
1.560169799999981
 43
1.560169799999999
  0
ATTRIB
  5
27
330
26
100
AcDbEntity
  8
A1
 62
     1
100
AcDbText
 10
570.3627588426432
 20
358.9638383700348
 30
0.0
 40
1.600093921114079
  1
BALUSTRADE
 72
     1
 11
577.943076217333
 21
358.9638383700348
 31
0.0
100
AcDbAttribute
  2
XXXXXX
 70
     0
  0
ATTRIB
  5
29
330
26
100
AcDbEntity
  8
A1
 62
     1
100
AcDbText
 10
539.9000679968527
 20
360.4593150335362
 30
0.0
 40
1.310542632
  1
TSB003
 72
     2
 11
547.1976820717102
 21
360.4593150335362
 31
0.0
100
AcDbAttribute
  2
XXXXXX
 70
     0
  0
ATTRIB
  5
2A
330
26
100
AcDbEntity
  8
A1
 62
     1
100
AcDbText
 10
524.1740174616232
 20
362.398518878896
 30
0.0
 40
9.5669612136
  1
TSB003
  7
barcoder
 72
     1
 11
533.6213916600533
 21
362.398518878896
 31
0.0
100
AcDbAttribute
  2
BARCODE
 70
     0
  0
ATTRIB
  5
2C
330
26
100
AcDbEntity
  8
A1
 62
     1
100
AcDbText
 10
659.3127730459136
 20
472.0504562783481
 30
0.0
 40
3.2435930142
  1
TSB003
 72
     1
 11
668.3435704635499
 21
472.0504562783481
 31
0.0
100
AcDbAttribute
  2
TS00XX
 70
     0
  0
ATTRIB
  5
2D
330
26
100
AcDbEntity
  8
A1
 62
     1
100
AcDbText
 10
671.4219134779495
 20
373.258925779728
 30
0.0
 40
1.474360461
  1

 72
     1
 11
671.4219134779495
 21
373.258925779728
 31
0.0
100
AcDbAttribute
  2
XXXXX
 70
     0
  0
ATTRIB
  5
2E
330
26
100
AcDbEntity
  8
A1
 62
     1
100
AcDbText
 10
671.3686070428613
 20
368.797673594814
 30
0.0
 40
1.474360461
  1

 72
     1
 11
671.3686070428613
 21
368.797673594814
 31
0.0
100
AcDbAttribute
  2
XXXXX
 70
     0
  0
SEQEND
  5
5F
330
26
100
AcDbEntity
  8
LINEWORK
 62
     7
  0
ATTDEF
  5
60
330
2
100
AcDbEntity
  8
leaders
 62
     1
370
    30
100
AcDbText
 10
529.8450701003299
 20
456.6566463951041
 30
0.0
 40
2.879999999999999
  1

100
AcDbAttributeDefinition
  3
ADD LINK NUMBER (WMF)
  2
TS1155
 70
     0
  0
ATTDEF
  5
61
330
2
100
AcDbEntity
  8
leaders
 62
     1
370
    30
100
AcDbText
 10
529.3447056128177
 20
439.5025860039009
 30
0.0
 40
2.879999999999999
  1

100
AcDbAttributeDefinition
  3
ADD LINK NUMBER (WMF)
  2
TS1156
 70
     0
  0
ATTDEF
  5
62
330
2
100
AcDbEntity
  8
leaders
 62
     1
370
    30
100
AcDbText
 10
529.3447056128177
 20
416.791231666394
 30
0.0
 40
2.879999999999999
  1

100
AcDbAttributeDefinition
  3
ADD LINK NUMBER (WMF)
  2
TS0266
 70
     0
  0
ATTDEF
  5
63
330
2
100
AcDbEntity
  8
leaders
 62
     1
370
    30
100
AcDbText
 10
529.5088012804443
 20
396.3327317375703
 30
0.0
 40
2.879999999999999
  1

100
AcDbAttributeDefinition
  3
ADD LINK NUMBER (WMF)
  2
TS1632
 70
     0
  0
LWPOLYLINE
  5
73
330
2
100
AcDbEntity
  8
LINEWORK
 62
     7
370
    30
100
AcDbPolyline
 90
       40
 70
     1
 43
0.0
 10
589.560079156314
 20
437.9784518988974
 10
589.560079156314
 20
435.6034518988974
 10
588.8015190276471
 20
435.49935938495
 42
-0.305594419746614
 10
587.9436721467182
 20
434.527755826072
 10
587.9436721467182
 20
434.0287995760721
 42
0.5396164884572633
 10
587.8340585370867
 20
433.3600154437341
 10
588.3199521333579
 20
432.9016010276339
 42
-0.638274513095031
 10
588.0414533030375
 20
432.032974576072
 10
588.0414533030375
 20
431.5653987948175
 10
587.9167142405371
 20
431.4716487948178
 42
0.1460441945058352
 10
589.395796139109
 20
424.3305065287334
 42
-0.3744329020414412
 10
588.2160262574946
 20
419.2216487948178
 10
588.2160262574946
 20
418.9091487948178
 42
-1.000314359196465
 10
588.2158297344652
 20
418.2838957537825
 42
0.2997154559854953
 10
589.1162943550416
 20
417.1591487948178
 10
589.1162943550415
 20
416.6278987948178
 42
-0.9999999999999998
 10
589.1162943550416
 20
415.3468987948177
 10
589.1162943550416
 20
415.0978987948178
 10
590.0019517698075
 20
414.9108987948178
 10
590.0019517698075
 20
411.9784518988974
 10
581.7624538007875
 20
411.9784518988974
 10
581.7603977690424
 20
414.9080067351849
 10
582.6459237246439
 20
415.0956282645624
 10
582.6457489705235
 20
415.344628203239
 42
-0.9999999999999994
 10
582.6448499342659
 20
416.6256278877565
 10
582.6444770903845
 20
417.1568777569211
 42
0.2997154559854953
 10
583.5441521150373
 20
418.2822564063658
 42
-1.000314359196464
 10
583.5435167746059
 20
418.9075091554903
 10
583.5432974546757
 20
419.2200090785282
 42
-0.3744329020414413
 10
582.3599423457842
 20
424.3280375636889
 42
0.1460441945058353
 10
583.834012056656
 20
431.4702161259088
 10
583.7092072288972
 20
431.5638785579799
 10
583.7088790730965
 20
432.0314542240806
 42
-0.6382745130950301
 10
583.4297706886677
 20
432.8998850046178
 10
583.9153424391372
 20
433.3586403194991
 42
0.5396164884572628
 10
583.8052594878957
 20
434.0273473576926
 10
583.804909308536
 20
434.5263034848105
 42
-0.3055944197466144
 10
582.9463807443969
 20
435.4973047470658
 10
582.186079156314
 20
435.6034518988974
 10
582.186079156314
 20
437.9784518988974
  0
LWPOLYLINE
  5
79
330
2
100
AcDbEntity
  8
LINEWORK
 62
     7
370
    30
100
AcDbPolyline
 90
       40
 70
     1
 43
0.0
 10
613.560079156314
 20
437.9784518988974
 10
613.560079156314
 20
435.6034518988974
 10
612.8015190276471
 20
435.49935938495
 42
-0.305594419746614
 10
611.9436721467182
 20
434.527755826072
 10
611.9436721467182
 20
434.0287995760721
 42
0.5396164884572633
 10
611.8340585370866
 20
433.3600154437341
 10
612.3199521333579
 20
432.9016010276339
 42
-0.638274513095031
 10
612.0414533030375
 20
432.032974576072
 10
612.0414533030375
 20
431.5653987948175
 10
611.9167142405371
 20
431.4716487948178
 42
0.1460441945058352
 10
613.395796139109
 20
424.3305065287334
 42
-0.3744329020414412
 10
612.2160262574945
 20
419.2216487948178
 10
612.2160262574945
 20
418.9091487948178
 42
-1.000314359196465
 10
612.2158297344652
 20
418.2838957537825
 42
0.2997154559854953
 10
613.1162943550416
 20
417.1591487948178
 10
613.1162943550414
 20
416.6278987948178
 42
-0.9999999999999998
 10
613.1162943550416
 20
415.3468987948177
 10
613.1162943550416
 20
415.0978987948178
 10
614.0019517698075
 20
414.9108987948178
 10
614.0019517698074
 20
411.9784518988974
 10
605.7624538007876
 20
411.9784518988974
 10
605.7603977690424
 20
414.9080067351849
 10
606.6459237246439
 20
415.0956282645624
 10
606.6457489705235
 20
415.344628203239
 42
-0.9999999999999994
 10
606.6448499342659
 20
416.6256278877565
 10
606.6444770903845
 20
417.1568777569211
 42
0.2997154559854953
 10
607.5441521150374
 20
418.2822564063658
 42
-1.000314359196464
 10
607.5435167746059
 20
418.9075091554903
 10
607.5432974546758
 20
419.2200090785282
 42
-0.3744329020414413
 10
606.3599423457842
 20
424.3280375636889
 42
0.1460441945058353
 10
607.8340120566561
 20
431.4702161259088
 10
607.7092072288971
 20
431.5638785579799
 10
607.7088790730965
 20
432.0314542240806
 42
-0.6382745130950301
 10
607.4297706886677
 20
432.8998850046178
 10
607.9153424391372
 20
433.3586403194991
 42
0.5396164884572628
 10
607.8052594878957
 20
434.0273473576926
 10
607.804909308536
 20
434.5263034848105
 42
-0.3055944197466144
 10
606.9463807443969
 20
435.4973047470658
 10
606.186079156314
 20
435.6034518988974
 10
606.186079156314
 20
437.9784518988974
  0
LWPOLYLINE
  5
7A
330
2
100
AcDbEntity
  8
LINEWORK
 62
     7
370
    30
100
AcDbPolyline
 90
       40
 70
     1
 43
0.0
 10
601.560079156314
 20
437.9784518988974
 10
601.560079156314
 20
435.6034518988974
 10
600.8015190276471
 20
435.49935938495
 42
-0.305594419746614
 10
599.9436721467182
 20
434.527755826072
 10
599.9436721467182
 20
434.0287995760721
 42
0.5396164884572633
 10
599.8340585370867
 20
433.3600154437341
 10
600.3199521333579
 20
432.9016010276339
 42
-0.638274513095031
 10
600.0414533030375
 20
432.032974576072
 10
600.0414533030375
 20
431.5653987948175
 10
599.9167142405371
 20
431.4716487948178
 42
0.1460441945058352
 10
601.395796139109
 20
424.3305065287334
 42
-0.3744329020414412
 10
600.2160262574946
 20
419.2216487948178
 10
600.2160262574946
 20
418.9091487948178
 42
-1.000314359196465
 10
600.2158297344652
 20
418.2838957537825
 42
0.2997154559854953
 10
601.1162943550417
 20
417.1591487948178
 10
601.1162943550415
 20
416.6278987948178
 42
-0.9999999999999998
 10
601.1162943550417
 20
415.3468987948177
 10
601.1162943550417
 20
415.0978987948178
 10
602.0019517698075
 20
414.9108987948178
 10
602.0019517698075
 20
411.9784518988974
 10
593.7624538007876
 20
411.9784518988974
 10
593.7603977690424
 20
414.9080067351849
 10
594.6459237246439
 20
415.0956282645624
 10
594.6457489705235
 20
415.344628203239
 42
-0.9999999999999994
 10
594.6448499342659
 20
416.6256278877565
 10
594.6444770903845
 20
417.1568777569211
 42
0.2997154559854953
 10
595.5441521150373
 20
418.2822564063658
 42
-1.000314359196464
 10
595.5435167746059
 20
418.9075091554903
 10
595.5432974546758
 20
419.2200090785282
 42
-0.3744329020414413
 10
594.3599423457842
 20
424.3280375636889
 42
0.1460441945058353
 10
595.834012056656
 20
431.4702161259088
 10
595.7092072288971
 20
431.5638785579799
 10
595.7088790730965
 20
432.0314542240806
 42
-0.6382745130950301
 10
595.4297706886677
 20
432.8998850046178
 10
595.9153424391372
 20
433.3586403194991
 42
0.5396164884572628
 10
595.8052594878957
 20
434.0273473576926
 10
595.804909308536
 20
434.5263034848105
 42
-0.3055944197466144
 10
594.9463807443969
 20
435.4973047470658
 10
594.186079156314
 20
435.6034518988974
 10
594.186079156314
 20
437.9784518988974
  0
LINE
  5
94
330
2
100
AcDbEntity
  8
LINEWORK
  6
PHANTOM
 62
     7
 48
6.0
370
    30
100
AcDbLine
 10
560.98126020177
 20
407.2284518988976
 30
0.0
 11
620.4315357059343
 21
407.2284518988975
 31
0.0
  0
LINE
  5
9A
330
2
100
AcDbEntity
  8
LINEWORK
 62
     7
370
    30
100
AcDbLine
 10
561.48126020177
 20
411.6034518988977
 30
0.0
 11
579.7737884446215
 21
411.6034518988976
 31
0.0
  0
LINE
  5
9B
330
2
100
AcDbEntity
  8
LINEWORK
 62
     7
370
    30
100
AcDbLine
 10
562.7314306482735
 20
411.1034518988975
 30
0.0
 11
579.7737884446215
 21
411.1034518988975
 31
0.0
  0
LINE
  5
9C
330
2
100
AcDbEntity
  8
LINEWORK
 62
     7
370
    30
100
AcDbLine
 10
560.98126020177
 20
407.6034518988977
 30
0.0
 11
579.7737884446215
 21
407.6034518988976
 31
0.0
  0
LINE
  5
9D
330
2
100
AcDbEntity
  8
leaders
 62
     1
370
    30
100
AcDbLine
 10
572.0312154661165
 20
406.9826997344266
 30
0.0
 11
556.3205295781409
 21
397.4863705467923
 31
0.0
  0
LINE
  5
9E
330
2
100
AcDbEntity
  8
leaders
 62
     1
370
    30
100
AcDbLine
 10
546.6996176701477
 20
397.4863705467925
 30
0.0
 11
556.3205295781409
 21
397.4863705467923
 31
0.0
  0
LINE
  5
9F
330
2
100
AcDbEntity
  8
leaders
 62
     1
370
    30
100
AcDbLine
 10
546.6996176701477
 20
395.2303568028797
 30
0.0
 11
546.6996176701477
 21
399.7423842907051
 31
0.0
  0
LINE
  5
A1
330
2
100
AcDbEntity
  8
LINEWORK
 62
     7
370
    30
100
AcDbLine
 10
560.98126020177
 20
411.1034518988975
 30
0.0
 11
560.98126020177
 21
407.6034518988975
 31
0.0
  0
LINE
  5
A2
330
2
100
AcDbEntity
  8
LINEWORK
 62
     7
370
    30
100
AcDbLine
 10
561.48126020177
 20
411.6034518988975
 30
0.0
 11
560.98126020177
 21
411.1034518988975
 31
0.0
  0
SOLID
  5
AB
330
2
100
AcDbEntity
  8
leaders
 62
     1
370
    30
100
AcDbTrace
 10
571.927756772038
 20
407.1538613499237
 30
0.0
 11
572.1346741601951
 21
406.8115381189295
 31
0.0
 12
573.0581851590991
 22
407.6034518988977
 32
0.0
 13
573.0581851590991
 23
407.6034518988977
 33
0.0
  0
LINE
  5
F7
330
2
100
AcDbEntity
  8
leaders
 62
     1
370
    30
100
AcDbLine
 10
582.0576361795859
 20
443.798907722763
 30
0.0
 11
565.3266954692497
 21
457.8102852043262
 31
0.0
  0
LINE
  5
F9
330
2
100
AcDbEntity
  8
LINEWORK
 62
     7
370
    30
100
AcDbLine
 10
562.2312602017706
 20
438.3534518988975
 30
0.0
 11
576.7312602017695
 21
438.3534518988976
 31
0.0
  0
LINE
  5
FA
330
2
100
AcDbEntity
  8
LINEWORK
 62
     7
370
    30
100
AcDbLine
 10
561.7878855898883
 20
443.0284518988973
 30
0.0
 11
577.1746348136518
 21
443.0284518988975
 31
0.0
  0
LINE
  5
FB
330
2
100
AcDbEntity
  8
LINEWORK
 62
     7
370
    30
100
AcDbLine
 10
579.4812602017701
 20
442.2034518988975
 30
0.0
 11
559.4812602017701
 21
442.2034518988975
 31
0.0
  0
LINE
  5
FC
330
2
100
AcDbEntity
  8
LINEWORK
 62
     7
370
    30
100
AcDbLine
 10
559.4812602017737
 20
441.2409518988974
 30
0.0
 11
579.7686517430112
 21
441.2409518988973
 31
0.0
  0
LINE
  5
FD
330
2
100
AcDbEntity
  8
LINEWORK
 62
     7
370
    30
100
AcDbLine
 10
577.8312602017701
 20
439.4534518988975
 30
0.0
 11
561.13126020177
 21
439.4534518988974
 31
0.0
  0
LINE
  5
FE
330
2
100
AcDbEntity
  8
LINEWORK
 62
     7
370
    30
100
AcDbLine
 10
561.1312602017701
 20
438.9034518988974
 30
0.0
 11
577.8312602017699
 21
438.9034518988975
 31
0.0
  0
LINE
  5
102
330
2
100
AcDbEntity
  8
leaders
 62
     1
370
    30
100
AcDbLine
 10
546.6996176701476
 20
417.9448704756163
 30
0.0
 11
556.4971766134265
 21
417.9448704756163
 31
0.0
  0
LINE
  5
103
330
2
100
AcDbEntity
  8
leaders
 62
     1
370
    30
100
AcDbLine
 10
546.6996176701476
 20
415.6888567317036
 30
0.0
 11
546.6996176701477
 21
420.2008842195288
 31
0.0
  0
LINE
  5
104
330
2
100
AcDbEntity
  8
LINEWORK
370
    30
100
AcDbLine
 10
564.2312602017706
 20
415.2284518988983
 30
0.0
 11
564.2312602017706
 21
434.7284518988978
 31
0.0
  0
SOLID
  5
105
330
2
100
AcDbEntity
  8
leaders
 62
     1
370
    30
100
AcDbTrace
 10
562.8249555491479
 20
421.4742906803028
 30
0.0
 11
563.0100855047764
 21
421.1197107887001
 31
0.0
 12
563.98126020177
 22
421.8523906013874
 32
0.0
 13
563.98126020177
 23
421.8523906013874
 33
0.0
  0
LINE
  5
106
330
2
100
AcDbEntity
  8
leaders
 62
     1
370
    30
100
AcDbLine
 10
562.9175205269622
 20
421.2970007345015
 30
0.0
 11
556.4971766134265
 21
417.9448704756163
 31
0.0
  0
ARC
  5
108
330
2
100
AcDbEntity
  8
LINEWORK
370
    30
100
AcDbCircle
 10
564.2312602017706
 20
413.9784518988981
 30
0.0
 40
1.25
100
AcDbArc
 50
359.9999999999934
 51
89.99999999999349
  0
ARC
  5
10A
330
2
100
AcDbEntity
  8
LINEWORK
370
    30
100
AcDbCircle
 10
564.2312602017706
 20
435.9784518988974
 30
0.0
 40
1.25
100
AcDbArc
 50
270.0
 51
0.0
  0
LINE
  5
10B
330
2
100
AcDbEntity
  8
leaders
 62
     1
370
    30
100
AcDbLine
 10
546.6996176701477
 20
440.6562248131231
 30
0.0
 11
555.5899302642696
 21
440.6562248131231
 31
0.0
  0
LINE
  5
10C
330
2
100
AcDbEntity
  8
leaders
 62
     1
370
    30
100
AcDbLine
 10
546.6996176701477
 20
438.4002110692104
 30
0.0
 11
546.6996176701477
 21
442.9122385570357
 31
0.0
  0
LINE
  5
112
330
2
100
AcDbEntity
  8
leaders
 62
     1
370
    30
100
AcDbLine
 10
558.3129312943388
 20
441.2945400539114
 30
0.0
 11
555.5899302642696
 21
440.6562248131231
 31
0.0
  0
SOLID
  5
113
330
2
100
AcDbEntity
  8
leaders
 62
     1
370
    30
100
AcDbTrace
 10
558.2672854462694
 20
441.4892615384836
 30
0.0
 11
558.3585771424082
 21
441.0998185693391
 31
0.0
 12
559.4812602017723
 22
441.5684151423278
 32
0.0
 13
559.4812602017723
 23
441.5684151423278
 33
0.0
  0
LINE
  5
11A
330
2
100
AcDbEntity
  8
LINEWORK
 62
     7
370
    30
100
AcDbLine
 10
589.997388944922
 20
414.9118622014798
 30
0.0
 11
581.764959916662
 21
414.9089733439084
 31
0.0
  0
LINE
  5
11B
330
2
100
AcDbEntity
  8
LINEWORK
 62
     7
370
    30
100
AcDbLine
 10
582.186079156314
 20
435.6034518988974
 30
0.0
 11
589.560079156314
 21
435.6034518988974
 31
0.0
  0
LINE
  5
11C
330
2
100
AcDbEntity
  8
LINEWORK
 62
     7
370
    30
100
AcDbLine
 10
588.8015190276471
 20
435.49935938495
 30
0.0
 11
582.9463807443969
 21
435.4973047470658
 31
0.0
  0
LINE
  5
11D
330
2
100
AcDbEntity
  8
LINEWORK
 62
     7
370
    30
100
AcDbLine
 10
589.1162943550415
 20
416.6278987948178
 30
0.0
 11
582.6448499342658
 21
416.6256278877565
 31
0.0
  0
LINE
  5
11E
330
2
100
AcDbEntity
  8
LINEWORK
 62
     7
370
    30
100
AcDbLine
 10
589.1162943550416
 20
417.1591487948178
 30
0.0
 11
582.6444770903845
 21
417.1568777569211
 31
0.0
  0
LINE
  5
11F
330
2
100
AcDbEntity
  8
LINEWORK
 62
     7
370
    30
100
AcDbLine
 10
589.1162943550416
 20
415.0978987948178
 30
0.0
 11
582.6459237246439
 21
415.0956282645624
 31
0.0
  0
LINE
  5
120
330
2
100
AcDbEntity
  8
LINEWORK
 62
     7
370
    30
100
AcDbLine
 10
589.1162943550416
 20
415.3468987948177
 30
0.0
 11
582.6457489705235
 21
415.344628203239
 31
0.0
  0
LINE
  5
123
330
2
100
AcDbEntity
  8
LINEWORK
 62
     7
370
    30
100
AcDbLine
 10
588.2158297344652
 20
418.2838957537825
 30
0.0
 11
583.5441521150373
 21
418.2822564063658
 31
0.0
  0
LINE
  5
124
330
2
100
AcDbEntity
  8
LINEWORK
 62
     7
370
    30
100
AcDbLine
 10
588.2160262574946
 20
418.9091487948178
 30
0.0
 11
583.5435167746059
 21
418.9075091554903
 31
0.0
  0
LINE
  5
125
330
2
100
AcDbEntity
  8
LINEWORK
 62
     7
370
    30
100
AcDbLine
 10
588.2160262574946
 20
419.2216487948178
 30
0.0
 11
583.5432974546757
 21
419.2200090785282
 31
0.0
  0
LINE
  5
128
330
2
100
AcDbEntity
  8
LINEWORK
 62
     7
370
    30
100
AcDbLine
 10
587.9167142405371
 20
431.4716487948178
 30
0.0
 11
583.8321030308868
 21
431.4716487948178
 31
0.0
  0
LINE
  5
129
330
2
100
AcDbEntity
  8
LINEWORK
 62
     7
370
    30
100
AcDbLine
 10
588.0414533030375
 20
431.5653987948175
 30
0.0
 11
583.7092072288972
 21
431.5638785579799
 31
0.0
  0
LINE
  5
12A
330
2
100
AcDbEntity
  8
LINEWORK
 62
     7
370
    30
100
AcDbLine
 10
588.0414533030375
 20
432.032974576072
 30
0.0
 11
583.7088790730965
 21
432.0314542240806
 31
0.0
  0
LINE
  5
12B
330
2
100
AcDbEntity
  8
LINEWORK
 62
     7
370
    30
100
AcDbLine
 10
587.9436721467182
 20
434.0287995760721
 30
0.0
 11
583.8052594878957
 21
434.0273473576926
 31
0.0
  0
LINE
  5
12C
330
2
100
AcDbEntity
  8
LINEWORK
 62
     7
370
    30
100
AcDbLine
 10
587.9436721467182
 20
434.5277558260721
 30
0.0
 11
583.804909308536
 21
434.5263034848105
 31
0.0
  0
LINE
  5
12E
330
2
100
AcDbEntity
  8
LINEWORK
 62
     7
370
    30
100
AcDbLine
 10
601.1162943550417
 20
415.3468987948177
 30
0.0
 11
594.6457489705235
 21
415.344628203239
 31
0.0
  0
LINE
  5
12F
330
2
100
AcDbEntity
  8
LINEWORK
 62
     7
370
    30
100
AcDbLine
 10
601.1162943550417
 20
415.0978987948178
 30
0.0
 11
594.6459237246439
 21
415.0956282645624
 31
0.0
  0
LINE
  5
130
330
2
100
AcDbEntity
  8
LINEWORK
 62
     7
370
    30
100
AcDbLine
 10
601.1162943550417
 20
417.1591487948178
 30
0.0
 11
594.6444770903845
 21
417.1568777569211
 31
0.0
  0
LINE
  5
131
330
2
100
AcDbEntity
  8
LINEWORK
 62
     7
370
    30
100
AcDbLine
 10
601.1162943550415
 20
416.6278987948178
 30
0.0
 11
594.6448499342658
 21
416.6256278877565
 31
0.0
  0
LINE
  5
132
330
2
100
AcDbEntity
  8
LINEWORK
 62
     7
370
    30
100
AcDbLine
 10
600.2160262574946
 20
419.2216487948178
 30
0.0
 11
595.5432974546758
 21
419.2200090785282
 31
0.0
  0
LINE
  5
133
330
2
100
AcDbEntity
  8
LINEWORK
 62
     7
370
    30
100
AcDbLine
 10
600.2160262574946
 20
418.9091487948178
 30
0.0
 11
595.5435167746059
 21
418.9075091554903
 31
0.0
  0
LINE
  5
134
330
2
100
AcDbEntity
  8
LINEWORK
 62
     7
370
    30
100
AcDbLine
 10
600.2158297344652
 20
418.2838957537825
 30
0.0
 11
595.5441521150373
 21
418.2822564063658
 31
0.0
  0
LINE
  5
135
330
2
100
AcDbEntity
  8
LINEWORK
 62
     7
370
    30
100
AcDbLine
 10
602.0019517698075
 20
414.9108987948178
 30
0.0
 11
593.7603977690424
 21
414.9080067351848
 31
0.0
  0
LINE
  5
137
330
2
100
AcDbEntity
  8
LINEWORK
 62
     7
370
    30
100
AcDbLine
 10
599.9436721467182
 20
434.5277558260721
 30
0.0
 11
595.804909308536
 21
434.5263034848105
 31
0.0
  0
LINE
  5
138
330
2
100
AcDbEntity
  8
LINEWORK
 62
     7
370
    30
100
AcDbLine
 10
599.9436721467182
 20
434.0287995760721
 30
0.0
 11
595.8052594878957
 21
434.0273473576926
 31
0.0
  0
LINE
  5
139
330
2
100
AcDbEntity
  8
LINEWORK
 62
     7
370
    30
100
AcDbLine
 10
600.8015190276471
 20
435.49935938495
 30
0.0
 11
594.9463807443969
 21
435.4973047470658
 31
0.0
  0
LINE
  5
13A
330
2
100
AcDbEntity
  8
LINEWORK
 62
     7
370
    30
100
AcDbLine
 10
600.0414533030375
 20
432.032974576072
 30
0.0
 11
595.7088790730965
 21
432.0314542240806
 31
0.0
  0
LINE
  5
13B
330
2
100
AcDbEntity
  8
LINEWORK
 62
     7
370
    30
100
AcDbLine
 10
600.0414533030375
 20
431.5653987948175
 30
0.0
 11
595.7092072288971
 21
431.5638785579799
 31
0.0
  0
LINE
  5
13C
330
2
100
AcDbEntity
  8
LINEWORK
 62
     7
370
    30
100
AcDbLine
 10
599.9167142405371
 20
431.4716487948178
 30
0.0
 11
595.8321030308868
 21
431.4716487948178
 31
0.0
  0
LINE
  5
13D
330
2
100
AcDbEntity
  8
LINEWORK
 62
     7
370
    30
100
AcDbLine
 10
594.186079156314
 20
435.6034518988974
 30
0.0
 11
601.560079156314
 21
435.6034518988974
 31
0.0
  0
LINE
  5
13F
330
2
100
AcDbEntity
  8
LINEWORK
 62
     7
370
    30
100
AcDbLine
 10
569.9246348136524
 20
443.0284518988975
 30
0.0
 11
579.7686517430112
 21
443.0284518988975
 31
0.0
  0
LINE
  5
141
330
2
100
AcDbEntity
  8
LINEWORK
 62
     7
370
    30
100
AcDbLine
 10
570.5812602017706
 20
438.9034518988975
 30
0.0
 11
579.7686517430112
 21
438.9034518988975
 31
0.0
  0
LINE
  5
142
330
2
100
AcDbEntity
  8
LINEWORK
 62
     7
370
    30
100
AcDbLine
 10
570.5812602017706
 20
439.4534518988974
 30
0.0
 11
579.7686517430112
 21
439.4534518988974
 31
0.0
  0
LINE
  5
145
330
2
100
AcDbEntity
  8
LINEWORK
 62
     7
370
    30
100
AcDbLine
 10
569.48126020177
 20
438.3534518988975
 30
0.0
 11
579.7686517430112
 21
438.3534518988975
 31
0.0
  0
SOLID
  5
152
330
2
100
AcDbEntity
  8
leaders
 62
     1
370
    30
100
AcDbTrace
 10
582.1860454835635
 20
443.952240858947
 30
0.0
 11
581.9292268756084
 21
443.6455745865791
 31
0.0
 12
582.9776349966894
 22
443.0284518988975
 32
0.0
 13
582.9776349966894
 23
443.0284518988975
 33
0.0
  0
LINE
  5
154
330
2
100
AcDbEntity
  8
leaders
 62
     1
370
    30
100
AcDbLine
 10
547.1999821576599
 20
457.8102852043262
 30
0.0
 11
565.3266954692497
 21
457.8102852043262
 31
0.0
  0
LINE
  5
155
330
2
100
AcDbEntity
  8
leaders
 62
     1
370
    30
100
AcDbLine
 10
547.1999821576599
 20
455.5542714604135
 30
0.0
 11
547.1999821576599
 21
460.0662989482388
 31
0.0
  0
LINE
  5
156
330
2
100
AcDbEntity
  8
leaders
 62
     1
370
    30
100
AcDbLine
 10
599.698563027434
 20
436.769139440561
 30
0.0
 11
605.9186162776463
 21
462.2181937816162
 31
0.0
  0
LINE
  5
157
330
2
100
AcDbEntity
  8
leaders
 62
     1
370
    30
100
AcDbLine
 10
623.3120248180577
 20
453.2548611262893
 30
0.0
 11
623.3120248180577
 21
466.9182224147676
 31
0.0
  0
MTEXT
  5
158
330
2
100
AcDbEntity
  8
leaders
 62
     1
370
    30
100
AcDbMText
 10
624.8890134582161
 20
461.1246753377079
 30
0.0
 40
3.0
 41
0.0
 71
     1
 72
     1
  1
TannerStone
 73
     1
 44
1.0
1001
ACAD
1000
MTEXTBEGIN
1070
    73
1070
     1
1070
    44
1040
1.0
1070
    74
1070
     0
1000
MTEXTEND
1000
MTEXTBEGIN
1070
    73
1070
     1
1070
    44
1040
1.0
1070
    74
1070
     0
1000
MTEXTEND
1000
MTEXTBEGIN
1070
    73
1070
     1
1070
    44
1040
1.0
1070
    74
1070
     0
1000
MTEXTEND
1000
MTEXTBEGIN
1070
    73
1070
     1
1070
    44
1040
1.0
1070
    74
1070
     0
1000
MTEXTEND
1000
MTEXTBEGIN
1070
    73
1070
     1
1070
    44
1040
1.0
1070
    74
1070
     0
1000
MTEXTEND
1000
MTEXTBEGIN
1070
    73
1070
     1
1070
    44
1040
1.0
1070
    74
1070
     0
1000
MTEXTEND
  0
MTEXT
  5
159
330
2
100
AcDbEntity
  8
leaders
 62
     1
370
    30
100
AcDbMText
 10
625.1222406802614
 20
456.5731951387244
 30
0.0
 40
2.216024999999999
 41
0.0
 71
     1
 72
     1
  1
1-800-789-4841
 73
     1
 44
1.0
1001
ACAD
1000
MTEXTBEGIN
1070
    73
1070
     1
1070
    44
1040
1.0
1070
    74
1070
     0
1000
MTEXTEND
1000
MTEXTBEGIN
1070
    73
1070
     1
1070
    44
1040
1.0
1070
    74
1070
     0
1000
MTEXTEND
1000
MTEXTBEGIN
1070
    73
1070
     1
1070
    44
1040
1.0
1070
    74
1070
     0
1000
MTEXTEND
1000
MTEXTBEGIN
1070
    73
1070
     1
1070
    44
1040
1.0
1070
    74
1070
     0
1000
MTEXTEND
1000
MTEXTBEGIN
1070
    73
1070
     1
1070
    44
1040
1.0
1070
    74
1070
     0
1000
MTEXTEND
1000
MTEXTBEGIN
1070
    73
1070
     1
1070
    44
1040
1.0
1070
    74
1070
     0
1000
MTEXTEND
  0
SOLID
  5
15A
330
2
100
AcDbEntity
  8
leaders
 62
     1
370
    30
100
AcDbTrace
 10
600.1777522611181
 20
437.8873423194347
 30
0.0
 11
599.7891897472301
 21
437.9823116450147
 31
0.0
 12
599.698563027434
 22
436.769139440561
 32
0.0
 13
599.698563027434
 23
436.769139440561
 33
0.0
  0
TEXT
  5
15B
330
2
100
AcDbEntity
  8
leaders
 62
     1
370
    30
100
AcDbText
 10
598.2397898171627
 20
436.3916810983909
 30
0.0
 40
1.714999999999999
  1
~
 50
344.9999999999992
100
AcDbText
  0
LINE
  5
15E
330
2
100
AcDbEntity
  8
LINEWORK
 62
     7
370
    30
100
AcDbLine
 10
613.1162943550415
 20
416.6278987948178
 30
0.0
 11
606.6448499342658
 21
416.6256278877565
 31
0.0
  0
LINE
  5
15F
330
2
100
AcDbEntity
  8
LINEWORK
 62
     7
370
    30
100
AcDbLine
 10
613.1162943550416
 20
417.1591487948178
 30
0.0
 11
606.6444770903845
 21
417.1568777569211
 31
0.0
  0
LINE
  5
160
330
2
100
AcDbEntity
  8
LINEWORK
 62
     7
370
    30
100
AcDbLine
 10
614.0019517698075
 20
414.9108987948178
 30
0.0
 11
605.7603977690424
 21
414.9080067351848
 31
0.0
  0
LINE
  5
161
330
2
100
AcDbEntity
  8
LINEWORK
 62
     7
370
    30
100
AcDbLine
 10
613.1162943550416
 20
415.0978987948178
 30
0.0
 11
606.6459237246439
 21
415.0956282645624
 31
0.0
  0
LINE
  5
162
330
2
100
AcDbEntity
  8
LINEWORK
 62
     7
370
    30
100
AcDbLine
 10
613.1162943550416
 20
415.3468987948177
 30
0.0
 11
606.6457489705235
 21
415.344628203239
 31
0.0
  0
LINE
  5
163
330
2
100
AcDbEntity
  8
LINEWORK
 62
     7
370
    30
100
AcDbLine
 10
612.2158297344652
 20
418.2838957537825
 30
0.0
 11
607.5441521150374
 21
418.2822564063658
 31
0.0
  0
LINE
  5
164
330
2
100
AcDbEntity
  8
LINEWORK
 62
     7
370
    30
100
AcDbLine
 10
612.2160262574945
 20
418.9091487948178
 30
0.0
 11
607.5435167746059
 21
418.9075091554903
 31
0.0
  0
LINE
  5
165
330
2
100
AcDbEntity
  8
LINEWORK
 62
     7
370
    30
100
AcDbLine
 10
612.2160262574945
 20
419.2216487948178
 30
0.0
 11
607.5432974546758
 21
419.2200090785282
 31
0.0
  0
LINE
  5
167
330
2
100
AcDbEntity
  8
LINEWORK
 62
     7
370
    30
100
AcDbLine
 10
612.8015190276471
 20
435.49935938495
 30
0.0
 11
606.9463807443969
 21
435.4973047470658
 31
0.0
  0
LINE
  5
168
330
2
100
AcDbEntity
  8
LINEWORK
 62
     7
370
    30
100
AcDbLine
 10
606.186079156314
 20
435.6034518988974
 30
0.0
 11
613.560079156314
 21
435.6034518988974
 31
0.0
  0
LINE
  5
169
330
2
100
AcDbEntity
  8
LINEWORK
 62
     7
370
    30
100
AcDbLine
 10
611.9167142405371
 20
431.4716487948178
 30
0.0
 11
607.8321030308869
 21
431.4716487948178
 31
0.0
  0
LINE
  5
16A
330
2
100
AcDbEntity
  8
LINEWORK
 62
     7
370
    30
100
AcDbLine
 10
612.0414533030375
 20
431.5653987948175
 30
0.0
 11
607.7092072288971
 21
431.5638785579799
 31
0.0
  0
LINE
  5
16B
330
2
100
AcDbEntity
  8
LINEWORK
 62
     7
370
    30
100
AcDbLine
 10
612.0414533030375
 20
432.032974576072
 30
0.0
 11
607.7088790730965
 21
432.0314542240806
 31
0.0
  0
LINE
  5
16C
330
2
100
AcDbEntity
  8
LINEWORK
 62
     7
370
    30
100
AcDbLine
 10
611.9436721467182
 20
434.0287995760721
 30
0.0
 11
607.8052594878957
 21
434.0273473576926
 31
0.0
  0
LINE
  5
16D
330
2
100
AcDbEntity
  8
LINEWORK
 62
     7
370
    30
100
AcDbLine
 10
611.9436721467182
 20
434.5277558260721
 30
0.0
 11
607.804909308536
 21
434.5263034848105
 31
0.0
  0
LINE
  5
1EB
330
2
100
AcDbEntity
  8
leaders
 62
     1
370
    30
100
AcDbLine
 10
605.9186162776462
 20
462.2181937816162
 30
0.0
 11
650.6342211020205
 21
462.2181937816162
 31
0.0
  0
ATTDEF
  5
1EC
330
2
100
AcDbEntity
  8
leaders
 62
     1
370
    30
100
AcDbText
 10
624.7725158652911
 20
463.3665010052522
 30
0.0
 40
3.0
  1

100
AcDbAttributeDefinition
  3
ADD LINK NUMBER (WMF)
  2
TSB003
 70
     0
  0
LINE
  5
226
330
2
100
AcDbEntity
  8
leaders
 62
     1
370
    30
100
AcDbLine
 10
546.6996176701476
 20
405.317370343873
 30
0.0
 11
556.4971766134265
 21
405.317370343873
 31
0.0
  0
LINE
  5
227
330
2
100
AcDbEntity
  8
leaders
 62
     1
370
    30
100
AcDbLine
 10
546.6996176701476
 20
403.0613565999603
 30
0.0
 11
546.6996176701477
 21
407.5733840877856
 31
0.0
  0
ATTDEF
  5
228
330
2
100
AcDbEntity
  8
leaders
 62
     1
370
    30
100
AcDbText
 10
529.3447056128177
 20
404.1637315346508
 30
0.0
 40
2.879999999999999
  1

100
AcDbAttributeDefinition
  3
ADD LINK NUMBER (WMF)
  2
TS0989
 70
     0
  0
SOLID
  5
229
330
2
100
AcDbEntity
  8
leaders
 62
     1
370
    30
100
AcDbTrace
 10
580.9644433418839
 20
423.0528572431971
 30
0.0
 11
581.1970533134441
 21
422.7274458095768
 31
0.0
 12
582.0569826285248
 22
423.5879814410675
 32
0.0
 13
582.0569826285248
 23
423.5879814410675
 33
0.0
  0
LINE
  5
22A
330
2
100
AcDbEntity
  8
leaders
 62
     1
370
    30
100
AcDbLine
 10
582.0569826285248
 20
423.5879814410675
 30
0.0
 11
556.4971766134265
 21
405.317370343873
 31
0.0
  0
LINE
  5
6B0
330
2
100
AcDbEntity
  8
LINEWORK
 62
     7
370
    30
100
AcDbLine
 10
562.7314306482735
 20
411.1034518988975
 30
0.0
 11
560.98126020177
 21
411.1034518988975
 31
0.0
  0
LINE
  5
6B2
330
2
100
AcDbEntity
  8
LINEWORK
370
    30
100
AcDbLine
 10
576.7312602017695
 20
437.9784518988976
 30
0.0
 11
562.2312602017706
 21
437.9784518988976
 31
0.0
  0
LINE
  5
6B3
330
2
100
AcDbEntity
  8
LINEWORK
370
    30
100
AcDbLine
 10
562.2312602017706
 20
437.9784518988976
 30
0.0
 11
562.2312602017706
 21
411.9784518988974
 31
0.0
  0
LINE
  5
6B4
330
2
100
AcDbEntity
  8
LINEWORK
370
    30
100
AcDbLine
 10
562.2312602017706
 20
411.9784518988975
 30
0.0
 11
576.7312602017694
 21
411.9784518988975
 31
0.0
  0
LINE
  5
6B7
330
2
100
AcDbEntity
  8
LINEWORK
370
    30
100
AcDbLine
 10
576.7312602017695
 20
437.9784518988976
 30
0.0
 11
576.7312602017693
 21
411.9784518988973
 31
0.0
  0
ARC
  5
6B8
330
2
100
AcDbEntity
  8
LINEWORK
370
    30
100
AcDbCircle
 10
574.7312602017695
 20
435.9784518988974
 30
0.0
 40
1.25
100
AcDbArc
 50
179.9999999999996
 51
269.9999999999996
  0
LINE
  5
6BA
330
2
100
AcDbEntity
  8
LINEWORK
370
    30
100
AcDbLine
 10
574.7312602017693
 20
415.2284518988983
 30
0.0
 11
574.7312602017695
 21
434.7284518988978
 31
0.0
  0
LINE
  5
6BB
330
2
100
AcDbEntity
  8
LINEWORK
 62
     7
370
    30
100
AcDbLine
 10
577.4812602017699
 20
411.6034518988975
 30
0.0
 11
577.9812602017699
 21
411.1034518988975
 31
0.0
  0
LINE
  5
6BC
330
2
100
AcDbEntity
  8
LINEWORK
 62
     7
370
    30
100
AcDbLine
 10
577.9812602017699
 20
411.1034518988975
 30
0.0
 11
577.9812602017699
 21
407.6034518988975
 31
0.0
  0
LINE
  5
6BD
330
2
100
AcDbEntity
  8
LINEWORK
 62
     7
370
    30
100
AcDbLine
 10
576.2310897552664
 20
411.1034518988975
 30
0.0
 11
579.7737884446215
 21
411.1034518988975
 31
0.0
  0
ARC
  5
6BE
330
2
100
AcDbEntity
  8
LINEWORK
370
    30
100
AcDbCircle
 10
574.7312602017693
 20
413.9784518988981
 30
0.0
 40
1.25
100
AcDbArc
 50
90.00000000000612
 51
180.0000000000061
  0
LINE
  5
6C0
330
2
100
AcDbEntity
  8
LINEWORK
 62
     7
370
    30
100
AcDbLine
 10
579.4996317904737
 20
442.2034518988974
 30
0.0
 11
577.1746348136519
 21
443.0284518988974
 31
0.0
  0
LINE
  5
6C1
330
2
100
AcDbEntity
  8
LINEWORK
370
    30
100
AcDbLine
 10
579.4812602017668
 20
441.2409518988974
 30
0.0
 11
579.4812602017701
 21
442.2034518988974
 31
0.0
  0
ARC
  5
6C2
330
2
100
AcDbEntity
  8
LINEWORK
 62
     7
370
    30
100
AcDbCircle
 10
579.8515507056728
 20
440.5374750227355
 30
0.0
 40
0.7949809888151388
100
AcDbArc
 50
117.7610608705297
 51
173.8819545312737
  0
ARC
  5
6C3
330
2
100
AcDbEntity
  8
LINEWORK
370
    30
100
AcDbCircle
 10
577.7681542214046
 20
440.7512900809603
 30
0.0
 40
1.299371506374636
100
AcDbArc
 50
272.7837529373817
 51
354.298452140617
  0
LINE
  5
6C4
330
2
100
AcDbEntity
  8
LINEWORK
370
    30
100
AcDbLine
 10
577.8312602017701
 20
438.9034518988975
 30
0.0
 11
577.8312602017701
 21
439.4534518988974
 31
0.0
  0
ARC
  5
6C5
330
2
100
AcDbEntity
  8
LINEWORK
370
    30
100
AcDbCircle
 10
577.2812602017698
 20
438.3534518988971
 30
0.0
 40
0.5500000000002502
100
AcDbArc
 50
89.99999999997358
 51
179.9999999999736
  0
LINE
  5
6C6
330
2
100
AcDbEntity
  8
LINEWORK
 62
     7
370
    30
100
AcDbLine
 10
577.7312602017706
 20
442.2034518988974
 30
0.0
 11
579.7686517430112
 21
442.2034518988974
 31
0.0
  0
LINE
  5
6C8
330
2
100
AcDbEntity
  8
LINEWORK
 62
     7
370
    30
100
AcDbLine
 10
565.4812602017706
 20
435.9784518988974
 30
0.0
 11
573.4812602017695
 21
435.9784518988974
 31
0.0
  0
LINE
  5
6CA
330
2
100
AcDbEntity
  8
LINEWORK
 62
     7
370
    30
100
AcDbLine
 10
573.4812602017694
 20
413.978451898898
 30
0.0
 11
565.4812602017706
 21
413.9784518988979
 31
0.0
  0
LINE
  5
6F2
330
2
100
AcDbEntity
  8
LINEWORK
 62
     7
370
    30
100
AcDbLine
 10
579.7737884446215
 20
411.6034518988975
 30
0.0
 11
579.7737884446215
 21
407.6034518988975
 31
0.0
  0
LINE
  5
6F3
330
2
100
AcDbEntity
  8
LINEWORK
 62
     7
370
    30
100
AcDbLine
 10
580.1477884446216
 20
411.6034518988975
 30
0.0
 11
580.1477884446216
 21
407.6034518988975
 31
0.0
  0
LINE
  5
6F4
330
2
100
AcDbEntity
  8
LINEWORK
 62
     7
370
    30
100
AcDbLine
 10
590.6677461938337
 20
407.6034518988975
 30
0.0
 11
615.7737884446215
 21
407.6034518988976
 31
0.0
  0
LINE
  5
6F5
330
2
100
AcDbEntity
  8
LINEWORK
 62
     7
370
    30
100
AcDbLine
 10
590.6677461938337
 20
411.6034518988975
 30
0.0
 11
615.7737884446215
 21
411.6034518988976
 31
0.0
  0
LINE
  5
6F6
330
2
100
AcDbEntity
  8
LINEWORK
 62
     7
370
    30
100
AcDbLine
 10
590.6677461938337
 20
411.1034518988975
 30
0.0
 11
615.7737884446215
 21
411.1034518988975
 31
0.0
  0
LINE
  5
6F8
330
2
100
AcDbEntity
  8
LINEWORK
 62
     7
370
    30
100
AcDbLine
 10
579.7686517430112
 20
443.0284518988975
 30
0.0
 11
579.7686517430112
 21
438.3534518988975
 31
0.0
  0
LINE
  5
6F9
330
2
100
AcDbEntity
  8
LINEWORK
 62
     7
370
    30
100
AcDbLine
 10
580.1426517430112
 20
443.0284518988975
 30
0.0
 11
580.1426517430112
 21
438.3534518988975
 31
0.0
  0
DIMENSION
  5
9B6
330
2
100
AcDbEntity
  8
DIM
 62
     7
370
    30
100
AcDbDimension
  2
*D27
 10
626.6873868882471
 20
438.3534518988975
 30
0.0
 11
626.6873868882471
 21
425.3516660017269
 31
0.0
 70
   160
 71
     5
 42
-1.0
  3
STANDARD
100
AcDbAlignedDimension
 13
617.0343173770095
 23
411.6034518988976
 33
0.0
 14
616.9433273578988
 24
438.3534518988975
 34
0.0
 50
90.0
100
AcDbRotatedDimension
1001
ACAD
1000
DSTYLE
1002
{
1070
   287
1070
     4
1070
   287
1070
     4
1070
   287
1070
     4
1070
   287
1070
     4
1070
    40
1040
2.399999999999999
1070
    73
1070
     1
1070
    74
1070
     1
1070
    77
1070
     0
1070
   147
1040
0.5
1070
   279
1070
     1
1070
   288
1070
     1
1070
   289
1070
     3
1002
}
  0
LWPOLYLINE
  5
A7F
330
2
100
AcDbEntity
  8
LINEWORK
  6
DASHED
 62
     7
 48
2.5
370
    30
100
AcDbPolyline
 90
        4
 70
     1
 43
0.0
 10
569.1062602017699
 20
436.1684518988987
 10
569.8562602017701
 20
436.1684518988987
 10
569.8562602017701
 20
440.2818970894817
 10
569.1062602017699
 20
440.2818970894817
  0
LWPOLYLINE
  5
A80
330
2
100
AcDbEntity
  8
LINEWORK
  6
DASHED
 62
     7
 48
2.5
370
    30
100
AcDbPolyline
 90
        4
 70
     1
 43
0.0
 10
585.5072027852973
 20
436.1684518988987
 10
586.2572027852976
 20
436.1684518988987
 10
586.2572027852976
 20
440.2818970894817
 10
585.5072027852973
 20
440.2818970894817
  0
LWPOLYLINE
  5
A81
330
2
100
AcDbEntity
  8
LINEWORK
  6
DASHED
 62
     7
 48
2.5
370
    30
100
AcDbPolyline
 90
        4
 70
     1
 43
0.0
 10
597.5072027852974
 20
436.1684518988987
 10
598.2572027852976
 20
436.1684518988987
 10
598.2572027852976
 20
440.2818970894817
 10
597.5072027852974
 20
440.2818970894817
  0
LWPOLYLINE
  5
A82
330
2
100
AcDbEntity
  8
LINEWORK
  6
DASHED
 62
     7
 48
2.5
370
    30
100
AcDbPolyline
 90
        4
 70
     1
 43
0.0
 10
609.5072027852974
 20
436.1684518988987
 10
610.2572027852976
 20
436.1684518988987
 10
610.2572027852976
 20
440.2818970894817
 10
609.5072027852974
 20
440.2818970894817
  0
LWPOLYLINE
  5
A83
330
2
100
AcDbEntity
  8
LINEWORK
  6
DASHED
 62
     7
 48
2.5
370
    30
100
AcDbPolyline
 90
        4
 70
     1
 43
0.0
 10
569.1062602017699
 20
409.7884518988974
 10
569.8562602017701
 20
409.7884518988974
 10
569.8562602017701
 20
413.9018970894804
 10
569.1062602017699
 20
413.9018970894804
  0
LWPOLYLINE
  5
A84
330
2
100
AcDbEntity
  8
LINEWORK
  6
DASHED
 62
     7
 48
2.5
370
    30
100
AcDbPolyline
 90
        4
 70
     1
 43
0.0
 10
585.5072027852973
 20
409.7884518988974
 10
586.2572027852976
 20
409.7884518988974
 10
586.2572027852976
 20
413.9018970894803
 10
585.5072027852973
 20
413.9018970894803
  0
LWPOLYLINE
  5
A85
330
2
100
AcDbEntity
  8
LINEWORK
  6
DASHED
 62
     7
 48
2.5
370
    30
100
AcDbPolyline
 90
        4
 70
     1
 43
0.0
 10
597.5072027852974
 20
409.7884518988974
 10
598.2572027852976
 20
409.7884518988974
 10
598.2572027852976
 20
413.9018970894803
 10
597.5072027852974
 20
413.9018970894803
  0
LWPOLYLINE
  5
A86
330
2
100
AcDbEntity
  8
LINEWORK
  6
DASHED
 62
     7
 48
2.5
370
    30
100
AcDbPolyline
 90
        4
 70
     1
 43
0.0
 10
609.5072027852974
 20
409.7884518988974
 10
610.2572027852976
 20
409.7884518988974
 10
610.2572027852976
 20
413.9018970894803
 10
609.5072027852974
 20
413.9018970894803
  0
DIMENSION
  5
A89
330
2
100
AcDbEntity
  8
leaders
 62
     7
370
    30
100
AcDbDimension
  2
*D31
 10
597.8822027852975
 20
401.7779662489234
 30
0.0
 11
592.3671462187248
 21
401.7779662489234
 31
0.0
 70
   160
 71
     5
 42
-1.0
  3
STANDARD
100
AcDbAlignedDimension
 13
585.8822027852975
 23
410.7884518988973
 33
0.0
 14
597.8822027852975
 24
410.7884518988973
 34
0.0
100
AcDbRotatedDimension
1001
ACAD
1000
DSTYLE
1002
{
1070
   287
1070
     4
1070
   287
1070
     4
1070
   287
1070
     4
1070
   287
1070
     4
1070
    40
1040
2.399999999999999
1070
    73
1070
     1
1070
    74
1070
     1
1070
    77
1070
     0
1070
   147
1040
0.5
1070
   279
1070
     1
1070
   288
1070
     1
1070
   289
1070
     3
1002
}
  0
LINE
  5
B0C
330
2
100
AcDbEntity
  8
LINEWORK
 62
     7
370
    30
100
AcDbLine
 10
615.7737884446215
 20
411.6034518988975
 30
0.0
 11
615.7737884446215
 21
407.6034518988975
 31
0.0
  0
LINE
  5
B0D
330
2
100
AcDbEntity
  8
LINEWORK
 62
     7
370
    30
100
AcDbLine
 10
615.7686517430112
 20
443.0284518988975
 30
0.0
 11
615.7686517430112
 21
438.3534518988975
 31
0.0
  0
LINE
  5
B23
330
2
100
AcDbEntity
  8
LINEWORK
 62
     7
370
    30
100
AcDbLine
 10
580.1477884446216
 20
407.6034518988976
 30
0.0
 11
595.7937461938337
 21
407.6034518988975
 31
0.0
  0
LINE
  5
B24
330
2
100
AcDbEntity
  8
LINEWORK
 62
     7
370
    30
100
AcDbLine
 10
580.1477884446216
 20
411.1034518988975
 30
0.0
 11
595.7937461938337
 21
411.1034518988975
 31
0.0
  0
LINE
  5
B25
330
2
100
AcDbEntity
  8
LINEWORK
 62
     7
370
    30
100
AcDbLine
 10
580.1477884446216
 20
411.6034518988976
 30
0.0
 11
595.7937461938337
 21
411.6034518988975
 31
0.0
  0
LINE
  5
B26
330
2
100
AcDbEntity
  8
LINEWORK
 62
     7
370
    30
100
AcDbLine
 10
580.1477884446216
 20
411.1034518988975
 30
0.0
 11
580.4351418546619
 21
411.1034518988975
 31
0.0
  0
LINE
  5
B34
330
2
100
AcDbEntity
  8
LINEWORK
 62
     7
370
    30
100
AcDbLine
 10
580.1426517430112
 20
442.2034518988974
 30
0.0
 11
615.7686517430111
 21
442.2034518988976
 31
0.0
  0
LINE
  5
B35
330
2
100
AcDbEntity
  8
LINEWORK
 62
     7
370
    30
100
AcDbLine
 10
580.1426517430112
 20
438.3534518988975
 30
0.0
 11
615.7686517430112
 21
438.353451898897
 31
0.0
  0
LINE
  5
B36
330
2
100
AcDbEntity
  8
LINEWORK
 62
     7
370
    30
100
AcDbLine
 10
580.1426517430112
 20
439.4534518988974
 30
0.0
 11
615.7686517430112
 21
439.4534518988974
 31
0.0
  0
LINE
  5
B37
330
2
100
AcDbEntity
  8
LINEWORK
 62
     7
370
    30
100
AcDbLine
 10
580.1426517430112
 20
438.9034518988975
 30
0.0
 11
615.7686517430112
 21
438.9034518988977
 31
0.0
  0
LINE
  5
B38
330
2
100
AcDbEntity
  8
LINEWORK
 62
     7
370
    30
100
AcDbLine
 10
580.1426517430112
 20
443.0284518988975
 30
0.0
 11
615.7686517430111
 21
443.0284518988977
 31
0.0
  0
LINE
  5
B39
330
2
100
AcDbEntity
  8
LINEWORK
 62
     7
370
    30
100
AcDbLine
 10
580.1426517430112
 20
441.2409518988973
 30
0.0
 11
615.7686517430111
 21
441.240951898897
 31
0.0
  0
ATTDEF
  5
B64
330
2
100
AcDbEntity
  8
leaders
 62
     1
370
    30
100
AcDbText
 10
529.5088012804443
 20
388.6799153700303
 30
0.0
 40
2.879999999999999
  1

100
AcDbAttributeDefinition
  3
ADD LINK NUMBER (WMF)
  2
TS0242
 70
     0
  0
LINE
  5
B65
330
2
100
AcDbEntity
  8
leaders
 62
     1
370
    30
100
AcDbLine
 10
546.6996176701477
 20
389.8335541792524
 30
0.0
 11
555.0816230219387
 21
389.8335541792523
 31
0.0
  0
LINE
  5
B66
330
2
100
AcDbEntity
  8
leaders
 62
     1
370
    30
100
AcDbLine
 10
546.6996176701477
 20
387.5775404353397
 30
0.0
 11
546.6996176701477
 21
392.089567923165
 31
0.0
  0
LINE
  5
B67
330
2
100
AcDbEntity
  8
leaders
 62
     1
370
    30
100
AcDbLine
 10
584.4800648639012
 20
407.6034518988976
 30
0.0
 11
555.0816230219387
 21
389.8335541792523
 31
0.0
  0
SOLID
  5
B68
330
2
100
AcDbEntity
  8
leaders
 62
     1
370
    30
100
AcDbTrace
 10
583.3496364768401
 20
407.1538613499237
 30
0.0
 11
583.5565538649972
 21
406.8115381189294
 31
0.0
 12
584.4800648639012
 22
407.6034518988976
 32
0.0
 13
584.4800648639012
 23
407.6034518988976
 33
0.0
  0
DIMENSION
  5
B7D
330
2
100
AcDbEntity
  8
leaders
 62
     7
370
    30
100
AcDbDimension
  2
*D38
 10
615.7737884446215
 20
395.5798272131949
 30
0.0
 11
598.4771858219918
 21
395.5798272131949
 31
0.0
 70
   161
  1
36"
 71
     5
 42
-1.0
  3
STANDARD
100
AcDbAlignedDimension
 13
580.1477884446216
 23
407.6034518988976
 33
0.0
 14
615.7737884446215
 24
407.6034518988975
 34
0.0
1001
ACAD
1000
DSTYLE
1002
{
1070
   287
1070
     4
1070
   287
1070
     4
1070
   287
1070
     4
1070
   287
1070
     4
1070
    40
1040
2.399999999999999
1070
    73
1070
     1
1070
    74
1070
     1
1070
    77
1070
     0
1070
   147
1040
0.5
1070
   279
1070
     1
1070
   288
1070
     1
1070
   289
1070
     3
1002
}
  0
LINE
  5
C06
330
2
100
AcDbEntity
  8
LINEWORK
 62
     7
370
    30
100
AcDbLine
 10
559.4628886130666
 20
442.2034518988973
 30
0.0
 11
561.7878855898883
 21
443.0284518988973
 31
0.0
  0
LINE
  5
C07
330
2
100
AcDbEntity
  8
LINEWORK
370
    30
100
AcDbLine
 10
559.4812602017736
 20
441.2409518988973
 30
0.0
 11
559.4812602017701
 21
442.2034518988973
 31
0.0
  0
ARC
  5
C08
330
2
100
AcDbEntity
  8
LINEWORK
 62
     7
370
    30
100
AcDbCircle
 10
559.1109696978675
 20
440.5374750227355
 30
0.0
 40
0.7949809888151388
100
AcDbArc
 50
6.118045468725888
 51
62.23893912946991
  0
ARC
  5
C09
330
2
100
AcDbEntity
  8
LINEWORK
370
    30
100
AcDbCircle
 10
561.1943661821356
 20
440.7512900809603
 30
0.0
 40
1.299371506374636
100
AcDbArc
 50
185.7015478593825
 51
267.2162470626179
  0
LINE
  5
C0A
330
2
100
AcDbEntity
  8
LINEWORK
370
    30
100
AcDbLine
 10
561.1312602017703
 20
438.9034518988974
 30
0.0
 11
561.1312602017703
 21
439.4534518988973
 31
0.0
  0
ARC
  5
C0B
330
2
100
AcDbEntity
  8
LINEWORK
370
    30
100
AcDbCircle
 10
561.6812602017704
 20
438.353451898897
 30
0.0
 40
0.5500000000002502
100
AcDbArc
 50
0.0000000000260551
 51
90.00000000002605
  0
INSERT
  5
1106
330
2
100
AcDbEntity
  8
leaders
 62
     7
370
    30
100
AcDbBlockReference
 66
     1
  2
PIER
 10
615.7737884446215
 20
407.2284518988975
 30
0.0
  0
ATTRIB
  5
1107
330
1106
100
AcDbEntity
  8
LINEWORK
 62
    22
370
    30
100
AcDbText
 10
640.6565476326074
 20
436.3554436047668
 30
0.0
 40
0.17015625
  1

 72
     1
 11
640.6565476326074
 21
436.3554436047668
 31
0.0
100
AcDbAttribute
  2
0989
 70
     0
  0
SEQEND
  5
1108
330
1106
100
AcDbEntity
  8
leaders
 62
     7
  0
ENDSEC
  0
SECTION
  2
OBJECTS
  0
DICTIONARY
  5
8
330
0
100
AcDbDictionary
281
     1
  3
ACAD_GROUP
350
21
  3
ACAD_LAYOUT
350
C
  3
ACAD_MLINESTYLE
350
22
  3
ACAD_PLOTSETTINGS
350
23
  3
ACAD_PLOTSTYLENAME
350
7
  0
DICTIONARY
  5
3
330
2
100
AcDbDictionary
280
     1
281
     1
  3
ACAD_LAYOUTSELFREF
360
1279
  0
DICTIONARY
  5
3E8
330
D
100
AcDbDictionary
280
     1
281
     1
  3
ACAD_LAYOUTSELFREF
360
127C
  0
DICTIONARY
  5
21
102
{ACAD_REACTORS
330
8
102
}
330
8
100
AcDbDictionary
281
     1
  0
DICTIONARY
  5
C
102
{ACAD_REACTORS
330
8
102
}
330
8
100
AcDbDictionary
281
     1
  3
Layout1
350
10
  3
Model
350
B
  0
DICTIONARY
  5
22
102
{ACAD_REACTORS
330
8
102
}
330
8
100
AcDbDictionary
281
     1
  3
STANDARD
350
25
  0
DICTIONARY
  5
23
102
{ACAD_REACTORS
330
8
102
}
330
8
100
AcDbDictionary
281
     1
  0
ACDBDICTIONARYWDFLT
  5
7
102
{ACAD_REACTORS
330
8
102
}
330
8
100
AcDbDictionary
281
     1
  3
Normal
350
6
100
AcDbDictionaryWithDefault
340
6
  0
XRECORD
  5
1279
102
{ACAD_REACTORS
330
3
102
}
330
3
100
AcDbXrecord
280
     1
340
2
  0
XRECORD
  5
127C
102
{ACAD_REACTORS
330
3E8
102
}
330
3E8
100
AcDbXrecord
280
     1
340
D
  0
LAYOUT
  5
10
102
{ACAD_REACTORS
330
C
102
}
330
C
100
AcDbPlotSettings
  1

  2
None
  4

  6

 40
0.0
 41
0.0
 42
0.0
 43
0.0
 44
0.0
 45
0.0
 46
0.0
 47
0.0
 48
0.0
 49
0.0
140
0.0
141
0.0
142
1.0
143
1.0
 70
   688
 72
     0
 73
     0
 74
     5
  7

 75
    16
147
1.0
148
0.0
149
0.0
100
AcDbLayout
  1
Layout1
 70
     1
 71
     1
 10
0.0
 20
0.0
 11
12.0
 21
9.0
 12
0.0
 22
0.0
 32
0.0
 14
1.000000000000000E+20
 24
1.000000000000000E+20
 34
1.000000000000000E+20
 15
-1.000000000000000E+20
 25
-1.000000000000000E+20
 35
-1.000000000000000E+20
146
0.0
 13
0.0
 23
0.0
 33
0.0
 16
1.0
 26
0.0
 36
0.0
 17
0.0
 27
1.0
 37
0.0
 76
     0
330
D
  0
LAYOUT
  5
B
102
{ACAD_REACTORS
330
C
102
}
330
C
100
AcDbPlotSettings
  1

  2
HP LaserJet 5
  4
Letter
  6

 40
7.143749713897705
 41
6.381738662719726
 42
7.14373779296875
 43
6.381744384765625
 44
215.8999938964843
 45
279.3999938964843
 46
0.0
 47
0.0
 48
384.482208949714
 49
318.3711668150766
140
565.7294511324651
141
453.2014323412695
142
1.0
143
15.76091918266927
 70
 11952
 72
     0
 73
     1
 74
     1
  7

 75
     0
147
0.06344807611853
148
-13043.60513468854
149
-9080.449239924584
100
AcDbLayout
  1
Model
 70
     1
 71
     0
 10
0.0
 20
0.0
 11
12.0
 21
9.0
 12
0.0
 22
0.0
 32
0.0
 14
0.0
 24
0.0
 34
0.0
 15
0.0
 25
0.0
 35
0.0
146
0.0
 13
0.0
 23
0.0
 33
0.0
 16
1.0
 26
0.0
 36
0.0
 17
0.0
 27
1.0
 37
0.0
 76
     0
330
2
  0
MLINESTYLE
  5
25
102
{ACAD_REACTORS
330
22
102
}
330
22
100
AcDbMlineStyle
  2
STANDARD
 70
     0
  3

 62
   256
 51
90.0
 52
90.0
 71
     2
 49
0.5
 62
   256
  6
BYLAYER
 49
-0.5
 62
   256
  6
BYLAYER
  0
ACDBPLACEHOLDER
  5
6
102
{ACAD_REACTORS
330
7
102
}
330
7
  0
ENDSEC
  0
EOF
