  0
SECTION
  2
HEADER
  9
$ACADVER
  1
AC1015
  9
$ACADMAINTVER
 70
     6
  9
$DWGCODEPAGE
  3
ANSI_1252
  9
$INSBASE
 10
0.0
 20
0.0
 30
0.0
  9
$EXTMIN
 10
249.6227022273123
 20
323.2214767574654
 30
0.0
  9
$EXTMAX
 10
302.6189718713904
 20
362.6455310048894
 30
0.0
  9
$LIMMIN
 10
0.0
 20
0.0
  9
$LIMMAX
 10
12.0
 20
9.0
  9
$ORTHOMODE
 70
     0
  9
$REGENMODE
 70
     1
  9
$FILLMODE
 70
     1
  9
$QTEXTMODE
 70
     0
  9
$MIRRTEXT
 70
     0
  9
$LTSCALE
 40
1.0
  9
$ATTMODE
 70
     2
  9
$TEXTSIZE
 40
12.0
  9
$TRACEWID
 40
0.05
  9
$TEXTSTYLE
  7
STANDARD
  9
$CLAYER
  8
LINEWORK
  9
$CELTYPE
  6
BYLAYER
  9
$CECOLOR
 62
     7
  9
$CELTSCALE
 40
1.0
  9
$DISPSILH
 70
     0
  9
$DIMSCALE
 40
0.675
  9
$DIMASZ
 40
0.5
  9
$DIMEXO
 40
1.0
  9
$DIMDLI
 40
0.0625
  9
$DIMRND
 40
0.0
  9
$DIMDLE
 40
0.0
  9
$DIMEXE
 40
0.25
  9
$DIMTP
 40
0.0
  9
$DIMTM
 40
0.0
  9
$DIMTXT
 40
1.0
  9
$DIMCEN
 40
0.0
  9
$DIMTSZ
 40
0.0
  9
$DIMTOL
 70
     0
  9
$DIMLIM
 70
     0
  9
$DIMTIH
 70
     1
  9
$DIMTOH
 70
     1
  9
$DIMSE1
 70
     0
  9
$DIMSE2
 70
     0
  9
$DIMTAD
 70
     0
  9
$DIMZIN
 70
     0
  9
$DIMBLK
  1

  9
$DIMASO
 70
     1
  9
$DIMSHO
 70
     1
  9
$DIMPOST
  1
"
  9
$DIMAPOST
  1

  9
$DIMALT
 70
     0
  9
$DIMALTD
 70
     0
  9
$DIMALTF
 40
25.4
  9
$DIMLFAC
 40
1.0
  9
$DIMTOFL
 70
     0
  9
$DIMTVP
 40
0.0
  9
$DIMTIX
 70
     0
  9
$DIMSOXD
 70
     0
  9
$DIMSAH
 70
     0
  9
$DIMBLK1
  1

  9
$DIMBLK2
  1

  9
$DIMSTYLE
  2
STANDARD
  9
$DIMCLRD
 70
     0
  9
$DIMCLRE
 70
     0
  9
$DIMCLRT
 70
     0
  9
$DIMTFAC
 40
0.125
  9
$DIMGAP
 40
0.5
  9
$DIMJUST
 70
     0
  9
$DIMSD1
 70
     0
  9
$DIMSD2
 70
     0
  9
$DIMTOLJ
 70
     1
  9
$DIMTZIN
 70
     0
  9
$DIMALTZ
 70
     2
  9
$DIMALTTZ
 70
     2
  9
$DIMUPT
 70
     1
  9
$DIMDEC
 70
     4
  9
$DIMTDEC
 70
     4
  9
$DIMALTU
 70
     2
  9
$DIMALTTD
 70
     0
  9
$DIMTXSTY
  7
STANDARD
  9
$DIMAUNIT
 70
     0
  9
$DIMADEC
 70
     0
  9
$DIMALTRND
 40
0.0
  9
$DIMAZIN
 70
     0
  9
$DIMDSEP
 70
    46
  9
$DIMATFIT
 70
     1
  9
$DIMFRAC
 70
     2
  9
$DIMLDRBLK
  1

  9
$DIMLUNIT
 70
     5
  9
$DIMLWD
 70
    -2
  9
$DIMLWE
 70
    -2
  9
$DIMTMOVE
 70
     1
  9
$LUNITS
 70
     5
  9
$LUPREC
 70
     4
  9
$SKETCHINC
 40
0.1
  9
$FILLETRAD
 40
0.0
  9
$AUNITS
 70
     0
  9
$AUPREC
 70
     1
  9
$MENU
  1
acad
  9
$ELEVATION
 40
0.0
  9
$PELEVATION
 40
0.0
  9
$THICKNESS
 40
0.0
  9
$LIMCHECK
 70
     0
  9
$CHAMFERA
 40
0.75
  9
$CHAMFERB
 40
0.75
  9
$CHAMFERC
 40
0.0
  9
$CHAMFERD
 40
0.0
  9
$SKPOLY
 70
     0
  9
$TDCREATE
 40
2451085.664838310
  9
$TDUCREATE
 40
2451085.831504977
  9
$TDUPDATE
 40
2451660.570274074
  9
$TDUUPDATE
 40
2451660.736940740
  9
$TDINDWG
 40
2.0144878472
  9
$TDUSRTIMER
 40
2.0144878472
  9
$USRTIMER
 70
     1
  9
$ANGBASE
 50
0.0
  9
$ANGDIR
 70
     0
  9
$PDMODE
 70
     0
  9
$PDSIZE
 40
0.0
  9
$PLINEWID
 40
0.0
  9
$SPLFRAME
 70
     0
  9
$SPLINETYPE
 70
     6
  9
$SPLINESEGS
 70
     8
  9
$HANDSEED
  5
723A9
  9
$SURFTAB1
 70
     6
  9
$SURFTAB2
 70
     6
  9
$SURFTYPE
 70
     6
  9
$SURFU
 70
     6
  9
$SURFV
 70
     6
  9
$UCSBASE
  2

  9
$UCSNAME
  2

  9
$UCSORG
 10
0.0
 20
0.0
 30
0.0
  9
$UCSXDIR
 10
1.0
 20
0.0
 30
0.0
  9
$UCSYDIR
 10
0.0
 20
1.0
 30
0.0
  9
$UCSORTHOREF
  2

  9
$UCSORTHOVIEW
 70
     0
  9
$UCSORGTOP
 10
0.0
 20
0.0
 30
0.0
  9
$UCSORGBOTTOM
 10
0.0
 20
0.0
 30
0.0
  9
$UCSORGLEFT
 10
0.0
 20
0.0
 30
0.0
  9
$UCSORGRIGHT
 10
0.0
 20
0.0
 30
0.0
  9
$UCSORGFRONT
 10
0.0
 20
0.0
 30
0.0
  9
$UCSORGBACK
 10
0.0
 20
0.0
 30
0.0
  9
$PUCSBASE
  2

  9
$PUCSNAME
  2

  9
$PUCSORG
 10
0.0
 20
0.0
 30
0.0
  9
$PUCSXDIR
 10
1.0
 20
0.0
 30
0.0
  9
$PUCSYDIR
 10
0.0
 20
1.0
 30
0.0
  9
$PUCSORTHOREF
  2

  9
$PUCSORTHOVIEW
 70
     0
  9
$PUCSORGTOP
 10
0.0
 20
0.0
 30
0.0
  9
$PUCSORGBOTTOM
 10
0.0
 20
0.0
 30
0.0
  9
$PUCSORGLEFT
 10
0.0
 20
0.0
 30
0.0
  9
$PUCSORGRIGHT
 10
0.0
 20
0.0
 30
0.0
  9
$PUCSORGFRONT
 10
0.0
 20
0.0
 30
0.0
  9
$PUCSORGBACK
 10
0.0
 20
0.0
 30
0.0
  9
$USERI1
 70
     0
  9
$USERI2
 70
     0
  9
$USERI3
 70
     0
  9
$USERI4
 70
     0
  9
$USERI5
 70
     0
  9
$USERR1
 40
0.0
  9
$USERR2
 40
0.0
  9
$USERR3
 40
0.0
  9
$USERR4
 40
0.0
  9
$USERR5
 40
0.0
  9
$WORLDVIEW
 70
     1
  9
$SHADEDGE
 70
     1
  9
$SHADEDIF
 70
    70
  9
$TILEMODE
 70
     1
  9
$MAXACTVP
 70
    16
  9
$PINSBASE
 10
0.0
 20
0.0
 30
0.0
  9
$PLIMCHECK
 70
     0
  9
$PEXTMIN
 10
1.000000000000000E+20
 20
1.000000000000000E+20
 30
1.000000000000000E+20
  9
$PEXTMAX
 10
-1.000000000000000E+20
 20
-1.000000000000000E+20
 30
-1.000000000000000E+20
  9
$PLIMMIN
 10
0.0
 20
0.0
  9
$PLIMMAX
 10
12.0
 20
9.0
  9
$UNITMODE
 70
     0
  9
$VISRETAIN
 70
     0
  9
$PLINEGEN
 70
     0
  9
$PSLTSCALE
 70
     1
  9
$TREEDEPTH
 70
  3020
  9
$CMLSTYLE
  2
STANDARD
  9
$CMLJUST
 70
     0
  9
$CMLSCALE
 40
1.0
  9
$PROXYGRAPHICS
 70
     1
  9
$MEASUREMENT
 70
     0
  9
$CELWEIGHT
370
    -1
  9
$ENDCAPS
280
     0
  9
$JOINSTYLE
280
     0
  9
$LWDISPLAY
290
     0
  9
$INSUNITS
 70
     0
  9
$HYPERLINKBASE
  1

  9
$STYLESHEET
  1

  9
$XEDIT
290
     1
  9
$CEPSNTYPE
380
     0
  9
$PSTYLEMODE
290
     1
  9
$FINGERPRINTGUID
  2
{A6232B84-9B2E-11D3-8DA4-00A0C981A35F}
  9
$VERSIONGUID
  2
{2B894236-F00E-11D3-8DA4-00A0C981A35F}
  9
$EXTNAMES
290
     1
  9
$PSVPSCALE
 40
0.0
  9
$OLESTARTUP
290
     0
  0
ENDSEC
  0
SECTION
  2
CLASSES
  0
CLASS
  1
DICTIONARYVAR
  2
AcDbDictionaryVar
  3
AutoCAD 2000
 90
    32768
280
     0
281
     0
  0
CLASS
  1
LWPOLYLINE
  2
AcDbPolyline
  3
AutoCAD 2000
 90
    32768
280
     0
281
     1
  0
CLASS
  1
RASTERVARIABLES
  2
AcDbRasterVariables
  3
ISM
 90
    32768
280
     0
281
     0
  0
CLASS
  1
ACDBDICTIONARYWDFLT
  2
AcDbDictionaryWithDefault
  3
AutoCAD 2000
 90
        0
280
     0
281
     0
  0
CLASS
  1
ACDBPLACEHOLDER
  2
AcDbPlaceHolder
  3
AutoCAD 2000
 90
        0
280
     0
281
     0
  0
CLASS
  1
LAYOUT
  2
AcDbLayout
  3
AutoCAD 2000
 90
        0
280
     0
281
     0
  0
CLASS
  1
ACME_DOCUMENT
  2
AcMeDbDoc
  3
AcMeServices
 90
    32768
280
     1
281
     0
  0
CLASS
  1
ACMESCOPE
  2
AcMeScope
  3
AcMeServices
 90
    32768
280
     1
281
     0
  0
CLASS
  1
ACMECOMMANDHISTORY
  2
AcMeCommandHistory
  3
AcMeServices
 90
    32768
280
     1
281
     0
  0
CLASS
  1
ACIMSYSVARMAN
  2
AcImSysVarManager
  3
AcMeServices
 90
    32768
280
     1
281
     0
  0
CLASS
  1
ACIMREALSYSVAR
  2
AcImRealSysVar
  3
AcMeServices
 90
    32768
280
     1
281
     0
  0
CLASS
  1
ACIMINTSYSVAR
  2
AcImIntSysVar
  3
AcMeServices
 90
    32768
280
     1
281
     0
  0
CLASS
  1
ACMEDRAWINGMAN
  2
AcMeDrawingMan
  3
AcMeServices
 90
    32768
280
     1
281
     0
  0
CLASS
  1
ACMEVIEW
  2
AcMeView
  3
AcMeServices
 90
    32768
280
     1
281
     0
  0
CLASS
  1
ACDBENTITYCACHE
  2
AcMeEntityCache
  3
AcMeServices
 90
    32768
280
     1
281
     0
  0
CLASS
  1
GSMANAGER
  2
AcMeGSManager
  3
AcMeServices
 90
    32768
280
     1
281
     0
  0
CLASS
  1
AmdtInternalReactor
  2
AmdtInternalReactor
  3
AcMeServices
 90
    32768
280
     1
281
     0
  0
CLASS
  1
ACMESTATEMGR
  2
AcMeStateMgr
  3
AcMeServices
 90
    32768
280
     1
281
     0
  0
CLASS
  1
ACGREFMASTER
  2
AcGrefMaster
  3
AcAttribServices
 90
    32768
280
     1
281
     0
  0
CLASS
  1
AM_DRAWING_MGR
  2
AcDmDwgMgr
  3
AcMechDwgViewMgmt
 90
    32768
280
     1
281
     0
  0
CLASS
  1
AM_DWG_DOCUMENT
  2
AcDmDwgDocument
  3
AcMechDwgViewMgmt
 90
    32768
280
     1
281
     0
  0
CLASS
  1
AM_DWG_SHEET
  2
AcDmSheet
  3
AcMechDwgViewMgmt
 90
    32768
280
     1
281
     0
  0
CLASS
  1
AM_VIEWDIMPARMAP
  2
AcDmViewDimParMap
  3
AcMechDwgViewMgmt
 90
    32768
280
     1
281
     0
  0
CLASS
  1
AM_DWGMGR_NAME
  2
AcDmDwgMgrName
  3
AcMechDwgViewMgmt
 90
    32768
280
     1
281
     0
  0
CLASS
  1
ACME_DATABASE
  2
AcMeDbDatabase
  3
AcMeServices
 90
    32768
280
     1
281
     0
  0
CLASS
  1
ACRFINSADJUSTERMGR
  2
AcRfInsAdjusterMgr
  3
AcMeServices
 90
    32768
280
     1
281
     0
  0
CLASS
  1
ACGREFMASTER
  2
AcGrefacadMaster
  3
AcGrefServices
 90
    32768
280
     1
281
     0
  0
CLASS
  1
AMDTMENUSTATEMGR
  2
AmdtMenuStateMgr
  3
McadcomServices
 90
    32768
280
     1
281
     0
  0
CLASS
  1
AMDTMCOMMENUSTATE
  2
AmdtMcomMenuState
  3
McadcomServices
 90
    32768
280
     1
281
     0
  0
CLASS
  1
ASAPP
  2
AcAsAppObject
  3
AutoSurfServices
 90
    32768
280
     1
281
     0
  0
CLASS
  1
IM_STATIC_MAN
  2
AcImStaticVarManager
  3
AcMeServices
 90
    32768
280
     1
281
     0
  0
CLASS
  1
ACIMSTRSYSVAR
  2
AcImStrSysVar
  3
AcMeServices
 90
    32768
280
     1
281
     0
  0
CLASS
  1
ACIMDBLSTATICVAR
  2
AcImDblStaticVar
  3
AcMeServices
 90
    32768
280
     1
281
     0
  0
CLASS
  1
ACIMSTRSTATICVAR
  2
AcImStrStaticVar
  3
AcMeServices
 90
    32768
280
     1
281
     0
  0
CLASS
  1
ACIMINTSTATICVAR
  2
AcImIntStaticVar
  3
AcMeServices
 90
    32768
280
     1
281
     0
  0
CLASS
  1
ACADGREFMODULE
  2
AcAdGrefModule
  3
AdGrefServices
 90
    32768
280
     1
281
     0
  0
CLASS
  1
AMIMASTER
  2
AmiMaster
  3
AmiServices
 90
    32768
280
     1
281
     0
  0
CLASS
  1
ACASGREFMASTER
  2
AcAsGrefMaster
  3
AutoSurfResolverServices
 90
    32768
280
     1
281
     0
  0
CLASS
  1
MAPIAMMOUDLE
  2
MApiAmModule
  3
MApiAmServices
 90
    32768
280
     1
281
     0
  0
CLASS
  1
AMDTDMMENUSTATE
  2
AmdtDmMenuState
  3
AcMechDwgViewMgmt
 90
    32768
280
     1
281
     0
  0
CLASS
  1
AMDTADMENUSTATE
  2
AmdtAdMenuState
  3
DesignerServices
 90
    32768
280
     1
281
     0
  0
CLASS
  1
ADAPPL
  2
AcAdAppl
  3
DesignerServices
 90
    32768
280
     1
281
     0
  0
CLASS
  1
DEPMGR
  2
AcAdDepMgr
  3
DesignerServices
 90
    32768
280
     1
281
     0
  0
CLASS
  1
PARAMMGR
  2
AcAdParamMgr
  3
DesignerServices
 90
    32768
280
     1
281
     0
  0
CLASS
  1
PARAMSCOPE
  2
AcAdParamScope
  3
DesignerServices
 90
    32768
280
     1
281
     0
  0
CLASS
  1
NAMEDAPPL
  2
AcAdNamedAppl
  3
DesignerServices
 90
    32768
280
     1
281
     0
  0
CLASS
  1
ADHNTMPLT
  2
AdHoleNoteTemplateMgr
  3
DesignerServices
 90
    32768
280
     1
281
     0
  0
CLASS
  1
AM_HNTEMPLATE_MGR_NAME
  2
AdHoleNoteTemplateMgrName
  3
DesignerServices
 90
    32768
280
     1
281
     0
  0
CLASS
  1
AMDTAMMENUSTATE
  2
AmdtAmMenuState
  3
DesignerAssemblies
 90
    32768
280
     1
281
     0
  0
CLASS
  1
ACAMPROJECT
  2
AcAmProject
  3
DesignerAssemblies
 90
    32768
280
     1
281
     0
  0
CLASS
  1
ACAMGRCOMPDEF
  2
AcAmGrCompDef
  3
DesignerAssemblies
 90
    32768
280
     1
281
     0
  0
CLASS
  1
ACCMCONTEXT
  2
AcCmContext
  3
DesignerAssemblies
 90
    32768
280
     1
281
     0
  0
CLASS
  1
ACAMCOMPDEF
  2
AcAmCompDef
  3
DesignerAssemblies
 90
    32768
280
     1
281
     0
  0
CLASS
  1
ACAMCOMPDEFMGR
  2
AcAmCompDefMgr
  3
DesignerAssemblies
 90
    32768
280
     1
281
     0
  0
CLASS
  1
AMCONTEXTMGR
  2
AcAmContextMgr
  3
DesignerAssemblies
 90
    32768
280
     1
281
     0
  0
CLASS
  1
ACAMCONTEXTMODELER
  2
AcAmContextModeler
  3
DesignerAssemblies
 90
    32768
280
     1
281
     0
  0
CLASS
  1
MAPIADMODULE
  2
MApiAdModule
  3
MApiAdServices
 90
    32768
280
     1
281
     0
  0
CLASS
  1
ACMDATADICTIONARY
  2
AcmDataDictionary
  3
"AcmSymBB|Product Description: AutoCAD Mechanical 2000|Company: Autodesk"
 90
    32768
280
     1
281
     0
  0
CLASS
  1
ACMDATAENTRYBLOCK
  2
AcmDataEntryBlock
  3
"AcmSymBB|Product Description: AutoCAD Mechanical 2000|Company: Autodesk"
 90
    32768
280
     1
281
     0
  0
CLASS
  1
AMDTBROWSERDBTAB
  2
AmdtBrowserDbTab
  3
McadcomServices
 90
    32768
280
     1
281
     0
  0
CLASS
  1
CBROWSERAPPOBJECT
  2
CBrowserAppObject
  3
McadcomServices
 90
    32768
280
     1
281
     0
  0
CLASS
  1
DM_PLACEHOLDER
  2
AcDmSelsetPlaceholder
  3
AcMechDwgViewMgmt
 90
    32768
280
     1
281
     0
  0
CLASS
  1
CATALOGSTATE
  2
AcAmCatalogState
  3
DesignerAssemblies
 90
    32768
280
     1
281
     0
  0
CLASS
  1
ACAMGRCOMPDEFSET
  2
AcAmGrCompDefSet
  3
DesignerAssemblies
 90
    32768
280
     1
281
     0
  0
CLASS
  1
AMGOBJPROPCFG
  2
AmgObjPropCfg
  3
"AmgLay|Product Description: AutoCAD Mechanical 2000|Company: Autodesk"
 90
    32769
280
     1
281
     0
  0
CLASS
  1
LAYER_INDEX
  2
AcDbLayerIndex
  3
AutoCAD 2000
 90
    32768
280
     0
281
     0
  0
CLASS
  1
IDBUFFER
  2
AcDbIdBuffer
  3
AutoCAD 2000
 90
    32768
280
     0
281
     0
  0
CLASS
  1
ACRFATTGENMGR
  2
AcRfAttGeneralMgr
  3
AcAttribServices
 90
    32768
280
     1
281
     0
  0
CLASS
  1
PLOTSETTINGS
  2
AcDbPlotSettings
  3
AutoCAD 2000
 90
    32768
280
     0
281
     0
  0
CLASS
  1
VBA_PROJECT
  2
AcDbVbaProject
  3
acadvba
 90
        0
280
     0
281
     0
  0
CLASS
  1
LONG_TRANSACTION
  2
AcDbLongTransaction
  3
AutoCAD 2000
 90
    32768
280
     0
281
     0
  0
CLASS
  1
LWPOLYLINE
  2
AcDbPolyline
  3
AutoCAD 2000
 90
    32768
280
     0
281
     1
  0
CLASS
  1
HATCH
  2
AcDbHatch
  3
AutoCAD 2000
 90
    32768
280
     0
281
     1
  0
CLASS
  1
XRECORD
  2
AcDbXrecord
  3
AutoCAD 2000
 90
    32768
280
     0
281
     0
  0
ENDSEC
  0
SECTION
  2
TABLES
  0
TABLE
  2
VPORT
  5
1B
330
0
100
AcDbSymbolTable
 70
     2
  0
VPORT
  5
723A8
330
1B
100
AcDbSymbolTableRecord
100
AcDbViewportTableRecord
  2
*Active
 70
     0
 10
0.0
 20
0.0
 11
1.0
 21
1.0
 12
342.8465835643315
 22
312.0930659776106
 13
0.0
 23
0.0
 14
1.0
 24
1.0
 15
0.0
 25
0.0
 16
0.0
 26
0.0
 36
1.0
 17
-64.46234487877643
 27
33.0238264231553
 37
6.148717398612387
 40
44.62585126537212
 41
1.413068844807467
 42
50.0
 43
-6.148717398612387
 44
-6.148717398612387
 50
0.0
 51
0.0
 71
     0
 72
 20000
 73
     1
 74
     1
 75
     0
 76
     0
 77
     0
 78
     2
281
     0
 65
     1
110
0.0
120
0.0
130
0.0
111
1.0
121
0.0
131
0.0
112
0.0
122
1.0
132
0.0
 79
     0
146
0.0
  0
ENDTAB
  0
TABLE
  2
LTYPE
  5
16
330
0
100
AcDbSymbolTable
 70
     1
  0
LTYPE
  5
17
330
16
100
AcDbSymbolTableRecord
100
AcDbLinetypeTableRecord
  2
BYBLOCK
 70
     0
  3

 72
    65
 73
     0
 40
0.0
  0
LTYPE
  5
18
330
16
100
AcDbSymbolTableRecord
100
AcDbLinetypeTableRecord
  2
BYLAYER
 70
     0
  3

 72
    65
 73
     0
 40
0.0
  0
LTYPE
  5
9
330
16
100
AcDbSymbolTableRecord
100
AcDbLinetypeTableRecord
  2
CONTINUOUS
 70
     0
  3
Solid line
 72
    65
 73
     0
 40
0.0
  0
ENDTAB
  0
TABLE
  2
LAYER
  5
11
330
0
100
AcDbSymbolTable
 70
     4
  0
LAYER
  5
5
330
11
100
AcDbSymbolTableRecord
100
AcDbLayerTableRecord
  2
0
 70
     0
 62
     7
  6
CONTINUOUS
370
    -3
390
6
  0
LAYER
  5
4E
330
11
100
AcDbSymbolTableRecord
100
AcDbLayerTableRecord
  2
LINEWORK
 70
     0
 62
     7
  6
CONTINUOUS
370
    -3
390
6
  0
LAYER
  5
24
330
11
100
AcDbSymbolTableRecord
100
AcDbLayerTableRecord
  2
A1
 70
     0
 62
     7
  6
CONTINUOUS
370
    -3
390
6
  0
LAYER
  5
71552
330
11
100
AcDbSymbolTableRecord
100
AcDbLayerTableRecord
  2
DEFPOINTS
 70
     0
 62
     7
  6
CONTINUOUS
290
     0
370
    -3
390
6
  0
ENDTAB
  0
TABLE
  2
STYLE
  5
12
330
0
100
AcDbSymbolTable
 70
     3
  0
STYLE
  5
13
330
12
100
AcDbSymbolTableRecord
100
AcDbTextStyleTableRecord
  2
STANDARD
 70
     0
 40
0.0
 41
1.0
 50
0.0
 71
     0
 42
12.0
  3
unvr55w.ttf
  4

1001
ACAD
1000
Univers
1071
       34
  0
STYLE
  5
722D1
330
12
100
AcDbSymbolTableRecord
100
AcDbTextStyleTableRecord
  2
ROMANC
 70
     0
 40
0.0
 41
1.0
 50
0.0
 71
     0
 42
0.5
  3
TIMESBD.TTF
  4

1001
ACAD
1000
Times New Roman
1071
 33554450
  0
STYLE
  5
722D2
330
12
100
AcDbSymbolTableRecord
100
AcDbTextStyleTableRecord
  2
barcoder
 70
     0
 40
0.0
 41
1.0
 50
0.0
 71
     0
 42
4.5625
  3
cw_barcd.ttf
  4

1001
ACAD
1000
Barcoder
1071
 33554434
  0
ENDTAB
  0
TABLE
  2
VIEW
  5
19
330
0
100
AcDbSymbolTable
 70
     0
  0
ENDTAB
  0
TABLE
  2
UCS
  5
1A
330
0
100
AcDbSymbolTable
 70
     0
  0
ENDTAB
  0
TABLE
  2
APPID
  5
1D
330
0
100
AcDbSymbolTable
 70
    12
  0
APPID
  5
14
330
1D
100
AcDbSymbolTableRecord
100
AcDbRegAppTableRecord
  2
ACAD
 70
     0
  0
APPID
  5
1BD0
330
1D
100
AcDbSymbolTableRecord
100
AcDbRegAppTableRecord
  2
GENIUS_GENDIM_13
 70
     0
  0
APPID
  5
1BD1
330
1D
100
AcDbSymbolTableRecord
100
AcDbRegAppTableRecord
  2
GENIUS_GENDTOL_13
 70
     0
  0
APPID
  5
1BD2
330
1D
100
AcDbSymbolTableRecord
100
AcDbRegAppTableRecord
  2
GENIUS_GE3DTOL_13
 70
     0
  0
APPID
  5
1BD3
330
1D
100
AcDbSymbolTableRecord
100
AcDbRegAppTableRecord
  2
MCAD_NO_VIS
 70
     0
  0
APPID
  5
1BD4
330
1D
100
AcDbSymbolTableRecord
100
AcDbRegAppTableRecord
  2
ACAD_TEMP_GRAPHIC
 70
     0
  0
APPID
  5
1BD5
330
1D
100
AcDbSymbolTableRecord
100
AcDbRegAppTableRecord
  2
AD_DRAW
 70
     0
  0
APPID
  5
1BD6
330
1D
100
AcDbSymbolTableRecord
100
AcDbRegAppTableRecord
  2
ACATTRIBSERVICES
 70
     0
  0
APPID
  5
1BD7
330
1D
100
AcDbSymbolTableRecord
100
AcDbRegAppTableRecord
  2
ASURF_PCURVE_APPNAME
 70
     0
  0
APPID
  5
1BD8
330
1D
100
AcDbSymbolTableRecord
100
AcDbRegAppTableRecord
  2
DESIGNERASSEMBLIES
 70
     0
  0
APPID
  5
1BD9
330
1D
100
AcDbSymbolTableRecord
100
AcDbRegAppTableRecord
  2
ACADM_DIM_EDIT
 70
     0
  0
APPID
  5
93F1
330
1D
100
AcDbSymbolTableRecord
100
AcDbRegAppTableRecord
  2
AVE_MATERIAL
 70
     0
  0
ENDTAB
  0
TABLE
  2
DIMSTYLE
  5
1E
330
0
100
AcDbSymbolTable
 70
     1
100
AcDbDimStyleTable
 71
     0
  0
DIMSTYLE
105
1F
102
{ACAD_REACTORS
330
72131
330
7211C
330
721BB
330
721DD
330
721ED
330
721FD
330
72266
102
}
330
1E
100
AcDbSymbolTableRecord
100
AcDbDimStyleTableRecord
  2
STANDARD
 70
     0
  3
"
 41
0.5
 42
1.0
 43
0.0625
 44
0.25
 73
     0
 74
     0
 77
     3
140
1.0
141
0.0
146
0.125
147
0.125
171
     0
274
     0
276
     2
277
     5
285
     2
286
     2
289
     0
340
13
  0
ENDTAB
  0
TABLE
  2
BLOCK_RECORD
  5
1
330
0
100
AcDbSymbolTable
 70
    10
  0
BLOCK_RECORD
  5
2
102
{ACAD_XDICTIONARY
360
3
102
}
330
1
100
AcDbSymbolTableRecord
100
AcDbBlockTableRecord
  2
*MODEL_SPACE
340
B
  0
BLOCK_RECORD
  5
D
102
{ACAD_XDICTIONARY
360
7234D
102
}
330
1
100
AcDbSymbolTableRecord
100
AcDbBlockTableRecord
  2
*PAPER_SPACE
340
10
  0
BLOCK_RECORD
  5
714C9
330
1
100
AcDbSymbolTableRecord
100
AcDbBlockTableRecord
  2
PROFILE LOGO
340
0
102
{BLKREFS
331
72260
331
72263
102
}
  0
BLOCK_RECORD
  5
714E4
330
1
100
AcDbSymbolTableRecord
100
AcDbBlockTableRecord
  2
LINK FLAG
340
0
102
{BLKREFS
331
72278
102
}
  0
BLOCK_RECORD
  5
7213E
330
1
100
AcDbSymbolTableRecord
100
AcDbBlockTableRecord
  2
*D2
340
0
  0
BLOCK_RECORD
  5
72156
330
1
100
AcDbSymbolTableRecord
100
AcDbBlockTableRecord
  2
*D3
340
0
  0
BLOCK_RECORD
  5
721BC
330
1
100
AcDbSymbolTableRecord
100
AcDbBlockTableRecord
  2
*D4
340
0
  0
BLOCK_RECORD
  5
721DE
330
1
100
AcDbSymbolTableRecord
100
AcDbBlockTableRecord
  2
*D5
340
0
  0
BLOCK_RECORD
  5
721EE
330
1
100
AcDbSymbolTableRecord
100
AcDbBlockTableRecord
  2
*D6
340
0
  0
BLOCK_RECORD
  5
721FE
330
1
100
AcDbSymbolTableRecord
100
AcDbBlockTableRecord
  2
*D7
340
0
  0
BLOCK_RECORD
  5
72267
330
1
100
AcDbSymbolTableRecord
100
AcDbBlockTableRecord
  2
*D8
340
0
  0
BLOCK_RECORD
  5
722D3
330
1
100
AcDbSymbolTableRecord
100
AcDbBlockTableRecord
  2
TSFORMB
340
0
102
{BLKREFS
331
72304
102
}
  0
ENDTAB
  0
ENDSEC
  0
SECTION
  2
BLOCKS
  0
BLOCK
  5
4
330
2
100
AcDbEntity
  8
0
100
AcDbBlockBegin
  2
*MODEL_SPACE
 70
     2
 10
0.0
 20
0.0
 30
0.0
  3
*MODEL_SPACE
  1

  0
ENDBLK
  5
A
330
2
100
AcDbEntity
  8
0
100
AcDbBlockEnd
  0
BLOCK
  5
E
330
D
100
AcDbEntity
 67
     1
  8
0
100
AcDbBlockBegin
  2
*PAPER_SPACE
 70
     0
 10
0.0
 20
0.0
 30
0.0
  3
*PAPER_SPACE
  1

  0
ENDBLK
  5
F
330
D
100
AcDbEntity
 67
     1
  8
0
100
AcDbBlockEnd
  0
BLOCK
  5
714E2
330
714C9
100
AcDbEntity
  8
0
 62
     7
100
AcDbBlockBegin
  2
PROFILE LOGO
 70
     2
 10
0.0
 20
0.0
 30
0.0
  3
PROFILE LOGO
  1

  0
LINE
  5
714CA
330
714C9
100
AcDbEntity
  8
0
 62
    22
100
AcDbLine
 10
0.7459516636765642
 20
-0.415894330395318
 30
0.0
 11
0.74595166367655
 21
-1.12746688439163
 31
0.0
  0
LINE
  5
714CB
330
714C9
100
AcDbEntity
  8
0
 62
    22
100
AcDbLine
 10
0.5841942848079072
 20
-0.415894330395318
 30
0.0
 11
0.5841942848079072
 21
-1.12746688439163
 31
0.0
  0
HATCH
  5
714CC
330
714C9
100
AcDbEntity
  8
0
 62
    22
100
AcDbHatch
 10
0.0
 20
0.0
 30
0.0
210
0.0
220
0.0
230
1.0
  2
LINE
 70
     0
 71
     0
 91
        1
 92
       33
 93
       38
 72
     1
 10
1.115683196411978
 20
-0.1706330859717084
 11
0.2177636962628071
 21
-0.1706330859717084
 72
     1
 10
0.2177636962628213
 20
-0.1706330859717084
 11
0.2078601968792952
 21
-0.4246889457533243
 72
     1
 10
0.2078601968792952
 20
-0.4246889457533243
 11
0.2375709173007294
 21
-0.4246889457533243
 72
     1
 10
0.2375709173007294
 20
-0.4246889457533243
 11
0.2441732502230991
 21
-0.3817964654080939
 72
     1
 10
0.2441732502230991
 20
-0.3817964654080939
 11
0.254076749606611
 21
-0.3422032805409501
 72
     1
 10
0.2540767496066252
 20
-0.3422032805409501
 11
0.2738837483736916
 21
-0.3092090964125091
 72
     1
 10
0.2738837483736916
 20
-0.3092090964125091
 11
0.2969919136019428
 21
-0.2861130719066693
 72
     1
 10
0.296991913601957
 20
-0.2861130719066764
 11
0.3267026340234338
 21
-0.2663164794731259
 72
     1
 10
0.3267026340234196
 20
-0.2663164794731259
 11
0.356413132174012
 21
-0.2498193191118219
 72
     1
 10
0.356413132174012
 20
-0.2498193191118148
 11
0.3828224638634481
 21
-0.243220591561446
 72
     1
 10
0.3828224638634623
 20
-0.243220591561446
 11
0.4092320178237401
 21
-0.243220591561446
 72
     1
 10
0.4092320178237401
 20
-0.243220591561446
 11
0.4719541805861525
 21
-0.2465198870395469
 72
     1
 10
0.4719541805861525
 20
-0.2465198870395469
 11
0.514869566852326
 21
-0.2729153436176332
 72
     1
 10
0.514869566852326
 20
-0.2729153436176332
 11
0.5742905631535394
 21
-0.3389038484686964
 72
     1
 10
0.5742905631535394
 20
-0.3389038484687106
 11
0.5907966177302626
 21
-0.3916947616248691
 72
     1
 10
0.5907966177302768
 20
-0.3916947616248691
 11
0.5907966177302768
 21
-1.157161773041991
 72
     1
 10
0.5907966177302768
 20
-1.157161773041984
 11
0.5643870637699991
 21
-1.203353685459461
 72
     1
 10
0.5643870637699849
 20
-1.203353685459468
 11
0.4983637345463876
 21
-1.226449709965308
 72
     1
 10
0.4983637345464019
 20
-1.226449709965301
 11
0.4389425159743326
 21
-1.226449709965301
 72
     1
 10
0.4389425159743326
 20
-1.226449709965301
 11
0.4323401830519913
 21
-1.249545734471119
 72
     1
 10
0.4323401830520055
 20
-1.249545734471134
 11
0.8945045989712809
 21
-1.249545734471134
 72
     1
 10
0.8945045989712667
 20
-1.249545734471134
 11
0.8945045989712667
 21
-1.226449709965315
 72
     1
 10
0.8945045989712667
 20
-1.226449709965301
 11
0.8152763816321311
 21
-1.226449709965301
 72
     1
 10
0.8152763816321311
 20
-1.226449709965301
 11
0.7525539965988913
 21
-1.186856661692324
 72
     1
 10
0.7525539965988913
 20
-1.186856661692324
 11
0.7426504972153794
 21
-1.140664612680659
 72
     1
 10
0.7426504972153652
 20
-1.140664612680673
 11
0.7393493307541803
 21
-0.394994193697137
 72
     1
 10
0.7393493307541803
 20
-0.394994193697137
 11
0.7558551630600619
 21
-0.3389038484687106
 72
     1
 10
0.7558551630600761
 20
-0.3389038484687106
 11
0.7987705493262496
 21
-0.2828136398344298
 72
     1
 10
0.7987705493262496
 20
-0.2828136398344227
 11
0.8614929343594894
 21
-0.2498193191118148
 72
     1
 10
0.8614929343594894
 20
-0.2498193191118148
 11
0.9374197629665985
 21
-0.2399211594891923
 72
     1
 10
0.9374197629665985
 20
-0.2399211594891923
 11
1.010045647383407
 21
-0.2663164794731117
 72
     1
 10
1.010045647383407
 20
-0.2663164794731259
 11
1.056262200110722
 21
-0.3092090964125234
 72
     1
 10
1.056262200110722
 20
-0.3092090964125091
 11
1.085972698261343
 21
-0.361999872974522
 72
     1
 10
1.085972698261358
 20
-0.3619998729745291
 11
1.092575031183727
 21
-0.4246889457533243
 72
     1
 10
1.092575031183727
 20
-0.4246889457533243
 11
1.115683196411993
 21
-0.4246889457533243
 72
     1
 10
1.115683196411978
 20
-0.4246889457533243
 11
1.109080863489609
 21
-0.17723195011623
 72
     1
 10
1.109080863489609
 20
-0.17723195011623
 11
1.109080863489609
 21
-0.1739325180439621
 72
     1
 10
1.109080863489609
 20
-0.1739325180439621
 11
1.105779697028424
 21
-0.1739325180439621
 97
        0
 75
     0
 76
     1
 52
0.0
 41
0.078125
 77
     0
 78
     1
 53
0.0
 43
-28.182772630023
 44
-32.9923404580304
 45
0.0
 46
0.009765625
 79
     0
 98
        1
 10
-28.182772630023
 20
-32.9923404580304
  0
LWPOLYLINE
  5
714CD
330
714C9
100
AcDbEntity
  8
0
 62
    22
100
AcDbPolyline
 90
        4
 70
     1
 43
0.0
 10
0.0262955969727301
 20
-0.0287577800528069
 10
1.307151517972869
 20
-0.0287577800528069
 10
1.307151517972869
 20
-1.731261997456265
 10
0.0262955969727301
 20
-1.731261997456265
  0
LINE
  5
714CE
330
714C9
100
AcDbEntity
  8
0
 62
    22
100
AcDbLine
 10
0.0262955969727443
 20
-1.4112176328236
 30
0.0
 11
1.307151517972869
 21
-1.4112176328236
 31
0.0
  0
ATTDEF
  5
714CF
330
714C9
100
AcDbEntity
  8
A1
 62
    22
100
AcDbText
 10
0.6781304052809105
 20
-1.678298248906529
 30
0.0
 40
0.2126953125
  1

 72
     1
 11
0.6781304052809105
 21
-1.678298248906529
 31
0.0
100
AcDbAttributeDefinition
  3
ADD STONE MARKER
  2
XXXX
 70
     0
  0
LINE
  5
714D0
330
714C9
100
AcDbEntity
  8
0
 62
    22
100
AcDbLine
 10
0.7464576960363587
 20
-1.129021462591367
 30
0.0
 11
0.74595166367655
 21
-1.12746688439163
 31
0.0
  0
ARC
  5
714D1
330
714C9
100
AcDbEntity
  8
0
 62
    22
100
AcDbCircle
 10
0.8421255873066684
 20
-1.127299146756172
 30
0.0
 40
0.0956833935014068
100
AcDbArc
 50
181.0313885659746
 51
269.7936990713142
  0
LINE
  5
714D2
330
714C9
100
AcDbEntity
  8
0
 62
    22
100
AcDbLine
 10
0.9011069318936506
 20
-1.22315027789304
 30
0.0
 11
0.841781067510368
 21
-1.22315027789304
 31
0.0
  0
LINE
  5
714D3
330
714C9
100
AcDbEntity
  8
0
 62
    22
100
AcDbLine
 10
0.9011069318936506
 20
-1.256144598615648
 30
0.0
 11
0.9011069318936506
 21
-1.22315027789304
 31
0.0
  0
ARC
  5
714D4
330
714C9
100
AcDbEntity
  8
0
 62
    22
100
AcDbCircle
 10
0.4880203611777887
 20
-1.127299146756172
 30
0.0
 40
0.0956833935014068
100
AcDbArc
 50
270.2063009286848
 51
358.9686114340253
  0
LINE
  5
714D5
330
714C9
100
AcDbEntity
  8
0
 62
    22
100
AcDbLine
 10
0.4290390165908207
 20
-1.256144598615648
 30
0.0
 11
0.4290390165908207
 21
-1.22315027789304
 31
0.0
  0
LINE
  5
714D6
330
714C9
100
AcDbEntity
  8
0
 62
    22
100
AcDbLine
 10
0.4290390165908207
 20
-1.22315027789304
 30
0.0
 11
0.4883648809740891
 21
-1.22315027789304
 31
0.0
  0
LINE
  5
714D7
330
714C9
100
AcDbEntity
  8
0
 62
    22
100
AcDbLine
 10
0.5836882524480984
 20
-1.129021462591367
 30
0.0
 11
0.5841942848079072
 21
-1.12746688439163
 31
0.0
  0
LINE
  5
714D8
330
714C9
100
AcDbEntity
  8
0
 62
    22
100
AcDbLine
 10
0.4290390165908207
 20
-1.256144598615648
 30
0.0
 11
0.9011069318936506
 21
-1.256144598615648
 31
0.0
  0
LINE
  5
714D9
330
714C9
100
AcDbEntity
  8
0
 62
    22
100
AcDbLine
 10
1.085512597630156
 20
-0.415894330395318
 30
0.0
 11
1.085512597630156
 21
-0.4280723832374847
 31
0.0
  0
ARC
  5
714DA
330
714C9
100
AcDbEntity
  8
0
 62
    22
100
AcDbCircle
 10
0.9138550451562537
 20
-0.4147906495365632
 30
0.0
 40
0.1716611005230106
100
AcDbArc
 50
359.6316189828552
 51
90.00081606717127
  0
ARC
  5
714DB
330
714C9
100
AcDbEntity
  8
0
 62
    22
100
AcDbCircle
 10
0.9180888683309831
 20
-0.4147906495365632
 30
0.0
 40
0.1716611005230106
100
AcDbArc
 50
89.99918393282873
 51
180.3683810171443
  0
LINE
  5
714DC
330
714C9
100
AcDbEntity
  8
0
 62
    22
100
AcDbLine
 10
0.2078601968792952
 20
-0.427988377825578
 30
0.0
 11
0.2441732502230991
 21
-0.427988377825578
 31
0.0
  0
LINE
  5
714DD
330
714C9
100
AcDbEntity
  8
0
 62
    22
100
AcDbLine
 10
0.2446333508543006
 20
-0.415894330395318
 30
0.0
 11
0.2446333508543006
 21
-0.4280723832374847
 31
0.0
  0
ARC
  5
714DE
330
714C9
100
AcDbEntity
  8
0
 62
    22
100
AcDbCircle
 10
0.4162909033282176
 20
-0.4147906495365632
 30
0.0
 40
0.1716611005230106
100
AcDbArc
 50
89.99918393282873
 51
180.3683810171443
  0
LINE
  5
714DF
330
714C9
100
AcDbEntity
  8
0
 62
    22
100
AcDbLine
 10
0.2144627520724782
 20
-0.1706330859717156
 30
0.0
 11
0.2078601968792952
 21
-0.427988377825578
 31
0.0
  0
ARC
  5
714E0
330
714C9
100
AcDbEntity
  8
0
 62
    22
100
AcDbCircle
 10
0.4120570801534882
 20
-0.4147906495365632
 30
0.0
 40
0.1716611005230106
100
AcDbArc
 50
359.6316189828552
 51
90.00081606717127
  0
LWPOLYLINE
  5
714E1
330
714C9
100
AcDbEntity
  8
0
 62
    22
100
AcDbPolyline
 90
        4
 70
     0
 43
0.0
 10
0.224366029185191
 20
-0.1706330859717084
 10
1.115683196411978
 20
-0.1706330859717084
 10
1.122285751605161
 20
-0.427988377825578
 10
1.085972698261358
 20
-0.427988377825578
  0
ENDBLK
  5
714E3
330
714C9
100
AcDbEntity
  8
0
 62
     7
100
AcDbBlockEnd
  0
BLOCK
  5
714EC
330
714E4
100
AcDbEntity
  8
0
 62
     7
100
AcDbBlockBegin
  2
LINK FLAG
 70
     2
 10
0.0
 20
0.0
 30
0.0
  3
LINK FLAG
  1

  0
SOLID
  5
714E5
330
714E4
100
AcDbEntity
  8
A1
 62
     1
100
AcDbTrace
 10
0.408488260029003
 20
0.3001362788183428
 30
0.0
 11
0.2890663177079773
 21
0.4163953751078396
 31
0.0
 12
0.0
 22
0.0
 32
0.0
 13
0.0
 23
0.0
 33
0.0
  0
LINE
  5
714E6
330
714E4
100
AcDbEntity
  8
A1
 62
     1
100
AcDbLine
 10
0.3487772888684901
 20
0.3582658269630912
 30
0.0
 11
4.449644902191081
 21
4.57069815453687
 31
0.0
  0
ATTDEF
  5
714E7
330
714E4
100
AcDbEntity
  8
A1
 62
     1
100
AcDbText
 10
10.75853330829194
 20
4.953467229082193
 30
0.0
 40
1.0
  1

100
AcDbAttributeDefinition
  3
ADD LINK NUMBER (WMF)
  2
XXXXXX
 70
     0
  0
MTEXT
  5
714E8
330
714E4
100
AcDbEntity
  8
0
 62
     1
100
AcDbMText
 10
10.79736583926697
 20
4.206192006567398
 30
0.0
 40
1.0
 41
0.0
 71
     1
 72
     1
  1
TannerStone
 73
     1
 44
1.0
1001
ACAD
1000
MTEXTBEGIN
1070
    73
1070
     1
1070
    44
1040
1.0
1070
    74
1070
     0
1000
MTEXTEND
  0
MTEXT
  5
714E9
330
714E4
100
AcDbEntity
  8
0
 62
     1
100
AcDbMText
 10
10.87510824661537
 20
2.68903194023958
 30
0.0
 40
0.7386749999999999
 41
0.0
 71
     1
 72
     1
  1
1-800-789-4841
 73
     1
 44
1.0
1001
ACAD
1000
MTEXTBEGIN
1070
    73
1070
     1
1070
    44
1040
1.0
1070
    74
1070
     0
1000
MTEXTEND
  0
LINE
  5
714EA
330
714E4
100
AcDbEntity
  8
0
 62
     1
100
AcDbLine
 10
4.449644902191081
 20
4.57069815453687
 30
0.0
 11
19.37910172053511
 21
4.57069815453687
 31
0.0
  0
LINE
  5
714EB
330
714E4
100
AcDbEntity
  8
0
 62
     1
100
AcDbLine
 10
10.27170295921419
 20
1.582920602761227
 30
0.0
 11
10.27170295921419
 21
6.137374365587334
 31
0.0
  0
ENDBLK
  5
714ED
330
714E4
100
AcDbEntity
  8
0
 62
     7
100
AcDbBlockEnd
  0
BLOCK
  5
72148
330
7213E
100
AcDbEntity
  8
0
 62
     7
100
AcDbBlockBegin
  2
*D2
 70
     1
 10
0.0
 20
0.0
 30
0.0
  3
*D2
  1

  0
LINE
  5
72353
330
7213E
100
AcDbEntity
  8
LINEWORK
 62
     0
100
AcDbLine
 10
266.8308789715259
 20
341.0151581903173
 30
0.0
 11
266.8308789715259
 21
337.4400266103728
 31
0.0
  0
LINE
  5
72354
330
7213E
100
AcDbEntity
  8
LINEWORK
 62
     0
100
AcDbLine
 10
274.4558789715259
 20
341.0151581903173
 30
0.0
 11
274.4558789715259
 21
337.4400266103728
 31
0.0
  0
LINE
  5
72355
330
7213E
100
AcDbEntity
  8
LINEWORK
 62
     0
100
AcDbLine
 10
267.180878971526
 20
337.6150266103728
 30
0.0
 11
268.6212185918999
 21
337.6150266103728
 31
0.0
  0
LINE
  5
72356
330
7213E
100
AcDbEntity
  8
LINEWORK
 62
     0
100
AcDbLine
 10
274.1058789715259
 20
337.6150266103728
 30
0.0
 11
272.504209378576
 21
337.6150266103728
 31
0.0
  0
MTEXT
  5
72357
330
7213E
100
AcDbEntity
  8
LINEWORK
 62
     0
100
AcDbMText
 10
270.5627139852379
 20
337.6150266103728
 30
0.0
 40
0.7
 41
0.0
 71
     5
 72
     1
  1
\A1;7 5/8"
 73
     1
 44
1.0
  0
SOLID
  5
72358
330
7213E
100
AcDbEntity
  8
LINEWORK
 62
     0
100
AcDbTrace
 10
267.180878971526
 20
337.6733599437061
 30
0.0
 11
267.180878971526
 21
337.5566932770395
 31
0.0
 12
266.8308789715259
 22
337.6150266103728
 32
0.0
 13
266.8308789715259
 23
337.6150266103728
 33
0.0
  0
SOLID
  5
72359
330
7213E
100
AcDbEntity
  8
LINEWORK
 62
     0
100
AcDbTrace
 10
274.1058789715259
 20
337.6733599437061
 30
0.0
 11
274.1058789715259
 21
337.5566932770395
 31
0.0
 12
274.4558789715259
 22
337.6150266103728
 32
0.0
 13
274.4558789715259
 23
337.6150266103728
 33
0.0
  0
POINT
  5
7235A
330
7213E
100
AcDbEntity
  8
DEFPOINTS
 62
     0
100
AcDbPoint
 10
266.8308789715259
 20
341.7151581903173
 30
0.0
  0
POINT
  5
7235B
330
7213E
100
AcDbEntity
  8
DEFPOINTS
 62
     0
100
AcDbPoint
 10
274.4558789715259
 20
341.7151581903173
 30
0.0
  0
POINT
  5
7235C
330
7213E
100
AcDbEntity
  8
DEFPOINTS
 62
     0
100
AcDbPoint
 10
274.4558789715259
 20
337.6150266103728
 30
0.0
  0
ENDBLK
  5
72149
330
7213E
100
AcDbEntity
  8
0
 62
     7
100
AcDbBlockEnd
  0
BLOCK
  5
72160
330
72156
100
AcDbEntity
  8
0
 62
     7
100
AcDbBlockBegin
  2
*D3
 70
     1
 10
0.0
 20
0.0
 30
0.0
  3
*D3
  1

  0
LINE
  5
7235D
330
72156
100
AcDbEntity
  8
LINEWORK
 62
     0
100
AcDbLine
 10
276.1849016111437
 20
341.7151581903173
 30
0.0
 11
278.7043288318188
 21
341.7151581903173
 31
0.0
  0
LINE
  5
7235E
330
72156
100
AcDbEntity
  8
LINEWORK
 62
     0
100
AcDbLine
 10
276.1849016111437
 20
349.3401581903173
 30
0.0
 11
278.7043288318188
 21
349.3401581903173
 31
0.0
  0
LINE
  5
7235F
330
72156
100
AcDbEntity
  8
LINEWORK
 62
     0
100
AcDbLine
 10
278.5293288318188
 20
342.0651581903173
 30
0.0
 11
278.5293288318188
 21
344.796155709807
 31
0.0
  0
LINE
  5
72360
330
72156
100
AcDbEntity
  8
LINEWORK
 62
     0
100
AcDbLine
 10
278.5293288318188
 20
348.9901581903172
 30
0.0
 11
278.5293288318188
 21
346.2591606708276
 31
0.0
  0
SOLID
  5
72361
330
72156
100
AcDbEntity
  8
LINEWORK
 62
     0
100
AcDbTrace
 10
278.4709954984854
 20
342.0651581903173
 30
0.0
 11
278.5876621651521
 21
342.0651581903173
 31
0.0
 12
278.5293288318188
 22
341.7151581903173
 32
0.0
 13
278.5293288318188
 23
341.7151581903173
 33
0.0
  0
SOLID
  5
72362
330
72156
100
AcDbEntity
  8
LINEWORK
 62
     0
100
AcDbTrace
 10
278.4709954984854
 20
348.9901581903172
 30
0.0
 11
278.5876621651521
 21
348.9901581903172
 31
0.0
 12
278.5293288318188
 22
349.3401581903173
 32
0.0
 13
278.5293288318188
 23
349.3401581903173
 33
0.0
  0
MTEXT
  5
72363
330
72156
100
AcDbEntity
  8
LINEWORK
 62
     0
100
AcDbMText
 10
278.5293288318187
 20
345.5276581903173
 30
0.0
 40
0.7
 41
0.0
 71
     5
 72
     1
  1
\A1;7 5/8"
 73
     1
 44
1.0
  0
POINT
  5
72364
330
72156
100
AcDbEntity
  8
DEFPOINTS
 62
     0
100
AcDbPoint
 10
275.4849016111437
 20
341.7151581903173
 30
0.0
  0
POINT
  5
72365
330
72156
100
AcDbEntity
  8
DEFPOINTS
 62
     0
100
AcDbPoint
 10
275.4849016111437
 20
349.3401581903173
 30
0.0
  0
POINT
  5
72366
330
72156
100
AcDbEntity
  8
DEFPOINTS
 62
     0
100
AcDbPoint
 10
278.5293288318188
 20
349.3401581903173
 30
0.0
  0
ENDBLK
  5
72161
330
72156
100
AcDbEntity
  8
0
 62
     7
100
AcDbBlockEnd
  0
BLOCK
  5
721C7
330
721BC
100
AcDbEntity
  8
0
 62
     7
100
AcDbBlockBegin
  2
*D4
 70
     1
 10
0.0
 20
0.0
 30
0.0
  3
*D4
  1

  0
LINE
  5
72367
330
721BC
100
AcDbEntity
  8
LINEWORK
 62
     0
100
AcDbLine
 10
268.7686813774293
 20
344.7939843029789
 30
0.0
 11
268.7686813774293
 21
339.4978877872768
 31
0.0
  0
LINE
  5
72368
330
721BC
100
AcDbEntity
  8
LINEWORK
 62
     0
100
AcDbLine
 10
272.5180764883148
 20
344.7939799993649
 30
0.0
 11
272.5180764883148
 21
339.4978877872768
 31
0.0
  0
LINE
  5
72369
330
721BC
100
AcDbEntity
  8
LINEWORK
 62
     0
100
AcDbLine
 10
269.1186813774294
 20
339.6728877872768
 30
0.0
 11
272.1680764883148
 21
339.6728877872768
 31
0.0
  0
MTEXT
  5
7236A
330
721BC
100
AcDbEntity
  8
LINEWORK
 62
     0
100
AcDbMText
 10
270.9383137900201
 20
339.6728877872768
 30
0.0
 40
0.7
 41
0.0
 71
     5
 72
     1
  1
\A1;\P%%c3 3/4"
 73
     1
 44
1.0
  0
SOLID
  5
7236B
330
721BC
100
AcDbEntity
  8
LINEWORK
 62
     0
100
AcDbTrace
 10
269.1186813774294
 20
339.7312211206102
 30
0.0
 11
269.1186813774294
 21
339.6145544539435
 31
0.0
 12
268.7686813774293
 22
339.6728877872768
 32
0.0
 13
268.7686813774293
 23
339.6728877872768
 33
0.0
  0
SOLID
  5
7236C
330
721BC
100
AcDbEntity
  8
LINEWORK
 62
     0
100
AcDbTrace
 10
272.1680764883148
 20
339.7312211206102
 30
0.0
 11
272.1680764883148
 21
339.6145544539435
 31
0.0
 12
272.5180764883148
 22
339.6728877872768
 32
0.0
 13
272.5180764883148
 23
339.6728877872768
 33
0.0
  0
POINT
  5
7236D
330
721BC
100
AcDbEntity
  8
DEFPOINTS
 62
     0
100
AcDbPoint
 10
268.7686813774293
 20
345.4939843029789
 30
0.0
  0
POINT
  5
7236E
330
721BC
100
AcDbEntity
  8
DEFPOINTS
 62
     0
100
AcDbPoint
 10
272.5180764883148
 20
345.4939799993649
 30
0.0
  0
POINT
  5
7236F
330
721BC
100
AcDbEntity
  8
DEFPOINTS
 62
     0
100
AcDbPoint
 10
272.5180764883148
 20
339.6728877872768
 30
0.0
  0
ENDBLK
  5
721C8
330
721BC
100
AcDbEntity
  8
0
 62
     7
100
AcDbBlockEnd
  0
BLOCK
  5
721EB
330
721DE
100
AcDbEntity
  8
0
 62
     7
100
AcDbBlockBegin
  2
*D5
 70
     1
 10
0.0
 20
0.0
 30
0.0
  3
*D5
  1

  0
LINE
  5
72370
330
721DE
100
AcDbEntity
  8
LINEWORK
 62
     0
100
AcDbLine
 10
268.9558841583386
 20
346.2318421437062
 30
0.0
 11
268.9558841583386
 21
353.4142863833046
 31
0.0
  0
LINE
  5
72371
330
721DE
100
AcDbEntity
  8
LINEWORK
 62
     0
100
AcDbLine
 10
272.3308789715259
 20
346.2276581903172
 30
0.0
 11
272.3308789715259
 21
353.4142863833046
 31
0.0
  0
LINE
  5
72372
330
721DE
100
AcDbEntity
  8
LINEWORK
 62
     0
100
AcDbLine
 10
268.6058841583386
 20
353.2392863833046
 30
0.0
 11
268.2558841583386
 21
353.2392863833046
 31
0.0
  0
LINE
  5
72373
330
721DE
100
AcDbEntity
  8
LINEWORK
 62
     0
100
AcDbLine
 10
272.6808789715259
 20
353.2392863833046
 30
0.0
 11
273.0308789715259
 21
353.2392863833046
 31
0.0
  0
LINE
  5
72374
330
721DE
100
AcDbEntity
  8
LINEWORK
 62
     0
100
AcDbLine
 10
266.4393948225228
 20
353.2392863833046
 30
0.0
 11
268.9558841583386
 21
353.2392863833046
 31
0.0
  0
MTEXT
  5
72375
330
721DE
100
AcDbEntity
  8
LINEWORK
 62
     0
100
AcDbMText
 10
264.1322722144433
 20
353.2392863833046
 30
0.0
 40
0.7
 41
0.0
 71
     5
 72
     1
  1
\A1;%%c3 3/8"
 73
     1
 44
1.0
  0
LINE
  5
72376
330
721DE
100
AcDbEntity
  8
LINEWORK
 62
     0
100
AcDbLine
 10
268.9558841583386
 20
353.2392863833046
 30
0.0
 11
272.3308789715259
 21
353.2392863833046
 31
0.0
  0
SOLID
  5
72377
330
721DE
100
AcDbEntity
  8
LINEWORK
 62
     0
100
AcDbTrace
 10
268.6058841583386
 20
353.2976197166379
 30
0.0
 11
268.6058841583386
 21
353.1809530499712
 31
0.0
 12
268.9558841583386
 22
353.2392863833046
 32
0.0
 13
268.9558841583386
 23
353.2392863833046
 33
0.0
  0
SOLID
  5
72378
330
721DE
100
AcDbEntity
  8
LINEWORK
 62
     0
100
AcDbTrace
 10
272.6808789715259
 20
353.2976197166379
 30
0.0
 11
272.6808789715259
 21
353.1809530499712
 31
0.0
 12
272.3308789715259
 22
353.2392863833046
 32
0.0
 13
272.3308789715259
 23
353.2392863833046
 33
0.0
  0
POINT
  5
72379
330
721DE
100
AcDbEntity
  8
DEFPOINTS
 62
     0
100
AcDbPoint
 10
268.9558841583386
 20
345.5318421437063
 30
0.0
  0
POINT
  5
7237A
330
721DE
100
AcDbEntity
  8
DEFPOINTS
 62
     0
100
AcDbPoint
 10
272.3308789715259
 20
345.5276581903173
 30
0.0
  0
POINT
  5
7237B
330
721DE
100
AcDbEntity
  8
DEFPOINTS
 62
     0
100
AcDbPoint
 10
272.3308789715259
 20
353.2392863833046
 30
0.0
  0
ENDBLK
  5
721EC
330
721DE
100
AcDbEntity
  8
0
 62
     7
100
AcDbBlockEnd
  0
BLOCK
  5
721FB
330
721EE
100
AcDbEntity
  8
0
 62
     7
100
AcDbBlockBegin
  2
*D6
 70
     1
 10
0.0
 20
0.0
 30
0.0
  3
*D6
  1

  0
LINE
  5
7237C
330
721EE
100
AcDbEntity
  8
LINEWORK
 62
     0
100
AcDbLine
 10
269.268378971526
 20
346.2276581903172
 30
0.0
 11
269.268378971526
 21
351.8413704046913
 31
0.0
  0
LINE
  5
7237D
330
721EE
100
AcDbEntity
  8
LINEWORK
 62
     0
100
AcDbLine
 10
272.0183789715259
 20
346.2276581903172
 30
0.0
 11
272.0183789715259
 21
351.8413704046913
 31
0.0
  0
LINE
  5
7237E
330
721EE
100
AcDbEntity
  8
LINEWORK
 62
     0
100
AcDbLine
 10
268.9183789715259
 20
351.6663704046913
 30
0.0
 11
268.5683789715259
 21
351.6663704046913
 31
0.0
  0
LINE
  5
7237F
330
721EE
100
AcDbEntity
  8
LINEWORK
 62
     0
100
AcDbLine
 10
272.368378971526
 20
351.6663704046913
 30
0.0
 11
272.7183789715259
 21
351.6663704046913
 31
0.0
  0
LINE
  5
72380
330
721EE
100
AcDbEntity
  8
LINEWORK
 62
     0
100
AcDbLine
 10
266.3936040833582
 20
351.6663704046913
 30
0.0
 11
269.268378971526
 21
351.6663704046913
 31
0.0
  0
MTEXT
  5
72381
330
721EE
100
AcDbEntity
  8
LINEWORK
 62
     0
100
AcDbMText
 10
264.0929308019975
 20
351.6663704046913
 30
0.0
 40
0.7
 41
0.0
 71
     5
 72
     1
  1
\A1;%%c2 3/4"
 73
     1
 44
1.0
  0
LINE
  5
72382
330
721EE
100
AcDbEntity
  8
LINEWORK
 62
     0
100
AcDbLine
 10
269.268378971526
 20
351.6663704046913
 30
0.0
 11
272.0183789715259
 21
351.6663704046913
 31
0.0
  0
SOLID
  5
72383
330
721EE
100
AcDbEntity
  8
LINEWORK
 62
     0
100
AcDbTrace
 10
268.9183789715259
 20
351.7247037380246
 30
0.0
 11
268.9183789715259
 21
351.6080370713579
 31
0.0
 12
269.268378971526
 22
351.6663704046913
 32
0.0
 13
269.268378971526
 23
351.6663704046913
 33
0.0
  0
SOLID
  5
72384
330
721EE
100
AcDbEntity
  8
LINEWORK
 62
     0
100
AcDbTrace
 10
272.368378971526
 20
351.7247037380246
 30
0.0
 11
272.368378971526
 21
351.6080370713579
 31
0.0
 12
272.0183789715259
 22
351.6663704046913
 32
0.0
 13
272.0183789715259
 23
351.6663704046913
 33
0.0
  0
POINT
  5
72385
330
721EE
100
AcDbEntity
  8
DEFPOINTS
 62
     0
100
AcDbPoint
 10
269.268378971526
 20
345.5276581903173
 30
0.0
  0
POINT
  5
72386
330
721EE
100
AcDbEntity
  8
DEFPOINTS
 62
     0
100
AcDbPoint
 10
272.0183789715259
 20
345.5276581903173
 30
0.0
  0
POINT
  5
72387
330
721EE
100
AcDbEntity
  8
DEFPOINTS
 62
     0
100
AcDbPoint
 10
272.0183789715259
 20
351.6663704046913
 30
0.0
  0
ENDBLK
  5
721FC
330
721EE
100
AcDbEntity
  8
0
 62
     7
100
AcDbBlockEnd
  0
BLOCK
  5
7220B
330
721FE
100
AcDbEntity
  8
0
 62
     7
100
AcDbBlockBegin
  2
*D7
 70
     1
 10
0.0
 20
0.0
 30
0.0
  3
*D7
  1

  0
LINE
  5
72388
330
721FE
100
AcDbEntity
  8
LINEWORK
 62
     0
100
AcDbLine
 10
270.9558789715259
 20
346.2276581903174
 30
0.0
 11
270.9558789715259
 21
350.1898091482116
 31
0.0
  0
LINE
  5
72389
330
721FE
100
AcDbEntity
  8
LINEWORK
 62
     0
100
AcDbLine
 10
270.3308789715259
 20
346.2276581903172
 30
0.0
 11
270.3308789715259
 21
350.1898091482116
 31
0.0
  0
LINE
  5
7238A
330
721FE
100
AcDbEntity
  8
LINEWORK
 62
     0
100
AcDbLine
 10
271.305878971526
 20
350.0148091482116
 30
0.0
 11
271.6558789715259
 21
350.0148091482116
 31
0.0
  0
LINE
  5
7238B
330
721FE
100
AcDbEntity
  8
LINEWORK
 62
     0
100
AcDbLine
 10
269.9808789715259
 20
350.0148091482116
 30
0.0
 11
269.630878971526
 21
350.0148091482116
 31
0.0
  0
LINE
  5
7238C
330
721FE
100
AcDbEntity
  8
LINEWORK
 62
     0
100
AcDbLine
 10
266.4544811256492
 20
350.0148091482116
 30
0.0
 11
270.3308789715259
 21
350.0148091482116
 31
0.0
  0
MTEXT
  5
7238D
330
721FE
100
AcDbEntity
  8
LINEWORK
 62
     0
100
AcDbMText
 10
264.6437086238774
 20
350.0148091482116
 30
0.0
 40
0.7
 41
0.0
 71
     5
 72
     1
  1
\A1;%%c5/8"
 73
     1
 44
1.0
  0
LINE
  5
7238E
330
721FE
100
AcDbEntity
  8
LINEWORK
 62
     0
100
AcDbLine
 10
270.9558789715259
 20
350.0148091482116
 30
0.0
 11
270.3308789715259
 21
350.0148091482116
 31
0.0
  0
SOLID
  5
7238F
330
721FE
100
AcDbEntity
  8
LINEWORK
 62
     0
100
AcDbTrace
 10
271.305878971526
 20
350.0731424815449
 30
0.0
 11
271.305878971526
 21
349.9564758148782
 31
0.0
 12
270.9558789715259
 22
350.0148091482116
 32
0.0
 13
270.9558789715259
 23
350.0148091482116
 33
0.0
  0
SOLID
  5
72390
330
721FE
100
AcDbEntity
  8
LINEWORK
 62
     0
100
AcDbTrace
 10
269.9808789715259
 20
350.0731424815449
 30
0.0
 11
269.9808789715259
 21
349.9564758148782
 31
0.0
 12
270.3308789715259
 22
350.0148091482116
 32
0.0
 13
270.3308789715259
 23
350.0148091482116
 33
0.0
  0
POINT
  5
72391
330
721FE
100
AcDbEntity
  8
DEFPOINTS
 62
     0
100
AcDbPoint
 10
270.9558789715259
 20
345.5276581903174
 30
0.0
  0
POINT
  5
72392
330
721FE
100
AcDbEntity
  8
DEFPOINTS
 62
     0
100
AcDbPoint
 10
270.3308789715259
 20
345.5276581903173
 30
0.0
  0
POINT
  5
72393
330
721FE
100
AcDbEntity
  8
DEFPOINTS
 62
     0
100
AcDbPoint
 10
270.3308789715259
 20
350.0148091482116
 30
0.0
  0
ENDBLK
  5
7220C
330
721FE
100
AcDbEntity
  8
0
 62
     7
100
AcDbBlockEnd
  0
BLOCK
  5
72274
330
72267
100
AcDbEntity
  8
0
 62
     7
100
AcDbBlockBegin
  2
*D8
 70
     1
 10
0.0
 20
0.0
 30
0.0
  3
*D8
  1

  0
LINE
  5
72394
330
72267
100
AcDbEntity
  8
LINEWORK
 62
     0
100
AcDbLine
 10
282.0929927940794
 20
341.0151581903173
 30
0.0
 11
282.0929927940794
 21
339.0653360494774
 31
0.0
  0
LINE
  5
72395
330
72267
100
AcDbEntity
  8
LINEWORK
 62
     0
100
AcDbLine
 10
285.7179927940794
 20
341.0151581903173
 30
0.0
 11
285.7179927940794
 21
339.0653360494774
 31
0.0
  0
LINE
  5
72396
330
72267
100
AcDbEntity
  8
LINEWORK
 62
     0
100
AcDbLine
 10
281.7429927940794
 20
339.2403360494775
 30
0.0
 11
281.3929927940794
 21
339.2403360494775
 31
0.0
  0
LINE
  5
72397
330
72267
100
AcDbEntity
  8
LINEWORK
 62
     0
100
AcDbLine
 10
286.0679927940795
 20
339.2403360494775
 30
0.0
 11
286.4179927940794
 21
339.2403360494775
 31
0.0
  0
LINE
  5
72398
330
72267
100
AcDbEntity
  8
LINEWORK
 62
     0
100
AcDbLine
 10
286.8075060693673
 20
339.2403360494775
 30
0.0
 11
285.7179927940794
 21
339.2403360494775
 31
0.0
  0
MTEXT
  5
72399
330
72267
100
AcDbEntity
  8
LINEWORK
 62
     0
100
AcDbMText
 10
288.7599157079216
 20
339.2403360494775
 30
0.0
 40
0.7
 41
0.0
 71
     5
 72
     1
  1
\A1;3 5/8"
 73
     1
 44
1.0
  0
LINE
  5
7239A
330
72267
100
AcDbEntity
  8
LINEWORK
 62
     0
100
AcDbLine
 10
282.0929927940794
 20
339.2403360494775
 30
0.0
 11
285.7179927940794
 21
339.2403360494775
 31
0.0
  0
SOLID
  5
7239B
330
72267
100
AcDbEntity
  8
LINEWORK
 62
     0
100
AcDbTrace
 10
281.7429927940794
 20
339.2986693828108
 30
0.0
 11
281.7429927940794
 21
339.1820027161441
 31
0.0
 12
282.0929927940794
 22
339.2403360494775
 32
0.0
 13
282.0929927940794
 23
339.2403360494775
 33
0.0
  0
SOLID
  5
7239C
330
72267
100
AcDbEntity
  8
LINEWORK
 62
     0
100
AcDbTrace
 10
286.0679927940795
 20
339.2986693828108
 30
0.0
 11
286.0679927940795
 21
339.1820027161441
 31
0.0
 12
285.7179927940794
 22
339.2403360494775
 32
0.0
 13
285.7179927940794
 23
339.2403360494775
 33
0.0
  0
POINT
  5
7239D
330
72267
100
AcDbEntity
  8
DEFPOINTS
 62
     0
100
AcDbPoint
 10
282.0929927940794
 20
341.7151581903173
 30
0.0
  0
POINT
  5
7239E
330
72267
100
AcDbEntity
  8
DEFPOINTS
 62
     0
100
AcDbPoint
 10
285.7179927940794
 20
341.7151581903173
 30
0.0
  0
POINT
  5
7239F
330
72267
100
AcDbEntity
  8
DEFPOINTS
 62
     0
100
AcDbPoint
 10
285.7179927940794
 20
339.2403360494775
 30
0.0
  0
ENDBLK
  5
72275
330
72267
100
AcDbEntity
  8
0
 62
     7
100
AcDbBlockEnd
  0
BLOCK
  5
722FF
330
722D3
100
AcDbEntity
  8
0
 62
     7
100
AcDbBlockBegin
  2
TSFORMB
 70
     2
 10
0.0
 20
0.0
 30
0.0
  3
TSFORMB
  1

  0
LINE
  5
722D4
330
722D3
100
AcDbEntity
  8
0
100
AcDbLine
 10
105.9925392881563
 20
78.84810849484797
 30
0.0
 11
105.9925392881563
 21
70.31072004936999
 31
0.0
  0
LINE
  5
722D5
330
722D3
100
AcDbEntity
  8
0
100
AcDbLine
 10
105.9925392881563
 20
0.0
 30
0.0
 11
105.9925392881563
 21
78.84810849484797
 31
0.0
  0
LINE
  5
722D6
330
722D3
100
AcDbEntity
  8
0
100
AcDbLine
 10
0.0
 20
0.0
 30
0.0
 11
105.9925392881563
 21
0.0
 31
0.0
  0
LINE
  5
722D7
330
722D3
100
AcDbEntity
  8
0
100
AcDbLine
 10
0.0
 20
78.84810849484797
 30
0.0
 11
0.0
 21
0.0
 31
0.0
  0
LINE
  5
722D8
330
722D3
100
AcDbEntity
  8
0
100
AcDbLine
 10
56.87404547169354
 20
0.0
 30
0.0
 11
56.87404547169354
 21
12.46470592426129
 31
0.0
  0
TEXT
  5
722D9
330
722D3
100
AcDbEntity
  8
0
 62
     7
100
AcDbText
 10
39.28098221173831
 20
10.97304845086642
 30
0.0
 40
0.8085000000000002
  1
LEGEND
100
AcDbText
  0
TEXT
  5
722DA
330
722D3
100
AcDbEntity
  8
0
 62
     7
100
AcDbText
 10
38.18320344075362
 20
3.401999220949562
 30
0.0
 40
0.8400000000000002
  1
CATEGORY
 72
     1
 11
41.47652732452399
 21
3.401999220949562
 31
0.0
100
AcDbText
  0
LINE
  5
722DB
330
722D3
100
AcDbEntity
  8
0
 62
     7
100
AcDbLine
 10
26.78791925899645
 20
8.549200111339303
 30
0.0
 11
29.32320076794366
 21
8.549200111339303
 31
0.0
  0
TEXT
  5
722DC
330
722D3
100
AcDbEntity
  8
0
 62
     7
100
AcDbText
 10
30.56536100380196
 20
8.165961840384341
 30
0.0
 40
1.05
  1
- Unfinished Side
100
AcDbText
  0
LINE
  5
722DD
330
722D3
100
AcDbEntity
  8
0
100
AcDbLine
 10
25.9704997615305
 20
0.0
 30
0.0
 11
25.9704997615305
 21
12.46470592426129
 31
0.0
  0
ATTDEF
  5
722DE
330
722D3
100
AcDbEntity
  8
A1
 62
     1
100
AcDbText
 10
41.26016333205519
 20
0.916484150045278
 30
0.0
 40
1.025589599999999
  1

 72
     1
 11
41.26016333205519
 21
0.916484150045278
 31
0.0
100
AcDbAttributeDefinition
  3
ADD CATEGORY NAMES
  2
XXXXXX
 70
     0
  0
ATTDEF
  5
722DF
330
722D3
100
AcDbEntity
  8
A1
 62
     1
100
AcDbText
 10
21.55372231158242
 20
1.875018704105684
 30
0.0
 40
0.8400000000000002
  1

 72
     2
 11
21.55372231158242
 21
1.875018704105684
 31
0.0
100
AcDbAttributeDefinition
  3
ADD BARCODE TEXT
  2
XXXXXX
 70
     0
  0
LINE
  5
722E0
330
722D3
100
AcDbEntity
  8
0
 62
     7
100
AcDbLine
 10
25.9704997615305
 20
12.46470592426129
 30
0.0
 11
0.0
 21
12.46470592426129
 31
0.0
  0
ATTDEF
  5
722E1
330
722D3
100
AcDbEntity
  8
A1
 62
     1
100
AcDbText
 10
12.85191920549937
 20
3.11796280247222
 30
0.0
 40
6.132000000000001
  1

  7
barcoder
 72
     1
 11
12.85191920549937
 21
3.11796280247222
 31
0.0
100
AcDbAttributeDefinition
  3
ADD BARCODE NUMBER
  2
BARCODE
 70
     0
  0
LINE
  5
722E2
330
722D3
100
AcDbEntity
  8
0
 62
     7
100
AcDbLine
 10
56.87404547169354
 20
10.31505184057846
 30
0.0
 11
25.9704997615305
 21
10.31505184057846
 31
0.0
  0
LINE
  5
722E3
330
722D3
100
AcDbEntity
  8
0
 62
     7
100
AcDbLine
 10
56.87404547169354
 20
2.864660228904256
 30
0.0
 11
25.9704997615305
 21
2.864660228904256
 31
0.0
  0
LINE
  5
722E4
330
722D3
100
AcDbEntity
  8
0
 62
     7
100
AcDbLine
 10
56.87404547169354
 20
4.753491724833224
 30
0.0
 11
25.9704997615305
 21
4.753491724833224
 31
0.0
  0
LINE
  5
722E5
330
722D3
100
AcDbEntity
  8
0
100
AcDbLine
 10
92.45878286761296
 20
70.31072004936999
 30
0.0
 11
92.45878286761296
 21
78.84810849484797
 31
0.0
  0
ATTDEF
  5
722E6
330
722D3
100
AcDbEntity
  8
A1
 62
     1
100
AcDbText
 10
99.20289126219257
 20
73.40001633244828
 30
0.0
 40
2.079
  1

 72
     1
 11
99.20289126219257
 21
73.40001633244828
 31
0.0
100
AcDbAttributeDefinition
  3
ADD PAGE NUMBER
  2
TS00XX
 70
     0
  0
LINE
  5
722E7
330
722D3
100
AcDbEntity
  8
0
100
AcDbLine
 10
105.9925392881563
 20
70.31072004936999
 30
0.0
 11
92.45878286761296
 21
70.31072004936999
 31
0.0
  0
LINE
  5
722E8
330
722D3
100
AcDbEntity
  8
0
100
AcDbLine
 10
105.9925392881563
 20
78.84810849484797
 30
0.0
 11
0.0
 21
78.84810849484797
 31
0.0
  0
TEXT
  5
722E9
330
722D3
100
AcDbEntity
  8
0
 62
     7
100
AcDbText
 10
101.0916707105178
 20
4.784832420392319
 30
0.0
 40
0.8459472656250001
  1
1:1
100
AcDbText
  0
ARC
  5
722EA
330
722D3
100
AcDbEntity
  8
0
 62
     7
100
AcDbCircle
 10
92.02173719823599
 20
7.854684255185304
 30
0.0
 40
0.5838368232859321
100
AcDbArc
 50
297.5553548372056
 51
304.8408806463489
  0
LINE
  5
722EB
330
722D3
100
AcDbEntity
  8
0
 62
     7
100
AcDbLine
 10
96.44018670993672
 20
6.648784575743377
 30
0.0
 11
95.62662822118033
 21
6.648784575743377
 31
0.0
  0
ARC
  5
722EC
330
722D3
100
AcDbEntity
  8
0
 62
     7
100
AcDbCircle
 10
92.02173719823599
 20
7.854684255185304
 30
0.0
 40
0.5838368232859408
100
AcDbArc
 50
304.8408806463489
 51
297.5553548372056
  0
TEXT
  5
722ED
330
722D3
100
AcDbEntity
  8
0
 62
     7
100
AcDbText
 10
91.5997577365548
 20
7.487990433787842
 30
0.0
 40
0.7875000000000002
  1
R
  7
ROMANC
 72
     1
 11
92.02565639984959
 21
7.487990433787842
 31
0.0
100
AcDbText
  0
LINE
  5
722EE
330
722D3
100
AcDbEntity
  8
0
100
AcDbLine
 10
96.44018670993649
 20
0.0
 30
0.0
 11
96.44018670993695
 21
12.46470592426129
 31
0.0
  0
TEXT
  5
722EF
330
722D3
100
AcDbEntity
  8
0
100
AcDbText
 10
57.83820509574335
 20
4.931128255646488
 30
0.0
 40
1.111564440985976
  1
ARCHITECTURAL CONCRETE CO., INC.
 41
1.25
 72
     4
 11
76.69038922088157
 21
5.404193065577089
 31
0.0
100
AcDbText
  0
TEXT
  5
722F0
330
722D3
100
AcDbEntity
  8
0
100
AcDbText
 10
64.01730751652124
 20
0.6790765005606179
 30
0.0
 40
0.6552430415498756
  1
PHONE: 1-800-789-4841  FAX : 770-463-2635
 41
1.1875
 72
     4
 11
76.73327742292065
 21
1.005769257279496
 31
0.0
100
AcDbText
  0
TEXT
  5
722F1
330
722D3
100
AcDbEntity
  8
0
 62
     7
100
AcDbText
 10
61.23651428794109
 20
7.899354841769707
 30
0.0
 40
3.572100000000002
  1
TannerStone
  7
ROMANC
 72
     1
 11
75.92109734429948
 21
7.899354841769707
 31
0.0
100
AcDbText
  0
TEXT
  5
722F2
330
722D3
100
AcDbEntity
  8
0
100
AcDbText
 10
61.57240842020546
 20
1.964543484004154
 30
0.0
 40
0.6552430415498756
  1
http://TannerStone.com ~ Email:Sales@TannerStone.com 
 41
1.1875
 72
     4
 11
77.08342119362362
 21
2.259193880788984
 31
0.0
100
AcDbText
  0
TEXT
  5
722F3
330
722D3
100
AcDbEntity
  8
0
100
AcDbText
 10
59.98363509556096
 20
3.260563711198551
 30
0.0
 40
0.74899296216962
  1
101 JOHNSTON CIRCLE, PALMETTO, GEORGIA 30268
 41
1.1875
 72
     4
 11
76.85158629384147
 21
3.579323650094977
 31
0.0
100
AcDbText
  0
LINE
  5
722F4
330
722D3
100
AcDbEntity
  8
0
100
AcDbLine
 10
56.87404547169354
 20
6.648784575743377
 30
0.0
 11
105.9925392881563
 21
6.648784575743377
 31
0.0
  0
LINE
  5
722F5
330
722D3
100
AcDbEntity
  8
0
 62
     7
100
AcDbLine
 10
96.44018670993682
 20
9.556745250002336
 30
0.0
 11
105.9925392881563
 21
9.556745250002336
 31
0.0
  0
TEXT
  5
722F6
330
722D3
100
AcDbEntity
  8
0
 62
     7
100
AcDbText
 10
96.66995560986686
 20
8.813345575893606
 30
0.0
 40
0.5414062500000001
  1
LBS/LINEAR FEET:
100
AcDbText
  0
LINE
  5
722F7
330
722D3
100
AcDbEntity
  8
LINEWORK
 62
     7
100
AcDbLine
 10
96.40991550469017
 20
3.757904136908962
 30
0.0
 11
105.9622680829099
 21
3.757904136909189
 31
0.0
  0
TEXT
  5
722F8
330
722D3
100
AcDbEntity
  8
0
 62
     7
100
AcDbText
 10
98.85330873086445
 20
1.524519923848686
 30
0.0
 40
0.8459472656250001
  1
1-1-2000
100
AcDbText
  0
TEXT
  5
722F9
330
722D3
100
AcDbEntity
  8
0
 62
     7
100
AcDbText
 10
96.68542089784603
 20
5.927566558083469
 30
0.0
 40
0.5414062500000001
  1
SCALE:
100
AcDbText
  0
TEXT
  5
722FA
330
722D3
100
AcDbEntity
  8
0
 62
     7
100
AcDbText
 10
96.74158717246577
 20
2.97910930546476
 30
0.0
 40
0.5414062500000001
  1
DATE:
100
AcDbText
  0
TEXT
  5
722FB
330
722D3
100
AcDbEntity
  8
0
 62
     7
100
AcDbText
 10
96.70022651293084
 20
11.66518473255649
 30
0.0
 40
0.5414062500000001
  1
PROFILE AREA:
100
AcDbText
  0
ATTDEF
  5
722FC
330
722D3
100
AcDbEntity
  8
A1
 62
     1
100
AcDbText
 10
101.1759733039033
 20
10.07900441527107
 30
0.0
 40
0.9450000000000002
  1

 72
     1
 11
101.1759733039033
 21
10.07900441527107
 31
0.0
100
AcDbAttributeDefinition
  3
ADD PROFILE AREA
  2
XXXXX
 70
     0
  0
ATTDEF
  5
722FD
330
722D3
100
AcDbEntity
  8
A1
 62
     1
100
AcDbText
 10
101.1418062311347
 20
7.21953861551384
 30
0.0
 40
0.9450000000000002
  1

 72
     1
 11
101.1418062311347
 21
7.21953861551384
 31
0.0
100
AcDbAttributeDefinition
  3
ADD #/LF
  2
XXXXX
 70
     0
  0
LINE
  5
722FE
330
722D3
100
AcDbEntity
  8
0
100
AcDbLine
 10
25.9704997615305
 20
12.46470592426129
 30
0.0
 11
105.9925392881563
 21
12.46470592426129
 31
0.0
  0
ENDBLK
  5
72300
330
722D3
100
AcDbEntity
  8
0
 62
     7
100
AcDbBlockEnd
  0
ENDSEC
  0
SECTION
  2
ENTITIES
  0
LWPOLYLINE
  5
72113
330
2
100
AcDbEntity
  8
0
  6
ByBlock
100
AcDbPolyline
 90
        4
 70
     1
 43
0.12
 10
266.8308789715259
 20
341.7151581903173
 10
274.4558789715259
 20
341.7151581903173
 10
274.4558789715259
 20
349.3401581903173
 10
266.8308789715259
 20
349.3401581903173
  0
LWPOLYLINE
  5
72114
330
2
100
AcDbEntity
  8
0
  6
ByBlock
100
AcDbPolyline
 90
        2
 70
     0
 43
0.05
 10
270.3308789715259
 20
345.5276581903173
 42
1.0
 10
270.9558789715259
 20
345.5276581903173
 42
1.0
  0
LWPOLYLINE
  5
72115
330
2
100
AcDbEntity
  8
0
  6
ByBlock
100
AcDbPolyline
 90
        2
 70
     0
 43
0.05
 10
269.268378971526
 20
345.5276581903173
 42
1.0
 10
272.0183789715259
 20
345.5276581903173
 42
1.0
  0
LWPOLYLINE
  5
72116
330
2
100
AcDbEntity
  8
0
  6
ByBlock
100
AcDbPolyline
 90
        2
 70
     0
 43
0.05
 10
268.9558789715259
 20
345.5276581903173
 42
1.0
 10
272.3308789715259
 20
345.5276581903173
 42
1.0
  0
LWPOLYLINE
  5
72117
330
2
100
AcDbEntity
  8
0
  6
ByBlock
100
AcDbPolyline
 90
        2
 70
     0
 43
0.05
 10
268.7683789715259
 20
345.5276581903173
 42
1.0
 10
272.5183789715259
 20
345.5276581903173
 42
1.0
  0
LWPOLYLINE
  5
72118
330
2
100
AcDbEntity
  8
0
  6
ByBlock
100
AcDbPolyline
 90
        2
 70
     0
 43
0.05
 10
268.7683789715259
 20
345.5276581903174
 42
-1.0
 10
272.5183789715259
 20
345.5276581903174
 42
-1.0
  0
LWPOLYLINE
  5
72119
330
2
100
AcDbEntity
  8
0
  6
ByBlock
100
AcDbPolyline
 90
        2
 70
     0
 43
0.05
 10
268.9558789715259
 20
345.5276581903174
 42
-1.0
 10
272.3308789715259
 20
345.5276581903174
 42
-1.0
  0
LWPOLYLINE
  5
7211A
330
2
100
AcDbEntity
  8
0
  6
ByBlock
100
AcDbPolyline
 90
        2
 70
     0
 43
0.05
 10
269.268378971526
 20
345.5276581903174
 42
-1.0
 10
272.0183789715259
 20
345.5276581903174
 42
-1.0
  0
LWPOLYLINE
  5
7211B
330
2
100
AcDbEntity
  8
0
  6
ByBlock
100
AcDbPolyline
 90
        2
 70
     0
 43
0.05
 10
270.3308789715259
 20
345.5276581903174
 42
-1.0
 10
270.9558789715259
 20
345.5276581903174
 42
-1.0
  0
DIMENSION
  5
7211C
330
2
100
AcDbEntity
  8
LINEWORK
 62
     7
100
AcDbDimension
  2
*D2
 10
274.4558789715259
 20
337.6150266103728
 30
0.0
 11
270.5627139852379
 21
337.6150266103728
 31
0.0
 70
   160
  1
<>
 71
     5
 42
-1.0
  3
STANDARD
100
AcDbAlignedDimension
 13
266.8308789715259
 23
341.7151581903173
 33
0.0
 14
274.4558789715259
 24
341.7151581903173
 34
0.0
100
AcDbRotatedDimension
1001
ACAD
1000
DSTYLE
1002
{
1070
    40
1040
0.7
1070
    73
1070
     1
1070
    74
1070
     1
1070
    77
1070
     0
1070
   147
1040
0.5
1070
   279
1070
     1
1070
   288
1070
     1
1070
   289
1070
     3
1002
}
  0
DIMENSION
  5
72131
330
2
100
AcDbEntity
  8
LINEWORK
 62
     7
100
AcDbDimension
  2
*D3
 10
278.5293288318188
 20
349.3401581903173
 30
0.0
 11
278.5293288318187
 21
345.5276581903173
 31
0.0
 70
    32
 71
     5
 42
-1.0
  3
STANDARD
100
AcDbAlignedDimension
 13
275.4849016111437
 23
341.7151581903173
 33
0.0
 14
275.4849016111437
 24
349.3401581903173
 34
0.0
 50
90.0
100
AcDbRotatedDimension
1001
ACAD
1000
DSTYLE
1002
{
1070
    40
1040
0.7
1070
    73
1070
     1
1070
    74
1070
     1
1070
    77
1070
     0
1070
   147
1040
0.5
1070
   279
1070
     1
1070
   288
1070
     1
1070
   289
1070
     3
1002
}
  0
DIMENSION
  5
721BB
330
2
100
AcDbEntity
  8
LINEWORK
 62
     7
100
AcDbDimension
  2
*D4
 10
272.5180764883148
 20
339.6728877872768
 30
0.0
 11
270.9383137900201
 21
339.6728877872768
 31
0.0
 70
   160
  1
\P%%c3 3/4"
 71
     5
 42
-1.0
  3
STANDARD
100
AcDbAlignedDimension
 13
268.7686813774293
 23
345.4939843029789
 33
0.0
 14
272.5180764883148
 24
345.4939799993649
 34
0.0
100
AcDbRotatedDimension
1001
ACAD
1000
DSTYLE
1002
{
1070
    40
1040
0.7
1070
    73
1070
     1
1070
    74
1070
     1
1070
    77
1070
     0
1070
   147
1040
0.5
1070
   279
1070
     1
1070
   288
1070
     1
1070
   289
1070
     3
1002
}
  0
DIMENSION
  5
721DD
330
2
100
AcDbEntity
  8
LINEWORK
 62
     7
100
AcDbDimension
  2
*D5
 10
272.3308789715259
 20
353.2392863833046
 30
0.0
 11
264.1322722144433
 21
353.2392863833046
 31
0.0
 70
   160
  1
%%c<>
 71
     5
 42
-1.0
  3
STANDARD
100
AcDbAlignedDimension
 13
268.9558841583386
 23
345.5318421437063
 33
0.0
 14
272.3308789715259
 24
345.5276581903173
 34
0.0
100
AcDbRotatedDimension
1001
ACAD
1000
DSTYLE
1002
{
1070
    40
1040
0.7
1070
    73
1070
     1
1070
    74
1070
     1
1070
    77
1070
     0
1070
   147
1040
0.5
1070
   279
1070
     1
1070
   288
1070
     1
1070
   289
1070
     3
1002
}
  0
DIMENSION
  5
721ED
330
2
100
AcDbEntity
  8
LINEWORK
 62
     7
100
AcDbDimension
  2
*D6
 10
272.0183789715259
 20
351.6663704046913
 30
0.0
 11
264.0929308019975
 21
351.6663704046913
 31
0.0
 70
   160
  1
%%c<>
 71
     5
 42
-1.0
  3
STANDARD
100
AcDbAlignedDimension
 13
269.268378971526
 23
345.5276581903173
 33
0.0
 14
272.0183789715259
 24
345.5276581903173
 34
0.0
100
AcDbRotatedDimension
1001
ACAD
1000
DSTYLE
1002
{
1070
    40
1040
0.7
1070
    73
1070
     1
1070
    74
1070
     1
1070
    77
1070
     0
1070
   147
1040
0.5
1070
   279
1070
     1
1070
   288
1070
     1
1070
   289
1070
     3
1002
}
  0
DIMENSION
  5
721FD
330
2
100
AcDbEntity
  8
LINEWORK
 62
     7
100
AcDbDimension
  2
*D7
 10
270.3308789715259
 20
350.0148091482116
 30
0.0
 11
264.6437086238774
 21
350.0148091482116
 31
0.0
 70
   160
  1
%%c<>
 71
     5
 42
-1.0
  3
STANDARD
100
AcDbAlignedDimension
 13
270.9558789715259
 23
345.5276581903174
 33
0.0
 14
270.3308789715259
 24
345.5276581903173
 34
0.0
100
AcDbRotatedDimension
1001
ACAD
1000
DSTYLE
1002
{
1070
    40
1040
0.7
1070
    73
1070
     1
1070
    74
1070
     1
1070
    77
1070
     0
1070
   147
1040
0.5
1070
   279
1070
     1
1070
   288
1070
     1
1070
   289
1070
     3
1002
}
  0
LINE
  5
72245
330
2
100
AcDbEntity
  8
0
100
AcDbLine
 10
282.0929927940794
 20
341.7151581903173
 30
0.0
 11
282.0929927940794
 21
349.3401581903173
 31
0.0
  0
LWPOLYLINE
  5
7225E
330
2
100
AcDbEntity
  8
0
100
AcDbPolyline
 90
       18
 70
     0
 43
0.12
 10
282.0929927940794
 20
341.7151581903173
 10
285.7179927940794
 20
341.7151581903173
 10
285.7179927940794
 20
343.6760956903173
 10
285.3429927940796
 20
343.7464081903172
 10
285.3429927940796
 20
343.8401581903173
 10
285.7179927940794
 20
343.8870331903173
 10
285.7179927940794
 20
344.1259840943394
 42
-0.0788116958972125
 10
285.403632488107
 20
344.9473439439411
 42
-0.1848284119137048
 10
285.7179927940794
 20
345.241832286297
 10
285.7179927940794
 20
345.8134840943374
 42
-0.1848284119117295
 10
285.403632488109
 20
346.1079724366892
 42
-0.0788116958963314
 10
285.7179927940794
 20
346.929332286303
 10
285.7179927940794
 20
347.1682831903174
 10
285.3429927940796
 20
347.2151581903174
 10
285.3429927940796
 20
347.3089081903174
 10
285.7179927940794
 20
347.3792206903173
 10
285.7179927940794
 20
349.3401581903173
 10
282.0929927940794
 20
349.3401581903173
  0
INSERT
  5
72260
330
2
100
AcDbEntity
  8
LINEWORK
 62
     7
100
AcDbBlockReference
 66
     1
  2
PROFILE LOGO
 10
266.9497510892654
 20
343.1197416400255
 30
0.0
 41
0.7
 42
0.7
 43
0.7
  0
ATTRIB
  5
72261
330
72260
100
AcDbEntity
  8
A1
 62
    22
100
AcDbText
 10
267.1489333561965
 20
341.9449328657909
 30
0.0
 40
0.14888671875
  1
1415
 72
     1
 11
267.4244423729621
 21
341.9449328657909
 31
0.0
100
AcDbAttribute
  2
XXXX
 70
     0
  0
SEQEND
  5
72262
330
72260
100
AcDbEntity
  8
LINEWORK
 62
     7
  0
INSERT
  5
72263
330
2
100
AcDbEntity
  8
LINEWORK
 62
     7
100
AcDbBlockReference
 66
     1
  2
PROFILE LOGO
 10
282.2141703092091
 20
343.1197416400255
 30
0.0
 41
0.7
 42
0.7
 43
0.7
  0
ATTRIB
  5
72264
330
72263
100
AcDbEntity
  8
A1
 62
    22
100
AcDbText
 10
282.4133525761402
 20
341.9449328657909
 30
0.0
 40
0.14888671875
  1
1415
 72
     1
 11
282.6888615929057
 21
341.9449328657909
 31
0.0
100
AcDbAttribute
  2
XXXX
 70
     0
  0
SEQEND
  5
72265
330
72263
100
AcDbEntity
  8
LINEWORK
 62
     7
  0
DIMENSION
  5
72266
330
2
100
AcDbEntity
  8
LINEWORK
 62
     7
100
AcDbDimension
  2
*D8
 10
285.7179927940794
 20
339.2403360494775
 30
0.0
 11
288.7599157079216
 21
339.2403360494775
 31
0.0
 70
   161
 71
     5
 42
-1.0
  3
STANDARD
100
AcDbAlignedDimension
 13
282.0929927940794
 23
341.7151581903173
 33
0.0
 14
285.7179927940794
 24
341.7151581903173
 34
0.0
1001
ACAD
1000
DSTYLE
1002
{
1070
    40
1040
0.7
1070
    73
1070
     1
1070
    74
1070
     1
1070
    77
1070
     0
1070
   147
1040
0.5
1070
   279
1070
     1
1070
   288
1070
     1
1070
   289
1070
     3
1002
}
  0
INSERT
  5
72278
330
2
100
AcDbEntity
  8
LINEWORK
 62
     7
100
AcDbBlockReference
 66
     1
  2
LINK FLAG
 10
274.4238129336773
 20
349.3214431969269
 30
0.0
 41
1.008
 42
1.008
 43
1.008
  0
ATTRIB
  5
72279
330
72278
100
AcDbEntity
  8
A1
 62
     1
100
AcDbText
 10
285.2684145084356
 20
354.3145381638418
 30
0.0
 40
1.008
  1
TS1415
100
AcDbAttribute
  2
XXXXXX
 70
     0
  0
SEQEND
  5
7227A
330
72278
100
AcDbEntity
  8
LINEWORK
 62
     7
  0
INSERT
  5
72304
330
2
100
AcDbEntity
  8
LINEWORK
 62
     7
100
AcDbBlockReference
 66
     1
  2
TSFORMB
 10
249.6227022273123
 20
323.2214767574654
 30
0.0
 41
0.5
 42
0.5
 43
0.5
  0
ATTRIB
  5
72305
330
72304
100
AcDbEntity
  8
A1
 62
     1
100
AcDbText
 10
268.1116566330989
 20
323.6797188324881
 30
0.0
 40
0.5127948
  1
MEDALLION
 72
     1
 11
270.2527838933399
 21
323.6797188324881
 31
0.0
100
AcDbAttribute
  2
XXXXXX
 70
     0
  0
ATTRIB
  5
72306
330
72304
100
AcDbEntity
  8
A1
 62
     1
100
AcDbText
 10
258.0694712498647
 20
324.1589861095183
 30
0.0
 40
0.4200000000000001
  1
TS1415
 72
     2
 11
260.3995633831035
 21
324.1589861095183
 31
0.0
100
AcDbAttribute
  2
XXXXXX
 70
     0
  0
ATTRIB
  5
72307
330
72304
100
AcDbEntity
  8
A1
 62
     1
100
AcDbText
 10
253.020986830062
 20
324.7804581587016
 30
0.0
 40
3.066
  1
TS1415
  7
barcoder
 72
     1
 11
256.048661830062
 21
324.7804581587016
 31
0.0
100
AcDbAttribute
  2
BARCODE
 70
     0
  0
ATTRIB
  5
72308
330
72304
100
AcDbEntity
  8
A1
 62
     1
100
AcDbText
 10
296.3406588435255
 20
359.9214849236896
 30
0.0
 40
1.0395
  1
TS1415
 72
     1
 11
299.2241478584086
 21
359.9214849236896
 31
0.0
100
AcDbAttribute
  2
TS00XX
 70
     0
  0
ATTRIB
  5
72309
330
72304
100
AcDbEntity
  8
A1
 62
     1
100
AcDbText
 10
299.0749810479387
 20
328.260978965101
 30
0.0
 40
0.4725000000000002
  1
27.12"
 72
     1
 11
300.210688879264
 21
328.260978965101
 31
0.0
100
AcDbAttribute
  2
XXXXX
 70
     0
  0
ATTRIB
  5
7230A
330
72304
100
AcDbEntity
  8
A1
 62
     1
100
AcDbText
 10
299.2147835852609
 20
326.8312460652223
 30
0.0
 40
0.4725000000000002
  1
24.48
 72
     1
 11
300.1936053428797
 21
326.8312460652223
 31
0.0
100
AcDbAttribute
  2
XXXXX
 70
     0
  0
SEQEND
  5
7230B
330
72304
100
AcDbEntity
  8
LINEWORK
 62
     7
  0
ENDSEC
  0
SECTION
  2
OBJECTS
  0
DICTIONARY
  5
8
330
0
100
AcDbDictionary
281
     1
  3
ACAD_GROUP
350
21
  3
ACAD_LAYOUT
350
C
  3
ACAD_MLINESTYLE
350
22
  3
ACAD_PLOTSETTINGS
350
23
  3
ACAD_PLOTSTYLENAME
350
7
  3
ACAD_VBA
350
7230D
  3
DWGPROPS
350
723A7
  0
DICTIONARY
  5
3
330
2
100
AcDbDictionary
280
     1
281
     1
  3
ACAD_LAYOUTSELFREF
360
7234A
  0
DICTIONARY
  5
7234D
330
D
100
AcDbDictionary
280
     1
281
     1
  3
ACAD_LAYOUTSELFREF
360
7234E
  0
DICTIONARY
  5
21
102
{ACAD_REACTORS
330
8
102
}
330
8
100
AcDbDictionary
281
     1
  0
DICTIONARY
  5
C
102
{ACAD_REACTORS
330
8
102
}
330
8
100
AcDbDictionary
281
     1
  3
Layout1
350
10
  3
Model
350
B
  0
DICTIONARY
  5
22
102
{ACAD_REACTORS
330
8
102
}
330
8
100
AcDbDictionary
281
     1
  3
STANDARD
350
25
  0
DICTIONARY
  5
23
102
{ACAD_REACTORS
330
8
102
}
330
8
100
AcDbDictionary
281
     1
  0
ACDBDICTIONARYWDFLT
  5
7
102
{ACAD_REACTORS
330
8
102
}
330
8
100
AcDbDictionary
281
     1
  3
Normal
350
6
100
AcDbDictionaryWithDefault
340
6
  0
DICTIONARY
  5
7230D
102
{ACAD_REACTORS
330
8
102
}
330
8
100
AcDbDictionary
281
     1
  3
VBAProject
350
7230E
  0
XRECORD
  5
723A7
102
{ACAD_REACTORS
330
8
102
}
330
8
100
AcDbXrecord
280
     1
  1
DWGPROPS COOKIE
  2

  3

  4

  6

  7

  8
catalog
  9

300
=
301
=
302
=
303
=
304
=
305
=
306
=
307
=
308
=
309
=
 40
2.014486574074074
 41
2451085.66483831
 42
2451660.570274074
  1

 90
        0
  0
XRECORD
  5
7234A
102
{ACAD_REACTORS
330
3
102
}
330
3
100
AcDbXrecord
280
     1
340
2
  0
XRECORD
  5
7234E
102
{ACAD_REACTORS
330
7234D
102
}
330
7234D
100
AcDbXrecord
280
     1
340
D
  0
LAYOUT
  5
10
102
{ACAD_REACTORS
330
C
102
}
330
C
100
AcDbPlotSettings
  1

  2
None
  4

  6

 40
0.0
 41
0.0
 42
0.0
 43
0.0
 44
0.0
 45
0.0
 46
0.0
 47
0.0
 48
0.0
 49
0.0
140
0.0
141
0.0
142
1.0
143
1.0
 70
   688
 72
     0
 73
     0
 74
     5
  7

 75
    16
147
1.0
148
0.0
149
0.0
100
AcDbLayout
  1
Layout1
 70
     1
 71
     1
 10
0.0
 20
0.0
 11
12.0
 21
9.0
 12
0.0
 22
0.0
 32
0.0
 14
1.000000000000000E+20
 24
1.000000000000000E+20
 34
1.000000000000000E+20
 15
-1.000000000000000E+20
 25
-1.000000000000000E+20
 35
-1.000000000000000E+20
146
0.0
 13
0.0
 23
0.0
 33
0.0
 16
1.0
 26
0.0
 36
0.0
 17
0.0
 27
1.0
 37
0.0
 76
     0
330
D
  0
LAYOUT
  5
B
102
{ACAD_REACTORS
330
C
102
}
330
C
100
AcDbPlotSettings
  1

  2
HP LaserJet 5.pc3
  4
Letter
  6

 40
7.143749713897705
 41
6.381738662719726
 42
7.14373779296875
 43
6.381744384765625
 44
215.8999938964843
 45
279.3999938964843
 46
0.0
 47
0.0
 48
102.934876613363
 49
-10.03275235899575
140
166.0256738086942
141
36.90064555460422
142
1.0
143
3.842771087049282
 70
 11952
 72
     0
 73
     1
 74
     1
  7

 75
     0
147
0.2602288758157234
148
-6498.926916313537
149
-8352.498340869752
100
AcDbLayout
  1
Model
 70
     1
 71
     0
 10
0.0
 20
0.0
 11
12.0
 21
9.0
 12
0.0
 22
0.0
 32
0.0
 14
0.0
 24
0.0
 34
0.0
 15
0.0
 25
0.0
 35
0.0
146
0.0
 13
0.0
 23
0.0
 33
0.0
 16
1.0
 26
0.0
 36
0.0
 17
0.0
 27
1.0
 37
0.0
 76
     0
330
2
  0
MLINESTYLE
  5
25
102
{ACAD_REACTORS
330
22
102
}
330
22
100
AcDbMlineStyle
  2
STANDARD
 70
     0
  3

 62
   256
 51
90.0
 52
90.0
 71
     2
 49
0.5
 62
   256
  6
BYLAYER
 49
-0.5
 62
   256
  6
BYLAYER
  0
ACDBPLACEHOLDER
  5
6
102
{ACAD_REACTORS
330
7
102
}
330
7
  0
VBA_PROJECT
  5
7230E
102
{ACAD_REACTORS
330
7230D
102
}
330
7230D
100
AcDbVbaProject
 90
     7680
310
D0CF11E0A1B11AE1000000000000000000000000000000003E000300FEFF0900060000000000000000000000010000000100000000000000001000000200000001000000FEFFFFFF0000000000000000FFFFFFFFFFFFFFFFFFFFFFFFFFFFFFFFFFFFFFFFFFFFFFFFFFFFFFFFFFFFFFFFFFFFFFFFFFFFFFFFFFFFFFFFFFFFFF
310
FFFFFFFFFFFFFFFFFFFFFFFFFFFFFFFFFFFFFFFFFFFFFFFFFFFFFFFFFFFFFFFFFFFFFFFFFFFFFFFFFFFFFFFFFFFFFFFFFFFFFFFFFFFFFFFFFFFFFFFFFFFFFFFFFFFFFFFFFFFFFFFFFFFFFFFFFFFFFFFFFFFFFFFFFFFFFFFFFFFFFFFFFFFFFFFFFFFFFFFFFFFFFFFFFFFFFFFFFFFFFFFFFFFFFFFFFFFFFFFFFFFFFFFFFFFFFF
310
FFFFFFFFFFFFFFFFFFFFFFFFFFFFFFFFFFFFFFFFFFFFFFFFFFFFFFFFFFFFFFFFFFFFFFFFFFFFFFFFFFFFFFFFFFFFFFFFFFFFFFFFFFFFFFFFFFFFFFFFFFFFFFFFFFFFFFFFFFFFFFFFFFFFFFFFFFFFFFFFFFFFFFFFFFFFFFFFFFFFFFFFFFFFFFFFFFFFFFFFFFFFFFFFFFFFFFFFFFFFFFFFFFFFFFFFFFFFFFFFFFFFFFFFFFFFFF
310
FFFFFFFFFFFFFFFFFFFFFFFFFFFFFFFFFFFFFFFFFFFFFFFFFFFFFFFFFFFFFFFFFFFFFFFFFFFFFFFFFFFFFFFFFFFFFFFFFFFFFFFFFFFFFFFFFFFFFFFFFFFFFFFFFFFFFFFFFFFFFFFFFFFFFFFFFFFFFFFFFFFFFFFFFFFFFFFFFFFFFFFFFFFFFFFFFFFFFFFFFFFFFFFFFFFFFFFFFFFFFFFFFFFFFFFFFFFFFFFFFFFFFFFFFFFFFF
310
FFFFFFFFFDFFFFFF04000000FEFFFFFF050000000D000000060000000700000008000000090000000A0000000B0000000C000000FEFFFFFFFEFFFFFFFFFFFFFFFFFFFFFFFFFFFFFFFFFFFFFFFFFFFFFFFFFFFFFFFFFFFFFFFFFFFFFFFFFFFFFFFFFFFFFFFFFFFFFFFFFFFFFFFFFFFFFFFFFFFFFFFFFFFFFFFFFFFFFFFFFFFF
310
FFFFFFFFFFFFFFFFFFFFFFFFFFFFFFFFFFFFFFFFFFFFFFFFFFFFFFFFFFFFFFFFFFFFFFFFFFFFFFFFFFFFFFFFFFFFFFFFFFFFFFFFFFFFFFFFFFFFFFFFFFFFFFFFFFFFFFFFFFFFFFFFFFFFFFFFFFFFFFFFFFFFFFFFFFFFFFFFFFFFFFFFFFFFFFFFFFFFFFFFFFFFFFFFFFFFFFFFFFFFFFFFFFFFFFFFFFFFFFFFFFFFFFFFFFFFFF
310
FFFFFFFFFFFFFFFFFFFFFFFFFFFFFFFFFFFFFFFFFFFFFFFFFFFFFFFFFFFFFFFFFFFFFFFFFFFFFFFFFFFFFFFFFFFFFFFFFFFFFFFFFFFFFFFFFFFFFFFFFFFFFFFFFFFFFFFFFFFFFFFFFFFFFFFFFFFFFFFFFFFFFFFFFFFFFFFFFFFFFFFFFFFFFFFFFFFFFFFFFFFFFFFFFFFFFFFFFFFFFFFFFFFFFFFFFFFFFFFFFFFFFFFFFFFFFF
310
FFFFFFFFFFFFFFFFFFFFFFFFFFFFFFFFFFFFFFFFFFFFFFFFFFFFFFFFFFFFFFFFFFFFFFFFFFFFFFFFFFFFFFFFFFFFFFFFFFFFFFFFFFFFFFFFFFFFFFFFFFFFFFFFFFFFFFFFFFFFFFFFFFFFFFFFFFFFFFFFFFFFFFFFFFFFFFFFFFFFFFFFFFFFFFFFFFFFFFFFFFFFFFFFFFFFFFFFFFFFFFFFFFFFFFFFFFFFFFFFFFFFFFFFFFFFFF
310
FFFFFFFFFFFFFFFF52006F006F007400200045006E00740072007900000000000000000000000000000000000000000000000000000000000000000000000000000000000000000016000500FFFFFFFFFFFFFFFF0100000000000000000000000000000000000000000000000000000000000000E0A04672DDAEBF01030000
310
00C0100000000000005600420041005F00500072006F006A0065006300740000000000000000000000000000000000000000000000000000000000000000000000000000000000000018000101FFFFFFFF08000000060000000000000000000000000000000000000000000000E0A04672DDAEBF01E0A04672DDAEBF010000
310
000000000000000000005600420041000000000000000000000000000000000000000000000000000000000000000000000000000000000000000000000000000000000000000000000008000100FFFFFFFFFFFFFFFF040000000000000000000000000000000000000000000000E0A04672DDAEBF01E0A04672DDAEBF0100
310
00000000000000000000006400690072000000000000000000000000000000000000000000000000000000000000000000000000000000000000000000000000000000000000000000000008000200FFFFFFFFFFFFFFFFFFFFFFFF000000000000000000000000000000000000000000000000000000000000000000000000
310
00000000F90100000000000001000000020000000300000004000000050000000600000007000000FEFFFFFF090000000A0000000B0000000C0000000D0000000E0000000F0000001000000011000000120000001300000014000000150000001600000017000000FEFFFFFF190000001A0000001B0000001C0000001D0000
310
001E0000001F000000200000002100000022000000230000002400000025000000260000002700000028000000290000002A0000002B0000002C0000002D0000002E0000002F000000300000003100000032000000330000003400000035000000360000003700000038000000390000003A0000003B000000FEFFFFFF3D00
310
00003E0000003F00000040000000FEFFFFFFFEFFFFFFFEFFFFFFFFFFFFFFFFFFFFFFFFFFFFFFFFFFFFFFFFFFFFFFFFFFFFFFFFFFFFFFFFFFFFFFFFFFFFFFFFFFFFFFFFFFFFFFFFFFFFFFFFFFFFFFFFFFFFFFFFFFFFFFFFFFFFFFFFFFFFFFFFFFFFFFFFFFFFFFFFFFFFFFFFFFFFFFFFFFFFFFFFFFFFFFFFFFFFFFFFFFFFFFFF
310
FFFFFFFFFFFFFFFFFFFFFFFFFFFFFFFFFFFFFFFFFFFFFFFFFFFFFFFFFFFFFFFFFFFFFFFFFFFFFFFFFFFFFFFFFFFFFFFFFFFFFFFFFFFFFFFFFFFFFFFFFFFFFFFFFFFFFFFFFFFFFFFFFFFFFFFFFFFFFFFFFFFFFFFFFFFFFFFFFFFFFFFFFFFFFFFFFFFFFFFFFFFFFFFFFFFFFFFFFFFFFFFFFFFFFFFFFFFFFFFFFFFFFFFFFFFFFF
310
FFFFFFFFFFFFFFFFFFFFFFFFFFFFFFFF01F5B1800100040000000100302A020290090070140648030082020064E40404000B001C004143414450726F6A10656374050038000040D5021406020A3D020A07027401140A08061209021299C8BE38284F000C024A3C020A16000101727374646F6C653E0102197300740064006F
310
00006C0065000D00660500255C00032A5C477B3000303032303433302D3B0008040443000A020E011230300034367D23322E3023003023433A5C57494E00444F57535C5359530054454D5C5354444F004C45322E544C4223010008204175746F6D613074696F6E005E00011600020780024D53466F726D10733E000E010600
310
53000246004572006D007300682F007A800970800101463600354238343236302D00344131382D31314400312D384439372D348034343535333534014803174604332E545744234D006963726F736F66748A20023D200060204F6201B000204C69627261727947003900011E50300090001372038001015038393136374580
310
30362D35343239275081804A505C5642455C8528044558A728E12E450D8F00E01A10852E02608C284D0BB481940F828F01002213C2019D52198291546800697344726177696E44671A0D04320016C030541000680069805D4400721000610077C0026E006744001C4006000048420131C1C2941F0300001E42020105A22C42
310
1983522242082B420102104201000000000000005400680069007300440072006100770069006E006700000000000000000000000000000000000000000000000000000000000000000000000000000000000000180002010300000005000000FFFFFFFF000000000000000000000000000000000000000000000000000000
310
00000000000000000008000000D0030000000000005F005600420041005F00500052004F004A00450043005400000000000000000000000000000000000000000000000000000000000000000000000000000000001A000200FFFFFFFFFFFFFFFFFFFFFFFF0000000000000000000000000000000000000000000000000000
310
0000000000000000000018000000EA08000000000000500052004F004A004500430054000000000000000000000000000000000000000000000000000000000000000000000000000000000000000000000000000000100002010200000007000000FFFFFFFF00000000000000000000000000000000000000000000000000
310
00000000000000000000003C0000001C01000000000000500052004F004A0045004300540077006D000000000000000000000000000000000000000000000000000000000000000000000000000000000000000000000014000200FFFFFFFFFFFFFFFFFFFFFFFF000000000000000000000000000000000000000000000000
310
0000000000000000000000004100000026000000000000000116010000B600FFFF010100000000FFFFFFFF00000000FFFFFFFFFFFF0000000000000000000000000000000000000000000000000000000000000000000000000000000000000000000000000000000010000000030000000500000007000000FFFFFFFFFFFF
310
FFFF010108000000FFFFFFFF78000000DE000000AF020000F5010000FFFFFFFF00000000010000009D5283520000FFFF2300000088000000080000000000000000000000000000000000000000000000000000000000000000FFFF0000CB020000D6000000D60000001F0300000000FFFFFFFF00000000DF00FFFF00000000
310
0C00FFFFFFFFFFFFFFFFFFFFFFFFFFFFFFFFFFFFFFFFFFFFFFFFFFFFFFFFFFFFFFFFFFFFFFFFFFFFFFFFFFFFFFFFFFFFFFFFFFFFFFFFFFFFFFFFFFFFFFFFFFFFFFFFFFFFFFFFFFFFFFFFFFFFFFFFFFFFFFFFFFFFFFFFFFFFFFFFFFFFFFFFFFFFFFFFFFFFFFFFFFFFFFFFFFFFFFFFFFFFFFFFFFFFFFFFFFFFFFFFFFFFFFFFFF
310
FFFFFF280000000200534CFFFFFFFF000001005310FFFFFFFF000001005394FFFFFFFF00000000023CFFFFFFFF0000FFFF01010000000001004E0030007B00380045003700350044003900310033002D0033004400320031002D0031003100440032002D0038003500430034002D0030003800300030003000390041003000
310
43003600320036007D00000000000000DF00000000FFFFFFFF0101380000000281FEFFFFFFFFFFFFFFFFFF280000000000FFFF0000000000000000FFFFFFFFFFFFFFFF303034361D00000024000000FFFFFFFF480000000000FFFF00000100000000000000FFFFFFFFFFFFFFFFFFFFFFFF00000000FFFFFFFFFFFFFFFFFFFF
310
FFFFFFFFFFFF00000000FFFFFFFFFFFFFFFFFFFFFFFFFFFFFFFF0000000000000000FFFFFFFFFFFFFFFF00000000FFFFFFFFFFFFFFFFFFFFFFFFFFFFFFFFFFFFFFFFFFFFFFFFFFFFFFFFFFFF4D450000FFFFFFFFFFFF00000000FFFF00000000FFFF0101000000000000000000000000000000000000000000000000000000
310
00000000000000000000000000000000000000000000000000000000000000000000000000FECA01000000FFFFFFFF010108000000FFFFFFFF7800000001ADB000417474726962757400652056425F4E616D0065203D2022546869007344726177696E6788220D0A0A88426173028800307B3845373544390031332D334432
310
312D00313144322D38354300342D303830303039804130433632367D0D7C00437265617461626C41018646616C73650CBC508072656465636C610006444964008A5472750D22452078706F7365141C5465006D706C6174654465187269760224116543757360746F6D697A0488033200000000000000000000000000000000
310
0000000000000000000000000000000000000000000000000000000000000000CC615E00000100FF0904000009040000E4040100000000000000000001000400020016012A005C0047007B00300030003000320030003400450046002D0030003000300030002D0030003000300030002D0043003000300030002D00300030
310
0030003000300030003000300030003000340036007D00230033002E00300023003900230043003A005C00500052004F004700520041004D002000460049004C00450053005C0043004F004D004D004F004E002000460049004C00450053005C004D004900430052004F0053004F0046005400200053004800410052004500
310
44005C005600420041005C005600420041003300330032002E0044004C004C002300560069007300750061006C00200042006100730069006300200046006F00720020004100700070006C00690063006100740069006F006E007300000000000000000000000000CE002A005C0047007B0043003000390034004300310045
310
0032002D0035003700430036002D0031003100440032002D0038003500450033002D003000380030003000300039004100300043003600320036007D00230031002E00310023003000230043003A005C00500072006F006700720061006D002000460069006C00650073005C004D00440054005C0041004300410044002E00
310
54004C00420023004100750074006F00430041004400200032003000300030002000540079007000650020004C00690062007200610072007900000000000000000000000000B8002A005C0047007B00300030003000320030003400330030002D0030003000300030002D0030003000300030002D0043003000300030002D
310
003000300030003000300030003000300030003000340036007D00230032002E00300023003000230043003A005C00570049004E0044004F00570053005C00530059005300540045004D005C005300540044004F004C00450032002E0054004C00420023004F004C00450020004100750074006F006D006100740069006F00
310
6E00000000000000000000000000E0002A005C0047007B00360035004200380034003200360030002D0034004100310038002D0031003100440031002D0038004400390037002D003400340034003500350033003500340030003000300030007D00230032002E00300023003000230043003A005C00570049004E0044004F
310
00570053005C00530059005300540045004D005C004D00530046006F0072006D0073002E0054005700440023004D006900630072006F0073006F0066007400200046006F0072006D007300200032002E00300020004F0062006A0065006300740020004C00690062007200610072007900000000000000000000000100E400
310
2A005C0047007B00380039003100360037004500300036002D0035003400320039002D0031003100440031002D0038004400390037002D003400340034003500350033003500340030003000300030007D00230032002E00300023003000230043003A005C00570049004E0044004F00570053005C00540045004D0050005C
310
005600420045005C004D00530046006F0072006D0073002E0045005800440023004D006900630072006F0073006F0066007400200046006F0072006D007300200032002E00300020004F0062006A0065006300740020004C006900620072006100720079000000000000000000000001000000E12E450D8FE01A10852E0260
310
8C4D0BB400000100020003000402000006020100080200001002FFFFFFFFFFFF00000000FFFF000099C8BE384F00FFFFFFFFFFFFFFFFFFFFFFFFFFFFFFFFFFFFFFFFFFFFFFFFFFFFFFFFFFFFFFFF0000FFFFFFFFFFFFFFFFFFFFFFFFFFFFFFFFFFFFFFFFFFFFFFFFFFFFFFFFFFFF0100000000000000000000000000000000
310
0000009D52010016005400680069007300440072006100770069006E0067000A003466333862656338393903002A44011302FFFF835200000000000000020000001F030000FFFFFFFFFFFF010120020000FFFFFFFFFFFFFFFF00020000FFFFFFFFFFFFFFFFFFFFFFFFFFFFFFFFFFFFFFFFFFFFFFFFFFFFFFFFFFFFFFFFFFFF
310
FFFFFFFFFFFFFFFFFFFFFFFFFFFFFFFFFFFFFFFFFFFFFFFFFFFFFFFFFFFFFFFFFFFFFFFFFFFFFFFFFFFFFFFFFFFFFFFFFFFFFFFFFFFFFFFFFFFFFFFFFFFFFFFFFFFFFFFFFFFFFFFFFFFFFFFFFFFFFFFFFFFFFFFFFFFFFFFFFFFFFFFFFFFFFFFFFFFFFFFFFFFFFFFFFFFFFFFFFFFFFFFFFFFFFFFFFFFFFFFFFFFFFFFFFFFFFF
310
FFFFFFFFFFFFFFFFFFFFFFFFFFFFFFFFFFFFFFFFFFFFFFFFFFFFFFFFFFFFFFFFFFFFFFFFFFFFFFFFFFFFFFFFFFFFFFFFFFFFFFFFFFFFFFFFFFFFFFFFFFFFFFFFFFFFFFFFFFFFFFFFFFFFFFFFFFFFFFFFFFFFFFFFFFFFFFFFFFFFFFFFFFFFFFFFFFFFFFFFFFFFFFFFFFFFFFFFFFFFFFFFFFFFFFFFFFFFFFFFFFFFFFFFFFFFFF
310
FFFFFFFFFFFFFFFFFFFFFFFFFFFFFFFFFFFFFFFFFFFFFFFFFFFFFFFFFFFFFFFFFFFFFFFFFFFFFFFFFFFFFFFFFFFFFFFFFFFFFFFFFFFFFFFFFFFFFFFFFFFFFFFFFFFFFFFFFFFFFFFFFFFFFFFFFFFFFFFFFFFFFFFFFFFFFFFFFFFFFFFFFFFFFFFFFFFFFFFFFFFFFFFFFFFFFFFFFFFFFFFFFFFFFFFFFFFFFFFFFFFFFFFFFFFFFF
310
FFFFFFFFFFFFFFFFFFFFFFFFFFFFFFFFFFFFFFFFFFFFFFFFFFFFFFFFFFFFFFFFFFFFFFFFFFFFFFFFFFFFFFFFFFFFFFFFFFFFFFFFFFFFFFFFFFFFFFFFFFFFFFFFFFFFFFFFFFFFFFFFFFFFFFFFFFFFFFFFFFFFFFFFFF3142892B0EF0D3118DA400A0C981A35FFFFFFFFF01000000FFFFFFFF600000008000000000000B010C00
310
FF008825000007044175746F43414422F810000304564241F7E21000050457696E3136C17E1000050457696E3332077F100003044D6163B3B21000080450726F6A656374310A17100006047374646F6C659360100007004D53466F726D73430F10000B044143414450726F6A656374A6D410000B045468697344726177696E
310
67B935100009800000FF03FFFF5F4576616C7561746518D910000C0441636164446F63756D656E741B5A100002FFFF0101480000001002FFFFFFFF130200000100FFFFFFFFFFFFFFFFFFFFFFFF00020100FFFF02020000FFFFFFFFFFFFFFFFFFFFFFFFFFFFFFFFFFFFFFFFFFFFFFFFFFFF0C020200FFFF0E020300FFFF0100
310
0C0000000100120000000000000000000000000000000000000000000000000000000000000000000000000000000000000049443D227B32423839343233342D463030452D313144332D384441342D3030413043393831413335467D220D0A446F63756D656E743D5468697344726177696E672F264830303030303030300D
310
0A4E616D653D224143414450726F6A656374220D0A48656C70436F6E7465787449443D2230220D0A434D473D2231303132413843454143434541434345414343454143220D0A4450423D2230303032423842424239424242394242220D0A47433D2246304632343841423439414234393534220D0A0D0A5B486F7374204578
310
74656E64657220496E666F5D0D0A264830303030303030313D7B33383332443634302D434639302D313143462D384534332D3030413043393131303035417D3B5642453B264830303030303030300D0A0000000000000000000000000000000000000000000000000000000000000000000000005468697344726177696E67
310
005400680069007300440072006100770069006E0067000000000000000000000000000000000000000000000000000000000000000F00000000000000000000000000000000000000000000000000000000000000000000000000000000000000000000000000000000000000000000000000000000000000000000000000
310
00000000000000000000000000000000000000000000000000000000000000000000000000000000000000000000000000000000000000000000000000000000000000000000000000000000000000000000000000000000000000000000000000000000000000000000000000000000000000000000000000000000000000
310
00000000000000000000000000000000000000000000000000000000000000000000000000000000000000000000000000000000000000000000000000000000000000000000000000000000000000000000000000000000000000000000000000000000000000000000000000000000000000000000000000000000000000
310
00000000000000000000000000000000000000000000000000000000000000000000000000000000000000000000000000000000000000005600420041005F00500072006F006A006500630074005F00560065007200730069006F006E00000000000000000000000000000000000000000000000000000028000200FFFFFF
310
FFFFFFFFFFFFFFFFFF0000000000000000000000000000000000000000000000000000000000000000000000004200000008000000000000000000000000000000000000000000000000000000000000000000000000000000000000000000000000000000000000000000000000000000000000000000000000000000FFFF
310
FFFFFFFFFFFFFFFFFFFF0000000000000000000000000000000000000000000000000000000000000000000000000000000000000000000000000000000000000000000000000000000000000000000000000000000000000000000000000000000000000000000000000000000000000000000000000000000000000000FF
310
FFFFFFFFFFFFFFFFFFFFFF0000000000000000000000000000000000000000000000000000000000000000000000000000000000000000000000000000000000000000000000000000000000000000000000000000000000000000000000000000000000000000000000000000000000000000000000000000000000000000
310
FFFFFFFFFFFFFFFFFFFFFFFF000000000000000000000000000000000000000000000000000000000000000000000000000000000000000000000000
  0
ENDSEC
  0
EOF
