  0
SECTION
  2
HEADER
  9
$ACADVER
  1
AC1015
  9
$ACADMAINTVER
 70
     6
  9
$DWGCODEPAGE
  3
ANSI_1252
  9
$INSBASE
 10
0.0
 20
0.0
 30
0.0
  9
$EXTMIN
 10
-29.6999387509223
 20
-116.8102721242959
 30
0.0
  9
$EXTMAX
 10
42.41738498073924
 20
-63.16201910440139
 30
0.0
  9
$LIMMIN
 10
0.0
 20
0.0
  9
$LIMMAX
 10
12.0
 20
9.0
  9
$ORTHOMODE
 70
     0
  9
$REGENMODE
 70
     1
  9
$FILLMODE
 70
     1
  9
$QTEXTMODE
 70
     0
  9
$MIRRTEXT
 70
     0
  9
$LTSCALE
 40
1.0
  9
$ATTMODE
 70
     2
  9
$TEXTSIZE
 40
1.0
  9
$TRACEWID
 40
0.05
  9
$TEXTSTYLE
  7
STANDARD
  9
$CLAYER
  8
A1
  9
$CELTYPE
  6
BYLAYER
  9
$CECOLOR
 62
     7
  9
$CELTSCALE
 40
1.0
  9
$DISPSILH
 70
     0
  9
$DIMSCALE
 40
1.199999999999999
  9
$DIMASZ
 40
0.5
  9
$DIMEXO
 40
1.0
  9
$DIMDLI
 40
0.0625
  9
$DIMRND
 40
0.0
  9
$DIMDLE
 40
0.0
  9
$DIMEXE
 40
0.25
  9
$DIMTP
 40
0.0
  9
$DIMTM
 40
0.0
  9
$DIMTXT
 40
1.0
  9
$DIMCEN
 40
0.0
  9
$DIMTSZ
 40
0.0
  9
$DIMTOL
 70
     0
  9
$DIMLIM
 70
     0
  9
$DIMTIH
 70
     1
  9
$DIMTOH
 70
     1
  9
$DIMSE1
 70
     0
  9
$DIMSE2
 70
     0
  9
$DIMTAD
 70
     0
  9
$DIMZIN
 70
     0
  9
$DIMBLK
  1

  9
$DIMASO
 70
     1
  9
$DIMSHO
 70
     1
  9
$DIMPOST
  1
"
  9
$DIMAPOST
  1

  9
$DIMALT
 70
     0
  9
$DIMALTD
 70
     0
  9
$DIMALTF
 40
25.4
  9
$DIMLFAC
 40
1.0
  9
$DIMTOFL
 70
     0
  9
$DIMTVP
 40
0.0
  9
$DIMTIX
 70
     0
  9
$DIMSOXD
 70
     0
  9
$DIMSAH
 70
     0
  9
$DIMBLK1
  1

  9
$DIMBLK2
  1

  9
$DIMSTYLE
  2
STANDARD
  9
$DIMCLRD
 70
     0
  9
$DIMCLRE
 70
     0
  9
$DIMCLRT
 70
     0
  9
$DIMTFAC
 40
0.125
  9
$DIMGAP
 40
0.5
  9
$DIMJUST
 70
     0
  9
$DIMSD1
 70
     0
  9
$DIMSD2
 70
     0
  9
$DIMTOLJ
 70
     1
  9
$DIMTZIN
 70
     0
  9
$DIMALTZ
 70
     2
  9
$DIMALTTZ
 70
     2
  9
$DIMUPT
 70
     1
  9
$DIMDEC
 70
     4
  9
$DIMTDEC
 70
     4
  9
$DIMALTU
 70
     2
  9
$DIMALTTD
 70
     0
  9
$DIMTXSTY
  7
STANDARD
  9
$DIMAUNIT
 70
     0
  9
$DIMADEC
 70
     0
  9
$DIMALTRND
 40
0.0
  9
$DIMAZIN
 70
     0
  9
$DIMDSEP
 70
    46
  9
$DIMATFIT
 70
     1
  9
$DIMFRAC
 70
     2
  9
$DIMLDRBLK
  1

  9
$DIMLUNIT
 70
     5
  9
$DIMLWD
 70
    -2
  9
$DIMLWE
 70
    -2
  9
$DIMTMOVE
 70
     1
  9
$LUNITS
 70
     5
  9
$LUPREC
 70
     4
  9
$SKETCHINC
 40
0.1
  9
$FILLETRAD
 40
0.0
  9
$AUNITS
 70
     0
  9
$AUPREC
 70
     1
  9
$MENU
  1
acad
  9
$ELEVATION
 40
0.0
  9
$PELEVATION
 40
0.0
  9
$THICKNESS
 40
0.0
  9
$LIMCHECK
 70
     0
  9
$CHAMFERA
 40
0.75
  9
$CHAMFERB
 40
0.75
  9
$CHAMFERC
 40
0.0
  9
$CHAMFERD
 40
0.0
  9
$SKPOLY
 70
     0
  9
$TDCREATE
 40
2451085.664838310
  9
$TDUCREATE
 40
2451085.831504977
  9
$TDUPDATE
 40
2451661.335904976
  9
$TDUUPDATE
 40
2451661.502571643
  9
$TDINDWG
 40
2.6966408565
  9
$TDUSRTIMER
 40
2.6966408565
  9
$USRTIMER
 70
     1
  9
$ANGBASE
 50
0.0
  9
$ANGDIR
 70
     0
  9
$PDMODE
 70
     0
  9
$PDSIZE
 40
0.0
  9
$PLINEWID
 40
0.0
  9
$SPLFRAME
 70
     0
  9
$SPLINETYPE
 70
     6
  9
$SPLINESEGS
 70
     8
  9
$HANDSEED
  5
11F88
  9
$SURFTAB1
 70
     6
  9
$SURFTAB2
 70
     6
  9
$SURFTYPE
 70
     6
  9
$SURFU
 70
     6
  9
$SURFV
 70
     6
  9
$UCSBASE
  2

  9
$UCSNAME
  2

  9
$UCSORG
 10
0.0
 20
0.0
 30
0.0
  9
$UCSXDIR
 10
1.0
 20
0.0
 30
0.0
  9
$UCSYDIR
 10
0.0
 20
1.0
 30
0.0
  9
$UCSORTHOREF
  2

  9
$UCSORTHOVIEW
 70
     0
  9
$UCSORGTOP
 10
0.0
 20
0.0
 30
0.0
  9
$UCSORGBOTTOM
 10
0.0
 20
0.0
 30
0.0
  9
$UCSORGLEFT
 10
0.0
 20
0.0
 30
0.0
  9
$UCSORGRIGHT
 10
0.0
 20
0.0
 30
0.0
  9
$UCSORGFRONT
 10
0.0
 20
0.0
 30
0.0
  9
$UCSORGBACK
 10
0.0
 20
0.0
 30
0.0
  9
$PUCSBASE
  2

  9
$PUCSNAME
  2

  9
$PUCSORG
 10
0.0
 20
0.0
 30
0.0
  9
$PUCSXDIR
 10
1.0
 20
0.0
 30
0.0
  9
$PUCSYDIR
 10
0.0
 20
1.0
 30
0.0
  9
$PUCSORTHOREF
  2

  9
$PUCSORTHOVIEW
 70
     0
  9
$PUCSORGTOP
 10
0.0
 20
0.0
 30
0.0
  9
$PUCSORGBOTTOM
 10
0.0
 20
0.0
 30
0.0
  9
$PUCSORGLEFT
 10
0.0
 20
0.0
 30
0.0
  9
$PUCSORGRIGHT
 10
0.0
 20
0.0
 30
0.0
  9
$PUCSORGFRONT
 10
0.0
 20
0.0
 30
0.0
  9
$PUCSORGBACK
 10
0.0
 20
0.0
 30
0.0
  9
$USERI1
 70
     0
  9
$USERI2
 70
     0
  9
$USERI3
 70
     0
  9
$USERI4
 70
     0
  9
$USERI5
 70
     0
  9
$USERR1
 40
0.0
  9
$USERR2
 40
0.0
  9
$USERR3
 40
0.0
  9
$USERR4
 40
0.0
  9
$USERR5
 40
0.0
  9
$WORLDVIEW
 70
     1
  9
$SHADEDGE
 70
     1
  9
$SHADEDIF
 70
    70
  9
$TILEMODE
 70
     1
  9
$MAXACTVP
 70
    16
  9
$PINSBASE
 10
0.0
 20
0.0
 30
0.0
  9
$PLIMCHECK
 70
     0
  9
$PEXTMIN
 10
1.000000000000000E+20
 20
1.000000000000000E+20
 30
1.000000000000000E+20
  9
$PEXTMAX
 10
-1.000000000000000E+20
 20
-1.000000000000000E+20
 30
-1.000000000000000E+20
  9
$PLIMMIN
 10
0.0
 20
0.0
  9
$PLIMMAX
 10
12.0
 20
9.0
  9
$UNITMODE
 70
     0
  9
$VISRETAIN
 70
     0
  9
$PLINEGEN
 70
     0
  9
$PSLTSCALE
 70
     1
  9
$TREEDEPTH
 70
  3020
  9
$CMLSTYLE
  2
STANDARD
  9
$CMLJUST
 70
     0
  9
$CMLSCALE
 40
1.0
  9
$PROXYGRAPHICS
 70
     1
  9
$MEASUREMENT
 70
     0
  9
$CELWEIGHT
370
    -1
  9
$ENDCAPS
280
     0
  9
$JOINSTYLE
280
     0
  9
$LWDISPLAY
290
     0
  9
$INSUNITS
 70
     0
  9
$HYPERLINKBASE
  1

  9
$STYLESHEET
  1

  9
$XEDIT
290
     1
  9
$CEPSNTYPE
380
     0
  9
$PSTYLEMODE
290
     1
  9
$FINGERPRINTGUID
  2
{A6232B84-9B2E-11D3-8DA4-00A0C981A35F}
  9
$VERSIONGUID
  2
{970E6E38-19B4-11D4-8DA4-00A0C981A35F}
  9
$EXTNAMES
290
     1
  9
$PSVPSCALE
 40
0.0
  9
$OLESTARTUP
290
     0
  0
ENDSEC
  0
SECTION
  2
CLASSES
  0
CLASS
  1
DICTIONARYVAR
  2
AcDbDictionaryVar
  3
AutoCAD 2000
 90
    32768
280
     0
281
     0
  0
CLASS
  1
LWPOLYLINE
  2
AcDbPolyline
  3
AutoCAD 2000
 90
    32768
280
     0
281
     1
  0
CLASS
  1
RASTERVARIABLES
  2
AcDbRasterVariables
  3
ISM
 90
    32768
280
     0
281
     0
  0
CLASS
  1
ACDBDICTIONARYWDFLT
  2
AcDbDictionaryWithDefault
  3
AutoCAD 2000
 90
        0
280
     0
281
     0
  0
CLASS
  1
ACDBPLACEHOLDER
  2
AcDbPlaceHolder
  3
AutoCAD 2000
 90
        0
280
     0
281
     0
  0
CLASS
  1
LAYOUT
  2
AcDbLayout
  3
AutoCAD 2000
 90
        0
280
     0
281
     0
  0
CLASS
  1
ACME_DOCUMENT
  2
AcMeDbDoc
  3
AcMeServices
 90
    32768
280
     1
281
     0
  0
CLASS
  1
ACMESCOPE
  2
AcMeScope
  3
AcMeServices
 90
    32768
280
     1
281
     0
  0
CLASS
  1
ACMECOMMANDHISTORY
  2
AcMeCommandHistory
  3
AcMeServices
 90
    32768
280
     1
281
     0
  0
CLASS
  1
ACIMSYSVARMAN
  2
AcImSysVarManager
  3
AcMeServices
 90
    32768
280
     1
281
     0
  0
CLASS
  1
ACIMREALSYSVAR
  2
AcImRealSysVar
  3
AcMeServices
 90
    32768
280
     1
281
     0
  0
CLASS
  1
ACIMINTSYSVAR
  2
AcImIntSysVar
  3
AcMeServices
 90
    32768
280
     1
281
     0
  0
CLASS
  1
ACMEDRAWINGMAN
  2
AcMeDrawingMan
  3
AcMeServices
 90
    32768
280
     1
281
     0
  0
CLASS
  1
ACMEVIEW
  2
AcMeView
  3
AcMeServices
 90
    32768
280
     1
281
     0
  0
CLASS
  1
ACDBENTITYCACHE
  2
AcMeEntityCache
  3
AcMeServices
 90
    32768
280
     1
281
     0
  0
CLASS
  1
GSMANAGER
  2
AcMeGSManager
  3
AcMeServices
 90
    32768
280
     1
281
     0
  0
CLASS
  1
AmdtInternalReactor
  2
AmdtInternalReactor
  3
AcMeServices
 90
    32768
280
     1
281
     0
  0
CLASS
  1
ACMESTATEMGR
  2
AcMeStateMgr
  3
AcMeServices
 90
    32768
280
     1
281
     0
  0
CLASS
  1
ACGREFMASTER
  2
AcGrefMaster
  3
AcAttribServices
 90
    32768
280
     1
281
     0
  0
CLASS
  1
AM_DRAWING_MGR
  2
AcDmDwgMgr
  3
AcMechDwgViewMgmt
 90
    32768
280
     1
281
     0
  0
CLASS
  1
AM_DWG_DOCUMENT
  2
AcDmDwgDocument
  3
AcMechDwgViewMgmt
 90
    32768
280
     1
281
     0
  0
CLASS
  1
AM_DWG_SHEET
  2
AcDmSheet
  3
AcMechDwgViewMgmt
 90
    32768
280
     1
281
     0
  0
CLASS
  1
AM_VIEWDIMPARMAP
  2
AcDmViewDimParMap
  3
AcMechDwgViewMgmt
 90
    32768
280
     1
281
     0
  0
CLASS
  1
AM_DWGMGR_NAME
  2
AcDmDwgMgrName
  3
AcMechDwgViewMgmt
 90
    32768
280
     1
281
     0
  0
CLASS
  1
ACME_DATABASE
  2
AcMeDbDatabase
  3
AcMeServices
 90
    32768
280
     1
281
     0
  0
CLASS
  1
ACRFINSADJUSTERMGR
  2
AcRfInsAdjusterMgr
  3
AcMeServices
 90
    32768
280
     1
281
     0
  0
CLASS
  1
ACGREFMASTER
  2
AcGrefacadMaster
  3
AcGrefServices
 90
    32768
280
     1
281
     0
  0
CLASS
  1
AMDTMENUSTATEMGR
  2
AmdtMenuStateMgr
  3
McadcomServices
 90
    32768
280
     1
281
     0
  0
CLASS
  1
AMDTMCOMMENUSTATE
  2
AmdtMcomMenuState
  3
McadcomServices
 90
    32768
280
     1
281
     0
  0
CLASS
  1
ASAPP
  2
AcAsAppObject
  3
AutoSurfServices
 90
    32768
280
     1
281
     0
  0
CLASS
  1
IM_STATIC_MAN
  2
AcImStaticVarManager
  3
AcMeServices
 90
    32768
280
     1
281
     0
  0
CLASS
  1
ACIMSTRSYSVAR
  2
AcImStrSysVar
  3
AcMeServices
 90
    32768
280
     1
281
     0
  0
CLASS
  1
ACIMDBLSTATICVAR
  2
AcImDblStaticVar
  3
AcMeServices
 90
    32768
280
     1
281
     0
  0
CLASS
  1
ACIMSTRSTATICVAR
  2
AcImStrStaticVar
  3
AcMeServices
 90
    32768
280
     1
281
     0
  0
CLASS
  1
ACIMINTSTATICVAR
  2
AcImIntStaticVar
  3
AcMeServices
 90
    32768
280
     1
281
     0
  0
CLASS
  1
ACADGREFMODULE
  2
AcAdGrefModule
  3
AdGrefServices
 90
    32768
280
     1
281
     0
  0
CLASS
  1
AMIMASTER
  2
AmiMaster
  3
AmiServices
 90
    32768
280
     1
281
     0
  0
CLASS
  1
ACASGREFMASTER
  2
AcAsGrefMaster
  3
AutoSurfResolverServices
 90
    32768
280
     1
281
     0
  0
CLASS
  1
MAPIAMMOUDLE
  2
MApiAmModule
  3
MApiAmServices
 90
    32768
280
     1
281
     0
  0
CLASS
  1
AMDTDMMENUSTATE
  2
AmdtDmMenuState
  3
AcMechDwgViewMgmt
 90
    32768
280
     1
281
     0
  0
CLASS
  1
AMDTADMENUSTATE
  2
AmdtAdMenuState
  3
DesignerServices
 90
    32768
280
     1
281
     0
  0
CLASS
  1
ADAPPL
  2
AcAdAppl
  3
DesignerServices
 90
    32768
280
     1
281
     0
  0
CLASS
  1
DEPMGR
  2
AcAdDepMgr
  3
DesignerServices
 90
    32768
280
     1
281
     0
  0
CLASS
  1
PARAMMGR
  2
AcAdParamMgr
  3
DesignerServices
 90
    32768
280
     1
281
     0
  0
CLASS
  1
PARAMSCOPE
  2
AcAdParamScope
  3
DesignerServices
 90
    32768
280
     1
281
     0
  0
CLASS
  1
NAMEDAPPL
  2
AcAdNamedAppl
  3
DesignerServices
 90
    32768
280
     1
281
     0
  0
CLASS
  1
ADHNTMPLT
  2
AdHoleNoteTemplateMgr
  3
DesignerServices
 90
    32768
280
     1
281
     0
  0
CLASS
  1
AM_HNTEMPLATE_MGR_NAME
  2
AdHoleNoteTemplateMgrName
  3
DesignerServices
 90
    32768
280
     1
281
     0
  0
CLASS
  1
AMDTAMMENUSTATE
  2
AmdtAmMenuState
  3
DesignerAssemblies
 90
    32768
280
     1
281
     0
  0
CLASS
  1
ACAMPROJECT
  2
AcAmProject
  3
DesignerAssemblies
 90
    32768
280
     1
281
     0
  0
CLASS
  1
ACAMGRCOMPDEF
  2
AcAmGrCompDef
  3
DesignerAssemblies
 90
    32768
280
     1
281
     0
  0
CLASS
  1
ACCMCONTEXT
  2
AcCmContext
  3
DesignerAssemblies
 90
    32768
280
     1
281
     0
  0
CLASS
  1
ACAMCOMPDEF
  2
AcAmCompDef
  3
DesignerAssemblies
 90
    32768
280
     1
281
     0
  0
CLASS
  1
ACAMCOMPDEFMGR
  2
AcAmCompDefMgr
  3
DesignerAssemblies
 90
    32768
280
     1
281
     0
  0
CLASS
  1
AMCONTEXTMGR
  2
AcAmContextMgr
  3
DesignerAssemblies
 90
    32768
280
     1
281
     0
  0
CLASS
  1
ACAMCONTEXTMODELER
  2
AcAmContextModeler
  3
DesignerAssemblies
 90
    32768
280
     1
281
     0
  0
CLASS
  1
MAPIADMODULE
  2
MApiAdModule
  3
MApiAdServices
 90
    32768
280
     1
281
     0
  0
CLASS
  1
ACMDATADICTIONARY
  2
AcmDataDictionary
  3
"AcmSymBB|Product Description: AutoCAD Mechanical 2000|Company: Autodesk"
 90
    32768
280
     1
281
     0
  0
CLASS
  1
ACMDATAENTRYBLOCK
  2
AcmDataEntryBlock
  3
"AcmSymBB|Product Description: AutoCAD Mechanical 2000|Company: Autodesk"
 90
    32768
280
     1
281
     0
  0
CLASS
  1
AMDTBROWSERDBTAB
  2
AmdtBrowserDbTab
  3
McadcomServices
 90
    32768
280
     1
281
     0
  0
CLASS
  1
CBROWSERAPPOBJECT
  2
CBrowserAppObject
  3
McadcomServices
 90
    32768
280
     1
281
     0
  0
CLASS
  1
DM_PLACEHOLDER
  2
AcDmSelsetPlaceholder
  3
AcMechDwgViewMgmt
 90
    32768
280
     1
281
     0
  0
CLASS
  1
CATALOGSTATE
  2
AcAmCatalogState
  3
DesignerAssemblies
 90
    32768
280
     1
281
     0
  0
CLASS
  1
ACAMGRCOMPDEFSET
  2
AcAmGrCompDefSet
  3
DesignerAssemblies
 90
    32768
280
     1
281
     0
  0
CLASS
  1
AMGOBJPROPCFG
  2
AmgObjPropCfg
  3
"AmgLay|Product Description: AutoCAD Mechanical 2000|Company: Autodesk"
 90
    32769
280
     1
281
     0
  0
CLASS
  1
LAYER_INDEX
  2
AcDbLayerIndex
  3
AutoCAD 2000
 90
    32768
280
     0
281
     0
  0
CLASS
  1
IDBUFFER
  2
AcDbIdBuffer
  3
AutoCAD 2000
 90
    32768
280
     0
281
     0
  0
CLASS
  1
ACRFATTGENMGR
  2
AcRfAttGeneralMgr
  3
AcAttribServices
 90
    32768
280
     1
281
     0
  0
CLASS
  1
PLOTSETTINGS
  2
AcDbPlotSettings
  3
AutoCAD 2000
 90
    32768
280
     0
281
     0
  0
CLASS
  1
LONG_TRANSACTION
  2
AcDbLongTransaction
  3
AutoCAD 2000
 90
    32768
280
     0
281
     0
  0
CLASS
  1
LWPOLYLINE
  2
AcDbPolyline
  3
AutoCAD 2000
 90
    32768
280
     0
281
     1
  0
CLASS
  1
HATCH
  2
AcDbHatch
  3
AutoCAD 2000
 90
    32768
280
     0
281
     1
  0
CLASS
  1
XRECORD
  2
AcDbXrecord
  3
AutoCAD 2000
 90
    32768
280
     0
281
     0
  0
CLASS
  1
LONG_TRANSACTION
  2
AcDbLongTransaction
  3
AutoCAD 2000
 90
    32768
280
     0
281
     0
  0
CLASS
  1
LWPOLYLINE
  2
AcDbPolyline
  3
AutoCAD 2000
 90
    32768
280
     0
281
     1
  0
CLASS
  1
HATCH
  2
AcDbHatch
  3
AutoCAD 2000
 90
    32768
280
     0
281
     1
  0
CLASS
  1
XRECORD
  2
AcDbXrecord
  3
AutoCAD 2000
 90
    32768
280
     0
281
     0
  0
CLASS
  1
LONG_TRANSACTION
  2
AcDbLongTransaction
  3
AutoCAD 2000
 90
    32768
280
     0
281
     0
  0
CLASS
  1
LWPOLYLINE
  2
AcDbPolyline
  3
AutoCAD 2000
 90
    32768
280
     0
281
     1
  0
CLASS
  1
HATCH
  2
AcDbHatch
  3
AutoCAD 2000
 90
    32768
280
     0
281
     1
  0
CLASS
  1
XRECORD
  2
AcDbXrecord
  3
AutoCAD 2000
 90
    32768
280
     0
281
     0
  0
CLASS
  1
LONG_TRANSACTION
  2
AcDbLongTransaction
  3
AutoCAD 2000
 90
    32768
280
     0
281
     0
  0
CLASS
  1
LWPOLYLINE
  2
AcDbPolyline
  3
AutoCAD 2000
 90
    32768
280
     0
281
     1
  0
CLASS
  1
HATCH
  2
AcDbHatch
  3
AutoCAD 2000
 90
    32768
280
     0
281
     1
  0
CLASS
  1
XRECORD
  2
AcDbXrecord
  3
AutoCAD 2000
 90
    32768
280
     0
281
     0
  0
ENDSEC
  0
SECTION
  2
TABLES
  0
TABLE
  2
VPORT
  5
1B
330
0
100
AcDbSymbolTable
 70
     2
  0
VPORT
  5
11F87
330
1B
100
AcDbSymbolTableRecord
100
AcDbViewportTableRecord
  2
*Active
 70
     0
 10
0.0
 20
0.0
 11
1.0
 21
1.0
 12
71.78091300172326
 22
-122.3299751720546
 13
0.0
 23
0.0
 14
1.0
 24
1.0
 15
0.0
 25
0.0
 16
0.0
 26
0.0
 36
1.0
 17
-64.46234487877643
 27
33.0238264231553
 37
6.148717398612387
 40
55.42287780926754
 41
1.413068844807468
 42
50.0
 43
-6.148717398612387
 44
-6.148717398612387
 50
0.0
 51
0.0
 71
     0
 72
 20000
 73
     1
 74
     1
 75
     0
 76
     0
 77
     0
 78
     2
281
     0
 65
     1
110
0.0
120
0.0
130
0.0
111
1.0
121
0.0
131
0.0
112
0.0
122
1.0
132
0.0
 79
     0
146
0.0
  0
ENDTAB
  0
TABLE
  2
LTYPE
  5
16
330
0
100
AcDbSymbolTable
 70
     1
  0
LTYPE
  5
17
330
16
100
AcDbSymbolTableRecord
100
AcDbLinetypeTableRecord
  2
BYBLOCK
 70
     0
  3

 72
    65
 73
     0
 40
0.0
  0
LTYPE
  5
18
330
16
100
AcDbSymbolTableRecord
100
AcDbLinetypeTableRecord
  2
BYLAYER
 70
     0
  3

 72
    65
 73
     0
 40
0.0
  0
LTYPE
  5
9
330
16
100
AcDbSymbolTableRecord
100
AcDbLinetypeTableRecord
  2
CONTINUOUS
 70
     0
  3
Solid line
 72
    65
 73
     0
 40
0.0
  0
ENDTAB
  0
TABLE
  2
LAYER
  5
11
330
0
100
AcDbSymbolTable
 70
     5
  0
LAYER
  5
5
330
11
100
AcDbSymbolTableRecord
100
AcDbLayerTableRecord
  2
0
 70
     0
 62
     7
  6
CONTINUOUS
370
    -3
390
6
  0
LAYER
  5
24
330
11
100
AcDbSymbolTableRecord
100
AcDbLayerTableRecord
  2
A1
 70
     0
 62
     7
  6
CONTINUOUS
370
    -3
390
6
  0
LAYER
  5
51
330
11
100
AcDbSymbolTableRecord
100
AcDbLayerTableRecord
  2
LINEWORK
 70
     0
 62
    41
  6
CONTINUOUS
370
    -3
390
6
  0
LAYER
  5
A6
330
11
100
AcDbSymbolTableRecord
100
AcDbLayerTableRecord
  2
Defpoints
 70
     0
 62
     7
  6
CONTINUOUS
290
     0
370
    -3
390
6
  0
LAYER
  5
D0AD
330
11
100
AcDbSymbolTableRecord
100
AcDbLayerTableRecord
  2
ASHADE
 70
     4
 62
     7
  6
CONTINUOUS
370
    -3
390
6
  0
ENDTAB
  0
TABLE
  2
STYLE
  5
12
330
0
100
AcDbSymbolTable
 70
     3
  0
STYLE
  5
13
330
12
100
AcDbSymbolTableRecord
100
AcDbTextStyleTableRecord
  2
STANDARD
 70
     0
 40
0.0
 41
1.0
 50
0.0
 71
     0
 42
1.0
  3
unvr55w.ttf
  4

1001
ACAD
1000
Univers
1071
       34
  0
STYLE
  5
52
330
12
100
AcDbSymbolTableRecord
100
AcDbTextStyleTableRecord
  2
ROMANC
 70
     0
 40
0.0
 41
1.0
 50
0.0
 71
     0
 42
0.5
  3
TIMESBD.TTF
  4

1001
ACAD
1000
Times New Roman
1071
 33554450
  0
STYLE
  5
53
330
12
100
AcDbSymbolTableRecord
100
AcDbTextStyleTableRecord
  2
barcoder
 70
     0
 40
0.0
 41
1.0
 50
0.0
 71
     0
 42
4.5625
  3
cw_barcd.ttf
  4

1001
ACAD
1000
Barcoder
1071
 33554434
  0
ENDTAB
  0
TABLE
  2
VIEW
  5
19
330
0
100
AcDbSymbolTable
 70
     0
  0
ENDTAB
  0
TABLE
  2
UCS
  5
1A
330
0
100
AcDbSymbolTable
 70
     0
  0
ENDTAB
  0
TABLE
  2
APPID
  5
1D
330
0
100
AcDbSymbolTable
 70
     7
  0
APPID
  5
14
330
1D
100
AcDbSymbolTableRecord
100
AcDbRegAppTableRecord
  2
ACAD
 70
     0
  0
APPID
  5
54
330
1D
100
AcDbSymbolTableRecord
100
AcDbRegAppTableRecord
  2
DCO15
 70
     0
  0
APPID
  5
D0B4
330
1D
100
AcDbSymbolTableRecord
100
AcDbRegAppTableRecord
  2
AVE_RENDER
 70
     0
  0
APPID
  5
D0B5
330
1D
100
AcDbSymbolTableRecord
100
AcDbRegAppTableRecord
  2
AVE_ENTITY_MATERIAL
 70
     0
  0
APPID
  5
D0B6
330
1D
100
AcDbSymbolTableRecord
100
AcDbRegAppTableRecord
  2
AVE_FINISH
 70
     0
  0
APPID
  5
D0B7
330
1D
100
AcDbSymbolTableRecord
100
AcDbRegAppTableRecord
  2
AVE_MATERIAL
 70
     0
  0
APPID
  5
D0B8
330
1D
100
AcDbSymbolTableRecord
100
AcDbRegAppTableRecord
  2
AVE_GLOBAL
 70
     0
  0
ENDTAB
  0
TABLE
  2
DIMSTYLE
  5
1E
330
0
100
AcDbSymbolTable
 70
     1
100
AcDbDimStyleTable
 71
     0
  0
DIMSTYLE
105
1F
102
{ACAD_REACTORS
330
116F3
330
11E7F
102
}
330
1E
100
AcDbSymbolTableRecord
100
AcDbDimStyleTableRecord
  2
STANDARD
 70
     0
  3
"
 41
0.5
 42
1.0
 43
0.0625
 44
0.25
 73
     0
 74
     0
 77
     3
140
1.0
141
0.0
146
0.125
147
0.125
171
     0
274
     0
276
     2
277
     5
285
     2
286
     2
289
     0
340
13
  0
ENDTAB
  0
TABLE
  2
BLOCK_RECORD
  5
1
330
0
100
AcDbSymbolTable
 70
     8
  0
BLOCK_RECORD
  5
2
102
{ACAD_XDICTIONARY
360
3
102
}
330
1
100
AcDbSymbolTableRecord
100
AcDbBlockTableRecord
  2
*MODEL_SPACE
340
B
  0
BLOCK_RECORD
  5
D
102
{ACAD_XDICTIONARY
360
11E60
102
}
330
1
100
AcDbSymbolTableRecord
100
AcDbBlockTableRecord
  2
*PAPER_SPACE
340
10
  0
BLOCK_RECORD
  5
4E
330
1
100
AcDbSymbolTableRecord
100
AcDbBlockTableRecord
  2
SCF
340
0
102
{BLKREFS
331
56
102
}
  0
BLOCK_RECORD
  5
55
330
1
100
AcDbSymbolTableRecord
100
AcDbBlockTableRecord
  2
TSFORMA
340
0
  0
BLOCK_RECORD
  5
CF36
330
1
100
AcDbSymbolTableRecord
100
AcDbBlockTableRecord
  2
PROFILE LOGO
340
0
102
{BLKREFS
331
1193E
102
}
  0
BLOCK_RECORD
  5
D0A5
330
1
100
AcDbSymbolTableRecord
100
AcDbBlockTableRecord
  2
AVE_RENDER
340
0
102
{BLKREFS
331
D0CF
331
D0D0
331
D0D1
331
D0D2
331
D0D3
331
D0D4
331
D0D5
331
D0D6
331
D154
331
D155
331
D156
331
D157
331
D158
331
D159
331
D15A
331
D15B
102
}
  0
BLOCK_RECORD
  5
D0A8
330
1
100
AcDbSymbolTableRecord
100
AcDbBlockTableRecord
  2
AVE_GLOBAL
340
0
102
{BLKREFS
331
D0D7
331
D15C
102
}
  0
BLOCK_RECORD
  5
116F4
330
1
100
AcDbSymbolTableRecord
100
AcDbBlockTableRecord
  2
*D5
340
0
  0
BLOCK_RECORD
  5
11D69
330
1
100
AcDbSymbolTableRecord
100
AcDbBlockTableRecord
  2
TSFORMB
340
0
102
{BLKREFS
331
11D9C
102
}
  0
BLOCK_RECORD
  5
11E80
330
1
100
AcDbSymbolTableRecord
100
AcDbBlockTableRecord
  2
*D7
340
0
  0
ENDTAB
  0
ENDSEC
  0
SECTION
  2
BLOCKS
  0
BLOCK
  5
4
330
2
100
AcDbEntity
  8
0
100
AcDbBlockBegin
  2
*MODEL_SPACE
 70
     2
 10
0.0
 20
0.0
 30
0.0
  3
*MODEL_SPACE
  1

  0
ENDBLK
  5
A
330
2
100
AcDbEntity
  8
0
100
AcDbBlockEnd
  0
BLOCK
  5
E
330
D
100
AcDbEntity
 67
     1
  8
0
100
AcDbBlockBegin
  2
*PAPER_SPACE
 70
     0
 10
0.0
 20
0.0
 30
0.0
  3
*PAPER_SPACE
  1

  0
ENDBLK
  5
F
330
D
100
AcDbEntity
 67
     1
  8
0
100
AcDbBlockEnd
  0
BLOCK
  5
4F
330
4E
100
AcDbEntity
  8
0
 62
     7
100
AcDbBlockBegin
  2
SCF
 70
     0
 10
0.0
 20
0.0
 30
0.0
  3
SCF
  1

  0
ENDBLK
  5
50
330
4E
100
AcDbEntity
  8
0
 62
     7
100
AcDbBlockEnd
  0
BLOCK
  5
88
330
55
100
AcDbEntity
  8
0
 62
     7
100
AcDbBlockBegin
  2
TSFORMA
 70
     2
 10
0.0
 20
0.0
 30
0.0
  3
TSFORMA
  1

  0
INSERT
  5
56
330
55
100
AcDbEntity
  8
A1
 62
     7
100
AcDbBlockReference
  2
SCF
 10
0.0
 20
0.0
 30
0.0
  0
LINE
  5
57
330
55
100
AcDbEntity
  8
0
 62
     7
100
AcDbLine
 10
33.85359849505566
 20
6.139911809868134
 30
0.0
 11
15.45863081043479
 21
6.139911809868134
 31
0.0
  0
LINE
  5
58
330
55
100
AcDbEntity
  8
0
 62
     7
100
AcDbLine
 10
33.85359849505566
 20
1.705154898157314
 30
0.0
 11
15.45863081043479
 21
1.705154898157314
 31
0.0
  0
LINE
  5
59
330
55
100
AcDbEntity
  8
0
 62
     7
100
AcDbLine
 10
33.85359849505566
 20
2.829459360019779
 30
0.0
 11
15.45863081043479
 21
2.829459360019779
 31
0.0
  0
LINE
  5
5A
330
55
100
AcDbEntity
  8
0
100
AcDbLine
 10
15.45863081043479
 20
7.419467812060279
 30
0.0
 11
63.0907971953311
 21
7.419467812060275
 31
0.0
  0
LINE
  5
5B
330
55
100
AcDbEntity
  8
0
100
AcDbLine
 10
0.0
 20
0.0
 30
0.0
 11
63.0907971953311
 21
0.0
 31
0.0
  0
LINE
  5
5C
330
55
100
AcDbEntity
  8
0
100
AcDbLine
 10
0.0
 20
46.93339791359997
 30
0.0
 11
0.0
 21
0.0
 31
0.0
  0
ATTDEF
  5
5D
330
55
100
AcDbEntity
  8
A1
 62
     1
100
AcDbText
 10
12.82959661403713
 20
1.116082561967672
 30
0.0
 40
0.5
  1

 72
     2
 11
12.82959661403713
 21
1.116082561967672
 31
0.0
100
AcDbAttributeDefinition
  3
ADD BARCODE TEXT
  2
XXXXXX
 70
     0
  0
ATTDEF
  5
5E
330
55
100
AcDbEntity
  8
A1
 62
     1
100
AcDbText
 10
7.602187176088335
 20
1.863125907903508
 30
0.0
 40
4.5625
  1

  7
barcoder
 72
     1
 11
7.602187176088335
 21
1.863125907903508
 31
0.0
100
AcDbAttributeDefinition
  3
ADD BARCODE NUMBER
  2
BARCODE
 70
     0
  0
LINE
  5
5F
330
55
100
AcDbEntity
  8
0
 62
     7
100
AcDbLine
 10
15.45863081043479
 20
7.419467812060279
 30
0.0
 11
0.0
 21
7.419467812060279
 31
0.0
  0
TEXT
  5
60
330
55
100
AcDbEntity
  8
0
 62
     7
100
AcDbText
 10
18.19366726416784
 20
4.860691571657334
 30
0.0
 40
0.625
  1
- Finished Side
100
AcDbText
  0
TEXT
  5
61
330
55
100
AcDbEntity
  8
0
 62
     7
100
AcDbText
 10
18.20026126845819
 20
3.503849832636042
 30
0.0
 40
0.625
  1
- Unfinished Side
100
AcDbText
  0
LINE
  5
62
330
55
100
AcDbEntity
  8
0
100
AcDbLine
 10
15.45863081043479
 20
0.0
 30
0.0
 11
15.45863081043479
 21
7.419467812060279
 31
0.0
  0
LINE
  5
63
330
55
100
AcDbEntity
  8
0
 62
     7
100
AcDbLine
 10
15.94519003511693
 20
5.088809590082902
 30
0.0
 11
17.45428617139502
 21
5.088809590082902
 31
0.0
  0
TEXT
  5
64
330
55
100
AcDbEntity
  8
0
 62
     7
100
AcDbText
 10
16.48339397174975
 20
3.663762155695707
 30
0.0
 40
0.00390625
  1
TANNERSTONE 0001 TANNERSTONE 0001 TANNERSTONE 0001 TANNERSTONE 0001 TANNERSTONE 0001 TANNERSTONE 0001 TANNERSTONE 0001
 72
     1
 11
16.69109656521183
 21
3.663762155695707
 31
0.0
100
AcDbText
  0
LINE
  5
65
330
55
100
AcDbEntity
  8
0
 62
     7
100
AcDbLine
 10
15.94519003511693
 20
3.814849102060051
 30
0.0
 11
17.45428617139502
 21
3.814849102060051
 31
0.0
  0
TEXT
  5
66
330
55
100
AcDbEntity
  8
0
 62
     7
100
AcDbText
 10
15.94386684512347
 20
3.663762155695707
 30
0.0
 40
0.00390625
  1
TANNERSTONE 0001 TANNERSTONE 0001 TANNERSTONE 0001 TANNERSTONE 0001 TANNERSTONE 0001 TANNERSTONE 0001 TANNERSTONE 0001
 72
     1
 11
16.15156943858555
 21
3.663762155695707
 31
0.0
100
AcDbText
  0
TEXT
  5
67
330
55
100
AcDbEntity
  8
0
 62
     7
100
AcDbText
 10
17.04152309512345
 20
3.663762155695707
 30
0.0
 40
0.00390625
  1
TANNERSTONE 0001 TANNERSTONE 0001 TANNERSTONE 0001 TANNERSTONE 0001 TANNERSTONE 0001 TANNERSTONE 0001 TANNERSTONE 0001
 72
     1
 11
17.24922568858554
 21
3.663762155695707
 31
0.0
100
AcDbText
  0
ATTDEF
  5
68
330
55
100
AcDbEntity
  8
A1
 62
     1
100
AcDbText
 10
24.55771846427264
 20
0.6162142197210088
 30
0.0
 40
0.7559999999999999
  1

 72
     1
 11
24.55771846427264
 21
0.6162142197210088
 31
0.0
100
AcDbAttributeDefinition
  3
ADD CATEGORY NAMES
  2
XXXXXX
 70
     0
  0
TEXT
  5
69
330
55
100
AcDbEntity
  8
0
 62
     7
100
AcDbText
 10
22.72809728616285
 20
2.02499953627948
 30
0.0
 40
0.5
  1
CATEGORY
 72
     1
 11
24.68840912174046
 21
2.02499953627948
 31
0.0
100
AcDbText
  0
TEXT
  5
6A
330
55
100
AcDbEntity
  8
0
 62
     7
100
AcDbText
 10
23.38153703079662
 20
6.531576458849073
 30
0.0
 40
0.4812500000000001
  1
LEGEND
100
AcDbText
  0
LINE
  5
6B
330
55
100
AcDbEntity
  8
0
100
AcDbLine
 10
63.0907971953311
 20
0.0
 30
0.0
 11
63.0907971953311
 21
46.93339791359997
 31
0.0
  0
LINE
  5
6C
330
55
100
AcDbEntity
  8
0
100
AcDbLine
 10
33.85359849505567
 20
3.957609866513919
 30
0.0
 11
63.0907971953311
 21
3.957609866513919
 31
0.0
  0
TEXT
  5
6D
330
55
100
AcDbEntity
  8
0
100
AcDbText
 10
34.42750303318053
 20
2.935195390265757
 30
0.0
 40
0.6616455005868908
  1
ARCHITECTURAL CONCRETE CO., INC.
 41
1.25
 72
     4
 11
45.64904120290566
 21
3.21678158665302
 31
0.0
100
AcDbText
  0
TEXT
  5
6E
330
55
100
AcDbEntity
  8
0
100
AcDbText
 10
38.10554018840551
 20
0.4042122027146437
 30
0.0
 40
0.3900256199701639
  1
PHONE: 1-800-789-4841  FAX : 770-463-2635
 41
1.1875
 72
     4
 11
45.67456989459564
 21
0.5986721769520713
 31
0.0
100
AcDbText
  0
TEXT
  5
6F
330
55
100
AcDbEntity
  8
0
 62
     7
100
AcDbText
 10
36.45030612377447
 20
4.701996929624826
 30
0.0
 40
2.12625
  1
TannerStone
  7
ROMANC
 72
     1
 11
45.19112937160684
 21
4.701996929624826
 31
0.0
100
AcDbText
  0
TEXT
  5
70
330
55
100
AcDbEntity
  8
0
100
AcDbText
 10
36.65024310726515
 20
1.16937112143105
 30
0.0
 40
0.3900256199701639
  1
http://TannerStone.com ~ Email:Sales@TannerStone.com 
 41
1.1875
 72
     4
 11
45.88298880572835
 21
1.344758262374401
 31
0.0
100
AcDbText
  0
TEXT
  5
71
330
55
100
AcDbEntity
  8
0
100
AcDbText
 10
35.70454469973866
 20
1.940811732856256
 30
0.0
 40
0.4458291441485832
  1
101 JOHNSTON CIRCLE, PALMETTO, GEORGIA 30268
 41
1.1875
 72
     4
 11
45.7449918415723
 21
2.130549791723176
 31
0.0
100
AcDbText
  0
LINE
  5
72
330
55
100
AcDbEntity
  8
0
100
AcDbLine
 10
33.85359849505567
 20
0.0
 30
0.0
 11
33.85359849505567
 21
7.419467812060275
 31
0.0
  0
LINE
  5
73
330
55
100
AcDbEntity
  8
0
 62
     7
100
AcDbLine
 10
45.8804728588951
 20
4.302323642481653
 30
0.0
 11
45.8804728588951
 21
4.302323642481653
 31
0.0
  0
ATTDEF
  5
74
330
55
100
AcDbEntity
  8
A1
 62
     1
100
AcDbText
 10
60.24601051143854
 20
5.923645198888223
 30
0.0
 40
0.703125
  1

 72
     1
 11
60.24601051143854
 21
5.923645198888223
 31
0.0
100
AcDbAttributeDefinition
  3
ADD PROFILE AREA
  2
XXXXX
 70
     0
  0
ATTDEF
  5
75
330
55
100
AcDbEntity
  8
A1
 62
     1
100
AcDbText
 10
60.22058858229524
 20
4.231165867870629
 30
0.0
 40
0.703125
  1

 72
     1
 11
60.22058858229524
 21
4.231165867870629
 31
0.0
100
AcDbAttributeDefinition
  3
ADD #/LF
  2
XXXXX
 70
     0
  0
LINE
  5
76
330
55
100
AcDbEntity
  8
0
 62
     7
100
AcDbLine
 10
57.40487304162906
 20
5.688538839287097
 30
0.0
 11
63.0907971953311
 21
5.688538839287097
 31
0.0
  0
TEXT
  5
77
330
55
100
AcDbEntity
  8
0
 62
     7
100
AcDbText
 10
57.54164024396835
 20
5.24603903326999
 30
0.0
 40
0.322265625
  1
LBS/LINEAR FEET:
100
AcDbText
  0
LINE
  5
78
330
55
100
AcDbEntity
  8
LINEWORK
 62
     7
100
AcDbLine
 10
57.38685446707747
 20
2.236847700541034
 30
0.0
 11
63.07277862077971
 21
2.236847700541161
 31
0.0
  0
TEXT
  5
79
330
55
100
AcDbEntity
  8
0
 62
     7
100
AcDbText
 10
58.84125519694314
 20
0.9074523356241925
 30
0.0
 40
0.5035400390625
  1
1-1-2000
100
AcDbText
  0
LINE
  5
7A
330
55
100
AcDbEntity
  8
0
100
AcDbLine
 10
57.40487304162886
 20
0.0
 30
0.0
 11
57.40487304162911
 21
7.419467812060275
 31
0.0
  0
ARC
  5
7B
330
55
100
AcDbEntity
  8
0
 62
     7
100
AcDbCircle
 10
54.77484357037856
 20
4.675407294753147
 30
0.0
 40
0.3475219186225837
100
AcDbArc
 50
304.840880646349
 51
297.5553548372075
  0
TEXT
  5
7C
330
55
100
AcDbEntity
  8
0
 62
     7
100
AcDbText
 10
54.52366531937782
 20
4.457137162968933
 30
0.0
 40
0.46875
  1
R
  7
ROMANC
 72
     1
 11
54.77717642848187
 21
4.457137162968933
 31
0.0
100
AcDbText
  0
ARC
  5
7D
330
55
100
AcDbEntity
  8
0
 62
     7
100
AcDbCircle
 10
54.77484357037857
 20
4.675407294753146
 30
0.0
 40
0.3475219186225785
100
AcDbArc
 50
297.5553548372066
 51
304.8408806463482
  0
TEXT
  5
7E
330
55
100
AcDbEntity
  8
0
 62
     7
100
AcDbText
 10
57.55084577252738
 20
3.528313427430639
 30
0.0
 40
0.322265625
  1
SCALE:
100
AcDbText
  0
TEXT
  5
7F
330
55
100
AcDbEntity
  8
0
 62
     7
100
AcDbText
 10
57.58427807884865
 20
1.77327934849093
 30
0.0
 40
0.322265625
  1
DATE:
100
AcDbText
  0
LINE
  5
80
330
55
100
AcDbEntity
  8
0
 62
     7
100
AcDbLine
 10
57.404873041629
 20
3.957609866513919
 30
0.0
 11
56.92061203641685
 21
3.957609866513919
 31
0.0
  0
TEXT
  5
81
330
55
100
AcDbEntity
  8
0
 62
     7
100
AcDbText
 10
60.17361351816539
 20
2.848114535947829
 30
0.0
 40
0.5035400390625
  1
1:1
100
AcDbText
  0
TEXT
  5
82
330
55
100
AcDbEntity
  8
0
 62
     7
100
AcDbText
 10
57.55965863864929
 20
6.943562340807453
 30
0.0
 40
0.322265625
  1
PROFILE AREA:
100
AcDbText
  0
ATTDEF
  5
83
330
55
100
AcDbEntity
  8
A1
 62
     1
100
AcDbText
 10
59.04934003701934
 20
43.69048591217159
 30
0.0
 40
1.2375
  1

 72
     1
 11
59.04934003701934
 21
43.69048591217159
 31
0.0
100
AcDbAttributeDefinition
  3
ADD PAGE NUMBER
  2
TS00XX
 70
     0
  0
LINE
  5
84
330
55
100
AcDbEntity
  8
0
100
AcDbLine
 10
63.0907971953311
 20
41.85161907700595
 30
0.0
 11
55.03498980215056
 21
41.85161907700595
 31
0.0
  0
LINE
  5
85
330
55
100
AcDbEntity
  8
0
100
AcDbLine
 10
55.03498980215056
 20
41.85161907700595
 30
0.0
 11
55.03498980215056
 21
46.93339791359997
 31
0.0
  0
LINE
  5
86
330
55
100
AcDbEntity
  8
0
100
AcDbLine
 10
63.0907971953311
 20
46.93339791359997
 30
0.0
 11
63.0907971953311
 21
41.85161907700595
 31
0.0
  0
LINE
  5
87
330
55
100
AcDbEntity
  8
0
100
AcDbLine
 10
63.0907971953311
 20
46.93339791359997
 30
0.0
 11
0.0
 21
46.93339791359997
 31
0.0
  0
ENDBLK
  5
89
330
55
100
AcDbEntity
  8
0
 62
     7
100
AcDbBlockEnd
  0
BLOCK
  5
CF4F
330
CF36
100
AcDbEntity
  8
0
 62
     7
100
AcDbBlockBegin
  2
PROFILE LOGO
 70
     2
 10
0.0
 20
0.0
 30
0.0
  3
PROFILE LOGO
  1

  0
LINE
  5
CF37
330
CF36
100
AcDbEntity
  8
0
 62
    22
100
AcDbLine
 10
0.7459516636765642
 20
-0.415894330395318
 30
0.0
 11
0.74595166367655
 21
-1.12746688439163
 31
0.0
  0
LINE
  5
CF38
330
CF36
100
AcDbEntity
  8
0
 62
    22
100
AcDbLine
 10
0.5841942848079072
 20
-0.415894330395318
 30
0.0
 11
0.5841942848079072
 21
-1.12746688439163
 31
0.0
  0
HATCH
  5
CF39
330
CF36
100
AcDbEntity
  8
0
 62
    22
100
AcDbHatch
 10
0.0
 20
0.0
 30
0.0
210
0.0
220
0.0
230
1.0
  2
LINE
 70
     0
 71
     0
 91
        1
 92
       33
 93
       38
 72
     1
 10
1.115683196411978
 20
-0.1706330859717084
 11
0.2177636962628071
 21
-0.1706330859717084
 72
     1
 10
0.2177636962628213
 20
-0.1706330859717084
 11
0.2078601968792952
 21
-0.4246889457533243
 72
     1
 10
0.2078601968792952
 20
-0.4246889457533243
 11
0.2375709173007294
 21
-0.4246889457533243
 72
     1
 10
0.2375709173007294
 20
-0.4246889457533243
 11
0.2441732502230991
 21
-0.3817964654080939
 72
     1
 10
0.2441732502230991
 20
-0.3817964654080939
 11
0.254076749606611
 21
-0.3422032805409501
 72
     1
 10
0.2540767496066252
 20
-0.3422032805409501
 11
0.2738837483736916
 21
-0.3092090964125091
 72
     1
 10
0.2738837483736916
 20
-0.3092090964125091
 11
0.2969919136019428
 21
-0.2861130719066693
 72
     1
 10
0.296991913601957
 20
-0.2861130719066764
 11
0.3267026340234338
 21
-0.2663164794731259
 72
     1
 10
0.3267026340234196
 20
-0.2663164794731259
 11
0.356413132174012
 21
-0.2498193191118219
 72
     1
 10
0.356413132174012
 20
-0.2498193191118148
 11
0.3828224638634481
 21
-0.243220591561446
 72
     1
 10
0.3828224638634623
 20
-0.243220591561446
 11
0.4092320178237401
 21
-0.243220591561446
 72
     1
 10
0.4092320178237401
 20
-0.243220591561446
 11
0.4719541805861525
 21
-0.2465198870395469
 72
     1
 10
0.4719541805861525
 20
-0.2465198870395469
 11
0.514869566852326
 21
-0.2729153436176332
 72
     1
 10
0.514869566852326
 20
-0.2729153436176332
 11
0.5742905631535394
 21
-0.3389038484686964
 72
     1
 10
0.5742905631535394
 20
-0.3389038484687106
 11
0.5907966177302626
 21
-0.3916947616248691
 72
     1
 10
0.5907966177302768
 20
-0.3916947616248691
 11
0.5907966177302768
 21
-1.157161773041991
 72
     1
 10
0.5907966177302768
 20
-1.157161773041984
 11
0.5643870637699991
 21
-1.203353685459461
 72
     1
 10
0.5643870637699849
 20
-1.203353685459468
 11
0.4983637345463876
 21
-1.226449709965308
 72
     1
 10
0.4983637345464019
 20
-1.226449709965301
 11
0.4389425159743326
 21
-1.226449709965301
 72
     1
 10
0.4389425159743326
 20
-1.226449709965301
 11
0.4323401830519913
 21
-1.249545734471119
 72
     1
 10
0.4323401830520055
 20
-1.249545734471134
 11
0.8945045989712809
 21
-1.249545734471134
 72
     1
 10
0.8945045989712667
 20
-1.249545734471134
 11
0.8945045989712667
 21
-1.226449709965315
 72
     1
 10
0.8945045989712667
 20
-1.226449709965301
 11
0.8152763816321311
 21
-1.226449709965301
 72
     1
 10
0.8152763816321311
 20
-1.226449709965301
 11
0.7525539965988913
 21
-1.186856661692324
 72
     1
 10
0.7525539965988913
 20
-1.186856661692324
 11
0.7426504972153794
 21
-1.140664612680659
 72
     1
 10
0.7426504972153652
 20
-1.140664612680673
 11
0.7393493307541803
 21
-0.394994193697137
 72
     1
 10
0.7393493307541803
 20
-0.394994193697137
 11
0.7558551630600619
 21
-0.3389038484687106
 72
     1
 10
0.7558551630600761
 20
-0.3389038484687106
 11
0.7987705493262496
 21
-0.2828136398344298
 72
     1
 10
0.7987705493262496
 20
-0.2828136398344227
 11
0.8614929343594894
 21
-0.2498193191118148
 72
     1
 10
0.8614929343594894
 20
-0.2498193191118148
 11
0.9374197629665985
 21
-0.2399211594891923
 72
     1
 10
0.9374197629665985
 20
-0.2399211594891923
 11
1.010045647383407
 21
-0.2663164794731117
 72
     1
 10
1.010045647383407
 20
-0.2663164794731259
 11
1.056262200110722
 21
-0.3092090964125234
 72
     1
 10
1.056262200110722
 20
-0.3092090964125091
 11
1.085972698261343
 21
-0.361999872974522
 72
     1
 10
1.085972698261358
 20
-0.3619998729745291
 11
1.092575031183727
 21
-0.4246889457533243
 72
     1
 10
1.092575031183727
 20
-0.4246889457533243
 11
1.115683196411993
 21
-0.4246889457533243
 72
     1
 10
1.115683196411978
 20
-0.4246889457533243
 11
1.109080863489609
 21
-0.17723195011623
 72
     1
 10
1.109080863489609
 20
-0.17723195011623
 11
1.109080863489609
 21
-0.1739325180439621
 72
     1
 10
1.109080863489609
 20
-0.1739325180439621
 11
1.105779697028424
 21
-0.1739325180439621
 97
        0
 75
     0
 76
     1
 52
0.0
 41
0.078125
 77
     0
 78
     1
 53
0.0
 43
-28.182772630023
 44
-32.9923404580304
 45
0.0
 46
0.009765625
 79
     0
 98
        1
 10
-28.182772630023
 20
-32.9923404580304
  0
LWPOLYLINE
  5
CF3A
330
CF36
100
AcDbEntity
  8
0
 62
    22
100
AcDbPolyline
 90
        4
 70
     1
 43
0.0
 10
0.0262955969727301
 20
-0.0287577800528069
 10
1.307151517972869
 20
-0.0287577800528069
 10
1.307151517972869
 20
-1.731261997456265
 10
0.0262955969727301
 20
-1.731261997456265
  0
LINE
  5
CF3B
330
CF36
100
AcDbEntity
  8
0
 62
    22
100
AcDbLine
 10
0.0262955969727443
 20
-1.4112176328236
 30
0.0
 11
1.307151517972869
 21
-1.4112176328236
 31
0.0
  0
ATTDEF
  5
CF3C
330
CF36
100
AcDbEntity
  8
A1
 62
    22
100
AcDbText
 10
0.6781304052809105
 20
-1.678298248906529
 30
0.0
 40
0.2126953125
  1

 72
     1
 11
0.6781304052809105
 21
-1.678298248906529
 31
0.0
100
AcDbAttributeDefinition
  3
ADD STONE MARKER
  2
XXXX
 70
     0
  0
LINE
  5
CF3D
330
CF36
100
AcDbEntity
  8
0
 62
    22
100
AcDbLine
 10
0.7464576960363587
 20
-1.129021462591367
 30
0.0
 11
0.74595166367655
 21
-1.12746688439163
 31
0.0
  0
ARC
  5
CF3E
330
CF36
100
AcDbEntity
  8
0
 62
    22
100
AcDbCircle
 10
0.8421255873066684
 20
-1.127299146756172
 30
0.0
 40
0.0956833935014068
100
AcDbArc
 50
181.0313885659746
 51
269.7936990713142
  0
LINE
  5
CF3F
330
CF36
100
AcDbEntity
  8
0
 62
    22
100
AcDbLine
 10
0.9011069318936506
 20
-1.22315027789304
 30
0.0
 11
0.841781067510368
 21
-1.22315027789304
 31
0.0
  0
LINE
  5
CF40
330
CF36
100
AcDbEntity
  8
0
 62
    22
100
AcDbLine
 10
0.9011069318936506
 20
-1.256144598615648
 30
0.0
 11
0.9011069318936506
 21
-1.22315027789304
 31
0.0
  0
ARC
  5
CF41
330
CF36
100
AcDbEntity
  8
0
 62
    22
100
AcDbCircle
 10
0.4880203611777887
 20
-1.127299146756172
 30
0.0
 40
0.0956833935014068
100
AcDbArc
 50
270.2063009286848
 51
358.9686114340253
  0
LINE
  5
CF42
330
CF36
100
AcDbEntity
  8
0
 62
    22
100
AcDbLine
 10
0.4290390165908207
 20
-1.256144598615648
 30
0.0
 11
0.4290390165908207
 21
-1.22315027789304
 31
0.0
  0
LINE
  5
CF43
330
CF36
100
AcDbEntity
  8
0
 62
    22
100
AcDbLine
 10
0.4290390165908207
 20
-1.22315027789304
 30
0.0
 11
0.4883648809740891
 21
-1.22315027789304
 31
0.0
  0
LINE
  5
CF44
330
CF36
100
AcDbEntity
  8
0
 62
    22
100
AcDbLine
 10
0.5836882524480984
 20
-1.129021462591367
 30
0.0
 11
0.5841942848079072
 21
-1.12746688439163
 31
0.0
  0
LINE
  5
CF45
330
CF36
100
AcDbEntity
  8
0
 62
    22
100
AcDbLine
 10
0.4290390165908207
 20
-1.256144598615648
 30
0.0
 11
0.9011069318936506
 21
-1.256144598615648
 31
0.0
  0
LINE
  5
CF46
330
CF36
100
AcDbEntity
  8
0
 62
    22
100
AcDbLine
 10
1.085512597630156
 20
-0.415894330395318
 30
0.0
 11
1.085512597630156
 21
-0.4280723832374847
 31
0.0
  0
ARC
  5
CF47
330
CF36
100
AcDbEntity
  8
0
 62
    22
100
AcDbCircle
 10
0.9138550451562537
 20
-0.4147906495365632
 30
0.0
 40
0.1716611005230106
100
AcDbArc
 50
359.6316189828552
 51
90.00081606717127
  0
ARC
  5
CF48
330
CF36
100
AcDbEntity
  8
0
 62
    22
100
AcDbCircle
 10
0.9180888683309831
 20
-0.4147906495365632
 30
0.0
 40
0.1716611005230106
100
AcDbArc
 50
89.99918393282873
 51
180.3683810171443
  0
LINE
  5
CF49
330
CF36
100
AcDbEntity
  8
0
 62
    22
100
AcDbLine
 10
0.2078601968792952
 20
-0.427988377825578
 30
0.0
 11
0.2441732502230991
 21
-0.427988377825578
 31
0.0
  0
LINE
  5
CF4A
330
CF36
100
AcDbEntity
  8
0
 62
    22
100
AcDbLine
 10
0.2446333508543006
 20
-0.415894330395318
 30
0.0
 11
0.2446333508543006
 21
-0.4280723832374847
 31
0.0
  0
ARC
  5
CF4B
330
CF36
100
AcDbEntity
  8
0
 62
    22
100
AcDbCircle
 10
0.4162909033282176
 20
-0.4147906495365632
 30
0.0
 40
0.1716611005230106
100
AcDbArc
 50
89.99918393282873
 51
180.3683810171443
  0
LINE
  5
CF4C
330
CF36
100
AcDbEntity
  8
0
 62
    22
100
AcDbLine
 10
0.2144627520724782
 20
-0.1706330859717156
 30
0.0
 11
0.2078601968792952
 21
-0.427988377825578
 31
0.0
  0
ARC
  5
CF4D
330
CF36
100
AcDbEntity
  8
0
 62
    22
100
AcDbCircle
 10
0.4120570801534882
 20
-0.4147906495365632
 30
0.0
 40
0.1716611005230106
100
AcDbArc
 50
359.6316189828552
 51
90.00081606717127
  0
LWPOLYLINE
  5
CF4E
330
CF36
100
AcDbEntity
  8
0
 62
    22
100
AcDbPolyline
 90
        4
 70
     0
 43
0.0
 10
0.224366029185191
 20
-0.1706330859717084
 10
1.115683196411978
 20
-0.1706330859717084
 10
1.122285751605161
 20
-0.427988377825578
 10
1.085972698261358
 20
-0.427988377825578
  0
ENDBLK
  5
CF50
330
CF36
100
AcDbEntity
  8
0
 62
     7
100
AcDbBlockEnd
  0
BLOCK
  5
D0A6
330
D0A5
100
AcDbEntity
  8
ASHADE
100
AcDbBlockBegin
  2
AVE_RENDER
 70
     0
 10
0.0
 20
0.0
 30
0.0
  3
AVE_RENDER
  1
AVE_RENDER
  0
ENDBLK
  5
D0A7
330
D0A5
100
AcDbEntity
  8
0
100
AcDbBlockEnd
  0
BLOCK
  5
D0A9
330
D0A8
100
AcDbEntity
  8
ASHADE
100
AcDbBlockBegin
  2
AVE_GLOBAL
 70
     0
 10
0.0
 20
0.0
 30
0.0
  3
AVE_GLOBAL
  1
AVE_GLOBAL
  0
ENDBLK
  5
D0AA
330
D0A8
100
AcDbEntity
  8
0
100
AcDbBlockEnd
  0
BLOCK
  5
11701
330
116F4
100
AcDbEntity
  8
0
 62
     7
100
AcDbBlockBegin
  2
*D5
 70
     1
 10
0.0
 20
0.0
 30
0.0
  3
*D5
  1

  0
LINE
  5
11F6E
330
116F4
100
AcDbEntity
  8
A1
 62
     0
100
AcDbLine
 10
0.7230629175030705
 20
-103.0495682171571
 30
0.0
 11
0.7230629175030704
 21
-105.6029225119771
 31
0.0
  0
LINE
  5
11F6F
330
116F4
100
AcDbEntity
  8
A1
 62
     0
100
AcDbLine
 10
6.495775417503031
 20
-103.0495682171571
 30
0.0
 11
6.495775417503031
 21
-105.6029225119771
 31
0.0
  0
LINE
  5
11F70
330
116F4
100
AcDbEntity
  8
A1
 62
     0
100
AcDbLine
 10
1.32306291750307
 20
-105.3029225119771
 30
0.0
 11
5.895775417503031
 21
-105.3029225119771
 31
0.0
  0
LINE
  5
11F71
330
116F4
100
AcDbEntity
  8
A1
 62
     0
100
AcDbLine
 10
8.170858784349734
 20
-105.3029225119771
 30
0.0
 11
6.495775417503031
 21
-105.3029225119771
 31
0.0
  0
MTEXT
  5
11F72
330
116F4
100
AcDbEntity
  8
A1
 62
     0
100
AcDbMText
 10
11.48637969150777
 20
-105.3029225119771
 30
0.0
 40
1.199999999999999
 41
0.0
 71
     5
 72
     1
  1
\A1;5 3/4"
 73
     1
 44
1.0
  0
SOLID
  5
11F73
330
116F4
100
AcDbEntity
  8
A1
 62
     0
100
AcDbTrace
 10
1.32306291750307
 20
-105.2029225119771
 30
0.0
 11
1.32306291750307
 21
-105.4029225119771
 31
0.0
 12
0.7230629175030704
 22
-105.3029225119771
 32
0.0
 13
0.7230629175030704
 23
-105.3029225119771
 33
0.0
  0
SOLID
  5
11F74
330
116F4
100
AcDbEntity
  8
A1
 62
     0
100
AcDbTrace
 10
5.895775417503031
 20
-105.2029225119771
 30
0.0
 11
5.895775417503031
 21
-105.4029225119771
 31
0.0
 12
6.495775417503031
 22
-105.3029225119771
 32
0.0
 13
6.495775417503031
 23
-105.3029225119771
 33
0.0
  0
POINT
  5
11F75
330
116F4
100
AcDbEntity
  8
Defpoints
 62
     0
100
AcDbPoint
 10
0.7230629175030705
 20
-101.8495682171571
 30
0.0
  0
POINT
  5
11F76
330
116F4
100
AcDbEntity
  8
Defpoints
 62
     0
100
AcDbPoint
 10
6.495775417503031
 20
-101.8495682171571
 30
0.0
  0
POINT
  5
11F77
330
116F4
100
AcDbEntity
  8
Defpoints
 62
     0
100
AcDbPoint
 10
6.495775417503031
 20
-105.3029225119771
 30
0.0
  0
ENDBLK
  5
11702
330
116F4
100
AcDbEntity
  8
0
 62
     7
100
AcDbBlockEnd
  0
BLOCK
  5
11D9A
330
11D69
100
AcDbEntity
  8
0
 62
     7
100
AcDbBlockBegin
  2
TSFORMB
 70
     2
 10
0.0
 20
0.0
 30
0.0
  3
TSFORMB
  1

  0
LINE
  5
11D6A
330
11D69
100
AcDbEntity
  8
0
100
AcDbLine
 10
25.97049976153047
 20
12.46470592426126
 30
0.0
 11
105.9925392881562
 21
12.46470592426126
 31
0.0
  0
ATTDEF
  5
11D6B
330
11D69
100
AcDbEntity
  8
A1
 62
     1
100
AcDbText
 10
101.1418062311347
 20
7.219538615513812
 30
0.0
 40
0.9450000000000002
  1

 72
     1
 11
101.1418062311347
 21
7.219538615513812
 31
0.0
100
AcDbAttributeDefinition
  3
ADD #/LF
  2
XXXXX
 70
     0
  0
ATTDEF
  5
11D6C
330
11D69
100
AcDbEntity
  8
A1
 62
     1
100
AcDbText
 10
101.1759733039033
 20
10.0790044152711
 30
0.0
 40
0.9450000000000002
  1

 72
     1
 11
101.1759733039033
 21
10.0790044152711
 31
0.0
100
AcDbAttributeDefinition
  3
ADD PROFILE AREA
  2
XXXXX
 70
     0
  0
TEXT
  5
11D6D
330
11D69
100
AcDbEntity
  8
0
 62
     7
100
AcDbText
 10
96.70022651293081
 20
11.66518473255652
 30
0.0
 40
0.5414062500000001
  1
PROFILE AREA:
100
AcDbText
  0
TEXT
  5
11D6E
330
11D69
100
AcDbEntity
  8
0
 62
     7
100
AcDbText
 10
96.74158717246573
 20
2.97910930546476
 30
0.0
 40
0.5414062500000001
  1
DATE:
100
AcDbText
  0
TEXT
  5
11D6F
330
11D69
100
AcDbEntity
  8
0
 62
     7
100
AcDbText
 10
96.68542089784601
 20
5.927566558083469
 30
0.0
 40
0.5414062500000001
  1
SCALE:
100
AcDbText
  0
TEXT
  5
11D70
330
11D69
100
AcDbEntity
  8
0
 62
     7
100
AcDbText
 10
98.85330873086449
 20
1.524519923848657
 30
0.0
 40
0.8459472656250001
  1
1-1-2000
100
AcDbText
  0
LINE
  5
11D71
330
11D69
100
AcDbEntity
  8
LINEWORK
 62
     7
100
AcDbLine
 10
96.40991550469019
 20
3.757904136908933
 30
0.0
 11
105.9622680829099
 21
3.757904136909161
 31
0.0
  0
TEXT
  5
11D72
330
11D69
100
AcDbEntity
  8
0
 62
     7
100
AcDbText
 10
96.66995560986684
 20
8.813345575893578
 30
0.0
 40
0.5414062500000001
  1
LBS/LINEAR FEET:
100
AcDbText
  0
LINE
  5
11D73
330
11D69
100
AcDbEntity
  8
0
 62
     7
100
AcDbLine
 10
96.44018670993686
 20
9.556745250002336
 30
0.0
 11
105.9925392881562
 21
9.556745250002336
 31
0.0
  0
LINE
  5
11D74
330
11D69
100
AcDbEntity
  8
0
100
AcDbLine
 10
56.87404547169356
 20
6.648784575743377
 30
0.0
 11
105.9925392881562
 21
6.648784575743377
 31
0.0
  0
TEXT
  5
11D75
330
11D69
100
AcDbEntity
  8
0
100
AcDbText
 10
59.98363509556093
 20
3.260563711198523
 30
0.0
 40
0.74899296216962
  1
101 JOHNSTON CIRCLE, PALMETTO, GEORGIA 30268
 41
1.1875
 72
     4
 11
76.85158629384145
 21
3.579323650094949
 31
0.0
100
AcDbText
  0
TEXT
  5
11D76
330
11D69
100
AcDbEntity
  8
0
100
AcDbText
 10
61.57240842020549
 20
1.964543484004154
 30
0.0
 40
0.6552430415498756
  1
http://TannerStone.com ~ Email:Sales@TannerStone.com 
 41
1.1875
 72
     4
 11
77.08342119362365
 21
2.259193880788984
 31
0.0
100
AcDbText
  0
TEXT
  5
11D77
330
11D69
100
AcDbEntity
  8
0
 62
     7
100
AcDbText
 10
61.23651428794111
 20
7.899354841769707
 30
0.0
 40
3.572100000000002
  1
TannerStone
  7
ROMANC
 72
     1
 11
75.92109734429951
 21
7.899354841769707
 31
0.0
100
AcDbText
  0
TEXT
  5
11D78
330
11D69
100
AcDbEntity
  8
0
100
AcDbText
 10
64.01730751652127
 20
0.6790765005605895
 30
0.0
 40
0.6552430415498756
  1
PHONE: 1-800-789-4841  FAX : 770-463-2635
 41
1.1875
 72
     4
 11
76.73327742292068
 21
1.005769257279467
 31
0.0
100
AcDbText
  0
TEXT
  5
11D79
330
11D69
100
AcDbEntity
  8
0
100
AcDbText
 10
57.83820509574332
 20
4.931128255646459
 30
0.0
 40
1.111564440985976
  1
ARCHITECTURAL CONCRETE CO., INC.
 41
1.25
 72
     4
 11
76.69038922088154
 21
5.404193065577061
 31
0.0
100
AcDbText
  0
LINE
  5
11D7A
330
11D69
100
AcDbEntity
  8
0
100
AcDbLine
 10
96.44018670993652
 20
0.0
 30
0.0
 11
96.44018670993691
 21
12.46470592426126
 31
0.0
  0
TEXT
  5
11D7B
330
11D69
100
AcDbEntity
  8
0
 62
     7
100
AcDbText
 10
91.59975773655476
 20
7.487990433787814
 30
0.0
 40
0.7875000000000002
  1
R
  7
ROMANC
 72
     1
 11
92.02565639984957
 21
7.487990433787814
 31
0.0
100
AcDbText
  0
ARC
  5
11D7C
330
11D69
100
AcDbEntity
  8
0
 62
     7
100
AcDbCircle
 10
92.02173719823603
 20
7.854684255185276
 30
0.0
 40
0.5838368232859408
100
AcDbArc
 50
304.8408806463489
 51
297.555354837207
  0
LINE
  5
11D7D
330
11D69
100
AcDbEntity
  8
0
 62
     7
100
AcDbLine
 10
96.44018670993673
 20
6.648784575743377
 30
0.0
 11
95.62662822118031
 21
6.648784575743377
 31
0.0
  0
ARC
  5
11D7E
330
11D69
100
AcDbEntity
  8
0
 62
     7
100
AcDbCircle
 10
92.02173719823603
 20
7.854684255185276
 30
0.0
 40
0.5838368232859321
100
AcDbArc
 50
297.555354837207
 51
304.8408806463489
  0
TEXT
  5
11D7F
330
11D69
100
AcDbEntity
  8
0
 62
     7
100
AcDbText
 10
101.0916707105179
 20
4.784832420392348
 30
0.0
 40
0.8459472656250001
  1
1:1
100
AcDbText
  0
LINE
  5
11D80
330
11D69
100
AcDbEntity
  8
0
100
AcDbLine
 10
105.9925392881562
 20
78.84810849484799
 30
0.0
 11
0.0
 21
78.84810849484799
 31
0.0
  0
LINE
  5
11D81
330
11D69
100
AcDbEntity
  8
0
100
AcDbLine
 10
105.9925392881562
 20
70.31072004937001
 30
0.0
 11
92.45878286761294
 21
70.31072004937001
 31
0.0
  0
ATTDEF
  5
11D82
330
11D69
100
AcDbEntity
  8
A1
 62
     1
100
AcDbText
 10
99.20289126219254
 20
73.4000163324483
 30
0.0
 40
2.079
  1

 72
     1
 11
99.20289126219254
 21
73.4000163324483
 31
0.0
100
AcDbAttributeDefinition
  3
ADD PAGE NUMBER
  2
TS00XX
 70
     0
  0
LINE
  5
11D83
330
11D69
100
AcDbEntity
  8
0
100
AcDbLine
 10
92.45878286761294
 20
70.31072004937001
 30
0.0
 11
92.45878286761294
 21
78.84810849484799
 31
0.0
  0
LINE
  5
11D84
330
11D69
100
AcDbEntity
  8
0
 62
     7
100
AcDbLine
 10
56.87404547169354
 20
4.753491724833224
 30
0.0
 11
25.97049976153047
 21
4.753491724833224
 31
0.0
  0
LINE
  5
11D85
330
11D69
100
AcDbEntity
  8
0
 62
     7
100
AcDbLine
 10
56.87404547169354
 20
2.864660228904284
 30
0.0
 11
25.97049976153047
 21
2.864660228904284
 31
0.0
  0
LINE
  5
11D86
330
11D69
100
AcDbEntity
  8
0
 62
     7
100
AcDbLine
 10
56.87404547169354
 20
10.31505184057846
 30
0.0
 11
25.97049976153047
 21
10.31505184057846
 31
0.0
  0
ATTDEF
  5
11D87
330
11D69
100
AcDbEntity
  8
A1
 62
     1
100
AcDbText
 10
12.85191920549937
 20
3.11796280247222
 30
0.0
 40
6.132000000000001
  1

  7
barcoder
 72
     1
 11
12.85191920549937
 21
3.11796280247222
 31
0.0
100
AcDbAttributeDefinition
  3
ADD BARCODE NUMBER
  2
BARCODE
 70
     0
  0
LINE
  5
11D88
330
11D69
100
AcDbEntity
  8
0
 62
     7
100
AcDbLine
 10
25.97049976153047
 20
12.46470592426126
 30
0.0
 11
0.0
 21
12.46470592426126
 31
0.0
  0
ATTDEF
  5
11D89
330
11D69
100
AcDbEntity
  8
A1
 62
     1
100
AcDbText
 10
21.55372231158239
 20
1.875018704105684
 30
0.0
 40
0.8400000000000002
  1

 72
     2
 11
21.55372231158239
 21
1.875018704105684
 31
0.0
100
AcDbAttributeDefinition
  3
ADD BARCODE TEXT
  2
XXXXXX
 70
     0
  0
ATTDEF
  5
11D8A
330
11D69
100
AcDbEntity
  8
A1
 62
     1
100
AcDbText
 10
41.26016333205515
 20
0.916484150045278
 30
0.0
 40
1.025589599999999
  1

 72
     1
 11
41.26016333205515
 21
0.916484150045278
 31
0.0
100
AcDbAttributeDefinition
  3
ADD CATEGORY NAMES
  2
XXXXXX
 70
     0
  0
LINE
  5
11D8B
330
11D69
100
AcDbEntity
  8
0
100
AcDbLine
 10
25.97049976153047
 20
0.0
 30
0.0
 11
25.97049976153047
 21
12.46470592426126
 31
0.0
  0
TEXT
  5
11D8C
330
11D69
100
AcDbEntity
  8
0
 62
     7
100
AcDbText
 10
30.57643893100979
 20
5.886467718828555
 30
0.0
 40
1.05
  1
- Unfinished Side
100
AcDbText
  0
TEXT
  5
11D8D
330
11D69
100
AcDbEntity
  8
0
 62
     7
100
AcDbText
 10
30.56536100380199
 20
8.165961840384312
 30
0.0
 40
1.05
  1
- Finished Side
100
AcDbText
  0
TEXT
  5
11D8E
330
11D69
100
AcDbEntity
  8
0
 62
     7
100
AcDbText
 10
28.62975879980742
 20
6.155120421568796
 30
0.0
 40
0.0065625
  1
TANNERSTONE 0001 TANNERSTONE 0001 TANNERSTONE 0001 TANNERSTONE 0001 TANNERSTONE 0001 TANNERSTONE 0001 TANNERSTONE 0001
 72
     1
 11
28.97869915682372
 21
6.155120421568796
 31
0.0
100
AcDbText
  0
TEXT
  5
11D8F
330
11D69
100
AcDbEntity
  8
0
 62
     7
100
AcDbText
 10
26.78569629980744
 20
6.155120421568796
 30
0.0
 40
0.0065625
  1
TANNERSTONE 0001 TANNERSTONE 0001 TANNERSTONE 0001 TANNERSTONE 0001 TANNERSTONE 0001 TANNERSTONE 0001 TANNERSTONE 0001
 72
     1
 11
27.13463665682374
 21
6.155120421568796
 31
0.0
100
AcDbText
  0
LINE
  5
11D90
330
11D69
100
AcDbEntity
  8
0
 62
     7
100
AcDbLine
 10
26.78791925899645
 20
6.408946491460881
 30
0.0
 11
29.32320076794366
 21
6.408946491460881
 31
0.0
  0
TEXT
  5
11D91
330
11D69
100
AcDbEntity
  8
0
 62
     7
100
AcDbText
 10
27.6921018725396
 20
6.155120421568796
 30
0.0
 40
0.0065625
  1
TANNERSTONE 0001 TANNERSTONE 0001 TANNERSTONE 0001 TANNERSTONE 0001 TANNERSTONE 0001 TANNERSTONE 0001 TANNERSTONE 0001
 72
     1
 11
28.0410422295559
 21
6.155120421568796
 31
0.0
100
AcDbText
  0
LINE
  5
11D92
330
11D69
100
AcDbEntity
  8
0
 62
     7
100
AcDbLine
 10
26.78791925899645
 20
8.549200111339274
 30
0.0
 11
29.32320076794366
 21
8.549200111339274
 31
0.0
  0
TEXT
  5
11D93
330
11D69
100
AcDbEntity
  8
0
 62
     7
100
AcDbText
 10
38.18320344075359
 20
3.401999220949534
 30
0.0
 40
0.8400000000000002
  1
CATEGORY
 72
     1
 11
41.47652732452397
 21
3.401999220949534
 31
0.0
100
AcDbText
  0
TEXT
  5
11D94
330
11D69
100
AcDbEntity
  8
0
 62
     7
100
AcDbText
 10
39.28098221173835
 20
10.97304845086645
 30
0.0
 40
0.8085000000000002
  1
LEGEND
100
AcDbText
  0
LINE
  5
11D95
330
11D69
100
AcDbEntity
  8
0
100
AcDbLine
 10
56.87404547169356
 20
0.0
 30
0.0
 11
56.87404547169356
 21
12.46470592426126
 31
0.0
  0
LINE
  5
11D96
330
11D69
100
AcDbEntity
  8
0
100
AcDbLine
 10
0.0
 20
78.84810849484799
 30
0.0
 11
0.0
 21
0.0
 31
0.0
  0
LINE
  5
11D97
330
11D69
100
AcDbEntity
  8
0
100
AcDbLine
 10
0.0
 20
0.0
 30
0.0
 11
105.9925392881562
 21
0.0
 31
0.0
  0
LINE
  5
11D98
330
11D69
100
AcDbEntity
  8
0
100
AcDbLine
 10
105.9925392881562
 20
0.0
 30
0.0
 11
105.9925392881562
 21
78.84810849484799
 31
0.0
  0
LINE
  5
11D99
330
11D69
100
AcDbEntity
  8
0
100
AcDbLine
 10
105.9925392881562
 20
78.84810849484799
 30
0.0
 11
105.9925392881562
 21
70.31072004937001
 31
0.0
  0
ENDBLK
  5
11D9B
330
11D69
100
AcDbEntity
  8
0
 62
     7
100
AcDbBlockEnd
  0
BLOCK
  5
11E8B
330
11E80
100
AcDbEntity
  8
0
 62
     7
100
AcDbBlockBegin
  2
*D7
 70
     1
 10
0.0
 20
0.0
 30
0.0
  3
*D7
  1

  0
LINE
  5
11F78
330
11E80
100
AcDbEntity
  8
A1
 62
     0
100
AcDbLine
 10
-0.4769370824969277
 20
-101.8495682171571
 30
0.0
 11
-5.760564641299315
 21
-101.8495682171571
 31
0.0
  0
LINE
  5
11F79
330
11E80
100
AcDbEntity
  8
A1
 62
     0
100
AcDbLine
 10
-0.4769370824969979
 20
-70.7468682171571
 30
0.0
 11
-5.76056464129931
 21
-70.7468682171571
 31
0.0
  0
LINE
  5
11F7A
330
11E80
100
AcDbEntity
  8
A1
 62
     0
100
AcDbLine
 10
-5.460564641299316
 20
-101.2495682171571
 30
0.0
 11
-5.460564641299313
 21
-87.50321006818763
 31
0.0
  0
LINE
  5
11F7B
330
11E80
100
AcDbEntity
  8
A1
 62
     0
100
AcDbLine
 10
-5.46056464129931
 20
-71.3468682171571
 30
0.0
 11
-5.460564641299312
 21
-84.99520156358098
 31
0.0
  0
MTEXT
  5
11F7C
330
11E80
100
AcDbEntity
  8
A1
 62
     0
100
AcDbMText
 10
-5.460564641299271
 20
-86.24920581588432
 30
0.0
 40
1.199999999999999
 41
0.0
 71
     5
 72
     1
  1
\A1;31 1/8"
 73
     1
 44
1.0
  0
SOLID
  5
11F7D
330
11E80
100
AcDbEntity
  8
A1
 62
     0
100
AcDbTrace
 10
-5.560564641299316
 20
-101.2495682171571
 30
0.0
 11
-5.360564641299316
 21
-101.2495682171571
 31
0.0
 12
-5.460564641299316
 22
-101.8495682171571
 32
0.0
 13
-5.460564641299316
 23
-101.8495682171571
 33
0.0
  0
SOLID
  5
11F7E
330
11E80
100
AcDbEntity
  8
A1
 62
     0
100
AcDbTrace
 10
-5.560564641299309
 20
-71.3468682171571
 30
0.0
 11
-5.36056464129931
 21
-71.3468682171571
 31
0.0
 12
-5.46056464129931
 22
-70.7468682171571
 32
0.0
 13
-5.46056464129931
 23
-70.7468682171571
 33
0.0
  0
POINT
  5
11F7F
330
11E80
100
AcDbEntity
  8
Defpoints
 62
     0
100
AcDbPoint
 10
0.7230629175030723
 20
-101.8495682171571
 30
0.0
  0
POINT
  5
11F80
330
11E80
100
AcDbEntity
  8
Defpoints
 62
     0
100
AcDbPoint
 10
0.7230629175030022
 20
-70.7468682171571
 30
0.0
  0
POINT
  5
11F81
330
11E80
100
AcDbEntity
  8
Defpoints
 62
     0
100
AcDbPoint
 10
-5.46056464129931
 20
-70.7468682171571
 30
0.0
  0
ENDBLK
  5
11E8C
330
11E80
100
AcDbEntity
  8
0
 62
     7
100
AcDbBlockEnd
  0
ENDSEC
  0
SECTION
  2
ENTITIES
  0
INSERT
  5
D0CF
330
2
100
AcDbEntity
  8
ASHADE
 62
     1
100
AcDbBlockReference
  2
AVE_RENDER
 10
4.19208881148063
 20
-49.36188077439897
 30
0.0
1001
AVE_RENDER
1002
{
1070
     7
1000
Pref
1070
    30
1070
    20
1070
     1
1070
     0
1000

1070
    10
1070
     1
1070
    10
1040
1.0
1070
     1
1040
0.3
1040
0.7
1040
0.0
1040
10.0
1010
-1.0
1020
-1.0
1030
-1.0
1040
0.3
1070
    49
1070
     0
1070
     0
1010
1.0
1020
1.0
1030
1.0
1040
45.0
1070
     1
1070
     0
1000
WCS
1040
0.0
1070
     0
1040
10.0
1002
}
  0
INSERT
  5
D0D0
330
2
100
AcDbEntity
  8
ASHADE
 62
     3
100
AcDbBlockReference
  2
AVE_RENDER
 10
4.19208881148063
 20
-49.36188077439897
 30
0.0
1001
AVE_RENDER
1002
{
1070
     0
1000
Full Opt
1070
     0
1070
     1
1070
     1
1070
     1
1070
     0
1070
     0
1070
     0
1070
     1
1070
     1
1040
0.0001
1040
0.0001
1002
}
  0
INSERT
  5
D0D1
330
2
100
AcDbEntity
  8
ASHADE
 62
     4
100
AcDbBlockReference
  2
AVE_RENDER
 10
4.19208881148063
 20
-49.36188077439897
 30
0.0
1001
AVE_RENDER
1002
{
1070
     0
1000
Quick Opt
1070
     0
1070
     1
1070
     1
1070
     1
1070
     0
1070
     0
1070
     1
1002
}
  0
INSERT
  5
D0D2
330
2
100
AcDbEntity
  8
ASHADE
 62
     5
100
AcDbBlockReference
  2
AVE_RENDER
 10
4.19208881148063
 20
-49.36188077439897
 30
0.0
1001
AVE_RENDER
1002
{
1070
     1
1000
Scanl Opt
1070
     2
1070
     0
1070
     2
1040
2.0
1040
4.0
1070
     0
1070
     1
1070
     0
1040
0.03
1002
}
  0
INSERT
  5
D0D3
330
2
100
AcDbEntity
  8
ASHADE
 62
     6
100
AcDbBlockReference
  2
AVE_RENDER
 10
4.19208881148063
 20
-49.36188077439897
 30
0.0
1001
AVE_RENDER
1002
{
1070
     2
1000
Raytr Opt
1070
     2
1070
     0
1070
     2
1040
2.0
1040
4.0
1070
     0
1070
     1
1070
     1
1040
0.03
1070
     3
1040
0.03
1002
}
  0
INSERT
  5
D0D4
330
2
100
AcDbEntity
  8
ASHADE
 62
     7
100
AcDbBlockReference
  2
AVE_RENDER
 10
4.19208881148063
 20
-49.36188077439897
 30
0.0
1001
AVE_RENDER
1002
{
1070
     0
1000
RFile Opt
1070
     1
1070
   640
1070
   480
1070
 10000
1070
     1
1070
     8
1070
     8
1070
     0
1070
     0
1070
     0
1070
     0
1070
     0
1070
     0
1070
     0
1002
}
  0
INSERT
  5
D0D5
330
2
100
AcDbEntity
  8
ASHADE
 62
     8
100
AcDbBlockReference
  2
AVE_RENDER
 10
4.19208881148063
 20
-49.36188077439897
 30
0.0
1001
AVE_RENDER
1002
{
1070
     0
1000
Fog Opt
1070
     0
1070
     0
1040
0.0
1040
1.0
1040
0.0
1040
1.0
1010
0.5
1020
0.5
1030
0.5
1002
}
  0
INSERT
  5
D0D6
330
2
100
AcDbEntity
  8
ASHADE
 62
     9
100
AcDbBlockReference
  2
AVE_RENDER
 10
4.19208881148063
 20
-49.36188077439897
 30
0.0
1001
AVE_RENDER
1002
{
1070
     0
1000
BG Opt
1070
     0
1070
     1
1010
0.0
1020
0.0
1030
0.0
1010
1.0
1020
0.0
1030
0.0
1010
0.0
1020
1.0
1030
0.0
1010
0.0
1020
0.0
1030
1.0
1040
0.5
1040
0.33
1040
0.0
1000

1070
     1
1000

1070
     1
1070
     1
1040
1.0
1040
1.0
1040
0.0
1040
0.0
1070
     0
1002
}
  0
INSERT
  5
D0D7
330
2
100
AcDbEntity
  8
ASHADE
 62
     1
100
AcDbBlockReference
  2
AVE_GLOBAL
 10
4.19208881148063
 20
-49.36188077439897
 30
0.0
1001
AVE_MATERIAL
1002
{
1000
*GLOBAL*
1000
1
1000
Global finish.
1002
{
1002
}
1002
{
1070
    63
1002
{
1002
{
1010
-1.0
1020
-1.0
1030
-1.0
1002
}
1040
0.1000000014901161
1000

1040
0.0
1002
{
1002
}
1040
0.0
1002
{
1002
}
1040
0.0
1002
}
1002
{
1002
{
1010
-1.0
1020
-1.0
1030
-1.0
1002
}
1040
0.6999999880790711
1000

1040
0.0
1002
{
1002
}
1040
0.0
1002
{
1002
}
1040
0.0
1002
}
1002
{
1002
{
1010
-1.0
1020
-1.0
1030
-1.0
1002
}
1040
0.2000000029802322
1000

1040
0.0
1002
{
1002
}
1040
0.0
1002
{
1002
}
1040
0.0
1002
}
1002
{
1070
     0
1002
{
1070
     1
1002
{
1040
1.0
1040
1.0
1000

1040
0.0
1002
{
1002
}
1040
0.0
1002
{
1002
}
1040
0.0
1002
}
1002
}
1040
1.0
1040
0.0
1040
0.0
1002
}
1002
{
1040
1.0
1040
1.0
1000

1040
0.0
1002
{
1002
}
1040
0.0
1002
{
1002
}
1040
0.0
1002
}
1002
{
1040
0.5
1040
1.0
1000

1040
0.0
1002
{
1002
}
1040
0.0
1002
{
1002
}
1040
0.0
1002
}
1002
{
1070
     0
1040
0.0
1002
{
1002
}
1040
1.0
1002
{
1002
}
1040
0.0
1002
}
1002
{
1040
0.0
1002
{
1002
{
1010
0.0
1020
0.0
1030
0.0
1002
}
1040
1.0
1000

1040
0.0
1002
{
1002
}
1040
0.0
1002
{
1002
}
1040
0.0
1002
}
1002
}
1002
{
1002
{
1070
     1
1002
{
1040
0.0
1040
1.0
1000

1040
0.0
1002
{
1002
}
1040
0.0
1002
{
1002
}
1040
0.0
1002
}
1002
}
1040
0.0
1002
{
1002
}
1010
1.0
1020
0.0
1030
0.0
1010
0.0
1020
1.0
1030
0.0
1010
0.0
1020
0.0
1030
1.0
1070
     0
1002
}
1002
{
1002
{
1040
1.0
1040
1.0
1002
{
1070
     1
1002
{
1040
1.0
1040
1.0
1000

1040
0.0
1002
{
1002
}
1040
0.0
1002
{
1002
}
1040
0.0
1002
}
1002
}
1002
}
1070
     0
1040
0.0
1002
{
1002
}
1002
}
1002
{
1002
}
1002
}
1002
{
1071
        3
1070
     3
1070
     0
1002
{
1070
     2
1070
     0
1070
     0
1040
0.0
1002
}
1070
     0
1070
     2
1002
{
1002
}
1002
}
1002
{
1040
8030.0
1040
190.3000030517578
1040
0.3050000071525574
1040
228.0
1040
545.0
1040
14.0
1040
17.39999961853027
1040
0.4560000002384186
1002
}
1002
}
  0
INSERT
  5
D154
330
2
100
AcDbEntity
  8
ASHADE
 62
     1
100
AcDbBlockReference
  2
AVE_RENDER
 10
4.106359864031219
 20
-105.2254158800526
 30
0.0
1001
AVE_RENDER
1002
{
1070
     7
1000
Pref
1070
    60
1070
    20
1070
     1
1070
     0
1000

1070
    10
1070
     1
1070
    10
1040
1.0
1070
     1
1040
0.3
1040
0.7
1040
0.0
1040
10.0
1010
-1.0
1020
-1.0
1030
-1.0
1040
0.3
1070
    49
1070
     0
1070
     0
1010
1.0
1020
1.0
1030
1.0
1040
45.0
1070
     1
1070
     0
1000
WCS
1040
0.0
1070
     0
1040
10.0
1002
}
  0
INSERT
  5
D155
330
2
100
AcDbEntity
  8
ASHADE
 62
     3
100
AcDbBlockReference
  2
AVE_RENDER
 10
4.106359864031219
 20
-105.2254158800526
 30
0.0
1001
AVE_RENDER
1002
{
1070
     0
1000
Full Opt
1070
     0
1070
     1
1070
     1
1070
     1
1070
     0
1070
     0
1070
     0
1070
     1
1070
     1
1040
0.0001
1040
0.0001
1002
}
  0
INSERT
  5
D156
330
2
100
AcDbEntity
  8
ASHADE
 62
     4
100
AcDbBlockReference
  2
AVE_RENDER
 10
4.106359864031219
 20
-105.2254158800526
 30
0.0
1001
AVE_RENDER
1002
{
1070
     0
1000
Quick Opt
1070
     0
1070
     1
1070
     1
1070
     1
1070
     0
1070
     0
1070
     1
1002
}
  0
INSERT
  5
D157
330
2
100
AcDbEntity
  8
ASHADE
 62
     5
100
AcDbBlockReference
  2
AVE_RENDER
 10
4.106359864031219
 20
-105.2254158800526
 30
0.0
1001
AVE_RENDER
1002
{
1070
     1
1000
Scanl Opt
1070
     2
1070
     0
1070
     2
1040
2.0
1040
4.0
1070
     0
1070
     1
1070
     0
1040
0.03
1002
}
  0
INSERT
  5
D158
330
2
100
AcDbEntity
  8
ASHADE
 62
     6
100
AcDbBlockReference
  2
AVE_RENDER
 10
4.106359864031219
 20
-105.2254158800526
 30
0.0
1001
AVE_RENDER
1002
{
1070
     2
1000
Raytr Opt
1070
     2
1070
     0
1070
     2
1040
2.0
1040
4.0
1070
     0
1070
     1
1070
     1
1040
0.03
1070
     3
1040
0.03
1002
}
  0
INSERT
  5
D159
330
2
100
AcDbEntity
  8
ASHADE
 62
     7
100
AcDbBlockReference
  2
AVE_RENDER
 10
4.106359864031219
 20
-105.2254158800526
 30
0.0
1001
AVE_RENDER
1002
{
1070
     0
1000
RFile Opt
1070
     1
1070
   640
1070
   480
1070
 10000
1070
     1
1070
     8
1070
     8
1070
     0
1070
     0
1070
     0
1070
     0
1070
     0
1070
     0
1070
     0
1002
}
  0
INSERT
  5
D15A
330
2
100
AcDbEntity
  8
ASHADE
 62
     8
100
AcDbBlockReference
  2
AVE_RENDER
 10
4.106359864031219
 20
-105.2254158800526
 30
0.0
1001
AVE_RENDER
1002
{
1070
     0
1000
Fog Opt
1070
     0
1070
     0
1040
0.0
1040
1.0
1040
0.0
1040
1.0
1010
0.5
1020
0.5
1030
0.5
1002
}
  0
INSERT
  5
D15B
330
2
100
AcDbEntity
  8
ASHADE
 62
     9
100
AcDbBlockReference
  2
AVE_RENDER
 10
4.106359864031219
 20
-105.2254158800526
 30
0.0
1001
AVE_RENDER
1002
{
1070
     0
1000
BG Opt
1070
     0
1070
     1
1010
0.0
1020
0.0
1030
0.0
1010
1.0
1020
0.0
1030
0.0
1010
0.0
1020
1.0
1030
0.0
1010
0.0
1020
0.0
1030
1.0
1040
0.5
1040
0.33
1040
0.0
1000

1070
     1
1000

1070
     1
1070
     1
1040
1.0
1040
1.0
1040
0.0
1040
0.0
1070
     0
1002
}
  0
INSERT
  5
D15C
330
2
100
AcDbEntity
  8
ASHADE
 62
     1
100
AcDbBlockReference
  2
AVE_GLOBAL
 10
4.106359864031219
 20
-105.2254158800526
 30
0.0
1001
AVE_MATERIAL
1002
{
1000
*GLOBAL*
1000
1
1000
Global finish.
1002
{
1002
}
1002
{
1070
    63
1002
{
1002
{
1010
-1.0
1020
-1.0
1030
-1.0
1002
}
1040
0.1000000014901161
1000

1040
0.0
1002
{
1002
}
1040
0.0
1002
{
1002
}
1040
0.0
1002
}
1002
{
1002
{
1010
-1.0
1020
-1.0
1030
-1.0
1002
}
1040
0.6999999880790711
1000

1040
0.0
1002
{
1002
}
1040
0.0
1002
{
1002
}
1040
0.0
1002
}
1002
{
1002
{
1010
-1.0
1020
-1.0
1030
-1.0
1002
}
1040
0.2000000029802322
1000

1040
0.0
1002
{
1002
}
1040
0.0
1002
{
1002
}
1040
0.0
1002
}
1002
{
1070
     0
1002
{
1070
     1
1002
{
1040
1.0
1040
1.0
1000

1040
0.0
1002
{
1002
}
1040
0.0
1002
{
1002
}
1040
0.0
1002
}
1002
}
1040
1.0
1040
0.0
1040
0.0
1002
}
1002
{
1040
1.0
1040
1.0
1000

1040
0.0
1002
{
1002
}
1040
0.0
1002
{
1002
}
1040
0.0
1002
}
1002
{
1040
0.5
1040
1.0
1000

1040
0.0
1002
{
1002
}
1040
0.0
1002
{
1002
}
1040
0.0
1002
}
1002
{
1070
     0
1040
0.0
1002
{
1002
}
1040
1.0
1002
{
1002
}
1040
0.0
1002
}
1002
{
1040
0.0
1002
{
1002
{
1010
0.0
1020
0.0
1030
0.0
1002
}
1040
1.0
1000

1040
0.0
1002
{
1002
}
1040
0.0
1002
{
1002
}
1040
0.0
1002
}
1002
}
1002
{
1002
{
1070
     1
1002
{
1040
0.0
1040
1.0
1000

1040
0.0
1002
{
1002
}
1040
0.0
1002
{
1002
}
1040
0.0
1002
}
1002
}
1040
0.0
1002
{
1002
}
1010
1.0
1020
0.0
1030
0.0
1010
0.0
1020
1.0
1030
0.0
1010
0.0
1020
0.0
1030
1.0
1070
     0
1002
}
1002
{
1002
{
1040
1.0
1040
1.0
1002
{
1070
     1
1002
{
1040
1.0
1040
1.0
1000

1040
0.0
1002
{
1002
}
1040
0.0
1002
{
1002
}
1040
0.0
1002
}
1002
}
1002
}
1070
     0
1040
0.0
1002
{
1002
}
1002
}
1002
{
1002
}
1002
}
1002
{
1071
        3
1070
     3
1070
     0
1002
{
1070
     2
1070
     0
1070
     0
1040
0.0
1002
}
1070
     0
1070
     2
1002
{
1002
}
1002
}
1002
{
1040
8030.0
1040
190.3000030517578
1040
0.3050000071525574
1040
228.0
1040
545.0
1040
14.0
1040
17.39999961853027
1040
0.4560000002384186
1002
}
1002
}
  0
LINE
  5
D1BE
330
2
100
AcDbEntity
  8
0
 62
     1
100
AcDbLine
 10
14.92745071719734
 20
-67.32136615478245
 30
0.0
 11
28.38315766228717
 21
-67.32136615478246
 31
0.0
  0
ATTDEF
  5
D1C1
330
2
100
AcDbEntity
  8
A1
 62
     1
100
AcDbText
 10
18.36058922869113
 20
-66.86204326532808
 30
0.0
 40
1.199999999999999
  1

100
AcDbAttributeDefinition
  3
ADD LINK NUMBER (WMF)
  2
TS0993
 70
     0
  0
LINE
  5
D1C2
330
2
100
AcDbEntity
  8
0
 62
     1
100
AcDbLine
 10
17.77639280979784
 20
-70.90669921691326
 30
0.0
 11
17.77639280979784
 21
-65.44135470152191
 31
0.0
  0
TEXT
  5
D5D0
330
2
100
AcDbEntity
  8
A1
 62
     1
100
AcDbText
 10
18.34595509789519
 20
-68.98258643099928
 30
0.0
 40
1.199999999999999
  1
TannerStone
100
AcDbText
  0
TEXT
  5
D5D1
330
2
100
AcDbEntity
  8
A1
 62
     1
100
AcDbText
 10
18.46718381095139
 20
-70.47896810662385
 30
0.0
 40
0.8864099999999998
  1
1-800-789-4841
100
AcDbText
  0
ARC
  5
E7C0
330
2
100
AcDbEntity
  8
0
 62
     7
370
    50
100
AcDbCircle
 10
2.418971511253023
 20
-91.81994321715718
 30
0.0
 40
0.587380468750003
100
AcDbArc
 50
121.2844929144164
 51
238.7155070855835
  0
ARC
  5
E7C1
330
2
100
AcDbEntity
  8
0
 62
     7
370
    50
100
AcDbCircle
 10
4.799866823753013
 20
-91.81994321715718
 30
0.0
 40
0.587380468750003
100
AcDbArc
 50
301.2844929144164
 51
58.71550708558359
  0
ARC
  5
E7C2
330
2
100
AcDbEntity
  8
0
 62
     7
370
    50
100
AcDbCircle
 10
4.783404285578235
 20
-91.81994321715494
 30
0.0
 40
0.5960953125000341
100
AcDbArc
 50
302.6368975040356
 51
57.36310249606106
  0
ARC
  5
E7C3
330
2
100
AcDbEntity
  8
0
 62
     7
370
    50
100
AcDbCircle
 10
2.435434049427865
 20
-91.81994321715494
 30
0.0
 40
0.5960953125000341
100
AcDbArc
 50
122.6368975039389
 51
237.3631024959578
  0
LINE
  5
E7CC
330
2
100
AcDbEntity
  8
0
 62
     7
370
    50
100
AcDbLine
 10
3.609419167503016
 20
-96.8396932171572
 30
0.0
 11
0.7230629175030714
 21
-96.8396932171572
 31
0.0
  0
LINE
  5
E7CD
330
2
100
AcDbEntity
  8
0
 62
     7
370
    50
100
AcDbLine
 10
3.609419167503016
 20
-96.71419946715715
 30
0.0
 11
1.287784792502989
 21
-96.71419946715715
 31
0.0
  0
LINE
  5
E7CE
330
2
100
AcDbEntity
  8
0
 62
     7
370
    50
100
AcDbLine
 10
3.609419167503016
 20
-96.4632119671571
 30
0.0
 11
1.287784792502989
 21
-96.4632119671571
 31
0.0
  0
LINE
  5
E7CF
330
2
100
AcDbEntity
  8
0
 62
     7
370
    50
100
AcDbLine
 10
3.609419167503016
 20
-95.08278071715722
 30
0.0
 11
1.413278542503018
 21
-95.08278071715722
 31
0.0
  0
LINE
  5
E7D0
330
2
100
AcDbEntity
  8
0
 62
     7
370
    50
100
AcDbLine
 10
3.609419167503016
 20
-94.45531196715721
 30
0.0
 11
1.413278542503018
 21
-94.45531196715721
 31
0.0
  0
LINE
  5
E7D1
330
2
100
AcDbEntity
  8
0
 62
     7
370
    50
100
AcDbLine
 10
3.609419167503016
 20
-92.32191821715716
 30
0.0
 11
2.113951980003044
 21
-92.32191821715716
 31
0.0
  0
LINE
  5
E7D2
330
2
100
AcDbEntity
  8
0
 62
     7
370
    50
100
AcDbLine
 10
2.113951980003044
 20
-92.32191821715716
 30
0.0
 11
3.609419167503016
 21
-92.32191821715716
 31
0.0
  0
LINE
  5
E7D3
330
2
100
AcDbEntity
  8
0
 62
     7
370
    50
100
AcDbLine
 10
3.609419167503016
 20
-95.08278071715707
 30
0.0
 11
1.413278542503018
 21
-95.08278071715707
 31
0.0
  0
LINE
  5
E7D4
330
2
100
AcDbEntity
  8
0
 62
     7
370
    50
100
AcDbLine
 10
1.413278542503018
 20
-94.45531196715709
 30
0.0
 11
3.609419167503016
 21
-94.45531196715709
 31
0.0
  0
LINE
  5
E7D5
330
2
100
AcDbEntity
  8
0
 62
     7
370
    30
100
AcDbLine
 10
0.7230629175030714
 20
-101.8495682171571
 30
0.0
 11
6.495775417503033
 21
-101.8495682171572
 31
0.0
  0
LINE
  5
E7D6
330
2
100
AcDbEntity
  8
0
 62
     7
370
    50
100
AcDbLine
 10
0.7230629175030714
 20
-96.8396932171572
 30
0.0
 11
3.609419167503016
 21
-96.8396932171572
 31
0.0
  0
LINE
  5
E7D7
330
2
100
AcDbEntity
  8
0
 62
     7
370
    50
100
AcDbLine
 10
1.287784792502989
 20
-96.71419946715715
 30
0.0
 11
3.609419167503016
 21
-96.71419946715715
 31
0.0
  0
LINE
  5
E7D8
330
2
100
AcDbEntity
  8
0
 62
     7
370
    50
100
AcDbLine
 10
1.287784792502989
 20
-96.4632119671571
 30
0.0
 11
3.609419167503016
 21
-96.4632119671571
 31
0.0
  0
LINE
  5
E7DB
330
2
100
AcDbEntity
  8
0
 62
     7
370
    50
100
AcDbLine
 10
0.7230629175030714
 20
-99.34956821715719
 30
0.0
 11
0.7230629175030714
 21
-96.8396932171572
 31
0.0
  0
LINE
  5
E7DC
330
2
100
AcDbEntity
  8
0
 62
     7
370
    50
100
AcDbLine
 10
0.7230629175030714
 20
-96.8396932171572
 30
0.0
 11
1.287784792502989
 21
-96.71419946715715
 31
0.0
  0
LINE
  5
E7DD
330
2
100
AcDbEntity
  8
0
 62
     7
370
    50
100
AcDbLine
 10
1.287784792502989
 20
-96.71419946715715
 30
0.0
 11
1.287784792502989
 21
-96.4632119671571
 31
0.0
  0
ARC
  5
E7DE
330
2
100
AcDbEntity
  8
0
 62
     7
370
    50
100
AcDbCircle
 10
1.677475910924062
 20
-95.80271854610456
 30
0.0
 40
0.7668837767419853
100
AcDbArc
 50
110.151747034213
 51
239.4593951503176
  0
LINE
  5
E7DF
330
2
100
AcDbEntity
  8
0
 62
     7
370
    50
100
AcDbLine
 10
1.413278542503018
 20
-94.45531196715721
 30
0.0
 11
1.413278542503018
 21
-95.08278071715722
 31
0.0
  0
ARC
  5
E7E0
330
2
100
AcDbEntity
  8
0
 62
     7
370
    50
100
AcDbCircle
 10
0.4247538159405125
 20
-93.04677534606332
 30
0.0
 40
1.720801135514404
100
AcDbArc
 50
305.0615521464823
 51
335.3273056689869
  0
ARC
  5
E7E1
330
2
100
AcDbEntity
  8
0
 62
     7
370
    50
100
AcDbCircle
 10
-0.6064785547681169
 20
-92.81240435272056
 30
0.0
 40
2.764293570461533
100
AcDbArc
 50
339.8400491762131
 51
10.22046936756234
  0
ARC
  5
E7E5
330
2
100
AcDbEntity
  8
0
 62
     7
370
    50
100
AcDbCircle
 10
-0.6029364706369194
 20
-92.81271236003655
 30
0.0
 40
2.760862499999871
100
AcDbArc
 50
339.8207155174581
 51
10.23980302638196
  0
ARC
  5
E7E6
330
2
100
AcDbEntity
  8
0
 62
     7
370
    50
100
AcDbCircle
 10
0.4209836675296828
 20
-93.04363355572089
 30
0.0
 40
1.725539062499979
100
AcDbArc
 50
305.1040931533547
 51
335.2847646621129
  0
LINE
  5
E7E7
330
2
100
AcDbEntity
  8
0
 62
     7
370
    50
100
AcDbLine
 10
1.413278542503018
 20
-95.08278071715707
 30
0.0
 11
1.413278542503018
 21
-94.45531196715709
 31
0.0
  0
LINE
  5
E7E8
330
2
100
AcDbEntity
  8
0
 62
     7
370
    50
100
AcDbLine
 10
0.7230629175030714
 20
-96.8396932171572
 30
0.0
 11
0.7230629175030714
 21
-101.8495682171571
 31
0.0
  0
LINE
  5
E7E9
330
2
100
AcDbEntity
  8
0
 62
     7
370
    50
100
AcDbLine
 10
1.287784792502989
 20
-96.71419946715715
 30
0.0
 11
0.7230629175030714
 21
-96.8396932171572
 31
0.0
  0
LINE
  5
E7EA
330
2
100
AcDbEntity
  8
0
 62
     7
370
    50
100
AcDbLine
 10
1.287784792502989
 20
-96.4632119671571
 30
0.0
 11
1.287784792502989
 21
-96.71419946715715
 31
0.0
  0
ARC
  5
E7EB
330
2
100
AcDbEntity
  8
0
 62
     7
370
    50
100
AcDbCircle
 10
1.643631932866789
 20
-95.79964182082653
 30
0.0
 40
0.7529625000000071
100
AcDbArc
 50
107.8140895270849
 51
241.7970526574443
  0
LINE
  5
E7F0
330
2
100
AcDbEntity
  8
0
 62
     7
370
    50
100
AcDbLine
 10
3.609419167503016
 20
-92.32191821715716
 30
0.0
 11
5.104886355003056
 21
-92.32191821715716
 31
0.0
  0
LINE
  5
E7F1
330
2
100
AcDbEntity
  8
0
 62
     7
370
    50
100
AcDbLine
 10
3.609419167503016
 20
-94.45531196715721
 30
0.0
 11
5.805559792503018
 21
-94.45531196715721
 31
0.0
  0
LINE
  5
E7F2
330
2
100
AcDbEntity
  8
0
 62
     7
370
    50
100
AcDbLine
 10
3.609419167503016
 20
-95.08278071715722
 30
0.0
 11
5.805559792503018
 21
-95.08278071715722
 31
0.0
  0
LINE
  5
E7F3
330
2
100
AcDbEntity
  8
0
 62
     7
370
    50
100
AcDbLine
 10
3.609419167503016
 20
-96.4632119671571
 30
0.0
 11
5.931053542503043
 21
-96.4632119671571
 31
0.0
  0
LINE
  5
E7F4
330
2
100
AcDbEntity
  8
0
 62
     7
370
    50
100
AcDbLine
 10
3.609419167503016
 20
-96.71419946715715
 30
0.0
 11
5.931053542503043
 21
-96.71419946715715
 31
0.0
  0
LINE
  5
E7F5
330
2
100
AcDbEntity
  8
0
 62
     7
370
    50
100
AcDbLine
 10
3.609419167503016
 20
-96.8396932171572
 30
0.0
 11
6.495775417503033
 21
-96.8396932171572
 31
0.0
  0
LINE
  5
E7F6
330
2
100
AcDbEntity
  8
0
 62
     7
370
    50
100
AcDbLine
 10
6.495775417503033
 20
-99.34956821715719
 30
0.0
 11
6.495775417503033
 21
-96.8396932171572
 31
0.0
  0
ARC
  5
E7F7
330
2
100
AcDbEntity
  8
0
 62
     7
370
    50
100
AcDbCircle
 10
6.794084519065524
 20
-93.04677534606332
 30
0.0
 40
1.720801135514404
100
AcDbArc
 50
204.6726943310064
 51
234.9384478535177
  0
ARC
  5
E7F8
330
2
100
AcDbEntity
  8
0
 62
     7
370
    50
100
AcDbCircle
 10
5.541362424081974
 20
-95.80271854610456
 30
0.0
 40
0.7668837767419853
100
AcDbArc
 50
300.5406048496823
 51
69.84825296578695
  0
LINE
  5
E7F9
330
2
100
AcDbEntity
  8
0
 62
     7
370
    50
100
AcDbLine
 10
5.931053542503043
 20
-96.71419946715715
 30
0.0
 11
5.931053542503043
 21
-96.4632119671571
 31
0.0
  0
LINE
  5
E7FB
330
2
100
AcDbEntity
  8
0
 62
     7
370
    50
100
AcDbLine
 10
5.805559792503018
 20
-94.45531196715721
 30
0.0
 11
5.805559792503018
 21
-95.08278071715722
 31
0.0
  0
ARC
  5
E7FC
330
2
100
AcDbEntity
  8
0
 62
     7
370
    50
100
AcDbCircle
 10
7.82531688977415
 20
-92.81240435272056
 30
0.0
 40
2.764293570461533
100
AcDbArc
 50
169.7795306324376
 51
200.1599508237868
  0
ARC
  5
E7FD
330
2
100
AcDbEntity
  8
0
 62
     7
370
    50
100
AcDbCircle
 10
6.797854667476354
 20
-93.04363355572101
 30
0.0
 40
1.725539062499889
100
AcDbArc
 50
204.7152353378852
 51
234.8959068466452
  0
ARC
  5
E7FE
330
2
100
AcDbEntity
  8
0
 62
     7
370
    50
100
AcDbCircle
 10
5.575206402139247
 20
-95.79964182082653
 30
0.0
 40
0.752962499999997
100
AcDbArc
 50
298.2029473425556
 51
72.18591047291504
  0
LINE
  5
E7FF
330
2
100
AcDbEntity
  8
0
 62
     7
370
    50
100
AcDbLine
 10
5.931053542503043
 20
-96.4632119671571
 30
0.0
 11
3.609419167503016
 21
-96.4632119671571
 31
0.0
  0
LINE
  5
E800
330
2
100
AcDbEntity
  8
0
 62
     7
370
    50
100
AcDbLine
 10
5.931053542503043
 20
-96.4632119671571
 30
0.0
 11
5.931053542503043
 21
-96.71419946715715
 31
0.0
  0
LINE
  5
E801
330
2
100
AcDbEntity
  8
0
 62
     7
370
    50
100
AcDbLine
 10
5.931053542503043
 20
-96.71419946715715
 30
0.0
 11
3.609419167503016
 21
-96.71419946715715
 31
0.0
  0
LINE
  5
E803
330
2
100
AcDbEntity
  8
0
 62
     7
370
    50
100
AcDbLine
 10
6.495775417503033
 20
-96.8396932171572
 30
0.0
 11
3.609419167503016
 21
-96.8396932171572
 31
0.0
  0
LINE
  5
E804
330
2
100
AcDbEntity
  8
0
 62
     7
370
    50
100
AcDbLine
 10
3.609419167503016
 20
-95.08278071715707
 30
0.0
 11
5.805559792503082
 21
-95.08278071715707
 31
0.0
  0
LINE
  5
E805
330
2
100
AcDbEntity
  8
0
 62
     7
370
    50
100
AcDbLine
 10
5.805559792503082
 20
-95.08278071715707
 30
0.0
 11
5.805559792503018
 21
-94.45531196715709
 31
0.0
  0
LINE
  5
E806
330
2
100
AcDbEntity
  8
0
 62
     7
370
    50
100
AcDbLine
 10
5.805559792503018
 20
-94.45531196715709
 30
0.0
 11
3.609419167503016
 21
-94.45531196715709
 31
0.0
  0
ARC
  5
E807
330
2
100
AcDbEntity
  8
0
 62
     7
370
    50
100
AcDbCircle
 10
7.821774805642952
 20
-92.81271236003655
 30
0.0
 40
2.760862499999871
100
AcDbArc
 50
169.760196973618
 51
200.1792844825418
  0
LINE
  5
E808
330
2
100
AcDbEntity
  8
0
 62
     7
370
    50
100
AcDbLine
 10
5.104886355003056
 20
-92.32191821715716
 30
0.0
 11
3.609419167503016
 21
-92.32191821715716
 31
0.0
  0
LINE
  5
E809
330
2
100
AcDbEntity
  8
0
 62
     7
370
    50
100
AcDbLine
 10
6.495775417503033
 20
-96.8396932171572
 30
0.0
 11
6.495775417503033
 21
-101.8495682171571
 31
0.0
  0
LINE
  5
EA18
330
2
100
AcDbEntity
  8
0
 62
     7
370
    50
100
AcDbLine
 10
3.609419167503016
 20
-91.31796821715722
 30
0.0
 11
2.113951980003044
 21
-91.31796821715722
 31
0.0
  0
LINE
  5
EA19
330
2
100
AcDbEntity
  8
0
 62
     7
370
    50
100
AcDbLine
 10
3.609419167503016
 20
-75.50575571715718
 30
0.0
 11
0.7230629175030714
 21
-75.50575571715718
 31
0.0
  0
LINE
  5
EA1A
330
2
100
AcDbEntity
  8
0
 62
     7
370
    50
100
AcDbLine
 10
3.609419167503016
 20
-75.63124946715721
 30
0.0
 11
0.7962676050030311
 21
-75.63124946715721
 31
0.0
  0
LINE
  5
EA1B
330
2
100
AcDbEntity
  8
0
 62
     7
370
    50
100
AcDbLine
 10
3.609419167503016
 20
-77.26266821715715
 30
0.0
 11
1.86296448000299
 21
-77.26266821715715
 31
0.0
  0
LINE
  5
EA1C
330
2
100
AcDbEntity
  8
0
 62
     7
370
    50
100
AcDbLine
 10
3.609419167503016
 20
-77.89013696715716
 30
0.0
 11
1.86296448000299
 21
-77.89013696715716
 31
0.0
  0
LINE
  5
EA1D
330
2
100
AcDbEntity
  8
0
 62
     7
370
    50
100
AcDbLine
 10
3.609419167503016
 20
-80.27451821715713
 30
0.0
 11
1.86296448000299
 21
-80.27451821715713
 31
0.0
  0
LINE
  5
EA1E
330
2
100
AcDbEntity
  8
0
 62
     7
370
    50
100
AcDbLine
 10
3.609419167503016
 20
-81.15297446715718
 30
0.0
 11
1.988458230003018
 21
-81.15297446715718
 31
0.0
  0
LINE
  5
EA1F
330
2
100
AcDbEntity
  8
0
 62
     7
370
    50
100
AcDbLine
 10
3.609419167503016
 20
-79.14507446715716
 30
0.0
 11
1.86296448000299
 21
-79.14507446715716
 31
0.0
  0
LINE
  5
EA20
330
2
100
AcDbEntity
  8
0
 62
     7
370
    50
100
AcDbLine
 10
1.86296448000299
 20
-81.02748071715716
 30
0.0
 11
3.609419167503016
 21
-81.02748071715716
 31
0.0
  0
LINE
  5
EA23
330
2
100
AcDbEntity
  8
0
 62
     7
370
    50
100
AcDbLine
 10
3.609419167503016
 20
-75.50575571715718
 30
0.0
 11
0.7230629175030714
 21
-75.50575571715718
 31
0.0
  0
LINE
  5
EA24
330
2
100
AcDbEntity
  8
0
 62
     7
370
    50
100
AcDbLine
 10
3.609419167503016
 20
-75.63124946715707
 30
0.0
 11
0.7962676050030311
 21
-75.63124946715707
 31
0.0
  0
LINE
  5
EA25
330
2
100
AcDbEntity
  8
0
 62
     7
370
    50
100
AcDbLine
 10
3.609419167503016
 20
-77.89013696715716
 30
0.0
 11
1.862964480003057
 21
-77.89013696715716
 31
0.0
  0
LINE
  5
EA26
330
2
100
AcDbEntity
  8
0
 62
     7
370
    50
100
AcDbLine
 10
1.86296448000299
 20
-77.26266821715715
 30
0.0
 11
3.609419167503016
 21
-77.26266821715715
 31
0.0
  0
LINE
  5
EA27
330
2
100
AcDbEntity
  8
0
 62
     7
370
    50
100
AcDbLine
 10
1.862964480003057
 20
-80.27451821715713
 30
0.0
 11
3.609419167503016
 21
-80.27451821715713
 31
0.0
  0
LINE
  5
EA28
330
2
100
AcDbEntity
  8
0
 62
     7
370
    50
100
AcDbLine
 10
3.609419167503016
 20
-81.02748071715716
 30
0.0
 11
1.86296448000299
 21
-81.02748071715716
 31
0.0
  0
LINE
  5
EA2A
330
2
100
AcDbEntity
  8
0
 62
     7
370
    50
100
AcDbLine
 10
3.609419167503016
 20
-91.31796821715708
 30
0.0
 11
2.113951980003044
 21
-91.31796821715708
 31
0.0
  0
LINE
  5
EA2D
330
2
100
AcDbEntity
  8
0
 62
     7
370
    50
100
AcDbLine
 10
1.988458230003018
 20
-81.15297446715706
 30
0.0
 11
3.609419167503016
 21
-81.15297446715718
 31
0.0
  0
ARC
  5
EA2E
330
2
100
AcDbEntity
  8
0
 62
     7
370
    50
100
AcDbCircle
 10
-25.63826683009365
 20
-81.81362666066673
 30
0.0
 40
27.63462319024747
100
AcDbArc
 50
355.9022623541394
 51
1.36988258265595
  0
ARC
  5
EA2F
330
2
100
AcDbEntity
  8
0
 62
     7
370
    50
100
AcDbCircle
 10
4.60018239056103
 20
-88.36795624180831
 30
0.0
 40
3.857967380510689
100
AcDbArc
 50
179.081586440103
 51
229.8762612980326
  0
ARC
  5
EA30
330
2
100
AcDbEntity
  8
0
 62
     7
370
    50
100
AcDbCircle
 10
6.068234181695096
 20
-88.08681142383013
 30
0.0
 40
5.330037199451427
100
AcDbArc
 50
160.3928811039773
 51
182.3581264680185
  0
ARC
  5
EA32
330
2
100
AcDbEntity
  8
0
 62
     7
370
    50
100
AcDbCircle
 10
-0.3018027074969041
 20
-83.76481313903212
 30
0.0
 40
2.22763833761492
100
AcDbArc
 50
332.532727661389
 51
359.3947854027546
  0
LINE
  5
EA34
330
2
100
AcDbEntity
  8
0
 62
     7
370
    50
100
AcDbLine
 10
0.7230629175030714
 20
-75.50575571715718
 30
0.0
 11
0.7962676050030311
 21
-75.63124946715721
 31
0.0
  0
ARC
  5
EA35
330
2
100
AcDbEntity
  8
0
 62
     7
370
    50
100
AcDbCircle
 10
2.424634874139435
 20
-75.73098499070255
 30
0.0
 40
1.631418749999999
100
AcDbArc
 50
176.4950813054348
 51
249.8619420133486
  0
LINE
  5
EA36
330
2
100
AcDbEntity
  8
0
 62
     7
370
    50
100
AcDbLine
 10
1.86296448000299
 20
-81.02748071715716
 30
0.0
 11
1.988458230003018
 21
-81.15297446715718
 31
0.0
  0
ARC
  5
EA37
330
2
100
AcDbEntity
  8
0
 62
     7
370
    50
100
AcDbCircle
 10
2.37278283937799
 20
-79.7097963421572
 30
0.0
 40
0.760805859375
100
AcDbArc
 50
132.0750220508426
 51
227.9249779491574
  0
ARC
  5
EA38
330
2
100
AcDbEntity
  8
0
 62
     7
370
    50
100
AcDbCircle
 10
0.9531347925030289
 20
-78.51760571715715
 30
0.0
 40
1.105218119867257
100
AcDbArc
 50
325.4077113124908
 51
34.59228868750911
  0
LINE
  5
EA39
330
2
100
AcDbEntity
  8
0
 62
     7
370
    50
100
AcDbLine
 10
1.86296448000299
 20
-77.89013696715716
 30
0.0
 11
1.86296448000299
 21
-77.26266821715715
 31
0.0
  0
LINE
  5
EA3A
330
2
100
AcDbEntity
  8
0
 62
     7
370
    50
100
AcDbLine
 10
1.86296448000299
 20
-81.02748071715716
 30
0.0
 11
1.86296448000299
 21
-80.27451821715713
 31
0.0
  0
LINE
  5
EA40
330
2
100
AcDbEntity
  8
0
 62
     7
370
    50
100
AcDbLine
 10
0.7230629175030714
 20
-75.50575571715718
 30
0.0
 11
0.7962676050030311
 21
-75.63124946715707
 31
0.0
  0
ARC
  5
EA41
330
2
100
AcDbEntity
  8
0
 62
     7
370
    50
100
AcDbCircle
 10
2.424634874139435
 20
-75.73098499070255
 30
0.0
 40
1.631418750000056
100
AcDbArc
 50
176.4950813054348
 51
249.8619420133486
  0
LINE
  5
EA42
330
2
100
AcDbEntity
  8
0
 62
     7
370
    50
100
AcDbLine
 10
1.862964480003057
 20
-77.89013696715716
 30
0.0
 11
1.86296448000299
 21
-77.26266821715715
 31
0.0
  0
ARC
  5
EA43
330
2
100
AcDbEntity
  8
0
 62
     7
370
    50
100
AcDbCircle
 10
2.361002360392376
 20
-79.7097963421572
 30
0.0
 40
0.7529625000000308
100
AcDbArc
 50
131.4096221092698
 51
228.5903778907278
  0
ARC
  5
EA44
330
2
100
AcDbEntity
  8
0
 62
     7
370
    50
100
AcDbCircle
 10
0.9618310942230579
 20
-78.51760571715715
 30
0.0
 40
1.098070312499993
100
AcDbArc
 50
325.1500954209546
 51
34.84990457904538
  0
LINE
  5
EA45
330
2
100
AcDbEntity
  8
0
 62
     7
370
    50
100
AcDbLine
 10
1.86296448000299
 20
-81.02748071715716
 30
0.0
 11
1.862964480003057
 21
-80.27451821715713
 31
0.0
  0
LINE
  5
EA46
330
2
100
AcDbEntity
  8
0
 62
     7
370
    50
100
AcDbLine
 10
1.86296448000299
 20
-81.02748071715716
 30
0.0
 11
1.988458230003018
 21
-81.15297446715718
 31
0.0
  0
LINE
  5
EA47
330
2
100
AcDbEntity
  8
0
 62
     7
370
    50
100
AcDbLine
 10
0.7230629175030714
 20
-75.50575571715718
 30
0.0
 11
0.7230629175030714
 21
-70.7468682171571
 31
0.0
  0
ARC
  5
EA48
330
2
100
AcDbEntity
  8
0
 62
     7
370
    50
100
AcDbCircle
 10
-0.3016787525967182
 20
-83.76484412775718
 30
0.0
 40
2.227514062500199
100
AcDbArc
 50
332.5319642964294
 51
359.3955487677153
  0
ARC
  5
EA49
330
2
100
AcDbEntity
  8
0
 62
     7
370
    50
100
AcDbCircle
 10
15.38643909341034
 20
-91.38919305606297
 30
0.0
 40
15.2161171874998
100
AcDbArc
 50
154.3071356404088
 51
160.4531344586558
  0
ARC
  5
EA4A
330
2
100
AcDbEntity
  8
0
 62
     7
370
    50
100
AcDbCircle
 10
6.071705921216768
 20
-88.08733799342133
 30
0.0
 40
5.333484374999923
100
AcDbArc
 50
160.4000676171815
 51
182.3509399547389
  0
ARC
  5
EA4B
330
2
100
AcDbEntity
  8
0
 62
     7
370
    50
100
AcDbCircle
 10
4.601155018087574
 20
-88.36751342191998
 30
0.0
 40
3.858932812500603
100
AcDbArc
 50
179.0883918675776
 51
229.8694558705642
  0
ARC
  5
EA4F
330
2
100
AcDbEntity
  8
0
 62
     7
370
    50
100
AcDbCircle
 10
-25.64364667598955
 20
-81.81349856909788
 30
0.0
 40
27.63999843750035
100
AcDbArc
 50
355.9027944114709
 51
1.369350525323726
  0
ARC
  5
EA52
330
2
100
AcDbEntity
  8
0
 62
     7
370
    50
100
AcDbCircle
 10
32.85710516509975
 20
-81.81362666066673
 30
0.0
 40
27.63462319024747
100
AcDbArc
 50
178.630117417344
 51
184.0977376458606
  0
LINE
  5
EA53
330
2
100
AcDbEntity
  8
0
 62
     7
370
    50
100
AcDbLine
 10
3.609419167503016
 20
-91.31796821715722
 30
0.0
 11
5.104886355003056
 21
-91.31796821715722
 31
0.0
  0
ARC
  5
EA55
330
2
100
AcDbEntity
  8
0
 62
     7
370
    50
100
AcDbCircle
 10
2.618655944445002
 20
-88.36795624180831
 30
0.0
 40
3.857967380510689
100
AcDbArc
 50
310.1237387019673
 51
0.9184135598969776
  0
ARC
  5
EA56
330
2
100
AcDbEntity
  8
0
 62
     7
370
    50
100
AcDbCircle
 10
1.150604153311004
 20
-88.08681142383013
 30
0.0
 40
5.330037199451427
100
AcDbArc
 50
357.6418735319815
 51
19.60711889602264
  0
ARC
  5
EA57
330
2
100
AcDbEntity
  8
0
 62
     7
370
    50
100
AcDbCircle
 10
7.520641042503005
 20
-83.76481313903212
 30
0.0
 40
2.22763833761492
100
AcDbArc
 50
180.6052145972454
 51
207.467272338611
  0
LINE
  5
EA58
330
2
100
AcDbEntity
  8
0
 62
     7
370
    50
100
AcDbLine
 10
5.355873855003046
 20
-81.02748071715716
 30
0.0
 11
3.609419167503016
 21
-81.02748071715716
 31
0.0
  0
LINE
  5
EA59
330
2
100
AcDbEntity
  8
0
 62
     7
370
    50
100
AcDbLine
 10
3.609419167503016
 20
-81.15297446715718
 30
0.0
 11
5.230380105003018
 21
-81.15297446715718
 31
0.0
  0
LINE
  5
EA5A
330
2
100
AcDbEntity
  8
0
 62
     7
370
    50
100
AcDbLine
 10
3.609419167503016
 20
-79.14507446715716
 30
0.0
 11
5.355873855003046
 21
-79.14507446715716
 31
0.0
  0
LINE
  5
EA5B
330
2
100
AcDbEntity
  8
0
 62
     7
370
    50
100
AcDbLine
 10
3.609419167503016
 20
-80.27451821715713
 30
0.0
 11
5.355873855003046
 21
-80.27451821715713
 31
0.0
  0
LINE
  5
EA5C
330
2
100
AcDbEntity
  8
0
 62
     7
370
    50
100
AcDbLine
 10
3.609419167503016
 20
-77.89013696715716
 30
0.0
 11
5.355873855003046
 21
-77.89013696715716
 31
0.0
  0
LINE
  5
EA5D
330
2
100
AcDbEntity
  8
0
 62
     7
370
    50
100
AcDbLine
 10
3.609419167503016
 20
-75.50575571715718
 30
0.0
 11
6.495775417503033
 21
-75.50575571715718
 31
0.0
  0
LINE
  5
EA5E
330
2
100
AcDbEntity
  8
0
 62
     7
100
AcDbLine
 10
3.609419167503016
 20
-70.7468682171571
 30
0.0
 11
6.495775417503033
 21
-70.7468682171571
 31
0.0
  0
ARC
  5
EA60
330
2
100
AcDbEntity
  8
0
 62
     7
370
    50
100
AcDbCircle
 10
6.265703542503072
 20
-78.51760571715715
 30
0.0
 40
1.105218119867257
100
AcDbArc
 50
145.4077113124909
 51
214.592288687509
  0
LINE
  5
EA61
330
2
100
AcDbEntity
  8
0
 62
     7
370
    50
100
AcDbLine
 10
5.355873855003046
 20
-81.02748071715716
 30
0.0
 11
5.355873855003046
 21
-80.27451821715713
 31
0.0
  0
LINE
  5
EA62
330
2
100
AcDbEntity
  8
0
 62
     7
370
    50
100
AcDbLine
 10
5.355873855003046
 20
-81.02748071715716
 30
0.0
 11
5.230380105003018
 21
-81.15297446715718
 31
0.0
  0
ARC
  5
EA63
330
2
100
AcDbEntity
  8
0
 62
     7
370
    50
100
AcDbCircle
 10
4.846055495628043
 20
-79.7097963421572
 30
0.0
 40
0.760805859375
100
AcDbArc
 50
312.0750220508426
 51
47.92497794915736
  0
LINE
  5
EA64
330
2
100
AcDbEntity
  8
0
 62
     7
370
    50
100
AcDbLine
 10
5.355873855003046
 20
-77.89013696715716
 30
0.0
 11
5.355873855003046
 21
-77.26266821715715
 31
0.0
  0
LINE
  5
EA65
330
2
100
AcDbEntity
  8
0
 62
     7
370
    50
100
AcDbLine
 10
6.495775417503033
 20
-75.50575571715718
 30
0.0
 11
6.422570730003073
 21
-75.63124946715721
 31
0.0
  0
POINT
  5
EA66
330
2
100
AcDbEntity
  8
0
 62
     1
100
AcDbPoint
 10
6.495775417503033
 20
-68.15486928489031
 30
0.0
  0
ARC
  5
EA68
330
2
100
AcDbEntity
  8
0
 62
     7
370
    50
100
AcDbCircle
 10
4.857835974613657
 20
-79.7097963421572
 30
0.0
 40
0.7529625000000308
100
AcDbArc
 50
311.409622109272
 51
48.59037789073019
  0
ARC
  5
EA69
330
2
100
AcDbEntity
  8
0
 62
     7
370
    50
100
AcDbCircle
 10
6.257007240783046
 20
-78.51760571715715
 30
0.0
 40
1.09807031250002
100
AcDbArc
 50
145.1500954209546
 51
214.8499045790453
  0
LINE
  5
EA6A
330
2
100
AcDbEntity
  8
0
 62
     7
370
    50
100
AcDbLine
 10
3.609419167503016
 20
-77.89013696715716
 30
0.0
 11
5.355873855003046
 21
-77.89013696715716
 31
0.0
  0
LINE
  5
EA6B
330
2
100
AcDbEntity
  8
0
 62
     7
370
    50
100
AcDbLine
 10
5.355873855003046
 20
-77.89013696715716
 30
0.0
 11
5.355873855003046
 21
-77.26266821715715
 31
0.0
  0
LINE
  5
EA6C
330
2
100
AcDbEntity
  8
0
 62
     7
370
    50
100
AcDbLine
 10
3.609419167503016
 20
-75.50575571715718
 30
0.0
 11
6.495775417503033
 21
-75.50575571715718
 31
0.0
  0
LINE
  5
EA6D
330
2
100
AcDbEntity
  8
0
 62
     7
370
    50
100
AcDbLine
 10
6.495775417503033
 20
-75.50575571715718
 30
0.0
 11
6.422570730003073
 21
-75.63124946715707
 31
0.0
  0
LINE
  5
EA6E
330
2
100
AcDbEntity
  8
0
 62
     7
370
    50
100
AcDbLine
 10
6.495775417503033
 20
-75.50575571715718
 30
0.0
 11
6.495775417503029
 21
-70.7468682171571
 31
0.0
  0
LINE
  5
EA6F
330
2
100
AcDbEntity
  8
0
 62
     7
370
    50
100
AcDbLine
 10
6.495775417503033
 20
-70.7468682171571
 30
0.0
 11
0.7230629175030714
 21
-70.7468682171571
 31
0.0
  0
LINE
  5
EA70
330
2
100
AcDbEntity
  8
0
 62
     7
370
    50
100
AcDbLine
 10
3.609419167503016
 20
-81.02748071715716
 30
0.0
 11
5.355873855003046
 21
-81.02748071715716
 31
0.0
  0
LINE
  5
EA71
330
2
100
AcDbEntity
  8
0
 62
     7
370
    50
100
AcDbLine
 10
5.355873855003046
 20
-81.02748071715716
 30
0.0
 11
5.230380105003018
 21
-81.15297446715718
 31
0.0
  0
LINE
  5
EA72
330
2
100
AcDbEntity
  8
0
 62
     7
370
    50
100
AcDbLine
 10
5.355873855003046
 20
-81.02748071715716
 30
0.0
 11
5.355873855003046
 21
-80.27451821715713
 31
0.0
  0
LINE
  5
EA73
330
2
100
AcDbEntity
  8
0
 62
     7
370
    50
100
AcDbLine
 10
5.355873855003046
 20
-80.27451821715713
 30
0.0
 11
3.609419167503016
 21
-80.27451821715713
 31
0.0
  0
ARC
  5
EA74
330
2
100
AcDbEntity
  8
0
 62
     7
370
    50
100
AcDbCircle
 10
7.520517087602819
 20
-83.76484412775718
 30
0.0
 40
2.22751406250017
100
AcDbArc
 50
180.6044512322847
 51
207.4680357035698
  0
ARC
  5
EA75
330
2
100
AcDbEntity
  8
0
 62
     7
370
    50
100
AcDbCircle
 10
1.147132413789336
 20
-88.08733799342133
 30
0.0
 40
5.333484374999923
100
AcDbArc
 50
357.649060045261
 51
19.59993238281846
  0
ARC
  5
EA76
330
2
100
AcDbEntity
  8
0
 62
     7
370
    50
100
AcDbCircle
 10
2.617683316918594
 20
-88.36751342191998
 30
0.0
 40
3.858932812500603
100
AcDbArc
 50
310.1305441294351
 51
0.9116081324223127
  0
ARC
  5
EA77
330
2
100
AcDbEntity
  8
0
 62
     7
370
    50
100
AcDbCircle
 10
-8.167600758404304
 20
-91.38919305606297
 30
0.0
 40
15.21611718749983
100
AcDbArc
 50
19.5468655413442
 51
25.6928643595911
  0
LINE
  5
EA7C
330
2
100
AcDbEntity
  8
0
 62
     7
370
    50
100
AcDbLine
 10
3.609419167503016
 20
-91.31796821715708
 30
0.0
 11
5.104886355003056
 21
-91.31796821715708
 31
0.0
  0
ARC
  5
EA7D
330
2
100
AcDbEntity
  8
0
 62
     7
370
    50
100
AcDbCircle
 10
32.8624850109956
 20
-81.81349856909788
 30
0.0
 40
27.63999843750035
100
AcDbArc
 50
178.6306494746762
 51
184.097205588529
  0
LINE
  5
EA7E
330
2
100
AcDbEntity
  8
0
 62
     7
370
    50
100
AcDbLine
 10
5.230380105003018
 20
-81.15297446715706
 30
0.0
 11
3.609419167503016
 21
-81.15297446715718
 31
0.0
  0
LINE
  5
FBB7
330
2
100
AcDbEntity
  8
0
 62
     7
370
    50
100
AcDbLine
 10
5.355873855003046
 20
-77.26266821715715
 30
0.0
 11
3.609419167503016
 21
-77.26266821715715
 31
0.0
  0
LINE
  5
FBB8
330
2
100
AcDbEntity
  8
0
 62
     7
370
    50
100
AcDbLine
 10
3.609419167503016
 20
-77.26266821715715
 30
0.0
 11
5.355873855003046
 21
-77.26266821715715
 31
0.0
  0
ARC
  5
FBB9
330
2
100
AcDbEntity
  8
0
 62
     7
370
    50
100
AcDbCircle
 10
4.794203460866633
 20
-75.73098499070255
 30
0.0
 40
1.631418750000062
100
AcDbArc
 50
290.1380579866498
 51
3.504918694565537
  0
LINE
  5
FBBA
330
2
100
AcDbEntity
  8
0
 62
     7
370
    50
100
AcDbLine
 10
6.422570730003073
 20
-75.63124946715707
 30
0.0
 11
3.609419167503016
 21
-75.63124946715721
 31
0.0
  0
LINE
  5
FBBB
330
2
100
AcDbEntity
  8
0
 62
     7
370
    50
100
AcDbLine
 10
3.609419167503016
 20
-75.63124946715721
 30
0.0
 11
6.422570730003073
 21
-75.63124946715707
 31
0.0
  0
ARC
  5
FBBC
330
2
100
AcDbEntity
  8
0
 62
     7
370
    50
100
AcDbCircle
 10
4.794203460866601
 20
-75.73098499070255
 30
0.0
 40
1.631418750000088
100
AcDbArc
 50
290.1380579866509
 51
3.504918694565466
  0
LWPOLYLINE
  5
116F2
330
2
100
AcDbEntity
  8
0
 62
     7
370
    50
100
AcDbPolyline
 90
        2
 70
     1
 43
0.0
 10
5.931053542503043
 20
-96.71419946715715
 10
6.495775417503031
 20
-96.8396932171572
  0
DIMENSION
  5
116F3
330
2
100
AcDbEntity
  8
A1
 62
     7
100
AcDbDimension
  2
*D5
 10
6.495775417503031
 20
-105.3029225119771
 30
0.0
 11
11.48637969150777
 21
-105.3029225119771
 31
0.0
 70
   161
 71
     5
 42
-1.0
  3
STANDARD
100
AcDbAlignedDimension
 13
0.7230629175030705
 23
-101.8495682171571
 33
0.0
 14
6.495775417503031
 24
-101.8495682171571
 34
0.0
1001
ACAD
1000
DSTYLE
1002
{
1070
   287
1070
     4
1070
   287
1070
     4
1070
   287
1070
     4
1070
    40
1040
1.199999999999999
1070
    73
1070
     1
1070
    74
1070
     1
1070
    77
1070
     0
1070
   147
1040
0.5
1070
   279
1070
     1
1070
   288
1070
     1
1070
   289
1070
     3
1002
}
  0
SOLID
  5
11760
330
2
100
AcDbEntity
  8
A1
 62
     1
100
AcDbTrace
 10
7.089062699686234
 20
-70.61266612775582
 30
0.0
 11
7.013468114897538
 21
-70.4275027978262
 31
0.0
 12
6.495775417503033
 22
-70.7468682171571
 32
0.0
 13
6.495775417503033
 23
-70.7468682171571
 33
0.0
  0
LINE
  5
11761
330
2
100
AcDbEntity
  8
A1
 62
     1
100
AcDbLine
 10
7.167691195932295
 20
-70.4893573509504
 30
0.0
 11
14.92745071719734
 21
-67.32136615478246
 31
0.0
  0
INSERT
  5
1193E
330
2
100
AcDbEntity
  8
A1
 62
     7
100
AcDbBlockReference
 66
     1
  2
PROFILE LOGO
 10
0.9229656557863847
 20
-71.02344396341965
 30
0.0
  0
ATTRIB
  5
1193F
330
1193E
100
AcDbEntity
  8
A1
 62
    22
100
AcDbText
 10
1.205326009353085
 20
-72.70174221232618
 30
0.0
 40
0.2126953125
  1
0993
 72
     1
 11
1.601096061067295
 21
-72.70174221232618
 31
0.0
100
AcDbAttribute
  2
XXXX
 70
     0
  0
SEQEND
  5
11940
330
1193E
100
AcDbEntity
  8
A1
 62
     7
  0
INSERT
  5
11D9C
330
2
100
AcDbEntity
  8
A1
 62
     7
100
AcDbBlockReference
 66
     1
  2
TSFORMB
 10
-29.6999387509223
 20
-116.8102721242959
 30
0.0
 41
0.6804000000000002
 42
0.6804000000000002
 43
0.6804000000000002
  0
ATTRIB
  5
11D9D
330
11D9C
100
AcDbEntity
  8
A1
 62
     1
100
AcDbText
 10
37.47350173177511
 20
-111.8980980503003
 30
0.0
 40
0.6429780000000003
  1
160.92
 72
     1
 11
39.11694620874181
 21
-111.8980980503003
 31
0.0
100
AcDbAttribute
  2
XXXXX
 70
     0
  0
ATTRIB
  5
11D9E
330
11D9C
100
AcDbEntity
  8
A1
 62
     1
100
AcDbText
 10
37.28211921503225
 20
-109.9525175201454
 30
0.0
 40
0.6429780000000003
  1
178.25"
 72
     1
 11
39.14019348505351
 21
-109.9525175201454
 31
0.0
100
AcDbAttribute
  2
XXXXX
 70
     0
  0
ATTRIB
  5
11D9F
330
11D9C
100
AcDbEntity
  8
A1
 62
     1
100
AcDbText
 10
33.8593201147594
 20
-66.86890101169812
 30
0.0
 40
1.4145516
  1
TS0993
 72
     1
 11
37.7977084638735
 21
-66.86890101169812
 31
0.0
100
AcDbAttribute
  2
TS00XX
 70
     0
  0
ATTRIB
  5
11DA0
330
11D9C
100
AcDbEntity
  8
A1
 62
     1
100
AcDbText
 10
-25.07555306350053
 20
-114.6888102334938
 30
0.0
 40
4.172212800000001
  1
TS0993
  7
barcoder
 72
     1
 11
-20.95549292350053
 21
-114.6888102334938
 31
0.0
100
AcDbAttribute
  2
BARCODE
 70
     0
  0
ATTRIB
  5
11DA1
330
11D9C
100
AcDbEntity
  8
A1
 62
     1
100
AcDbText
 10
-18.21732212980981
 20
-115.5345093980224
 30
0.0
 40
0.5715360000000002
  1
TS0993
 72
     2
 11
-15.03478609012164
 21
-115.5345093980224
 31
0.0
100
AcDbAttribute
  2
XXXXXX
 70
     0
  0
ATTRIB
  5
11DA2
330
11D9C
100
AcDbEntity
  8
A1
 62
     1
100
AcDbText
 10
-4.19447859373896
 20
-116.1866963086051
 30
0.0
 40
0.6978111638400001
  1
BALUSTER
 72
     1
 11
-1.626523619791971
 21
-116.1866963086051
 31
0.0
100
AcDbAttribute
  2
XXXXXX
 70
     0
  0
SEQEND
  5
11DA3
330
11D9C
100
AcDbEntity
  8
A1
 62
     7
  0
DIMENSION
  5
11E7F
330
2
100
AcDbEntity
  8
A1
 62
     7
100
AcDbDimension
  2
*D7
 10
-5.46056464129931
 20
-70.7468682171571
 30
0.0
 11
-5.460564641299271
 21
-86.24920581588432
 31
0.0
 70
   160
 71
     5
 42
-1.0
  3
STANDARD
100
AcDbAlignedDimension
 13
0.7230629175030723
 23
-101.8495682171571
 33
0.0
 14
0.7230629175030022
 24
-70.7468682171571
 34
0.0
 50
90.00000000000017
100
AcDbRotatedDimension
1001
ACAD
1000
DSTYLE
1002
{
1070
   287
1070
     4
1070
   287
1070
     4
1070
    40
1040
1.199999999999999
1070
    73
1070
     1
1070
    74
1070
     1
1070
    77
1070
     0
1070
   147
1040
0.5
1070
   279
1070
     1
1070
   288
1070
     1
1070
   289
1070
     3
1002
}
  0
ENDSEC
  0
SECTION
  2
OBJECTS
  0
DICTIONARY
  5
8
330
0
100
AcDbDictionary
281
     1
  3
ACAD_GROUP
350
21
  3
ACAD_LAYOUT
350
C
  3
ACAD_MLINESTYLE
350
22
  3
ACAD_PLOTSETTINGS
350
23
  3
ACAD_PLOTSTYLENAME
350
7
  0
DICTIONARY
  5
3
330
2
100
AcDbDictionary
280
     1
281
     1
  3
ACAD_LAYOUTSELFREF
360
11F68
  0
DICTIONARY
  5
11E60
330
D
100
AcDbDictionary
280
     1
281
     1
  3
ACAD_LAYOUTSELFREF
360
11F6B
  0
DICTIONARY
  5
21
102
{ACAD_REACTORS
330
8
102
}
330
8
100
AcDbDictionary
281
     1
  0
DICTIONARY
  5
C
102
{ACAD_REACTORS
330
8
102
}
330
8
100
AcDbDictionary
281
     1
  3
Layout1
350
10
  3
Model
350
B
  0
DICTIONARY
  5
22
102
{ACAD_REACTORS
330
8
102
}
330
8
100
AcDbDictionary
281
     1
  3
STANDARD
350
25
  0
DICTIONARY
  5
23
102
{ACAD_REACTORS
330
8
102
}
330
8
100
AcDbDictionary
281
     1
  0
ACDBDICTIONARYWDFLT
  5
7
102
{ACAD_REACTORS
330
8
102
}
330
8
100
AcDbDictionary
281
     1
  3
Normal
350
6
100
AcDbDictionaryWithDefault
340
6
  0
XRECORD
  5
11F68
102
{ACAD_REACTORS
330
3
102
}
330
3
100
AcDbXrecord
280
     1
340
2
  0
XRECORD
  5
11F6B
102
{ACAD_REACTORS
330
11E60
102
}
330
11E60
100
AcDbXrecord
280
     1
340
D
  0
LAYOUT
  5
10
102
{ACAD_REACTORS
330
C
102
}
330
C
100
AcDbPlotSettings
  1

  2
None
  4

  6

 40
0.0
 41
0.0
 42
0.0
 43
0.0
 44
0.0
 45
0.0
 46
0.0
 47
0.0
 48
0.0
 49
0.0
140
0.0
141
0.0
142
1.0
143
1.0
 70
   688
 72
     0
 73
     0
 74
     5
  7

 75
    16
147
1.0
148
0.0
149
0.0
100
AcDbLayout
  1
Layout1
 70
     1
 71
     1
 10
0.0
 20
0.0
 11
12.0
 21
9.0
 12
0.0
 22
0.0
 32
0.0
 14
1.000000000000000E+20
 24
1.000000000000000E+20
 34
1.000000000000000E+20
 15
-1.000000000000000E+20
 25
-1.000000000000000E+20
 35
-1.000000000000000E+20
146
0.0
 13
0.0
 23
0.0
 33
0.0
 16
1.0
 26
0.0
 36
0.0
 17
0.0
 27
1.0
 37
0.0
 76
     0
330
D
  0
LAYOUT
  5
B
102
{ACAD_REACTORS
330
C
102
}
330
C
100
AcDbPlotSettings
  1

  2
HP LaserJet 5.pc3
  4
Letter
  6

 40
7.143749713897705
 41
6.381738662719726
 42
7.14373779296875
 43
6.381744384765625
 44
215.8999938964843
 45
279.3999938964843
 46
0.0
 47
0.0
 48
18.1150952218613
 49
-29.58841144098672
140
108.9658431831381
141
37.99568155459724
142
1.0
143
6.870202656235036
 70
 11952
 72
     0
 73
     1
 74
     1
  7

 75
     0
147
0.1455561138494877
148
754.3914056850095
149
2967.125294141507
100
AcDbLayout
  1
Model
 70
     1
 71
     0
 10
0.0
 20
0.0
 11
12.0
 21
9.0
 12
0.0
 22
0.0
 32
0.0
 14
0.0
 24
0.0
 34
0.0
 15
0.0
 25
0.0
 35
0.0
146
0.0
 13
0.0
 23
0.0
 33
0.0
 16
1.0
 26
0.0
 36
0.0
 17
0.0
 27
1.0
 37
0.0
 76
     0
330
2
  0
MLINESTYLE
  5
25
102
{ACAD_REACTORS
330
22
102
}
330
22
100
AcDbMlineStyle
  2
STANDARD
 70
     0
  3

 62
   256
 51
90.0
 52
90.0
 71
     2
 49
0.5
 62
   256
  6
BYLAYER
 49
-0.5
 62
   256
  6
BYLAYER
  0
ACDBPLACEHOLDER
  5
6
102
{ACAD_REACTORS
330
7
102
}
330
7
  0
ENDSEC
  0
EOF
