  0
SECTION
  2
HEADER
  9
$ACADVER
  1
AC1015
  9
$ACADMAINTVER
 70
     6
  9
$DWGCODEPAGE
  3
ANSI_1252
  9
$INSBASE
 10
0.0
 20
0.0
 30
0.0
  9
$EXTMIN
 10
539.0276402718568
 20
232.8588714269831
 30
0.0
  9
$EXTMAX
 10
606.8628654162769
 20
283.3216608636858
 30
0.0
  9
$LIMMIN
 10
0.0
 20
0.0
  9
$LIMMAX
 10
12.0
 20
9.0
  9
$ORTHOMODE
 70
     1
  9
$REGENMODE
 70
     1
  9
$FILLMODE
 70
     1
  9
$QTEXTMODE
 70
     0
  9
$MIRRTEXT
 70
     0
  9
$LTSCALE
 40
1.0
  9
$ATTMODE
 70
     2
  9
$TEXTSIZE
 40
1.0
  9
$TRACEWID
 40
0.05
  9
$TEXTSTYLE
  7
STANDARD
  9
$CLAYER
  8
A1
  9
$CELTYPE
  6
BYLAYER
  9
$CECOLOR
 62
     7
  9
$CELTSCALE
 40
1.0
  9
$DISPSILH
 70
     0
  9
$DIMSCALE
 40
1.0
  9
$DIMASZ
 40
0.5
  9
$DIMEXO
 40
1.0
  9
$DIMDLI
 40
0.0625
  9
$DIMRND
 40
0.0
  9
$DIMDLE
 40
0.0
  9
$DIMEXE
 40
0.25
  9
$DIMTP
 40
0.0
  9
$DIMTM
 40
0.0
  9
$DIMTXT
 40
1.0
  9
$DIMCEN
 40
0.0
  9
$DIMTSZ
 40
0.0
  9
$DIMTOL
 70
     0
  9
$DIMLIM
 70
     0
  9
$DIMTIH
 70
     1
  9
$DIMTOH
 70
     1
  9
$DIMSE1
 70
     0
  9
$DIMSE2
 70
     0
  9
$DIMTAD
 70
     0
  9
$DIMZIN
 70
     0
  9
$DIMBLK
  1

  9
$DIMASO
 70
     1
  9
$DIMSHO
 70
     1
  9
$DIMPOST
  1
"
  9
$DIMAPOST
  1

  9
$DIMALT
 70
     0
  9
$DIMALTD
 70
     0
  9
$DIMALTF
 40
25.4
  9
$DIMLFAC
 40
1.0
  9
$DIMTOFL
 70
     0
  9
$DIMTVP
 40
0.0
  9
$DIMTIX
 70
     0
  9
$DIMSOXD
 70
     0
  9
$DIMSAH
 70
     0
  9
$DIMBLK1
  1

  9
$DIMBLK2
  1

  9
$DIMSTYLE
  2
STANDARD
  9
$DIMCLRD
 70
     0
  9
$DIMCLRE
 70
     0
  9
$DIMCLRT
 70
     0
  9
$DIMTFAC
 40
0.125
  9
$DIMGAP
 40
0.5
  9
$DIMJUST
 70
     0
  9
$DIMSD1
 70
     0
  9
$DIMSD2
 70
     0
  9
$DIMTOLJ
 70
     1
  9
$DIMTZIN
 70
     0
  9
$DIMALTZ
 70
     2
  9
$DIMALTTZ
 70
     2
  9
$DIMUPT
 70
     1
  9
$DIMDEC
 70
     4
  9
$DIMTDEC
 70
     4
  9
$DIMALTU
 70
     2
  9
$DIMALTTD
 70
     0
  9
$DIMTXSTY
  7
STANDARD
  9
$DIMAUNIT
 70
     0
  9
$DIMADEC
 70
     0
  9
$DIMALTRND
 40
0.0
  9
$DIMAZIN
 70
     0
  9
$DIMDSEP
 70
    46
  9
$DIMATFIT
 70
     0
  9
$DIMFRAC
 70
     2
  9
$DIMLDRBLK
  1

  9
$DIMLUNIT
 70
     5
  9
$DIMLWD
 70
    -2
  9
$DIMLWE
 70
    -2
  9
$DIMTMOVE
 70
     2
  9
$LUNITS
 70
     5
  9
$LUPREC
 70
     4
  9
$SKETCHINC
 40
0.1
  9
$FILLETRAD
 40
0.0
  9
$AUNITS
 70
     0
  9
$AUPREC
 70
     1
  9
$MENU
  1
acad
  9
$ELEVATION
 40
0.0
  9
$PELEVATION
 40
0.0
  9
$THICKNESS
 40
0.0
  9
$LIMCHECK
 70
     0
  9
$CHAMFERA
 40
0.75
  9
$CHAMFERB
 40
0.75
  9
$CHAMFERC
 40
0.0
  9
$CHAMFERD
 40
0.0
  9
$SKPOLY
 70
     0
  9
$TDCREATE
 40
2451085.664838310
  9
$TDUCREATE
 40
2451085.831504977
  9
$TDUPDATE
 40
2451660.698483101
  9
$TDUUPDATE
 40
2451660.865149768
  9
$TDINDWG
 40
2.6508075231
  9
$TDUSRTIMER
 40
2.6508075231
  9
$USRTIMER
 70
     1
  9
$ANGBASE
 50
0.0
  9
$ANGDIR
 70
     0
  9
$PDMODE
 70
     0
  9
$PDSIZE
 40
0.0
  9
$PLINEWID
 40
0.0
  9
$SPLFRAME
 70
     0
  9
$SPLINETYPE
 70
     6
  9
$SPLINESEGS
 70
     8
  9
$HANDSEED
  5
1260E
  9
$SURFTAB1
 70
     6
  9
$SURFTAB2
 70
     6
  9
$SURFTYPE
 70
     6
  9
$SURFU
 70
     6
  9
$SURFV
 70
     6
  9
$UCSBASE
  2

  9
$UCSNAME
  2

  9
$UCSORG
 10
0.0
 20
0.0
 30
0.0
  9
$UCSXDIR
 10
1.0
 20
0.0
 30
0.0
  9
$UCSYDIR
 10
0.0
 20
1.0
 30
0.0
  9
$UCSORTHOREF
  2

  9
$UCSORTHOVIEW
 70
     0
  9
$UCSORGTOP
 10
0.0
 20
0.0
 30
0.0
  9
$UCSORGBOTTOM
 10
0.0
 20
0.0
 30
0.0
  9
$UCSORGLEFT
 10
0.0
 20
0.0
 30
0.0
  9
$UCSORGRIGHT
 10
0.0
 20
0.0
 30
0.0
  9
$UCSORGFRONT
 10
0.0
 20
0.0
 30
0.0
  9
$UCSORGBACK
 10
0.0
 20
0.0
 30
0.0
  9
$PUCSBASE
  2

  9
$PUCSNAME
  2

  9
$PUCSORG
 10
0.0
 20
0.0
 30
0.0
  9
$PUCSXDIR
 10
1.0
 20
0.0
 30
0.0
  9
$PUCSYDIR
 10
0.0
 20
1.0
 30
0.0
  9
$PUCSORTHOREF
  2

  9
$PUCSORTHOVIEW
 70
     0
  9
$PUCSORGTOP
 10
0.0
 20
0.0
 30
0.0
  9
$PUCSORGBOTTOM
 10
0.0
 20
0.0
 30
0.0
  9
$PUCSORGLEFT
 10
0.0
 20
0.0
 30
0.0
  9
$PUCSORGRIGHT
 10
0.0
 20
0.0
 30
0.0
  9
$PUCSORGFRONT
 10
0.0
 20
0.0
 30
0.0
  9
$PUCSORGBACK
 10
0.0
 20
0.0
 30
0.0
  9
$USERI1
 70
     0
  9
$USERI2
 70
     0
  9
$USERI3
 70
     0
  9
$USERI4
 70
     0
  9
$USERI5
 70
     0
  9
$USERR1
 40
0.0
  9
$USERR2
 40
0.0
  9
$USERR3
 40
0.0
  9
$USERR4
 40
0.0
  9
$USERR5
 40
0.0
  9
$WORLDVIEW
 70
     1
  9
$SHADEDGE
 70
     1
  9
$SHADEDIF
 70
    70
  9
$TILEMODE
 70
     1
  9
$MAXACTVP
 70
    16
  9
$PINSBASE
 10
0.0
 20
0.0
 30
0.0
  9
$PLIMCHECK
 70
     0
  9
$PEXTMIN
 10
1.000000000000000E+20
 20
1.000000000000000E+20
 30
1.000000000000000E+20
  9
$PEXTMAX
 10
-1.000000000000000E+20
 20
-1.000000000000000E+20
 30
-1.000000000000000E+20
  9
$PLIMMIN
 10
0.0
 20
0.0
  9
$PLIMMAX
 10
12.0
 20
9.0
  9
$UNITMODE
 70
     0
  9
$VISRETAIN
 70
     0
  9
$PLINEGEN
 70
     0
  9
$PSLTSCALE
 70
     1
  9
$TREEDEPTH
 70
  3020
  9
$CMLSTYLE
  2
STANDARD
  9
$CMLJUST
 70
     0
  9
$CMLSCALE
 40
1.0
  9
$PROXYGRAPHICS
 70
     1
  9
$MEASUREMENT
 70
     0
  9
$CELWEIGHT
370
    -1
  9
$ENDCAPS
280
     0
  9
$JOINSTYLE
280
     0
  9
$LWDISPLAY
290
     0
  9
$INSUNITS
 70
     0
  9
$HYPERLINKBASE
  1

  9
$STYLESHEET
  1

  9
$XEDIT
290
     1
  9
$CEPSNTYPE
380
     0
  9
$PSTYLEMODE
290
     1
  9
$FINGERPRINTGUID
  2
{A6232B84-9B2E-11D3-8DA4-00A0C981A35F}
  9
$VERSIONGUID
  2
{F47BDA12-E509-11D3-8DA4-00A0C981A35F}
  9
$EXTNAMES
290
     1
  9
$PSVPSCALE
 40
0.0
  9
$OLESTARTUP
290
     0
  0
ENDSEC
  0
SECTION
  2
CLASSES
  0
CLASS
  1
DICTIONARYVAR
  2
AcDbDictionaryVar
  3
AutoCAD 2000
 90
        0
280
     0
281
     0
  0
CLASS
  1
LWPOLYLINE
  2
AcDbPolyline
  3
AutoCAD 2000
 90
    32768
280
     0
281
     1
  0
CLASS
  1
RASTERVARIABLES
  2
AcDbRasterVariables
  3
ISM
 90
    32768
280
     0
281
     0
  0
CLASS
  1
ACDBDICTIONARYWDFLT
  2
AcDbDictionaryWithDefault
  3
AutoCAD 2000
 90
        0
280
     0
281
     0
  0
CLASS
  1
ACDBPLACEHOLDER
  2
AcDbPlaceHolder
  3
AutoCAD 2000
 90
        0
280
     0
281
     0
  0
CLASS
  1
LAYOUT
  2
AcDbLayout
  3
AutoCAD 2000
 90
        0
280
     0
281
     0
  0
CLASS
  1
ACME_DOCUMENT
  2
AcMeDbDoc
  3
AcMeServices
 90
    32768
280
     1
281
     0
  0
CLASS
  1
ACMESCOPE
  2
AcMeScope
  3
AcMeServices
 90
    32768
280
     1
281
     0
  0
CLASS
  1
ACMECOMMANDHISTORY
  2
AcMeCommandHistory
  3
AcMeServices
 90
    32768
280
     1
281
     0
  0
CLASS
  1
ACIMSYSVARMAN
  2
AcImSysVarManager
  3
AcMeServices
 90
    32768
280
     1
281
     0
  0
CLASS
  1
ACIMREALSYSVAR
  2
AcImRealSysVar
  3
AcMeServices
 90
    32768
280
     1
281
     0
  0
CLASS
  1
ACIMINTSYSVAR
  2
AcImIntSysVar
  3
AcMeServices
 90
    32768
280
     1
281
     0
  0
CLASS
  1
ACMEDRAWINGMAN
  2
AcMeDrawingMan
  3
AcMeServices
 90
    32768
280
     1
281
     0
  0
CLASS
  1
ACMEVIEW
  2
AcMeView
  3
AcMeServices
 90
    32768
280
     1
281
     0
  0
CLASS
  1
ACDBENTITYCACHE
  2
AcMeEntityCache
  3
AcMeServices
 90
    32768
280
     1
281
     0
  0
CLASS
  1
GSMANAGER
  2
AcMeGSManager
  3
AcMeServices
 90
    32768
280
     1
281
     0
  0
CLASS
  1
AmdtInternalReactor
  2
AmdtInternalReactor
  3
AcMeServices
 90
    32768
280
     1
281
     0
  0
CLASS
  1
ACMESTATEMGR
  2
AcMeStateMgr
  3
AcMeServices
 90
    32768
280
     1
281
     0
  0
CLASS
  1
ACGREFMASTER
  2
AcGrefMaster
  3
AcAttribServices
 90
    32768
280
     1
281
     0
  0
CLASS
  1
AM_DRAWING_MGR
  2
AcDmDwgMgr
  3
AcMechDwgViewMgmt
 90
    32768
280
     1
281
     0
  0
CLASS
  1
AM_DWG_DOCUMENT
  2
AcDmDwgDocument
  3
AcMechDwgViewMgmt
 90
    32768
280
     1
281
     0
  0
CLASS
  1
AM_DWG_SHEET
  2
AcDmSheet
  3
AcMechDwgViewMgmt
 90
    32768
280
     1
281
     0
  0
CLASS
  1
AM_VIEWDIMPARMAP
  2
AcDmViewDimParMap
  3
AcMechDwgViewMgmt
 90
    32768
280
     1
281
     0
  0
CLASS
  1
AM_DWGMGR_NAME
  2
AcDmDwgMgrName
  3
AcMechDwgViewMgmt
 90
    32768
280
     1
281
     0
  0
CLASS
  1
ACME_DATABASE
  2
AcMeDbDatabase
  3
AcMeServices
 90
    32768
280
     1
281
     0
  0
CLASS
  1
ACRFINSADJUSTERMGR
  2
AcRfInsAdjusterMgr
  3
AcMeServices
 90
    32768
280
     1
281
     0
  0
CLASS
  1
ACGREFMASTER
  2
AcGrefacadMaster
  3
AcGrefServices
 90
    32768
280
     1
281
     0
  0
CLASS
  1
AMDTMENUSTATEMGR
  2
AmdtMenuStateMgr
  3
McadcomServices
 90
    32768
280
     1
281
     0
  0
CLASS
  1
AMDTMCOMMENUSTATE
  2
AmdtMcomMenuState
  3
McadcomServices
 90
    32768
280
     1
281
     0
  0
CLASS
  1
ASAPP
  2
AcAsAppObject
  3
AutoSurfServices
 90
    32768
280
     1
281
     0
  0
CLASS
  1
IM_STATIC_MAN
  2
AcImStaticVarManager
  3
AcMeServices
 90
    32768
280
     1
281
     0
  0
CLASS
  1
ACIMSTRSYSVAR
  2
AcImStrSysVar
  3
AcMeServices
 90
    32768
280
     1
281
     0
  0
CLASS
  1
ACIMDBLSTATICVAR
  2
AcImDblStaticVar
  3
AcMeServices
 90
    32768
280
     1
281
     0
  0
CLASS
  1
ACIMSTRSTATICVAR
  2
AcImStrStaticVar
  3
AcMeServices
 90
    32768
280
     1
281
     0
  0
CLASS
  1
ACIMINTSTATICVAR
  2
AcImIntStaticVar
  3
AcMeServices
 90
    32768
280
     1
281
     0
  0
CLASS
  1
ACADGREFMODULE
  2
AcAdGrefModule
  3
AdGrefServices
 90
    32768
280
     1
281
     0
  0
CLASS
  1
AMIMASTER
  2
AmiMaster
  3
AmiServices
 90
    32768
280
     1
281
     0
  0
CLASS
  1
ACASGREFMASTER
  2
AcAsGrefMaster
  3
AutoSurfResolverServices
 90
    32768
280
     1
281
     0
  0
CLASS
  1
MAPIAMMOUDLE
  2
MApiAmModule
  3
MApiAmServices
 90
    32768
280
     1
281
     0
  0
CLASS
  1
AMDTDMMENUSTATE
  2
AmdtDmMenuState
  3
AcMechDwgViewMgmt
 90
    32768
280
     1
281
     0
  0
CLASS
  1
AMDTADMENUSTATE
  2
AmdtAdMenuState
  3
DesignerServices
 90
    32768
280
     1
281
     0
  0
CLASS
  1
ADAPPL
  2
AcAdAppl
  3
DesignerServices
 90
    32768
280
     1
281
     0
  0
CLASS
  1
DEPMGR
  2
AcAdDepMgr
  3
DesignerServices
 90
    32768
280
     1
281
     0
  0
CLASS
  1
PARAMMGR
  2
AcAdParamMgr
  3
DesignerServices
 90
    32768
280
     1
281
     0
  0
CLASS
  1
PARAMSCOPE
  2
AcAdParamScope
  3
DesignerServices
 90
    32768
280
     1
281
     0
  0
CLASS
  1
NAMEDAPPL
  2
AcAdNamedAppl
  3
DesignerServices
 90
    32768
280
     1
281
     0
  0
CLASS
  1
ADHNTMPLT
  2
AdHoleNoteTemplateMgr
  3
DesignerServices
 90
    32768
280
     1
281
     0
  0
CLASS
  1
AM_HNTEMPLATE_MGR_NAME
  2
AdHoleNoteTemplateMgrName
  3
DesignerServices
 90
    32768
280
     1
281
     0
  0
CLASS
  1
AMDTAMMENUSTATE
  2
AmdtAmMenuState
  3
DesignerAssemblies
 90
    32768
280
     1
281
     0
  0
CLASS
  1
ACAMPROJECT
  2
AcAmProject
  3
DesignerAssemblies
 90
    32768
280
     1
281
     0
  0
CLASS
  1
ACAMGRCOMPDEF
  2
AcAmGrCompDef
  3
DesignerAssemblies
 90
    32768
280
     1
281
     0
  0
CLASS
  1
ACCMCONTEXT
  2
AcCmContext
  3
DesignerAssemblies
 90
    32768
280
     1
281
     0
  0
CLASS
  1
ACAMCOMPDEF
  2
AcAmCompDef
  3
DesignerAssemblies
 90
    32768
280
     1
281
     0
  0
CLASS
  1
ACAMCOMPDEFMGR
  2
AcAmCompDefMgr
  3
DesignerAssemblies
 90
    32768
280
     1
281
     0
  0
CLASS
  1
AMCONTEXTMGR
  2
AcAmContextMgr
  3
DesignerAssemblies
 90
    32768
280
     1
281
     0
  0
CLASS
  1
ACAMCONTEXTMODELER
  2
AcAmContextModeler
  3
DesignerAssemblies
 90
    32768
280
     1
281
     0
  0
CLASS
  1
MAPIADMODULE
  2
MApiAdModule
  3
MApiAdServices
 90
    32768
280
     1
281
     0
  0
CLASS
  1
ACMDATADICTIONARY
  2
AcmDataDictionary
  3
"AcmSymBB|Product Description: AutoCAD Mechanical 2000|Company: Autodesk"
 90
    32768
280
     1
281
     0
  0
CLASS
  1
ACMDATAENTRYBLOCK
  2
AcmDataEntryBlock
  3
"AcmSymBB|Product Description: AutoCAD Mechanical 2000|Company: Autodesk"
 90
    32768
280
     1
281
     0
  0
CLASS
  1
AMDTBROWSERDBTAB
  2
AmdtBrowserDbTab
  3
McadcomServices
 90
    32768
280
     1
281
     0
  0
CLASS
  1
CBROWSERAPPOBJECT
  2
CBrowserAppObject
  3
McadcomServices
 90
    32768
280
     1
281
     0
  0
CLASS
  1
DM_PLACEHOLDER
  2
AcDmSelsetPlaceholder
  3
AcMechDwgViewMgmt
 90
    32768
280
     1
281
     0
  0
CLASS
  1
CATALOGSTATE
  2
AcAmCatalogState
  3
DesignerAssemblies
 90
    32768
280
     1
281
     0
  0
CLASS
  1
ACAMGRCOMPDEFSET
  2
AcAmGrCompDefSet
  3
DesignerAssemblies
 90
    32768
280
     1
281
     0
  0
CLASS
  1
AMGOBJPROPCFG
  2
AmgObjPropCfg
  3
"AmgLay|Product Description: AutoCAD Mechanical 2000|Company: Autodesk"
 90
    32769
280
     1
281
     0
  0
CLASS
  1
LAYER_INDEX
  2
AcDbLayerIndex
  3
AutoCAD 2000
 90
    32768
280
     0
281
     0
  0
CLASS
  1
IDBUFFER
  2
AcDbIdBuffer
  3
AutoCAD 2000
 90
    32768
280
     0
281
     0
  0
CLASS
  1
ACRFATTGENMGR
  2
AcRfAttGeneralMgr
  3
AcAttribServices
 90
    32768
280
     1
281
     0
  0
CLASS
  1
PLOTSETTINGS
  2
AcDbPlotSettings
  3
AutoCAD 2000
 90
        0
280
     0
281
     0
  0
ENDSEC
  0
SECTION
  2
TABLES
  0
TABLE
  2
VPORT
  5
1B
330
0
100
AcDbSymbolTable
 70
     2
  0
VPORT
  5
1260D
330
1B
100
AcDbSymbolTableRecord
100
AcDbViewportTableRecord
  2
*Active
 70
     0
 10
0.0
 20
0.0
 11
1.0
 21
1.0
 12
637.3910343088139
 22
225.7878767026406
 13
0.0
 23
0.0
 14
1.0
 24
1.0
 15
0.0
 25
0.0
 16
0.0
 26
0.0
 36
1.0
 17
-64.46234487877643
 27
33.0238264231553
 37
6.148717398612387
 40
52.32390571472365
 41
1.413068844807467
 42
50.0
 43
-6.148717398612387
 44
-6.148717398612387
 50
0.0
 51
0.0
 71
     0
 72
 20000
 73
     1
 74
     1
 75
     0
 76
     0
 77
     0
 78
     2
281
     0
 65
     1
110
0.0
120
0.0
130
0.0
111
1.0
121
0.0
131
0.0
112
0.0
122
1.0
132
0.0
 79
     0
146
0.0
  0
ENDTAB
  0
TABLE
  2
LTYPE
  5
16
330
0
100
AcDbSymbolTable
 70
     1
  0
LTYPE
  5
17
330
16
100
AcDbSymbolTableRecord
100
AcDbLinetypeTableRecord
  2
BYBLOCK
 70
     0
  3

 72
    65
 73
     0
 40
0.0
  0
LTYPE
  5
18
330
16
100
AcDbSymbolTableRecord
100
AcDbLinetypeTableRecord
  2
BYLAYER
 70
     0
  3

 72
    65
 73
     0
 40
0.0
  0
LTYPE
  5
9
330
16
100
AcDbSymbolTableRecord
100
AcDbLinetypeTableRecord
  2
CONTINUOUS
 70
     0
  3
Solid line
 72
    65
 73
     0
 40
0.0
  0
ENDTAB
  0
TABLE
  2
LAYER
  5
11
330
0
100
AcDbSymbolTable
 70
     6
  0
LAYER
  5
5
330
11
100
AcDbSymbolTableRecord
100
AcDbLayerTableRecord
  2
0
 70
     0
 62
     7
  6
CONTINUOUS
370
    -3
390
6
  0
LAYER
  5
24
330
11
100
AcDbSymbolTableRecord
100
AcDbLayerTableRecord
  2
A1
 70
     0
 62
     7
  6
CONTINUOUS
370
    -3
390
6
  0
LAYER
  5
51
330
11
100
AcDbSymbolTableRecord
100
AcDbLayerTableRecord
  2
LINEWORK
 70
     0
 62
    41
  6
CONTINUOUS
370
    -3
390
6
  0
LAYER
  5
A6
330
11
100
AcDbSymbolTableRecord
100
AcDbLayerTableRecord
  2
Defpoints
 70
     0
 62
     7
  6
CONTINUOUS
290
     0
370
    -3
390
6
  0
LAYER
  5
DDDF
330
11
100
AcDbSymbolTableRecord
100
AcDbLayerTableRecord
  2
QUEEN
 70
     0
 62
     7
  6
CONTINUOUS
370
    -3
390
6
  0
LAYER
  5
DDE2
330
11
100
AcDbSymbolTableRecord
100
AcDbLayerTableRecord
  2
ASHADE
 70
     4
 62
     7
  6
CONTINUOUS
370
    -3
390
6
  0
ENDTAB
  0
TABLE
  2
STYLE
  5
12
330
0
100
AcDbSymbolTable
 70
     3
  0
STYLE
  5
13
330
12
100
AcDbSymbolTableRecord
100
AcDbTextStyleTableRecord
  2
STANDARD
 70
     0
 40
0.0
 41
1.0
 50
0.0
 71
     0
 42
1.0
  3
unvr55w.ttf
  4

1001
ACAD
1000
Univers
1071
       34
  0
STYLE
  5
52
330
12
100
AcDbSymbolTableRecord
100
AcDbTextStyleTableRecord
  2
ROMANC
 70
     0
 40
0.0
 41
1.0
 50
0.0
 71
     0
 42
0.5
  3
TIMESBD.TTF
  4

1001
ACAD
1000
Times New Roman
1071
 33554450
  0
STYLE
  5
53
330
12
100
AcDbSymbolTableRecord
100
AcDbTextStyleTableRecord
  2
barcoder
 70
     0
 40
0.0
 41
1.0
 50
0.0
 71
     0
 42
4.5625
  3
cw_barcd.ttf
  4

1001
ACAD
1000
Barcoder
1071
 33554434
  0
ENDTAB
  0
TABLE
  2
VIEW
  5
19
330
0
100
AcDbSymbolTable
 70
     0
  0
ENDTAB
  0
TABLE
  2
UCS
  5
1A
330
0
100
AcDbSymbolTable
 70
     0
  0
ENDTAB
  0
TABLE
  2
APPID
  5
1D
330
0
100
AcDbSymbolTable
 70
    20
  0
APPID
  5
14
330
1D
100
AcDbSymbolTableRecord
100
AcDbRegAppTableRecord
  2
ACAD
 70
     0
  0
APPID
  5
54
330
1D
100
AcDbSymbolTableRecord
100
AcDbRegAppTableRecord
  2
DCO15
 70
     0
  0
APPID
  5
D3AC
330
1D
100
AcDbSymbolTableRecord
100
AcDbRegAppTableRecord
  2
GENIUS_GENDIM_13
 70
     0
  0
APPID
  5
D3AD
330
1D
100
AcDbSymbolTableRecord
100
AcDbRegAppTableRecord
  2
GENIUS_GENDTOL_13
 70
     0
  0
APPID
  5
D3AE
330
1D
100
AcDbSymbolTableRecord
100
AcDbRegAppTableRecord
  2
GENIUS_GE3DTOL_13
 70
     0
  0
APPID
  5
D3AF
330
1D
100
AcDbSymbolTableRecord
100
AcDbRegAppTableRecord
  2
MCAD_NO_VIS
 70
     0
  0
APPID
  5
D3B0
330
1D
100
AcDbSymbolTableRecord
100
AcDbRegAppTableRecord
  2
ACAD_TEMP_GRAPHIC
 70
     0
  0
APPID
  5
D3B1
330
1D
100
AcDbSymbolTableRecord
100
AcDbRegAppTableRecord
  2
AD_DRAW
 70
     0
  0
APPID
  5
D3B2
330
1D
100
AcDbSymbolTableRecord
100
AcDbRegAppTableRecord
  2
ACATTRIBSERVICES
 70
     0
  0
APPID
  5
D3B3
330
1D
100
AcDbSymbolTableRecord
100
AcDbRegAppTableRecord
  2
ASURF_PCURVE_APPNAME
 70
     0
  0
APPID
  5
D3B4
330
1D
100
AcDbSymbolTableRecord
100
AcDbRegAppTableRecord
  2
DESIGNERASSEMBLIES
 70
     0
  0
APPID
  5
D3B5
330
1D
100
AcDbSymbolTableRecord
100
AcDbRegAppTableRecord
  2
ACADM_DIM_EDIT
 70
     0
  0
APPID
  5
D3B6
330
1D
100
AcDbSymbolTableRecord
100
AcDbRegAppTableRecord
  2
AVE_MATERIAL
 70
     0
  0
APPID
  5
D3B7
330
1D
100
AcDbSymbolTableRecord
100
AcDbRegAppTableRecord
  2
AVE_RENDER
 70
     0
  0
APPID
  5
D3B8
330
1D
100
AcDbSymbolTableRecord
100
AcDbRegAppTableRecord
  2
AVE_ENTITY_MATERIAL
 70
     0
  0
APPID
  5
D3B9
330
1D
100
AcDbSymbolTableRecord
100
AcDbRegAppTableRecord
  2
AVE_FINISH
 70
     0
  0
APPID
  5
D3BA
330
1D
100
AcDbSymbolTableRecord
100
AcDbRegAppTableRecord
  2
AVE_GLOBAL
 70
     0
  0
APPID
  5
DDE7
330
1D
100
AcDbSymbolTableRecord
100
AcDbRegAppTableRecord
  2
ADCADD_ZZ
 70
     0
  0
APPID
  5
DDE8
330
1D
100
AcDbSymbolTableRecord
100
AcDbRegAppTableRecord
  2
SDSK_PMN
 70
     0
  0
APPID
  5
DDE9
330
1D
100
AcDbSymbolTableRecord
100
AcDbRegAppTableRecord
  2
RAK
 70
     0
  0
ENDTAB
  0
TABLE
  2
DIMSTYLE
  5
1E
330
0
100
AcDbSymbolTable
 70
     1
100
AcDbDimStyleTable
 71
     1
340
1F
  0
DIMSTYLE
105
1F
102
{ACAD_REACTORS
330
124B3
330
124CF
330
124DD
330
124EB
330
124F9
330
12509
102
}
330
1E
100
AcDbSymbolTableRecord
100
AcDbDimStyleTableRecord
  2
STANDARD
 70
     0
  3
"
 41
0.5
 42
1.0
 43
0.0625
 44
0.25
 73
     0
 74
     0
 77
     3
140
1.0
141
0.0
146
0.125
147
0.125
171
     0
274
     0
276
     2
277
     5
285
     2
286
     2
289
     0
340
13
  0
ENDTAB
  0
TABLE
  2
BLOCK_RECORD
  5
1
330
0
100
AcDbSymbolTable
 70
    19
  0
BLOCK_RECORD
  5
2
102
{ACAD_XDICTIONARY
360
3
102
}
330
1
100
AcDbSymbolTableRecord
100
AcDbBlockTableRecord
  2
*MODEL_SPACE
340
B
  0
BLOCK_RECORD
  5
D
330
1
100
AcDbSymbolTableRecord
100
AcDbBlockTableRecord
  2
*PAPER_SPACE
340
10
  0
BLOCK_RECORD
  5
2D
330
1
100
AcDbSymbolTableRecord
100
AcDbBlockTableRecord
  2
PROFILE LOGO
340
0
102
{BLKREFS
331
1251D
102
}
  0
BLOCK_RECORD
  5
4E
330
1
100
AcDbSymbolTableRecord
100
AcDbBlockTableRecord
  2
SCF
340
0
102
{BLKREFS
331
56
102
}
  0
BLOCK_RECORD
  5
55
330
1
100
AcDbSymbolTableRecord
100
AcDbBlockTableRecord
  2
TSFORMA
340
0
102
{BLKREFS
331
10F8D
102
}
  0
BLOCK_RECORD
  5
94
330
1
100
AcDbSymbolTableRecord
100
AcDbBlockTableRecord
  2
LINK FLAG
340
0
102
{BLKREFS
331
12578
102
}
  0
BLOCK_RECORD
  5
D36C
330
1
100
AcDbSymbolTableRecord
100
AcDbBlockTableRecord
  2
*U4
340
0
102
{BLKREFS
331
D415
102
}
  0
BLOCK_RECORD
  5
D36F
330
1
100
AcDbSymbolTableRecord
100
AcDbBlockTableRecord
  2
*U5
340
0
102
{BLKREFS
331
D416
102
}
  0
BLOCK_RECORD
  5
D372
330
1
100
AcDbSymbolTableRecord
100
AcDbBlockTableRecord
  2
*U6
340
0
102
{BLKREFS
331
D417
102
}
  0
BLOCK_RECORD
  5
D375
330
1
100
AcDbSymbolTableRecord
100
AcDbBlockTableRecord
  2
*U7
340
0
102
{BLKREFS
331
D418
102
}
  0
BLOCK_RECORD
  5
D378
330
1
100
AcDbSymbolTableRecord
100
AcDbBlockTableRecord
  2
*U8
340
0
102
{BLKREFS
331
D419
102
}
  0
BLOCK_RECORD
  5
D37B
330
1
100
AcDbSymbolTableRecord
100
AcDbBlockTableRecord
  2
*U9
340
0
102
{BLKREFS
331
D41A
102
}
  0
BLOCK_RECORD
  5
D37E
330
1
100
AcDbSymbolTableRecord
100
AcDbBlockTableRecord
  2
*U10
340
0
102
{BLKREFS
331
D41B
102
}
  0
BLOCK_RECORD
  5
D986
330
1
100
AcDbSymbolTableRecord
100
AcDbBlockTableRecord
  2
AVE_RENDER
340
0
102
{BLKREFS
331
F070
331
F071
331
F072
331
F073
331
F074
331
F075
331
F076
331
F077
331
F0F4
331
F0F5
331
F0F6
331
F0F7
331
F0F8
331
F0F9
331
F0FA
331
F0FB
331
F0FD
331
F0FE
331
F0FF
331
F100
331
F101
331
F102
331
F103
331
F104
331
F780
331
F781
331
F782
331
F783
331
F784
331
F785
331
F786
331
F787
331
F789
331
F78A
331
F78B
331
F78C
331
F78D
331
F78E
331
F78F
331
F790
331
F796
331
F797
331
F798
331
F799
331
F79A
331
F79B
331
F79C
331
F79D
331
F7AB
331
F7AC
331
F7AD
331
F7AE
331
F7AF
331
F7B0
331
F7B1
331
F7B2
331
F7B8
331
F7B9
331
F7BA
331
F7BB
331
F7BC
331
F7BD
331
F7BE
331
F7BF
331
F9A1
331
F9A2
331
F9A3
331
F9A4
331
F9A5
331
F9A6
331
F9A7
331
F9A8
331
FB86
331
FB87
331
FB88
331
FB89
331
FB8A
331
FB8B
331
FB8C
331
FB8D
331
FB8F
331
FB90
331
FB91
331
FB92
331
FB93
331
FB94
331
FB95
331
FB96
331
FB98
331
FB99
331
FB9A
331
FB9B
331
FB9C
331
FB9D
331
FB9E
331
FB9F
102
}
  0
BLOCK_RECORD
  5
D989
330
1
100
AcDbSymbolTableRecord
100
AcDbBlockTableRecord
  2
AVE_GLOBAL
340
0
102
{BLKREFS
331
F078
331
F079
331
F093
331
F09C
331
F0BA
331
F0FC
331
F105
331
F788
331
F791
331
F79E
331
F7B3
331
F7C0
331
F9A9
331
FB8E
331
FB97
331
FBA0
102
}
  0
BLOCK_RECORD
  5
124B4
330
1
100
AcDbSymbolTableRecord
100
AcDbBlockTableRecord
  2
*D13
340
0
  0
BLOCK_RECORD
  5
124D0
330
1
100
AcDbSymbolTableRecord
100
AcDbBlockTableRecord
  2
*D14
340
0
  0
BLOCK_RECORD
  5
124DE
330
1
100
AcDbSymbolTableRecord
100
AcDbBlockTableRecord
  2
*D15
340
0
  0
BLOCK_RECORD
  5
124EC
330
1
100
AcDbSymbolTableRecord
100
AcDbBlockTableRecord
  2
*D16
340
0
  0
BLOCK_RECORD
  5
124FA
330
1
100
AcDbSymbolTableRecord
100
AcDbBlockTableRecord
  2
*D17
340
0
  0
BLOCK_RECORD
  5
1250A
330
1
100
AcDbSymbolTableRecord
100
AcDbBlockTableRecord
  2
*D18
340
0
  0
ENDTAB
  0
ENDSEC
  0
SECTION
  2
BLOCKS
  0
BLOCK
  5
4
330
2
100
AcDbEntity
  8
0
100
AcDbBlockBegin
  2
*MODEL_SPACE
 70
     2
 10
0.0
 20
0.0
 30
0.0
  3
*MODEL_SPACE
  1

  0
ENDBLK
  5
A
330
2
100
AcDbEntity
  8
0
100
AcDbBlockEnd
  0
BLOCK
  5
E
330
D
100
AcDbEntity
 67
     1
  8
0
100
AcDbBlockBegin
  2
*PAPER_SPACE
 70
     0
 10
0.0
 20
0.0
 30
0.0
  3
*PAPER_SPACE
  1

  0
ENDBLK
  5
F
330
D
100
AcDbEntity
 67
     1
  8
0
100
AcDbBlockEnd
  0
BLOCK
  5
46
330
2D
100
AcDbEntity
  8
0
 62
     7
100
AcDbBlockBegin
  2
PROFILE LOGO
 70
     2
 10
0.0
 20
0.0
 30
0.0
  3
PROFILE LOGO
  1

  0
LINE
  5
2E
330
2D
100
AcDbEntity
  8
0
 62
    22
100
AcDbLine
 10
0.7459516636765642
 20
-0.415894330395318
 30
0.0
 11
0.74595166367655
 21
-1.12746688439163
 31
0.0
  0
LINE
  5
2F
330
2D
100
AcDbEntity
  8
0
 62
    22
100
AcDbLine
 10
0.5841942848079072
 20
-0.415894330395318
 30
0.0
 11
0.5841942848079072
 21
-1.12746688439163
 31
0.0
  0
HATCH
  5
30
330
2D
100
AcDbEntity
  8
0
 62
    22
100
AcDbHatch
 10
0.0
 20
0.0
 30
0.0
210
0.0
220
0.0
230
1.0
  2
LINE
 70
     0
 71
     0
 91
        1
 92
       33
 93
       38
 72
     1
 10
1.115683196411978
 20
-0.1706330859717084
 11
0.2177636962628071
 21
-0.1706330859717084
 72
     1
 10
0.2177636962628213
 20
-0.1706330859717084
 11
0.2078601968792952
 21
-0.4246889457533243
 72
     1
 10
0.2078601968792952
 20
-0.4246889457533243
 11
0.2375709173007294
 21
-0.4246889457533243
 72
     1
 10
0.2375709173007294
 20
-0.4246889457533243
 11
0.2441732502230991
 21
-0.3817964654080939
 72
     1
 10
0.2441732502230991
 20
-0.3817964654080939
 11
0.254076749606611
 21
-0.3422032805409501
 72
     1
 10
0.2540767496066252
 20
-0.3422032805409501
 11
0.2738837483736916
 21
-0.3092090964125091
 72
     1
 10
0.2738837483736916
 20
-0.3092090964125091
 11
0.2969919136019428
 21
-0.2861130719066693
 72
     1
 10
0.296991913601957
 20
-0.2861130719066764
 11
0.3267026340234338
 21
-0.2663164794731259
 72
     1
 10
0.3267026340234196
 20
-0.2663164794731259
 11
0.356413132174012
 21
-0.2498193191118219
 72
     1
 10
0.356413132174012
 20
-0.2498193191118148
 11
0.3828224638634481
 21
-0.243220591561446
 72
     1
 10
0.3828224638634623
 20
-0.243220591561446
 11
0.4092320178237401
 21
-0.243220591561446
 72
     1
 10
0.4092320178237401
 20
-0.243220591561446
 11
0.4719541805861525
 21
-0.2465198870395469
 72
     1
 10
0.4719541805861525
 20
-0.2465198870395469
 11
0.514869566852326
 21
-0.2729153436176332
 72
     1
 10
0.514869566852326
 20
-0.2729153436176332
 11
0.5742905631535394
 21
-0.3389038484686964
 72
     1
 10
0.5742905631535394
 20
-0.3389038484687106
 11
0.5907966177302626
 21
-0.3916947616248691
 72
     1
 10
0.5907966177302768
 20
-0.3916947616248691
 11
0.5907966177302768
 21
-1.157161773041991
 72
     1
 10
0.5907966177302768
 20
-1.157161773041984
 11
0.5643870637699991
 21
-1.203353685459461
 72
     1
 10
0.5643870637699849
 20
-1.203353685459468
 11
0.4983637345463876
 21
-1.226449709965308
 72
     1
 10
0.4983637345464019
 20
-1.226449709965301
 11
0.4389425159743326
 21
-1.226449709965301
 72
     1
 10
0.4389425159743326
 20
-1.226449709965301
 11
0.4323401830519913
 21
-1.249545734471119
 72
     1
 10
0.4323401830520055
 20
-1.249545734471134
 11
0.8945045989712809
 21
-1.249545734471134
 72
     1
 10
0.8945045989712667
 20
-1.249545734471134
 11
0.8945045989712667
 21
-1.226449709965315
 72
     1
 10
0.8945045989712667
 20
-1.226449709965301
 11
0.8152763816321311
 21
-1.226449709965301
 72
     1
 10
0.8152763816321311
 20
-1.226449709965301
 11
0.7525539965988913
 21
-1.186856661692324
 72
     1
 10
0.7525539965988913
 20
-1.186856661692324
 11
0.7426504972153794
 21
-1.140664612680659
 72
     1
 10
0.7426504972153652
 20
-1.140664612680673
 11
0.7393493307541803
 21
-0.394994193697137
 72
     1
 10
0.7393493307541803
 20
-0.394994193697137
 11
0.7558551630600619
 21
-0.3389038484687106
 72
     1
 10
0.7558551630600761
 20
-0.3389038484687106
 11
0.7987705493262496
 21
-0.2828136398344298
 72
     1
 10
0.7987705493262496
 20
-0.2828136398344227
 11
0.8614929343594894
 21
-0.2498193191118148
 72
     1
 10
0.8614929343594894
 20
-0.2498193191118148
 11
0.9374197629665985
 21
-0.2399211594891923
 72
     1
 10
0.9374197629665985
 20
-0.2399211594891923
 11
1.010045647383407
 21
-0.2663164794731117
 72
     1
 10
1.010045647383407
 20
-0.2663164794731259
 11
1.056262200110722
 21
-0.3092090964125234
 72
     1
 10
1.056262200110722
 20
-0.3092090964125091
 11
1.085972698261343
 21
-0.361999872974522
 72
     1
 10
1.085972698261358
 20
-0.3619998729745291
 11
1.092575031183727
 21
-0.4246889457533243
 72
     1
 10
1.092575031183727
 20
-0.4246889457533243
 11
1.115683196411993
 21
-0.4246889457533243
 72
     1
 10
1.115683196411978
 20
-0.4246889457533243
 11
1.109080863489609
 21
-0.17723195011623
 72
     1
 10
1.109080863489609
 20
-0.17723195011623
 11
1.109080863489609
 21
-0.1739325180439621
 72
     1
 10
1.109080863489609
 20
-0.1739325180439621
 11
1.105779697028424
 21
-0.1739325180439621
 97
        0
 75
     0
 76
     1
 52
0.0
 41
0.078125
 77
     0
 78
     1
 53
0.0
 43
-28.182772630023
 44
-32.9923404580304
 45
0.0
 46
0.009765625
 79
     0
 98
        1
 10
-28.182772630023
 20
-32.9923404580304
  0
LWPOLYLINE
  5
31
330
2D
100
AcDbEntity
  8
0
 62
    22
100
AcDbPolyline
 90
        4
 70
     1
 43
0.0
 10
0.0262955969727301
 20
-0.0287577800528069
 10
1.307151517972869
 20
-0.0287577800528069
 10
1.307151517972869
 20
-1.731261997456265
 10
0.0262955969727301
 20
-1.731261997456265
  0
LINE
  5
32
330
2D
100
AcDbEntity
  8
0
 62
    22
100
AcDbLine
 10
0.0262955969727443
 20
-1.4112176328236
 30
0.0
 11
1.307151517972869
 21
-1.4112176328236
 31
0.0
  0
ATTDEF
  5
33
330
2D
100
AcDbEntity
  8
A1
 62
    22
100
AcDbText
 10
0.6781304052809105
 20
-1.678298248906529
 30
0.0
 40
0.2126953125
  1

 72
     1
 11
0.6781304052809105
 21
-1.678298248906529
 31
0.0
100
AcDbAttributeDefinition
  3
ADD STONE MARKER
  2
XXXX
 70
     0
  0
LINE
  5
34
330
2D
100
AcDbEntity
  8
0
 62
    22
100
AcDbLine
 10
0.7464576960363587
 20
-1.129021462591367
 30
0.0
 11
0.74595166367655
 21
-1.12746688439163
 31
0.0
  0
ARC
  5
35
330
2D
100
AcDbEntity
  8
0
 62
    22
100
AcDbCircle
 10
0.8421255873066684
 20
-1.127299146756172
 30
0.0
 40
0.0956833935014068
100
AcDbArc
 50
181.0313885659746
 51
269.7936990713142
  0
LINE
  5
36
330
2D
100
AcDbEntity
  8
0
 62
    22
100
AcDbLine
 10
0.9011069318936506
 20
-1.22315027789304
 30
0.0
 11
0.841781067510368
 21
-1.22315027789304
 31
0.0
  0
LINE
  5
37
330
2D
100
AcDbEntity
  8
0
 62
    22
100
AcDbLine
 10
0.9011069318936506
 20
-1.256144598615648
 30
0.0
 11
0.9011069318936506
 21
-1.22315027789304
 31
0.0
  0
ARC
  5
38
330
2D
100
AcDbEntity
  8
0
 62
    22
100
AcDbCircle
 10
0.4880203611777887
 20
-1.127299146756172
 30
0.0
 40
0.0956833935014068
100
AcDbArc
 50
270.2063009286848
 51
358.9686114340253
  0
LINE
  5
39
330
2D
100
AcDbEntity
  8
0
 62
    22
100
AcDbLine
 10
0.4290390165908207
 20
-1.256144598615648
 30
0.0
 11
0.4290390165908207
 21
-1.22315027789304
 31
0.0
  0
LINE
  5
3A
330
2D
100
AcDbEntity
  8
0
 62
    22
100
AcDbLine
 10
0.4290390165908207
 20
-1.22315027789304
 30
0.0
 11
0.4883648809740891
 21
-1.22315027789304
 31
0.0
  0
LINE
  5
3B
330
2D
100
AcDbEntity
  8
0
 62
    22
100
AcDbLine
 10
0.5836882524480984
 20
-1.129021462591367
 30
0.0
 11
0.5841942848079072
 21
-1.12746688439163
 31
0.0
  0
LINE
  5
3C
330
2D
100
AcDbEntity
  8
0
 62
    22
100
AcDbLine
 10
0.4290390165908207
 20
-1.256144598615648
 30
0.0
 11
0.9011069318936506
 21
-1.256144598615648
 31
0.0
  0
LINE
  5
3D
330
2D
100
AcDbEntity
  8
0
 62
    22
100
AcDbLine
 10
1.085512597630156
 20
-0.415894330395318
 30
0.0
 11
1.085512597630156
 21
-0.4280723832374847
 31
0.0
  0
ARC
  5
3E
330
2D
100
AcDbEntity
  8
0
 62
    22
100
AcDbCircle
 10
0.9138550451562537
 20
-0.4147906495365632
 30
0.0
 40
0.1716611005230106
100
AcDbArc
 50
359.6316189828552
 51
90.00081606717127
  0
ARC
  5
3F
330
2D
100
AcDbEntity
  8
0
 62
    22
100
AcDbCircle
 10
0.9180888683309831
 20
-0.4147906495365632
 30
0.0
 40
0.1716611005230106
100
AcDbArc
 50
89.99918393282873
 51
180.3683810171443
  0
LINE
  5
40
330
2D
100
AcDbEntity
  8
0
 62
    22
100
AcDbLine
 10
0.2078601968792952
 20
-0.427988377825578
 30
0.0
 11
0.2441732502230991
 21
-0.427988377825578
 31
0.0
  0
LINE
  5
41
330
2D
100
AcDbEntity
  8
0
 62
    22
100
AcDbLine
 10
0.2446333508543006
 20
-0.415894330395318
 30
0.0
 11
0.2446333508543006
 21
-0.4280723832374847
 31
0.0
  0
ARC
  5
42
330
2D
100
AcDbEntity
  8
0
 62
    22
100
AcDbCircle
 10
0.4162909033282176
 20
-0.4147906495365632
 30
0.0
 40
0.1716611005230106
100
AcDbArc
 50
89.99918393282873
 51
180.3683810171443
  0
LINE
  5
43
330
2D
100
AcDbEntity
  8
0
 62
    22
100
AcDbLine
 10
0.2144627520724782
 20
-0.1706330859717156
 30
0.0
 11
0.2078601968792952
 21
-0.427988377825578
 31
0.0
  0
ARC
  5
44
330
2D
100
AcDbEntity
  8
0
 62
    22
100
AcDbCircle
 10
0.4120570801534882
 20
-0.4147906495365632
 30
0.0
 40
0.1716611005230106
100
AcDbArc
 50
359.6316189828552
 51
90.00081606717127
  0
LWPOLYLINE
  5
45
330
2D
100
AcDbEntity
  8
0
 62
    22
100
AcDbPolyline
 90
        4
 70
     0
 43
0.0
 10
0.224366029185191
 20
-0.1706330859717084
 10
1.115683196411978
 20
-0.1706330859717084
 10
1.122285751605161
 20
-0.427988377825578
 10
1.085972698261358
 20
-0.427988377825578
  0
ENDBLK
  5
47
330
2D
100
AcDbEntity
  8
0
 62
     7
100
AcDbBlockEnd
  0
BLOCK
  5
4F
330
4E
100
AcDbEntity
  8
0
 62
     7
100
AcDbBlockBegin
  2
SCF
 70
     0
 10
0.0
 20
0.0
 30
0.0
  3
SCF
  1

  0
ENDBLK
  5
50
330
4E
100
AcDbEntity
  8
0
 62
     7
100
AcDbBlockEnd
  0
BLOCK
  5
88
330
55
100
AcDbEntity
  8
0
 62
     7
100
AcDbBlockBegin
  2
TSFORMA
 70
     2
 10
0.0
 20
0.0
 30
0.0
  3
TSFORMA
  1

  0
INSERT
  5
56
330
55
100
AcDbEntity
  8
A1
 62
     7
100
AcDbBlockReference
  2
SCF
 10
0.0
 20
0.0
 30
0.0
  0
LINE
  5
57
330
55
100
AcDbEntity
  8
0
 62
     7
100
AcDbLine
 10
33.85359849505566
 20
6.139911809868134
 30
0.0
 11
15.45863081043479
 21
6.139911809868134
 31
0.0
  0
LINE
  5
58
330
55
100
AcDbEntity
  8
0
 62
     7
100
AcDbLine
 10
33.85359849505566
 20
1.705154898157314
 30
0.0
 11
15.45863081043479
 21
1.705154898157314
 31
0.0
  0
LINE
  5
59
330
55
100
AcDbEntity
  8
0
 62
     7
100
AcDbLine
 10
33.85359849505566
 20
2.829459360019779
 30
0.0
 11
15.45863081043479
 21
2.829459360019779
 31
0.0
  0
LINE
  5
5A
330
55
100
AcDbEntity
  8
0
100
AcDbLine
 10
15.45863081043479
 20
7.419467812060279
 30
0.0
 11
63.0907971953311
 21
7.419467812060275
 31
0.0
  0
LINE
  5
5B
330
55
100
AcDbEntity
  8
0
100
AcDbLine
 10
0.0
 20
0.0
 30
0.0
 11
63.0907971953311
 21
0.0
 31
0.0
  0
LINE
  5
5C
330
55
100
AcDbEntity
  8
0
100
AcDbLine
 10
0.0
 20
46.93339791359997
 30
0.0
 11
0.0
 21
0.0
 31
0.0
  0
ATTDEF
  5
5D
330
55
100
AcDbEntity
  8
A1
 62
     1
100
AcDbText
 10
12.82959661403713
 20
1.116082561967672
 30
0.0
 40
0.5
  1

 72
     2
 11
12.82959661403713
 21
1.116082561967672
 31
0.0
100
AcDbAttributeDefinition
  3
ADD BARCODE TEXT
  2
XXXXXX
 70
     0
  0
ATTDEF
  5
5E
330
55
100
AcDbEntity
  8
A1
 62
     1
100
AcDbText
 10
7.602187176088335
 20
1.863125907903508
 30
0.0
 40
4.5625
  1

  7
barcoder
 72
     1
 11
7.602187176088335
 21
1.863125907903508
 31
0.0
100
AcDbAttributeDefinition
  3
ADD BARCODE NUMBER
  2
BARCODE
 70
     0
  0
LINE
  5
5F
330
55
100
AcDbEntity
  8
0
 62
     7
100
AcDbLine
 10
15.45863081043479
 20
7.419467812060279
 30
0.0
 11
0.0
 21
7.419467812060279
 31
0.0
  0
TEXT
  5
60
330
55
100
AcDbEntity
  8
0
 62
     7
100
AcDbText
 10
18.19366726416784
 20
4.860691571657334
 30
0.0
 40
0.625
  1
- Finished Side
100
AcDbText
  0
TEXT
  5
61
330
55
100
AcDbEntity
  8
0
 62
     7
100
AcDbText
 10
18.20026126845819
 20
3.503849832636042
 30
0.0
 40
0.625
  1
- Unfinished Side
100
AcDbText
  0
LINE
  5
62
330
55
100
AcDbEntity
  8
0
100
AcDbLine
 10
15.45863081043479
 20
0.0
 30
0.0
 11
15.45863081043479
 21
7.419467812060279
 31
0.0
  0
LINE
  5
63
330
55
100
AcDbEntity
  8
0
 62
     7
100
AcDbLine
 10
15.94519003511693
 20
5.088809590082902
 30
0.0
 11
17.45428617139502
 21
5.088809590082902
 31
0.0
  0
TEXT
  5
64
330
55
100
AcDbEntity
  8
0
 62
     7
100
AcDbText
 10
16.48339397174975
 20
3.663762155695707
 30
0.0
 40
0.00390625
  1
TANNERSTONE 0001 TANNERSTONE 0001 TANNERSTONE 0001 TANNERSTONE 0001 TANNERSTONE 0001 TANNERSTONE 0001 TANNERSTONE 0001
 72
     1
 11
16.69109656521183
 21
3.663762155695707
 31
0.0
100
AcDbText
  0
LINE
  5
65
330
55
100
AcDbEntity
  8
0
 62
     7
100
AcDbLine
 10
15.94519003511693
 20
3.814849102060051
 30
0.0
 11
17.45428617139502
 21
3.814849102060051
 31
0.0
  0
TEXT
  5
66
330
55
100
AcDbEntity
  8
0
 62
     7
100
AcDbText
 10
15.94386684512347
 20
3.663762155695707
 30
0.0
 40
0.00390625
  1
TANNERSTONE 0001 TANNERSTONE 0001 TANNERSTONE 0001 TANNERSTONE 0001 TANNERSTONE 0001 TANNERSTONE 0001 TANNERSTONE 0001
 72
     1
 11
16.15156943858555
 21
3.663762155695707
 31
0.0
100
AcDbText
  0
TEXT
  5
67
330
55
100
AcDbEntity
  8
0
 62
     7
100
AcDbText
 10
17.04152309512345
 20
3.663762155695707
 30
0.0
 40
0.00390625
  1
TANNERSTONE 0001 TANNERSTONE 0001 TANNERSTONE 0001 TANNERSTONE 0001 TANNERSTONE 0001 TANNERSTONE 0001 TANNERSTONE 0001
 72
     1
 11
17.24922568858554
 21
3.663762155695707
 31
0.0
100
AcDbText
  0
ATTDEF
  5
68
330
55
100
AcDbEntity
  8
A1
 62
     1
100
AcDbText
 10
24.55771846427264
 20
0.6162142197210088
 30
0.0
 40
0.7559999999999999
  1

 72
     1
 11
24.55771846427264
 21
0.6162142197210088
 31
0.0
100
AcDbAttributeDefinition
  3
ADD CATEGORY NAMES
  2
XXXXXX
 70
     0
  0
TEXT
  5
69
330
55
100
AcDbEntity
  8
0
 62
     7
100
AcDbText
 10
22.72809728616285
 20
2.02499953627948
 30
0.0
 40
0.5
  1
CATEGORY
 72
     1
 11
24.68840912174046
 21
2.02499953627948
 31
0.0
100
AcDbText
  0
TEXT
  5
6A
330
55
100
AcDbEntity
  8
0
 62
     7
100
AcDbText
 10
23.38153703079662
 20
6.531576458849073
 30
0.0
 40
0.4812500000000001
  1
LEGEND
100
AcDbText
  0
LINE
  5
6B
330
55
100
AcDbEntity
  8
0
100
AcDbLine
 10
63.0907971953311
 20
0.0
 30
0.0
 11
63.0907971953311
 21
46.93339791359997
 31
0.0
  0
LINE
  5
6C
330
55
100
AcDbEntity
  8
0
100
AcDbLine
 10
33.85359849505567
 20
3.957609866513919
 30
0.0
 11
63.0907971953311
 21
3.957609866513919
 31
0.0
  0
TEXT
  5
6D
330
55
100
AcDbEntity
  8
0
100
AcDbText
 10
34.42750303318053
 20
2.935195390265757
 30
0.0
 40
0.6616455005868908
  1
ARCHITECTURAL CONCRETE CO., INC.
 41
1.25
 72
     4
 11
45.64904120290566
 21
3.21678158665302
 31
0.0
100
AcDbText
  0
TEXT
  5
6E
330
55
100
AcDbEntity
  8
0
100
AcDbText
 10
38.10554018840551
 20
0.4042122027146437
 30
0.0
 40
0.3900256199701639
  1
PHONE: 1-800-789-4841  FAX : 770-463-2635
 41
1.1875
 72
     4
 11
45.67456989459564
 21
0.5986721769520713
 31
0.0
100
AcDbText
  0
TEXT
  5
6F
330
55
100
AcDbEntity
  8
0
 62
     7
100
AcDbText
 10
36.45030612377447
 20
4.701996929624826
 30
0.0
 40
2.12625
  1
TannerStone
  7
ROMANC
 72
     1
 11
45.19112937160684
 21
4.701996929624826
 31
0.0
100
AcDbText
  0
TEXT
  5
70
330
55
100
AcDbEntity
  8
0
100
AcDbText
 10
36.65024310726515
 20
1.16937112143105
 30
0.0
 40
0.3900256199701639
  1
http://TannerStone.com ~ Email:Sales@TannerStone.com 
 41
1.1875
 72
     4
 11
45.88298880572835
 21
1.344758262374401
 31
0.0
100
AcDbText
  0
TEXT
  5
71
330
55
100
AcDbEntity
  8
0
100
AcDbText
 10
35.70454469973866
 20
1.940811732856256
 30
0.0
 40
0.4458291441485832
  1
101 JOHNSTON CIRCLE, PALMETTO, GEORGIA 30268
 41
1.1875
 72
     4
 11
45.7449918415723
 21
2.130549791723176
 31
0.0
100
AcDbText
  0
LINE
  5
72
330
55
100
AcDbEntity
  8
0
100
AcDbLine
 10
33.85359849505567
 20
0.0
 30
0.0
 11
33.85359849505567
 21
7.419467812060275
 31
0.0
  0
LINE
  5
73
330
55
100
AcDbEntity
  8
0
 62
     7
100
AcDbLine
 10
45.8804728588951
 20
4.302323642481653
 30
0.0
 11
45.8804728588951
 21
4.302323642481653
 31
0.0
  0
ATTDEF
  5
74
330
55
100
AcDbEntity
  8
A1
 62
     1
100
AcDbText
 10
60.24601051143854
 20
5.923645198888223
 30
0.0
 40
0.703125
  1

 72
     1
 11
60.24601051143854
 21
5.923645198888223
 31
0.0
100
AcDbAttributeDefinition
  3
ADD PROFILE AREA
  2
XXXXX
 70
     0
  0
ATTDEF
  5
75
330
55
100
AcDbEntity
  8
A1
 62
     1
100
AcDbText
 10
60.22058858229524
 20
4.231165867870629
 30
0.0
 40
0.703125
  1

 72
     1
 11
60.22058858229524
 21
4.231165867870629
 31
0.0
100
AcDbAttributeDefinition
  3
ADD #/LF
  2
XXXXX
 70
     0
  0
LINE
  5
76
330
55
100
AcDbEntity
  8
0
 62
     7
100
AcDbLine
 10
57.40487304162906
 20
5.688538839287097
 30
0.0
 11
63.0907971953311
 21
5.688538839287097
 31
0.0
  0
TEXT
  5
77
330
55
100
AcDbEntity
  8
0
 62
     7
100
AcDbText
 10
57.54164024396835
 20
5.24603903326999
 30
0.0
 40
0.322265625
  1
LBS/LINEAR FEET:
100
AcDbText
  0
LINE
  5
78
330
55
100
AcDbEntity
  8
LINEWORK
 62
     7
100
AcDbLine
 10
57.38685446707747
 20
2.236847700541034
 30
0.0
 11
63.07277862077971
 21
2.236847700541161
 31
0.0
  0
TEXT
  5
79
330
55
100
AcDbEntity
  8
0
 62
     7
100
AcDbText
 10
58.84125519694314
 20
0.9074523356241925
 30
0.0
 40
0.5035400390625
  1
1-1-2000
100
AcDbText
  0
LINE
  5
7A
330
55
100
AcDbEntity
  8
0
100
AcDbLine
 10
57.40487304162886
 20
0.0
 30
0.0
 11
57.40487304162911
 21
7.419467812060275
 31
0.0
  0
ARC
  5
7B
330
55
100
AcDbEntity
  8
0
 62
     7
100
AcDbCircle
 10
54.77484357037856
 20
4.675407294753147
 30
0.0
 40
0.3475219186225837
100
AcDbArc
 50
304.840880646349
 51
297.5553548372075
  0
TEXT
  5
7C
330
55
100
AcDbEntity
  8
0
 62
     7
100
AcDbText
 10
54.52366531937782
 20
4.457137162968933
 30
0.0
 40
0.46875
  1
R
  7
ROMANC
 72
     1
 11
54.77717642848187
 21
4.457137162968933
 31
0.0
100
AcDbText
  0
ARC
  5
7D
330
55
100
AcDbEntity
  8
0
 62
     7
100
AcDbCircle
 10
54.77484357037857
 20
4.675407294753146
 30
0.0
 40
0.3475219186225785
100
AcDbArc
 50
297.5553548372066
 51
304.8408806463482
  0
TEXT
  5
7E
330
55
100
AcDbEntity
  8
0
 62
     7
100
AcDbText
 10
57.55084577252738
 20
3.528313427430639
 30
0.0
 40
0.322265625
  1
SCALE:
100
AcDbText
  0
TEXT
  5
7F
330
55
100
AcDbEntity
  8
0
 62
     7
100
AcDbText
 10
57.58427807884865
 20
1.77327934849093
 30
0.0
 40
0.322265625
  1
DATE:
100
AcDbText
  0
LINE
  5
80
330
55
100
AcDbEntity
  8
0
 62
     7
100
AcDbLine
 10
57.404873041629
 20
3.957609866513919
 30
0.0
 11
56.92061203641685
 21
3.957609866513919
 31
0.0
  0
TEXT
  5
81
330
55
100
AcDbEntity
  8
0
 62
     7
100
AcDbText
 10
60.17361351816539
 20
2.848114535947829
 30
0.0
 40
0.5035400390625
  1
1:1
100
AcDbText
  0
TEXT
  5
82
330
55
100
AcDbEntity
  8
0
 62
     7
100
AcDbText
 10
57.55965863864929
 20
6.943562340807453
 30
0.0
 40
0.322265625
  1
PROFILE AREA:
100
AcDbText
  0
ATTDEF
  5
83
330
55
100
AcDbEntity
  8
A1
 62
     1
100
AcDbText
 10
59.04934003701934
 20
43.69048591217159
 30
0.0
 40
1.2375
  1

 72
     1
 11
59.04934003701934
 21
43.69048591217159
 31
0.0
100
AcDbAttributeDefinition
  3
ADD PAGE NUMBER
  2
TS00XX
 70
     0
  0
LINE
  5
84
330
55
100
AcDbEntity
  8
0
100
AcDbLine
 10
63.0907971953311
 20
41.85161907700595
 30
0.0
 11
55.03498980215056
 21
41.85161907700595
 31
0.0
  0
LINE
  5
85
330
55
100
AcDbEntity
  8
0
100
AcDbLine
 10
55.03498980215056
 20
41.85161907700595
 30
0.0
 11
55.03498980215056
 21
46.93339791359997
 31
0.0
  0
LINE
  5
86
330
55
100
AcDbEntity
  8
0
100
AcDbLine
 10
63.0907971953311
 20
46.93339791359997
 30
0.0
 11
63.0907971953311
 21
41.85161907700595
 31
0.0
  0
LINE
  5
87
330
55
100
AcDbEntity
  8
0
100
AcDbLine
 10
63.0907971953311
 20
46.93339791359997
 30
0.0
 11
0.0
 21
46.93339791359997
 31
0.0
  0
ENDBLK
  5
89
330
55
100
AcDbEntity
  8
0
 62
     7
100
AcDbBlockEnd
  0
BLOCK
  5
9C
330
94
100
AcDbEntity
  8
0
 62
     7
100
AcDbBlockBegin
  2
LINK FLAG
 70
     2
 10
0.0
 20
0.0
 30
0.0
  3
LINK FLAG
  1

  0
SOLID
  5
95
330
94
100
AcDbEntity
  8
A1
 62
     1
100
AcDbTrace
 10
0.408488260029003
 20
0.3001362788183428
 30
0.0
 11
0.2890663177079773
 21
0.4163953751078396
 31
0.0
 12
0.0
 22
0.0
 32
0.0
 13
0.0
 23
0.0
 33
0.0
  0
LINE
  5
96
330
94
100
AcDbEntity
  8
A1
 62
     1
100
AcDbLine
 10
0.3487772888684901
 20
0.3582658269630912
 30
0.0
 11
4.449644902191081
 21
4.57069815453687
 31
0.0
  0
ATTDEF
  5
97
330
94
100
AcDbEntity
  8
A1
 62
     1
100
AcDbText
 10
10.75853330829194
 20
4.953467229082193
 30
0.0
 40
1.0
  1

100
AcDbAttributeDefinition
  3
ADD LINK NUMBER (WMF)
  2
XXXXXX
 70
     0
  0
MTEXT
  5
98
330
94
100
AcDbEntity
  8
0
 62
     1
100
AcDbMText
 10
10.79736583926697
 20
4.206192006567398
 30
0.0
 40
1.0
 41
0.0
 71
     1
 72
     1
  1
TannerStone
 73
     1
 44
1.0
  0
MTEXT
  5
99
330
94
100
AcDbEntity
  8
0
 62
     1
100
AcDbMText
 10
10.87510824661537
 20
2.68903194023958
 30
0.0
 40
0.7386749999999999
 41
0.0
 71
     1
 72
     1
  1
1-800-789-4841
 73
     1
 44
1.0
  0
LINE
  5
9A
330
94
100
AcDbEntity
  8
0
 62
     1
100
AcDbLine
 10
4.449644902191081
 20
4.57069815453687
 30
0.0
 11
19.37910172053511
 21
4.57069815453687
 31
0.0
  0
LINE
  5
9B
330
94
100
AcDbEntity
  8
0
 62
     1
100
AcDbLine
 10
10.27170295921419
 20
1.582920602761227
 30
0.0
 11
10.27170295921419
 21
6.137374365587334
 31
0.0
  0
ENDBLK
  5
9D
330
94
100
AcDbEntity
  8
0
 62
     7
100
AcDbBlockEnd
  0
BLOCK
  5
D36D
330
D36C
100
AcDbEntity
  8
0
100
AcDbBlockBegin
  2
*U4
 70
     1
 10
0.0
 20
0.0
 30
0.0
  3
*U4
  1

  0
ENDBLK
  5
D36E
330
D36C
100
AcDbEntity
  8
0
100
AcDbBlockEnd
  0
BLOCK
  5
D370
330
D36F
100
AcDbEntity
  8
0
100
AcDbBlockBegin
  2
*U5
 70
     1
 10
0.0
 20
0.0
 30
0.0
  3
*U5
  1

  0
ENDBLK
  5
D371
330
D36F
100
AcDbEntity
  8
0
100
AcDbBlockEnd
  0
BLOCK
  5
D373
330
D372
100
AcDbEntity
  8
0
100
AcDbBlockBegin
  2
*U6
 70
     1
 10
0.0
 20
0.0
 30
0.0
  3
*U6
  1

  0
ENDBLK
  5
D374
330
D372
100
AcDbEntity
  8
0
100
AcDbBlockEnd
  0
BLOCK
  5
D376
330
D375
100
AcDbEntity
  8
0
100
AcDbBlockBegin
  2
*U7
 70
     1
 10
0.0
 20
0.0
 30
0.0
  3
*U7
  1

  0
ENDBLK
  5
D377
330
D375
100
AcDbEntity
  8
0
100
AcDbBlockEnd
  0
BLOCK
  5
D379
330
D378
100
AcDbEntity
  8
0
100
AcDbBlockBegin
  2
*U8
 70
     1
 10
0.0
 20
0.0
 30
0.0
  3
*U8
  1

  0
ENDBLK
  5
D37A
330
D378
100
AcDbEntity
  8
0
100
AcDbBlockEnd
  0
BLOCK
  5
D37C
330
D37B
100
AcDbEntity
  8
0
100
AcDbBlockBegin
  2
*U9
 70
     1
 10
0.0
 20
0.0
 30
0.0
  3
*U9
  1

  0
ENDBLK
  5
D37D
330
D37B
100
AcDbEntity
  8
0
100
AcDbBlockEnd
  0
BLOCK
  5
D37F
330
D37E
100
AcDbEntity
  8
0
100
AcDbBlockBegin
  2
*U10
 70
     1
 10
0.0
 20
0.0
 30
0.0
  3
*U10
  1

  0
ENDBLK
  5
D380
330
D37E
100
AcDbEntity
  8
0
100
AcDbBlockEnd
  0
BLOCK
  5
D987
330
D986
100
AcDbEntity
  8
0
100
AcDbBlockBegin
  2
AVE_RENDER
 70
     0
 10
0.0
 20
0.0
 30
0.0
  3
AVE_RENDER
  1
AVE_RENDER
  0
ENDBLK
  5
D988
330
D986
100
AcDbEntity
  8
0
100
AcDbBlockEnd
  0
BLOCK
  5
D98A
330
D989
100
AcDbEntity
  8
0
100
AcDbBlockBegin
  2
AVE_GLOBAL
 70
     0
 10
0.0
 20
0.0
 30
0.0
  3
AVE_GLOBAL
  1
AVE_GLOBAL
  0
ENDBLK
  5
D98B
330
D989
100
AcDbEntity
  8
0
100
AcDbBlockEnd
  0
BLOCK
  5
124C1
330
124B4
100
AcDbEntity
  8
0
 62
     7
100
AcDbBlockBegin
  2
*D13
 70
     1
 10
0.0
 20
0.0
 30
0.0
  3
*D13
  1

  0
LINE
  5
12554
330
124B4
100
AcDbEntity
  8
A1
 62
     0
370
    -2
100
AcDbLine
 10
583.4681535508093
 20
256.2793993028845
 30
0.0
 11
587.3590128896884
 21
256.2793993028845
 31
0.0
  0
LINE
  5
12555
330
124B4
100
AcDbEntity
  8
A1
 62
     0
370
    -2
100
AcDbLine
 10
584.2181535508093
 20
257.0293993028844
 30
0.0
 11
587.3590128896884
 21
257.0293993028844
 31
0.0
  0
LINE
  5
12556
330
124B4
100
AcDbEntity
  8
A1
 62
     0
370
    -2
100
AcDbLine
 10
587.1090128896883
 20
255.7793993028844
 30
0.0
 11
587.1090128896883
 21
255.2793993028844
 31
0.0
  0
LINE
  5
12557
330
124B4
100
AcDbEntity
  8
A1
 62
     0
370
    -2
100
AcDbLine
 10
587.1090128896883
 20
257.5293993028844
 30
0.0
 11
587.1090128896883
 21
258.0293993028845
 31
0.0
  0
LINE
  5
12558
330
124B4
100
AcDbEntity
  8
A1
 62
     0
370
    -2
100
AcDbLine
 10
587.6090128896883
 20
259.459756712404
 30
0.0
 11
587.1090128896883
 21
259.459756712404
 31
0.0
  0
LINE
  5
12559
330
124B4
100
AcDbEntity
  8
A1
 62
     0
370
    -2
100
AcDbLine
 10
587.1090128896883
 20
259.459756712404
 30
0.0
 11
587.1090128896883
 21
258.0293993028845
 31
0.0
  0
MTEXT
  5
1255A
330
124B4
100
AcDbEntity
  8
A1
 62
     0
100
AcDbMText
 10
589.7022092043587
 20
259.4597567124041
 30
0.0
 40
1.0
 41
0.0
 71
     5
 72
     1
  1
\A1;3/4"
 73
     1
 44
1.0
  0
SOLID
  5
1255B
330
124B4
100
AcDbEntity
  8
A1
 62
     0
100
AcDbTrace
 10
587.0256795563549
 20
255.7793993028844
 30
0.0
 11
587.1923462230216
 21
255.7793993028844
 31
0.0
 12
587.1090128896883
 22
256.2793993028845
 32
0.0
 13
587.1090128896883
 23
256.2793993028845
 33
0.0
  0
SOLID
  5
1255C
330
124B4
100
AcDbEntity
  8
A1
 62
     0
100
AcDbTrace
 10
587.025679556355
 20
257.5293993028844
 30
0.0
 11
587.1923462230218
 21
257.5293993028844
 31
0.0
 12
587.1090128896883
 22
257.0293993028844
 32
0.0
 13
587.1090128896883
 23
257.0293993028844
 33
0.0
  0
POINT
  5
1255D
330
124B4
100
AcDbEntity
  8
Defpoints
 62
     0
100
AcDbPoint
 10
582.4681535508093
 20
256.2793993028845
 30
0.0
  0
POINT
  5
1255E
330
124B4
100
AcDbEntity
  8
Defpoints
 62
     0
100
AcDbPoint
 10
583.2181535508093
 20
257.0293993028844
 30
0.0
  0
POINT
  5
1255F
330
124B4
100
AcDbEntity
  8
Defpoints
 62
     0
100
AcDbPoint
 10
587.1090128896883
 20
257.0293993028844
 30
0.0
  0
ENDBLK
  5
124C2
330
124B4
100
AcDbEntity
  8
0
 62
     7
100
AcDbBlockEnd
  0
BLOCK
  5
124DB
330
124D0
100
AcDbEntity
  8
0
 62
     7
100
AcDbBlockBegin
  2
*D14
 70
     1
 10
0.0
 20
0.0
 30
0.0
  3
*D14
  1

  0
LINE
  5
12536
330
124D0
100
AcDbEntity
  8
A1
 62
     0
370
    -2
100
AcDbLine
 10
568.4681535508093
 20
256.2793993028845
 30
0.0
 11
574.9898423530035
 21
256.2793993028845
 31
0.0
  0
LINE
  5
12537
330
124D0
100
AcDbEntity
  8
A1
 62
     0
370
    -2
100
AcDbLine
 10
569.4681535508093
 20
265.2793993028844
 30
0.0
 11
574.9898423530035
 21
265.2793993028844
 31
0.0
  0
LINE
  5
12538
330
124D0
100
AcDbEntity
  8
A1
 62
     0
370
    -2
100
AcDbLine
 10
574.7398423530036
 20
256.7793993028844
 30
0.0
 11
574.7398423530036
 21
259.9377632864743
 31
0.0
  0
LINE
  5
12539
330
124D0
100
AcDbEntity
  8
A1
 62
     0
370
    -2
100
AcDbLine
 10
574.7398423530036
 20
264.7793993028844
 30
0.0
 11
574.7398423530036
 21
261.9753252992312
 31
0.0
  0
MTEXT
  5
1253A
330
124D0
100
AcDbEntity
  8
A1
 62
     0
100
AcDbMText
 10
574.7398423530036
 20
260.9565442928527
 30
0.0
 40
1.0
 41
0.0
 71
     5
 72
     1
  1
\A1;9"
 73
     1
 44
1.0
  0
SOLID
  5
1253B
330
124D0
100
AcDbEntity
  8
A1
 62
     0
100
AcDbTrace
 10
574.6565090196702
 20
256.7793993028844
 30
0.0
 11
574.8231756863369
 21
256.7793993028844
 31
0.0
 12
574.7398423530036
 22
256.2793993028845
 32
0.0
 13
574.7398423530036
 23
256.2793993028845
 33
0.0
  0
SOLID
  5
1253C
330
124D0
100
AcDbEntity
  8
A1
 62
     0
100
AcDbTrace
 10
574.6565090196702
 20
264.7793993028844
 30
0.0
 11
574.8231756863369
 21
264.7793993028844
 31
0.0
 12
574.7398423530036
 22
265.2793993028844
 32
0.0
 13
574.7398423530036
 23
265.2793993028844
 33
0.0
  0
POINT
  5
1253D
330
124D0
100
AcDbEntity
  8
Defpoints
 62
     0
100
AcDbPoint
 10
567.4681535508093
 20
256.2793993028845
 30
0.0
  0
POINT
  5
1253E
330
124D0
100
AcDbEntity
  8
Defpoints
 62
     0
100
AcDbPoint
 10
568.4681535508093
 20
265.2793993028844
 30
0.0
  0
POINT
  5
1253F
330
124D0
100
AcDbEntity
  8
Defpoints
 62
     0
100
AcDbPoint
 10
574.7398423530036
 20
265.2793993028844
 30
0.0
  0
ENDBLK
  5
124DC
330
124D0
100
AcDbEntity
  8
0
 62
     7
100
AcDbBlockEnd
  0
BLOCK
  5
124E9
330
124DE
100
AcDbEntity
  8
0
 62
     7
100
AcDbBlockBegin
  2
*D15
 70
     1
 10
0.0
 20
0.0
 30
0.0
  3
*D15
  1

  0
LINE
  5
12540
330
124DE
100
AcDbEntity
  8
A1
 62
     0
370
    -2
100
AcDbLine
 10
562.4681535508093
 20
255.2793993028844
 30
0.0
 11
562.4681535508093
 21
252.9232525199085
 31
0.0
  0
LINE
  5
12541
330
124DE
100
AcDbEntity
  8
A1
 62
     0
370
    -2
100
AcDbLine
 10
567.4681535508093
 20
255.2793993028844
 30
0.0
 11
567.4681535508093
 21
252.9232525199085
 31
0.0
  0
LINE
  5
12542
330
124DE
100
AcDbEntity
  8
A1
 62
     0
370
    -2
100
AcDbLine
 10
562.9681535508093
 20
253.1732525199085
 30
0.0
 11
563.984577330033
 21
253.1732525199085
 31
0.0
  0
LINE
  5
12543
330
124DE
100
AcDbEntity
  8
A1
 62
     0
370
    -2
100
AcDbLine
 10
566.9681535508093
 20
253.1732525199085
 30
0.0
 11
566.7266042612875
 21
253.1732525199085
 31
0.0
  0
MTEXT
  5
12544
330
124DE
100
AcDbEntity
  8
A1
 62
     0
100
AcDbMText
 10
565.3555907956603
 20
253.1732525199085
 30
0.0
 40
1.0
 41
0.0
 71
     5
 72
     1
  1
\A1;5"
 73
     1
 44
1.0
  0
SOLID
  5
12545
330
124DE
100
AcDbEntity
  8
A1
 62
     0
100
AcDbTrace
 10
562.9681535508093
 20
253.2565858532418
 30
0.0
 11
562.9681535508093
 21
253.0899191865751
 31
0.0
 12
562.4681535508093
 22
253.1732525199085
 32
0.0
 13
562.4681535508093
 23
253.1732525199085
 33
0.0
  0
SOLID
  5
12546
330
124DE
100
AcDbEntity
  8
A1
 62
     0
100
AcDbTrace
 10
566.9681535508093
 20
253.2565858532418
 30
0.0
 11
566.9681535508093
 21
253.0899191865751
 31
0.0
 12
567.4681535508093
 22
253.1732525199085
 32
0.0
 13
567.4681535508093
 23
253.1732525199085
 33
0.0
  0
POINT
  5
12547
330
124DE
100
AcDbEntity
  8
Defpoints
 62
     0
100
AcDbPoint
 10
562.4681535508093
 20
256.2793993028845
 30
0.0
  0
POINT
  5
12548
330
124DE
100
AcDbEntity
  8
Defpoints
 62
     0
100
AcDbPoint
 10
567.4681535508093
 20
256.2793993028845
 30
0.0
  0
POINT
  5
12549
330
124DE
100
AcDbEntity
  8
Defpoints
 62
     0
100
AcDbPoint
 10
567.4681535508093
 20
253.1732525199085
 30
0.0
  0
ENDBLK
  5
124EA
330
124DE
100
AcDbEntity
  8
0
 62
     7
100
AcDbBlockEnd
  0
BLOCK
  5
124F7
330
124EC
100
AcDbEntity
  8
0
 62
     7
100
AcDbBlockBegin
  2
*D16
 70
     1
 10
0.0
 20
0.0
 30
0.0
  3
*D16
  1

  0
LINE
  5
1254A
330
124EC
100
AcDbEntity
  8
A1
 62
     0
370
    -2
100
AcDbLine
 10
568.4681535508093
 20
266.2793993028845
 30
0.0
 11
568.4681535508093
 21
269.2891926705396
 31
0.0
  0
LINE
  5
1254B
330
124EC
100
AcDbEntity
  8
A1
 62
     0
370
    -2
100
AcDbLine
 10
561.4681535508093
 20
266.2793993028845
 30
0.0
 11
561.4681535508093
 21
269.2891926705396
 31
0.0
  0
LINE
  5
1254C
330
124EC
100
AcDbEntity
  8
A1
 62
     0
370
    -2
100
AcDbLine
 10
567.9681535508093
 20
269.0391926705396
 30
0.0
 11
566.6374032979076
 21
269.0391926705396
 31
0.0
  0
LINE
  5
1254D
330
124EC
100
AcDbEntity
  8
A1
 62
     0
370
    -2
100
AcDbLine
 10
561.9681535508093
 20
269.0391926705396
 30
0.0
 11
563.8741148499985
 21
269.0391926705396
 31
0.0
  0
MTEXT
  5
1254E
330
124EC
100
AcDbEntity
  8
A1
 62
     0
100
AcDbMText
 10
565.255759073953
 20
269.0391926705396
 30
0.0
 40
1.0
 41
0.0
 71
     5
 72
     1
  1
\A1;7"
 73
     1
 44
1.0
  0
SOLID
  5
1254F
330
124EC
100
AcDbEntity
  8
A1
 62
     0
100
AcDbTrace
 10
567.9681535508093
 20
269.1225260038729
 30
0.0
 11
567.9681535508093
 21
268.9558593372063
 31
0.0
 12
568.4681535508093
 22
269.0391926705396
 32
0.0
 13
568.4681535508093
 23
269.0391926705396
 33
0.0
  0
SOLID
  5
12550
330
124EC
100
AcDbEntity
  8
A1
 62
     0
100
AcDbTrace
 10
561.9681535508093
 20
269.1225260038729
 30
0.0
 11
561.9681535508093
 21
268.9558593372063
 31
0.0
 12
561.4681535508093
 22
269.0391926705396
 32
0.0
 13
561.4681535508093
 23
269.0391926705396
 33
0.0
  0
POINT
  5
12551
330
124EC
100
AcDbEntity
  8
Defpoints
 62
     0
100
AcDbPoint
 10
568.4681535508093
 20
265.2793993028844
 30
0.0
  0
POINT
  5
12552
330
124EC
100
AcDbEntity
  8
Defpoints
 62
     0
100
AcDbPoint
 10
561.4681535508093
 20
265.2793993028844
 30
0.0
  0
POINT
  5
12553
330
124EC
100
AcDbEntity
  8
Defpoints
 62
     0
100
AcDbPoint
 10
561.4681535508093
 20
269.0391926705396
 30
0.0
  0
ENDBLK
  5
124F8
330
124EC
100
AcDbEntity
  8
0
 62
     7
100
AcDbBlockEnd
  0
BLOCK
  5
12507
330
124FA
100
AcDbEntity
  8
0
 62
     7
100
AcDbBlockBegin
  2
*D17
 70
     1
 10
0.0
 20
0.0
 30
0.0
  3
*D17
  1

  0
LINE
  5
12560
330
124FA
100
AcDbEntity
  8
A1
 62
     0
370
    -2
100
AcDbLine
 10
579.4681535508093
 20
255.2793993028844
 30
0.0
 11
579.4681535508093
 21
251.326679708328
 31
0.0
  0
LINE
  5
12561
330
124FA
100
AcDbEntity
  8
A1
 62
     0
370
    -2
100
AcDbLine
 10
583.2181535508093
 20
256.0293993028845
 30
0.0
 11
583.2181535508093
 21
251.326679708328
 31
0.0
  0
LINE
  5
12562
330
124FA
100
AcDbEntity
  8
A1
 62
     0
370
    -2
100
AcDbLine
 10
578.9681535508093
 20
251.576679708328
 30
0.0
 11
578.4681535508093
 21
251.576679708328
 31
0.0
  0
LINE
  5
12563
330
124FA
100
AcDbEntity
  8
A1
 62
     0
370
    -2
100
AcDbLine
 10
583.7181535508093
 20
251.576679708328
 30
0.0
 11
584.2181535508093
 21
251.576679708328
 31
0.0
  0
LINE
  5
12564
330
124FA
100
AcDbEntity
  8
A1
 62
     0
370
    -2
100
AcDbLine
 10
584.3299088541614
 20
251.576679708328
 30
0.0
 11
583.2181535508093
 21
251.576679708328
 31
0.0
  0
MTEXT
  5
12565
330
124FA
100
AcDbEntity
  8
A1
 62
     0
100
AcDbMText
 10
587.1190654806675
 20
251.576679708328
 30
0.0
 40
1.0
 41
0.0
 71
     5
 72
     1
  1
\A1;3 3/4"
 73
     1
 44
1.0
  0
LINE
  5
12566
330
124FA
100
AcDbEntity
  8
A1
 62
     0
370
    -2
100
AcDbLine
 10
579.4681535508093
 20
251.576679708328
 30
0.0
 11
583.2181535508093
 21
251.576679708328
 31
0.0
  0
SOLID
  5
12567
330
124FA
100
AcDbEntity
  8
A1
 62
     0
100
AcDbTrace
 10
578.9681535508093
 20
251.6600130416614
 30
0.0
 11
578.9681535508093
 21
251.4933463749947
 31
0.0
 12
579.4681535508093
 22
251.576679708328
 32
0.0
 13
579.4681535508093
 23
251.576679708328
 33
0.0
  0
SOLID
  5
12568
330
124FA
100
AcDbEntity
  8
A1
 62
     0
100
AcDbTrace
 10
583.7181535508093
 20
251.6600130416614
 30
0.0
 11
583.7181535508093
 21
251.4933463749947
 31
0.0
 12
583.2181535508093
 22
251.576679708328
 32
0.0
 13
583.2181535508093
 23
251.576679708328
 33
0.0
  0
POINT
  5
12569
330
124FA
100
AcDbEntity
  8
Defpoints
 62
     0
100
AcDbPoint
 10
579.4681535508093
 20
256.2793993028845
 30
0.0
  0
POINT
  5
1256A
330
124FA
100
AcDbEntity
  8
Defpoints
 62
     0
100
AcDbPoint
 10
583.2181535508093
 20
257.0293993028844
 30
0.0
  0
POINT
  5
1256B
330
124FA
100
AcDbEntity
  8
Defpoints
 62
     0
100
AcDbPoint
 10
583.2181535508093
 20
251.576679708328
 30
0.0
  0
ENDBLK
  5
12508
330
124FA
100
AcDbEntity
  8
0
 62
     7
100
AcDbBlockEnd
  0
BLOCK
  5
12517
330
1250A
100
AcDbEntity
  8
0
 62
     7
100
AcDbBlockBegin
  2
*D18
 70
     1
 10
0.0
 20
0.0
 30
0.0
  3
*D18
  1

  0
LINE
  5
1256C
330
1250A
100
AcDbEntity
  8
A1
 62
     0
370
    -2
100
AcDbLine
 10
579.4681535508093
 20
255.2793993028844
 30
0.0
 11
579.4681535508093
 21
253.4221814096089
 31
0.0
  0
LINE
  5
1256D
330
1250A
100
AcDbEntity
  8
A1
 62
     0
370
    -2
100
AcDbLine
 10
582.4681535508093
 20
255.2793993028844
 30
0.0
 11
582.4681535508093
 21
253.4221814096089
 31
0.0
  0
LINE
  5
1256E
330
1250A
100
AcDbEntity
  8
A1
 62
     0
370
    -2
100
AcDbLine
 10
578.9681535508093
 20
253.6721814096089
 30
0.0
 11
578.4681535508093
 21
253.6721814096089
 31
0.0
  0
LINE
  5
1256F
330
1250A
100
AcDbEntity
  8
A1
 62
     0
370
    -2
100
AcDbLine
 10
582.9681535508093
 20
253.6721814096089
 30
0.0
 11
583.4681535508093
 21
253.6721814096089
 31
0.0
  0
LINE
  5
12570
330
1250A
100
AcDbEntity
  8
A1
 62
     0
370
    -2
100
AcDbLine
 10
584.3241754143792
 20
253.6721814096089
 30
0.0
 11
582.4681535508093
 21
253.6721814096089
 31
0.0
  0
MTEXT
  5
12571
330
1250A
100
AcDbEntity
  8
A1
 62
     0
100
AcDbMText
 10
585.7214114172141
 20
253.6721814096089
 30
0.0
 40
1.0
 41
0.0
 71
     5
 72
     1
  1
\A1;3"
 73
     1
 44
1.0
  0
LINE
  5
12572
330
1250A
100
AcDbEntity
  8
A1
 62
     0
370
    -2
100
AcDbLine
 10
579.4681535508093
 20
253.6721814096089
 30
0.0
 11
582.4681535508093
 21
253.6721814096089
 31
0.0
  0
SOLID
  5
12573
330
1250A
100
AcDbEntity
  8
A1
 62
     0
100
AcDbTrace
 10
578.9681535508093
 20
253.7555147429423
 30
0.0
 11
578.9681535508093
 21
253.5888480762756
 31
0.0
 12
579.4681535508093
 22
253.6721814096089
 32
0.0
 13
579.4681535508093
 23
253.6721814096089
 33
0.0
  0
SOLID
  5
12574
330
1250A
100
AcDbEntity
  8
A1
 62
     0
100
AcDbTrace
 10
582.9681535508093
 20
253.7555147429423
 30
0.0
 11
582.9681535508093
 21
253.5888480762756
 31
0.0
 12
582.4681535508093
 22
253.6721814096089
 32
0.0
 13
582.4681535508093
 23
253.6721814096089
 33
0.0
  0
POINT
  5
12575
330
1250A
100
AcDbEntity
  8
Defpoints
 62
     0
100
AcDbPoint
 10
579.4681535508093
 20
256.2793993028845
 30
0.0
  0
POINT
  5
12576
330
1250A
100
AcDbEntity
  8
Defpoints
 62
     0
100
AcDbPoint
 10
582.4681535508093
 20
256.2793993028845
 30
0.0
  0
POINT
  5
12577
330
1250A
100
AcDbEntity
  8
Defpoints
 62
     0
100
AcDbPoint
 10
582.4681535508093
 20
253.6721814096089
 30
0.0
  0
ENDBLK
  5
12518
330
1250A
100
AcDbEntity
  8
0
 62
     7
100
AcDbBlockEnd
  0
ENDSEC
  0
SECTION
  2
ENTITIES
  0
INSERT
  5
D415
330
2
100
AcDbEntity
  8
0
100
AcDbBlockReference
  2
*U4
 10
646.1106899335409
 20
404.7125532552913
 30
0.0
  0
INSERT
  5
D416
330
2
100
AcDbEntity
  8
0
100
AcDbBlockReference
  2
*U5
 10
645.798184378568
 20
411.2719977254316
 30
0.0
  0
INSERT
  5
D417
330
2
100
AcDbEntity
  8
0
100
AcDbBlockReference
  2
*U6
 10
646.3606946889255
 20
407.3363308464784
 30
0.0
  0
INSERT
  5
D418
330
2
100
AcDbEntity
  8
0
100
AcDbBlockReference
  2
*U7
 10
647.3607137104639
 20
394.0300291508026
 30
0.0
  0
INSERT
  5
D419
330
2
100
AcDbEntity
  8
0
100
AcDbBlockReference
  2
*U8
 10
-120.7213040106682
 20
518.6242169914485
 30
0.0
  0
INSERT
  5
D41A
330
2
100
AcDbEntity
  8
0
100
AcDbBlockReference
  2
*U9
 10
-107.0047663928503
 20
523.9467063236033
 30
0.0
  0
INSERT
  5
D41B
330
2
100
AcDbEntity
  8
0
100
AcDbBlockReference
  2
*U10
 10
-108.7393519727654
 20
518.0410172457804
 30
0.0
  0
INSERT
  5
F070
330
2
100
AcDbEntity
  8
ASHADE
 62
     1
100
AcDbBlockReference
  2
AVE_RENDER
 10
345.1963598822981
 20
-20.78421747581671
 30
0.0
 41
0.4444444444444571
 42
0.4444444444444571
 43
0.4444444444444445
1001
AVE_RENDER
1002
{
1070
     7
1000
Pref
1070
    60
1070
    20
1070
     1
1070
     0
1000

1070
    10
1070
     1
1070
    30
1040
1.0
1070
     1
1040
0.3
1040
0.7
1040
0.0
1040
10.0
1010
-1.0
1020
-1.0
1030
-1.0
1040
0.3
1070
    49
1070
     1
1070
     0
1010
1.0
1020
1.0
1030
1.0
1040
45.0
1070
     1
1070
     0
1000
WCS
1040
0.0
1070
     0
1040
10.0
1002
}
  0
INSERT
  5
F071
330
2
100
AcDbEntity
  8
ASHADE
 62
     3
100
AcDbBlockReference
  2
AVE_RENDER
 10
345.1963598822981
 20
-20.78421747581671
 30
0.0
 41
0.4444444444444571
 42
0.4444444444444571
 43
0.4444444444444445
1001
AVE_RENDER
1002
{
1070
     0
1000
Full Opt
1070
     0
1070
     1
1070
     1
1070
     1
1070
     0
1070
     0
1070
     0
1070
     1
1070
     1
1040
0.0001
1040
0.0001
1002
}
  0
INSERT
  5
F072
330
2
100
AcDbEntity
  8
ASHADE
 62
     4
100
AcDbBlockReference
  2
AVE_RENDER
 10
345.1963598822981
 20
-20.78421747581671
 30
0.0
 41
0.4444444444444571
 42
0.4444444444444571
 43
0.4444444444444445
1001
AVE_RENDER
1002
{
1070
     0
1000
Quick Opt
1070
     0
1070
     1
1070
     1
1070
     1
1070
     0
1070
     0
1070
     1
1002
}
  0
INSERT
  5
F073
330
2
100
AcDbEntity
  8
ASHADE
 62
     5
100
AcDbBlockReference
  2
AVE_RENDER
 10
345.1963598822981
 20
-20.78421747581671
 30
0.0
 41
0.4444444444444571
 42
0.4444444444444571
 43
0.4444444444444445
1001
AVE_RENDER
1002
{
1070
     1
1000
Scanl Opt
1070
     2
1070
     0
1070
     2
1040
2.0
1040
4.0
1070
     0
1070
     1
1070
     0
1040
0.03
1002
}
  0
INSERT
  5
F074
330
2
100
AcDbEntity
  8
ASHADE
 62
     6
100
AcDbBlockReference
  2
AVE_RENDER
 10
345.1963598822981
 20
-20.78421747581671
 30
0.0
 41
0.4444444444444571
 42
0.4444444444444571
 43
0.4444444444444445
1001
AVE_RENDER
1002
{
1070
     2
1000
Raytr Opt
1070
     2
1070
     0
1070
     2
1040
2.0
1040
4.0
1070
     0
1070
     1
1070
     1
1040
0.03
1070
     3
1040
0.03
1002
}
  0
INSERT
  5
F075
330
2
100
AcDbEntity
  8
ASHADE
 62
     7
100
AcDbBlockReference
  2
AVE_RENDER
 10
345.1963598822981
 20
-20.78421747581671
 30
0.0
 41
0.4444444444444571
 42
0.4444444444444571
 43
0.4444444444444445
1001
AVE_RENDER
1002
{
1070
     0
1000
RFile Opt
1070
     5
1070
   640
1070
   480
1070
 10000
1070
     3
1070
    32
1070
    24
1070
     0
1070
     0
1070
     0
1070
     1
1070
     0
1070
     0
1070
     0
1002
}
  0
INSERT
  5
F076
330
2
100
AcDbEntity
  8
ASHADE
 62
     8
100
AcDbBlockReference
  2
AVE_RENDER
 10
345.1963598822981
 20
-20.78421747581671
 30
0.0
 41
0.4444444444444571
 42
0.4444444444444571
 43
0.4444444444444445
1001
AVE_RENDER
1002
{
1070
     0
1000
Fog Opt
1070
     0
1070
     0
1040
0.0
1040
1.0
1040
0.0
1040
1.0
1010
0.5
1020
0.5
1030
0.5
1002
}
  0
INSERT
  5
F077
330
2
100
AcDbEntity
  8
ASHADE
 62
     9
100
AcDbBlockReference
  2
AVE_RENDER
 10
345.1963598822981
 20
-20.78421747581671
 30
0.0
 41
0.4444444444444571
 42
0.4444444444444571
 43
0.4444444444444445
1001
AVE_RENDER
1002
{
1070
     0
1000
BG Opt
1070
     0
1070
     1
1010
0.0
1020
0.0
1030
0.0
1010
1.0
1020
0.0
1030
0.0
1010
0.0
1020
1.0
1030
0.0
1010
0.0
1020
0.0
1030
1.0
1040
0.5
1040
0.33
1040
0.0
1000

1070
     1
1000

1070
     1
1070
     1
1040
1.0
1040
1.0
1040
0.0
1040
0.0
1070
     0
1002
}
  0
INSERT
  5
F078
330
2
100
AcDbEntity
  8
ASHADE
 62
     1
100
AcDbBlockReference
  2
AVE_GLOBAL
 10
345.1963598822981
 20
-20.78421747581671
 30
0.0
 41
0.4444444444444571
 42
0.4444444444444571
 43
0.4444444444444445
1001
AVE_MATERIAL
1002
{
1000
*GLOBAL*
1000
1
1000
Global finish.
1002
{
1002
}
1002
{
1070
    63
1002
{
1002
{
1010
-1.0
1020
-1.0
1030
-1.0
1002
}
1040
0.1000000014901161
1000

1040
0.0
1002
{
1002
}
1040
0.0
1002
{
1002
}
1040
0.0
1002
}
1002
{
1002
{
1010
-1.0
1020
-1.0
1030
-1.0
1002
}
1040
0.6999999880790711
1000

1040
0.0
1002
{
1002
}
1040
0.0
1002
{
1002
}
1040
0.0
1002
}
1002
{
1002
{
1010
-1.0
1020
-1.0
1030
-1.0
1002
}
1040
0.2000000029802322
1000

1040
0.0
1002
{
1002
}
1040
0.0
1002
{
1002
}
1040
0.0
1002
}
1002
{
1070
     0
1002
{
1070
     1
1002
{
1040
1.0
1040
1.0
1000

1040
0.0
1002
{
1002
}
1040
0.0
1002
{
1002
}
1040
0.0
1002
}
1002
}
1040
1.0
1040
0.0
1040
0.0
1002
}
1002
{
1040
1.0
1040
1.0
1000

1040
0.0
1002
{
1002
}
1040
0.0
1002
{
1002
}
1040
0.0
1002
}
1002
{
1040
0.5
1040
1.0
1000

1040
0.0
1002
{
1002
}
1040
0.0
1002
{
1002
}
1040
0.0
1002
}
1002
{
1070
     0
1040
0.0
1002
{
1002
}
1040
1.0
1002
{
1002
}
1040
0.0
1002
}
1002
{
1040
0.0
1002
{
1002
{
1010
0.0
1020
0.0
1030
0.0
1002
}
1040
1.0
1000

1040
0.0
1002
{
1002
}
1040
0.0
1002
{
1002
}
1040
0.0
1002
}
1002
}
1002
{
1002
{
1070
     1
1002
{
1040
0.0
1040
1.0
1000

1040
0.0
1002
{
1002
}
1040
0.0
1002
{
1002
}
1040
0.0
1002
}
1002
}
1040
0.0
1002
{
1002
}
1010
1.0
1020
0.0
1030
0.0
1010
0.0
1020
1.0
1030
0.0
1010
0.0
1020
0.0
1030
1.0
1070
     0
1002
}
1002
{
1002
{
1040
1.0
1040
1.0
1002
{
1070
     1
1002
{
1040
1.0
1040
1.0
1000

1040
0.0
1002
{
1002
}
1040
0.0
1002
{
1002
}
1040
0.0
1002
}
1002
}
1002
}
1070
     0
1040
0.0
1002
{
1002
}
1002
}
1002
{
1002
}
1002
}
1002
{
1071
        3
1070
     3
1070
     0
1002
{
1070
     2
1070
     0
1070
     0
1040
0.0
1002
}
1070
     0
1070
     2
1002
{
1002
}
1002
}
1002
{
1040
8030.0
1040
190.3000030517578
1040
0.3050000071525574
1040
228.0
1040
545.0
1040
14.0
1040
17.39999961853027
1040
0.4560000002384186
1002
}
1002
}
  0
INSERT
  5
F079
330
2
100
AcDbEntity
  8
ASHADE
 62
     1
100
AcDbBlockReference
  2
AVE_GLOBAL
 10
607.9730469079288
 20
98.04468493244327
 30
0.0
1001
AVE_MATERIAL
1002
{
1000
*GLOBAL*
1000
1
1000
Global finish.
1002
{
1002
}
1002
{
1070
    63
1002
{
1002
{
1010
-1.0
1020
-1.0
1030
-1.0
1002
}
1040
0.1000000014901161
1000

1040
0.0
1002
{
1002
}
1040
0.0
1002
{
1002
}
1040
0.0
1002
}
1002
{
1002
{
1010
-1.0
1020
-1.0
1030
-1.0
1002
}
1040
0.6999999880790711
1000

1040
0.0
1002
{
1002
}
1040
0.0
1002
{
1002
}
1040
0.0
1002
}
1002
{
1002
{
1010
-1.0
1020
-1.0
1030
-1.0
1002
}
1040
0.2000000029802322
1000

1040
0.0
1002
{
1002
}
1040
0.0
1002
{
1002
}
1040
0.0
1002
}
1002
{
1070
     0
1002
{
1070
     1
1002
{
1040
1.0
1040
1.0
1000

1040
0.0
1002
{
1002
}
1040
0.0
1002
{
1002
}
1040
0.0
1002
}
1002
}
1040
1.0
1040
0.0
1040
0.0
1002
}
1002
{
1040
1.0
1040
1.0
1000

1040
0.0
1002
{
1002
}
1040
0.0
1002
{
1002
}
1040
0.0
1002
}
1002
{
1040
0.5
1040
1.0
1000

1040
0.0
1002
{
1002
}
1040
0.0
1002
{
1002
}
1040
0.0
1002
}
1002
{
1070
     0
1040
0.0
1002
{
1002
}
1040
1.0
1002
{
1002
}
1040
0.0
1002
}
1002
{
1040
0.0
1002
{
1002
{
1010
0.0
1020
0.0
1030
0.0
1002
}
1040
1.0
1000

1040
0.0
1002
{
1002
}
1040
0.0
1002
{
1002
}
1040
0.0
1002
}
1002
}
1002
{
1002
{
1070
     1
1002
{
1040
0.0
1040
1.0
1000

1040
0.0
1002
{
1002
}
1040
0.0
1002
{
1002
}
1040
0.0
1002
}
1002
}
1040
0.0
1002
{
1002
}
1010
1.0
1020
0.0
1030
0.0
1010
0.0
1020
1.0
1030
0.0
1010
0.0
1020
0.0
1030
1.0
1070
     0
1002
}
1002
{
1002
{
1040
1.0
1040
1.0
1002
{
1070
     1
1002
{
1040
1.0
1040
1.0
1000

1040
0.0
1002
{
1002
}
1040
0.0
1002
{
1002
}
1040
0.0
1002
}
1002
}
1002
}
1070
     0
1040
0.0
1002
{
1002
}
1002
}
1002
{
1002
}
1002
}
1002
{
1071
        3
1070
     3
1070
     0
1002
{
1070
     2
1070
     0
1070
     0
1040
0.0
1002
}
1070
     0
1070
     2
1002
{
1002
}
1002
}
1002
{
1040
8030.0
1040
190.3000030517578
1040
0.3050000071525574
1040
228.0
1040
545.0
1040
14.0
1040
17.39999961853027
1040
0.4560000002384186
1002
}
1002
}
  0
INSERT
  5
F093
330
2
100
AcDbEntity
  8
ASHADE
 62
     1
100
AcDbBlockReference
  2
AVE_GLOBAL
 10
608.4449950125299
 20
70.2117492506037
 30
0.0
1001
AVE_MATERIAL
1002
{
1000
*GLOBAL*
1000
1
1000
Global finish.
1002
{
1002
}
1002
{
1070
    63
1002
{
1002
{
1010
-1.0
1020
-1.0
1030
-1.0
1002
}
1040
0.1000000014901161
1000

1040
0.0
1002
{
1002
}
1040
0.0
1002
{
1002
}
1040
0.0
1002
}
1002
{
1002
{
1010
-1.0
1020
-1.0
1030
-1.0
1002
}
1040
0.6999999880790711
1000

1040
0.0
1002
{
1002
}
1040
0.0
1002
{
1002
}
1040
0.0
1002
}
1002
{
1002
{
1010
-1.0
1020
-1.0
1030
-1.0
1002
}
1040
0.2000000029802322
1000

1040
0.0
1002
{
1002
}
1040
0.0
1002
{
1002
}
1040
0.0
1002
}
1002
{
1070
     0
1002
{
1070
     1
1002
{
1040
1.0
1040
1.0
1000

1040
0.0
1002
{
1002
}
1040
0.0
1002
{
1002
}
1040
0.0
1002
}
1002
}
1040
1.0
1040
0.0
1040
0.0
1002
}
1002
{
1040
1.0
1040
1.0
1000

1040
0.0
1002
{
1002
}
1040
0.0
1002
{
1002
}
1040
0.0
1002
}
1002
{
1040
0.5
1040
1.0
1000

1040
0.0
1002
{
1002
}
1040
0.0
1002
{
1002
}
1040
0.0
1002
}
1002
{
1070
     0
1040
0.0
1002
{
1002
}
1040
1.0
1002
{
1002
}
1040
0.0
1002
}
1002
{
1040
0.0
1002
{
1002
{
1010
0.0
1020
0.0
1030
0.0
1002
}
1040
1.0
1000

1040
0.0
1002
{
1002
}
1040
0.0
1002
{
1002
}
1040
0.0
1002
}
1002
}
1002
{
1002
{
1070
     1
1002
{
1040
0.0
1040
1.0
1000

1040
0.0
1002
{
1002
}
1040
0.0
1002
{
1002
}
1040
0.0
1002
}
1002
}
1040
0.0
1002
{
1002
}
1010
1.0
1020
0.0
1030
0.0
1010
0.0
1020
1.0
1030
0.0
1010
0.0
1020
0.0
1030
1.0
1070
     0
1002
}
1002
{
1002
{
1040
1.0
1040
1.0
1002
{
1070
     1
1002
{
1040
1.0
1040
1.0
1000

1040
0.0
1002
{
1002
}
1040
0.0
1002
{
1002
}
1040
0.0
1002
}
1002
}
1002
}
1070
     0
1040
0.0
1002
{
1002
}
1002
}
1002
{
1002
}
1002
}
1002
{
1071
        3
1070
     3
1070
     0
1002
{
1070
     2
1070
     0
1070
     0
1040
0.0
1002
}
1070
     0
1070
     2
1002
{
1002
}
1002
}
1002
{
1040
8030.0
1040
190.3000030517578
1040
0.3050000071525574
1040
228.0
1040
545.0
1040
14.0
1040
17.39999961853027
1040
0.4560000002384186
1002
}
1002
}
  0
INSERT
  5
F09C
330
2
100
AcDbEntity
  8
ASHADE
 62
     1
100
AcDbBlockReference
  2
AVE_GLOBAL
 10
326.878796185584
 20
114.6104560251897
 30
12.6740639196657
 41
0.6666666666666288
 42
0.6666666666666288
 43
0.6666666666666666
1001
AVE_MATERIAL
1002
{
1000
*GLOBAL*
1000
1
1000
Global finish.
1002
{
1002
}
1002
{
1070
    63
1002
{
1002
{
1010
-1.0
1020
-1.0
1030
-1.0
1002
}
1040
0.1000000014901161
1000

1040
0.0
1002
{
1002
}
1040
0.0
1002
{
1002
}
1040
0.0
1002
}
1002
{
1002
{
1010
-1.0
1020
-1.0
1030
-1.0
1002
}
1040
0.6999999880790711
1000

1040
0.0
1002
{
1002
}
1040
0.0
1002
{
1002
}
1040
0.0
1002
}
1002
{
1002
{
1010
-1.0
1020
-1.0
1030
-1.0
1002
}
1040
0.2000000029802322
1000

1040
0.0
1002
{
1002
}
1040
0.0
1002
{
1002
}
1040
0.0
1002
}
1002
{
1070
     0
1002
{
1070
     1
1002
{
1040
1.0
1040
1.0
1000

1040
0.0
1002
{
1002
}
1040
0.0
1002
{
1002
}
1040
0.0
1002
}
1002
}
1040
1.0
1040
0.0
1040
0.0
1002
}
1002
{
1040
1.0
1040
1.0
1000

1040
0.0
1002
{
1002
}
1040
0.0
1002
{
1002
}
1040
0.0
1002
}
1002
{
1040
0.5
1040
1.0
1000

1040
0.0
1002
{
1002
}
1040
0.0
1002
{
1002
}
1040
0.0
1002
}
1002
{
1070
     0
1040
0.0
1002
{
1002
}
1040
1.0
1002
{
1002
}
1040
0.0
1002
}
1002
{
1040
0.0
1002
{
1002
{
1010
0.0
1020
0.0
1030
0.0
1002
}
1040
1.0
1000

1040
0.0
1002
{
1002
}
1040
0.0
1002
{
1002
}
1040
0.0
1002
}
1002
}
1002
{
1002
{
1070
     1
1002
{
1040
0.0
1040
1.0
1000

1040
0.0
1002
{
1002
}
1040
0.0
1002
{
1002
}
1040
0.0
1002
}
1002
}
1040
0.0
1002
{
1002
}
1010
1.0
1020
0.0
1030
0.0
1010
0.0
1020
1.0
1030
0.0
1010
0.0
1020
0.0
1030
1.0
1070
     0
1002
}
1002
{
1002
{
1040
1.0
1040
1.0
1002
{
1070
     1
1002
{
1040
1.0
1040
1.0
1000

1040
0.0
1002
{
1002
}
1040
0.0
1002
{
1002
}
1040
0.0
1002
}
1002
}
1002
}
1070
     0
1040
0.0
1002
{
1002
}
1002
}
1002
{
1002
}
1002
}
1002
{
1071
        3
1070
     3
1070
     0
1002
{
1070
     2
1070
     0
1070
     0
1040
0.0
1002
}
1070
     0
1070
     2
1002
{
1002
}
1002
}
1002
{
1040
8030.0
1040
190.3000030517578
1040
0.3050000071525574
1040
228.0
1040
545.0
1040
14.0
1040
17.39999961853027
1040
0.4560000002384186
1002
}
1002
}
  0
INSERT
  5
F0BA
330
2
100
AcDbEntity
  8
ASHADE
 62
     1
100
AcDbBlockReference
  2
AVE_GLOBAL
 10
403.2250140402669
 20
114.6104560251897
 30
12.6740639196657
 41
0.6666666666666288
 42
0.6666666666666288
 43
0.6666666666666666
1001
AVE_MATERIAL
1002
{
1000
*GLOBAL*
1000
1
1000
Global finish.
1002
{
1002
}
1002
{
1070
    63
1002
{
1002
{
1010
-1.0
1020
-1.0
1030
-1.0
1002
}
1040
0.1000000014901161
1000

1040
0.0
1002
{
1002
}
1040
0.0
1002
{
1002
}
1040
0.0
1002
}
1002
{
1002
{
1010
-1.0
1020
-1.0
1030
-1.0
1002
}
1040
0.6999999880790711
1000

1040
0.0
1002
{
1002
}
1040
0.0
1002
{
1002
}
1040
0.0
1002
}
1002
{
1002
{
1010
-1.0
1020
-1.0
1030
-1.0
1002
}
1040
0.2000000029802322
1000

1040
0.0
1002
{
1002
}
1040
0.0
1002
{
1002
}
1040
0.0
1002
}
1002
{
1070
     0
1002
{
1070
     1
1002
{
1040
1.0
1040
1.0
1000

1040
0.0
1002
{
1002
}
1040
0.0
1002
{
1002
}
1040
0.0
1002
}
1002
}
1040
1.0
1040
0.0
1040
0.0
1002
}
1002
{
1040
1.0
1040
1.0
1000

1040
0.0
1002
{
1002
}
1040
0.0
1002
{
1002
}
1040
0.0
1002
}
1002
{
1040
0.5
1040
1.0
1000

1040
0.0
1002
{
1002
}
1040
0.0
1002
{
1002
}
1040
0.0
1002
}
1002
{
1070
     0
1040
0.0
1002
{
1002
}
1040
1.0
1002
{
1002
}
1040
0.0
1002
}
1002
{
1040
0.0
1002
{
1002
{
1010
0.0
1020
0.0
1030
0.0
1002
}
1040
1.0
1000

1040
0.0
1002
{
1002
}
1040
0.0
1002
{
1002
}
1040
0.0
1002
}
1002
}
1002
{
1002
{
1070
     1
1002
{
1040
0.0
1040
1.0
1000

1040
0.0
1002
{
1002
}
1040
0.0
1002
{
1002
}
1040
0.0
1002
}
1002
}
1040
0.0
1002
{
1002
}
1010
1.0
1020
0.0
1030
0.0
1010
0.0
1020
1.0
1030
0.0
1010
0.0
1020
0.0
1030
1.0
1070
     0
1002
}
1002
{
1002
{
1040
1.0
1040
1.0
1002
{
1070
     1
1002
{
1040
1.0
1040
1.0
1000

1040
0.0
1002
{
1002
}
1040
0.0
1002
{
1002
}
1040
0.0
1002
}
1002
}
1002
}
1070
     0
1040
0.0
1002
{
1002
}
1002
}
1002
{
1002
}
1002
}
1002
{
1071
        3
1070
     3
1070
     0
1002
{
1070
     2
1070
     0
1070
     0
1040
0.0
1002
}
1070
     0
1070
     2
1002
{
1002
}
1002
}
1002
{
1040
8030.0
1040
190.3000030517578
1040
0.3050000071525574
1040
228.0
1040
545.0
1040
14.0
1040
17.39999961853027
1040
0.4560000002384186
1002
}
1002
}
  0
INSERT
  5
F0F4
330
2
100
AcDbEntity
  8
ASHADE
 62
     1
100
AcDbBlockReference
  2
AVE_RENDER
 10
163.839375876731
 20
-629.2364123446609
 30
0.0
 41
1.305150000000026
 42
1.305150000000026
 43
1.305150000000001
1001
AVE_RENDER
1002
{
1070
     6
1000
Pref
1070
    30
1070
    20
1070
     1
1070
     0
1000

1070
    10
1070
     1
1070
    30
1040
1.0
1070
     1
1040
0.3
1040
0.7
1040
0.0
1040
10.0
1010
-1.0
1020
-1.0
1030
-1.0
1040
0.3
1070
    49
1070
     0
1070
     0
1010
1.0
1020
1.0
1030
1.0
1040
45.0
1070
     1
1070
     0
1000
WCS
1040
0.0
1002
}
  0
INSERT
  5
F0F5
330
2
100
AcDbEntity
  8
ASHADE
 62
     3
100
AcDbBlockReference
  2
AVE_RENDER
 10
163.839375876731
 20
-629.2364123446609
 30
0.0
 41
1.305150000000026
 42
1.305150000000026
 43
1.305150000000001
1001
AVE_RENDER
1002
{
1070
     0
1000
Full Opt
1070
     0
1070
     1
1070
     1
1070
     1
1070
     0
1070
     0
1070
     0
1070
     1
1070
     1
1040
0.0001
1040
0.0001
1002
}
  0
INSERT
  5
F0F6
330
2
100
AcDbEntity
  8
ASHADE
 62
     4
100
AcDbBlockReference
  2
AVE_RENDER
 10
163.839375876731
 20
-629.2364123446609
 30
0.0
 41
1.305150000000026
 42
1.305150000000026
 43
1.305150000000001
1001
AVE_RENDER
1002
{
1070
     0
1000
Quick Opt
1070
     0
1070
     1
1070
     1
1070
     1
1070
     0
1070
     0
1070
     1
1002
}
  0
INSERT
  5
F0F7
330
2
100
AcDbEntity
  8
ASHADE
 62
     5
100
AcDbBlockReference
  2
AVE_RENDER
 10
163.839375876731
 20
-629.2364123446609
 30
0.0
 41
1.305150000000026
 42
1.305150000000026
 43
1.305150000000001
1001
AVE_RENDER
1002
{
1070
     1
1000
Scanl Opt
1070
     2
1070
     0
1070
     2
1040
2.0
1040
4.0
1070
     0
1070
     1
1070
     0
1040
0.03
1002
}
  0
INSERT
  5
F0F8
330
2
100
AcDbEntity
  8
ASHADE
 62
     6
100
AcDbBlockReference
  2
AVE_RENDER
 10
163.839375876731
 20
-629.2364123446609
 30
0.0
 41
1.305150000000026
 42
1.305150000000026
 43
1.305150000000001
1001
AVE_RENDER
1002
{
1070
     2
1000
Raytr Opt
1070
     2
1070
     0
1070
     2
1040
2.0
1040
4.0
1070
     0
1070
     1
1070
     1
1040
0.03
1070
     3
1040
0.03
1002
}
  0
INSERT
  5
F0F9
330
2
100
AcDbEntity
  8
ASHADE
 62
     7
100
AcDbBlockReference
  2
AVE_RENDER
 10
163.839375876731
 20
-629.2364123446609
 30
0.0
 41
1.305150000000026
 42
1.305150000000026
 43
1.305150000000001
1001
AVE_RENDER
1002
{
1070
     0
1000
RFile Opt
1070
     5
1070
   640
1070
   480
1070
 10000
1070
     3
1070
    32
1070
    24
1070
     0
1070
     0
1070
     0
1070
     1
1070
     0
1070
     0
1070
     0
1002
}
  0
INSERT
  5
F0FA
330
2
100
AcDbEntity
  8
ASHADE
 62
     8
100
AcDbBlockReference
  2
AVE_RENDER
 10
163.839375876731
 20
-629.2364123446609
 30
0.0
 41
1.305150000000026
 42
1.305150000000026
 43
1.305150000000001
1001
AVE_RENDER
1002
{
1070
     0
1000
Fog Opt
1070
     0
1070
     0
1040
0.0
1040
1.0
1040
0.0
1040
1.0
1010
0.5
1020
0.5
1030
0.5
1002
}
  0
INSERT
  5
F0FB
330
2
100
AcDbEntity
  8
ASHADE
 62
     9
100
AcDbBlockReference
  2
AVE_RENDER
 10
163.839375876731
 20
-629.2364123446609
 30
0.0
 41
1.305150000000026
 42
1.305150000000026
 43
1.305150000000001
1001
AVE_RENDER
1002
{
1070
     0
1000
BG Opt
1070
     0
1070
     1
1010
0.0
1020
0.0
1030
0.0
1010
1.0
1020
0.0
1030
0.0
1010
0.0
1020
1.0
1030
0.0
1010
0.0
1020
0.0
1030
1.0
1040
0.5
1040
0.33
1040
0.0
1000

1070
     1
1000

1070
     1
1070
     1
1040
1.0
1040
1.0
1040
0.0
1040
0.0
1070
     0
1002
}
  0
INSERT
  5
F0FC
330
2
100
AcDbEntity
  8
ASHADE
 62
     1
100
AcDbBlockReference
  2
AVE_GLOBAL
 10
163.839375876731
 20
-629.2364123446609
 30
0.0
 41
1.305150000000026
 42
1.305150000000026
 43
1.305150000000001
1001
AVE_MATERIAL
1002
{
1000
*GLOBAL*
1000
1
1000
Global finish.
1002
{
1002
}
1002
{
1070
    63
1002
{
1002
{
1010
-1.0
1020
-1.0
1030
-1.0
1002
}
1040
0.1000000014901161
1000

1040
0.0
1002
{
1002
}
1040
0.0
1002
{
1002
}
1040
0.0
1002
}
1002
{
1002
{
1010
-1.0
1020
-1.0
1030
-1.0
1002
}
1040
0.6999999880790711
1000

1040
0.0
1002
{
1002
}
1040
0.0
1002
{
1002
}
1040
0.0
1002
}
1002
{
1002
{
1010
-1.0
1020
-1.0
1030
-1.0
1002
}
1040
0.2000000029802322
1000

1040
0.0
1002
{
1002
}
1040
0.0
1002
{
1002
}
1040
0.0
1002
}
1002
{
1070
     0
1002
{
1070
     1
1002
{
1040
1.0
1040
1.0
1000

1040
0.0
1002
{
1002
}
1040
0.0
1002
{
1002
}
1040
0.0
1002
}
1002
}
1040
1.0
1040
0.0
1040
0.0
1002
}
1002
{
1040
1.0
1040
1.0
1000

1040
0.0
1002
{
1002
}
1040
0.0
1002
{
1002
}
1040
0.0
1002
}
1002
{
1040
0.5
1040
1.0
1000

1040
0.0
1002
{
1002
}
1040
0.0
1002
{
1002
}
1040
0.0
1002
}
1002
{
1070
     0
1040
0.0
1002
{
1002
}
1040
1.0
1002
{
1002
}
1040
0.0
1002
}
1002
{
1040
0.0
1002
{
1002
{
1010
0.0
1020
0.0
1030
0.0
1002
}
1040
1.0
1000

1040
0.0
1002
{
1002
}
1040
0.0
1002
{
1002
}
1040
0.0
1002
}
1002
}
1002
{
1002
{
1070
     1
1002
{
1040
0.0
1040
1.0
1000

1040
0.0
1002
{
1002
}
1040
0.0
1002
{
1002
}
1040
0.0
1002
}
1002
}
1040
0.0
1002
{
1002
}
1010
1.0
1020
0.0
1030
0.0
1010
0.0
1020
1.0
1030
0.0
1010
0.0
1020
0.0
1030
1.0
1070
     0
1002
}
1002
{
1002
{
1040
1.0
1040
1.0
1002
{
1070
     1
1002
{
1040
1.0
1040
1.0
1000

1040
0.0
1002
{
1002
}
1040
0.0
1002
{
1002
}
1040
0.0
1002
}
1002
}
1002
}
1070
     0
1040
0.0
1002
{
1002
}
1002
}
1002
{
1002
}
1002
}
1002
{
1071
        3
1070
     3
1070
     0
1002
{
1070
     2
1070
     0
1070
     0
1040
0.0
1002
}
1070
     0
1070
     2
1002
{
1002
}
1002
}
1002
{
1040
8030.0
1040
190.3000030517578
1040
0.3050000071525574
1040
228.0
1040
545.0
1040
14.0
1040
17.39999961853027
1040
0.4560000002384186
1002
}
1002
}
  0
INSERT
  5
F0FD
330
2
100
AcDbEntity
  8
ASHADE
 62
     1
100
AcDbBlockReference
  2
AVE_RENDER
 10
580.6091884466176
 20
16.47457181389745
 30
0.0
 41
0.3262875000000349
 42
0.3262875000000349
 43
0.3262875000000003
1001
AVE_RENDER
1002
{
1070
     6
1000
Pref
1070
    30
1070
    20
1070
     1
1070
     0
1000

1070
    10
1070
     1
1070
    30
1040
1.0
1070
     1
1040
0.3
1040
0.7
1040
0.0
1040
10.0
1010
-1.0
1020
-1.0
1030
-1.0
1040
0.3
1070
    49
1070
     0
1070
     0
1010
1.0
1020
1.0
1030
1.0
1040
45.0
1070
     1
1070
     0
1000
WCS
1040
0.0
1002
}
  0
INSERT
  5
F0FE
330
2
100
AcDbEntity
  8
ASHADE
 62
     3
100
AcDbBlockReference
  2
AVE_RENDER
 10
580.6091884466176
 20
16.47457181389745
 30
0.0
 41
0.3262875000000349
 42
0.3262875000000349
 43
0.3262875000000003
1001
AVE_RENDER
1002
{
1070
     0
1000
Full Opt
1070
     0
1070
     1
1070
     1
1070
     1
1070
     0
1070
     0
1070
     0
1070
     1
1070
     1
1040
0.0001
1040
0.0001
1002
}
  0
INSERT
  5
F0FF
330
2
100
AcDbEntity
  8
ASHADE
 62
     4
100
AcDbBlockReference
  2
AVE_RENDER
 10
580.6091884466176
 20
16.47457181389745
 30
0.0
 41
0.3262875000000349
 42
0.3262875000000349
 43
0.3262875000000003
1001
AVE_RENDER
1002
{
1070
     0
1000
Quick Opt
1070
     0
1070
     1
1070
     1
1070
     1
1070
     0
1070
     0
1070
     1
1002
}
  0
INSERT
  5
F100
330
2
100
AcDbEntity
  8
ASHADE
 62
     5
100
AcDbBlockReference
  2
AVE_RENDER
 10
580.6091884466176
 20
16.47457181389745
 30
0.0
 41
0.3262875000000349
 42
0.3262875000000349
 43
0.3262875000000003
1001
AVE_RENDER
1002
{
1070
     1
1000
Scanl Opt
1070
     2
1070
     0
1070
     2
1040
2.0
1040
4.0
1070
     0
1070
     1
1070
     0
1040
0.03
1002
}
  0
INSERT
  5
F101
330
2
100
AcDbEntity
  8
ASHADE
 62
     6
100
AcDbBlockReference
  2
AVE_RENDER
 10
580.6091884466176
 20
16.47457181389745
 30
0.0
 41
0.3262875000000349
 42
0.3262875000000349
 43
0.3262875000000003
1001
AVE_RENDER
1002
{
1070
     2
1000
Raytr Opt
1070
     2
1070
     0
1070
     2
1040
2.0
1040
4.0
1070
     0
1070
     1
1070
     1
1040
0.03
1070
     3
1040
0.03
1002
}
  0
INSERT
  5
F102
330
2
100
AcDbEntity
  8
ASHADE
 62
     7
100
AcDbBlockReference
  2
AVE_RENDER
 10
580.6091884466176
 20
16.47457181389745
 30
0.0
 41
0.3262875000000349
 42
0.3262875000000349
 43
0.3262875000000003
1001
AVE_RENDER
1002
{
1070
     0
1000
RFile Opt
1070
     5
1070
   640
1070
   480
1070
 10000
1070
     3
1070
    32
1070
    24
1070
     0
1070
     0
1070
     0
1070
     1
1070
     0
1070
     0
1070
     0
1002
}
  0
INSERT
  5
F103
330
2
100
AcDbEntity
  8
ASHADE
 62
     8
100
AcDbBlockReference
  2
AVE_RENDER
 10
580.6091884466176
 20
16.47457181389745
 30
0.0
 41
0.3262875000000349
 42
0.3262875000000349
 43
0.3262875000000003
1001
AVE_RENDER
1002
{
1070
     0
1000
Fog Opt
1070
     0
1070
     0
1040
0.0
1040
1.0
1040
0.0
1040
1.0
1010
0.5
1020
0.5
1030
0.5
1002
}
  0
INSERT
  5
F104
330
2
100
AcDbEntity
  8
ASHADE
 62
     9
100
AcDbBlockReference
  2
AVE_RENDER
 10
580.6091884466176
 20
16.47457181389745
 30
0.0
 41
0.3262875000000349
 42
0.3262875000000349
 43
0.3262875000000003
1001
AVE_RENDER
1002
{
1070
     0
1000
BG Opt
1070
     0
1070
     1
1010
0.0
1020
0.0
1030
0.0
1010
1.0
1020
0.0
1030
0.0
1010
0.0
1020
1.0
1030
0.0
1010
0.0
1020
0.0
1030
1.0
1040
0.5
1040
0.33
1040
0.0
1000

1070
     1
1000

1070
     1
1070
     1
1040
1.0
1040
1.0
1040
0.0
1040
0.0
1070
     0
1002
}
  0
INSERT
  5
F105
330
2
100
AcDbEntity
  8
ASHADE
 62
     1
100
AcDbBlockReference
  2
AVE_GLOBAL
 10
580.6091884466176
 20
16.47457181389745
 30
0.0
 41
0.3262875000000349
 42
0.3262875000000349
 43
0.3262875000000003
1001
AVE_MATERIAL
1002
{
1000
*GLOBAL*
1000
1
1000
Global finish.
1002
{
1002
}
1002
{
1070
    63
1002
{
1002
{
1010
-1.0
1020
-1.0
1030
-1.0
1002
}
1040
0.1000000014901161
1000

1040
0.0
1002
{
1002
}
1040
0.0
1002
{
1002
}
1040
0.0
1002
}
1002
{
1002
{
1010
-1.0
1020
-1.0
1030
-1.0
1002
}
1040
0.6999999880790711
1000

1040
0.0
1002
{
1002
}
1040
0.0
1002
{
1002
}
1040
0.0
1002
}
1002
{
1002
{
1010
-1.0
1020
-1.0
1030
-1.0
1002
}
1040
0.2000000029802322
1000

1040
0.0
1002
{
1002
}
1040
0.0
1002
{
1002
}
1040
0.0
1002
}
1002
{
1070
     0
1002
{
1070
     1
1002
{
1040
1.0
1040
1.0
1000

1040
0.0
1002
{
1002
}
1040
0.0
1002
{
1002
}
1040
0.0
1002
}
1002
}
1040
1.0
1040
0.0
1040
0.0
1002
}
1002
{
1040
1.0
1040
1.0
1000

1040
0.0
1002
{
1002
}
1040
0.0
1002
{
1002
}
1040
0.0
1002
}
1002
{
1040
0.5
1040
1.0
1000

1040
0.0
1002
{
1002
}
1040
0.0
1002
{
1002
}
1040
0.0
1002
}
1002
{
1070
     0
1040
0.0
1002
{
1002
}
1040
1.0
1002
{
1002
}
1040
0.0
1002
}
1002
{
1040
0.0
1002
{
1002
{
1010
0.0
1020
0.0
1030
0.0
1002
}
1040
1.0
1000

1040
0.0
1002
{
1002
}
1040
0.0
1002
{
1002
}
1040
0.0
1002
}
1002
}
1002
{
1002
{
1070
     1
1002
{
1040
0.0
1040
1.0
1000

1040
0.0
1002
{
1002
}
1040
0.0
1002
{
1002
}
1040
0.0
1002
}
1002
}
1040
0.0
1002
{
1002
}
1010
1.0
1020
0.0
1030
0.0
1010
0.0
1020
1.0
1030
0.0
1010
0.0
1020
0.0
1030
1.0
1070
     0
1002
}
1002
{
1002
{
1040
1.0
1040
1.0
1002
{
1070
     1
1002
{
1040
1.0
1040
1.0
1000

1040
0.0
1002
{
1002
}
1040
0.0
1002
{
1002
}
1040
0.0
1002
}
1002
}
1002
}
1070
     0
1040
0.0
1002
{
1002
}
1002
}
1002
{
1002
}
1002
}
1002
{
1071
        3
1070
     3
1070
     0
1002
{
1070
     2
1070
     0
1070
     0
1040
0.0
1002
}
1070
     0
1070
     2
1002
{
1002
}
1002
}
1002
{
1040
8030.0
1040
190.3000030517578
1040
0.3050000071525574
1040
228.0
1040
545.0
1040
14.0
1040
17.39999961853027
1040
0.4560000002384186
1002
}
1002
}
  0
LINE
  5
F520
330
2
100
AcDbEntity
  8
QUEEN
 62
     7
100
AcDbLine
 10
564.9681535508093
 20
256.2793993028845
 30
0.0
 11
562.4681535508093
 21
256.2793993028845
 31
0.0
  0
LINE
  5
F521
330
2
100
AcDbEntity
  8
QUEEN
 62
     7
100
AcDbLine
 10
561.4681535508093
 20
265.2793993028844
 30
0.0
 11
564.9681535508093
 21
265.2793993028844
 31
0.0
  0
LINE
  5
F522
330
2
100
AcDbEntity
  8
QUEEN
 62
     7
100
AcDbLine
 10
562.3761267601289
 20
264.5293993028845
 30
0.0
 11
564.9681535508093
 21
264.5293993028845
 31
0.0
  0
LINE
  5
F523
330
2
100
AcDbEntity
  8
QUEEN
 62
     7
100
AcDbLine
 10
563.0876652216674
 20
257.0293993028844
 30
0.0
 11
562.3761267601289
 21
264.5293993028845
 31
0.0
  0
LINE
  5
F524
330
2
100
AcDbEntity
  8
QUEEN
 62
     7
100
AcDbLine
 10
562.4681535508093
 20
256.2793993028845
 30
0.0
 11
563.0876652216674
 21
257.0293993028844
 31
0.0
  0
LWPOLYLINE
  5
F526
330
2
100
AcDbEntity
  8
QUEEN
 62
     7
100
AcDbPolyline
 90
        4
 70
     1
 43
0.12
 10
561.4681535508093
 20
265.2793993028844
 10
562.4681535508093
 20
256.2793993028845
 10
567.4681535508093
 20
256.2793993028845
 10
568.4681535508093
 20
265.2793993028844
  0
LINE
  5
F544
330
2
100
AcDbEntity
  8
QUEEN
 62
     7
100
AcDbLine
 10
562.4681535508093
 20
256.2793993028845
 30
0.0
 11
561.4681535508093
 21
265.2793993028844
 31
0.0
  0
LINE
  5
F545
330
2
100
AcDbEntity
  8
QUEEN
 62
     7
100
AcDbLine
 10
561.4681535508093
 20
265.2793993028844
 30
0.0
 11
562.3761267601289
 21
264.5293993028845
 31
0.0
  0
LINE
  5
F54B
330
2
100
AcDbEntity
  8
QUEEN
 62
     7
100
AcDbLine
 10
566.8486418799512
 20
257.0293993028844
 30
0.0
 11
567.5601803414897
 21
264.5293993028845
 31
0.0
  0
LINE
  5
F54D
330
2
100
AcDbEntity
  8
QUEEN
 62
     7
100
AcDbLine
 10
564.9681535508093
 20
257.0293993028844
 30
0.0
 11
563.0876652216674
 21
257.0293993028844
 31
0.0
  0
LINE
  5
F54E
330
2
100
AcDbEntity
  8
QUEEN
 62
     7
100
AcDbLine
 10
567.4681535508093
 20
256.2793993028845
 30
0.0
 11
566.8486418799512
 21
257.0293993028844
 31
0.0
  0
LINE
  5
F54F
330
2
100
AcDbEntity
  8
QUEEN
 62
     7
100
AcDbLine
 10
564.9681535508093
 20
257.0293993028844
 30
0.0
 11
566.8486418799512
 21
257.0293993028844
 31
0.0
  0
LINE
  5
F550
330
2
100
AcDbEntity
  8
QUEEN
 62
     7
100
AcDbLine
 10
564.9681535508093
 20
256.2793993028845
 30
0.0
 11
567.4681535508093
 21
256.2793993028845
 31
0.0
  0
LINE
  5
F551
330
2
100
AcDbEntity
  8
QUEEN
 62
     7
100
AcDbLine
 10
567.5601803414897
 20
264.5293993028845
 30
0.0
 11
564.9681535508093
 21
264.5293993028845
 31
0.0
  0
LINE
  5
F552
330
2
100
AcDbEntity
  8
QUEEN
 62
     7
100
AcDbLine
 10
567.4681535508093
 20
256.2793993028845
 30
0.0
 11
568.4681535508093
 21
265.2793993028844
 31
0.0
  0
LINE
  5
F553
330
2
100
AcDbEntity
  8
QUEEN
 62
     7
100
AcDbLine
 10
568.4681535508093
 20
265.2793993028844
 30
0.0
 11
567.5601803414897
 21
264.5293993028845
 31
0.0
  0
LINE
  5
F554
330
2
100
AcDbEntity
  8
QUEEN
 62
     7
100
AcDbLine
 10
568.4681535508093
 20
265.2793993028844
 30
0.0
 11
564.9681535508093
 21
265.2793993028844
 31
0.0
  0
INSERT
  5
F780
330
2
100
AcDbEntity
  8
ASHADE
 62
     1
100
AcDbBlockReference
  2
AVE_RENDER
 10
372.3128693329844
 20
-629.236412344661
 30
0.0
 41
1.305150000000026
 42
1.305150000000026
 43
1.305150000000001
1001
AVE_RENDER
1002
{
1070
     6
1000
Pref
1070
    30
1070
    20
1070
     1
1070
     0
1000

1070
    10
1070
     1
1070
    30
1040
1.0
1070
     1
1040
0.3
1040
0.7
1040
0.0
1040
10.0
1010
-1.0
1020
-1.0
1030
-1.0
1040
0.3
1070
    49
1070
     0
1070
     0
1010
1.0
1020
1.0
1030
1.0
1040
45.0
1070
     1
1070
     0
1000
WCS
1040
0.0
1002
}
  0
INSERT
  5
F781
330
2
100
AcDbEntity
  8
ASHADE
 62
     3
100
AcDbBlockReference
  2
AVE_RENDER
 10
372.3128693329844
 20
-629.236412344661
 30
0.0
 41
1.305150000000026
 42
1.305150000000026
 43
1.305150000000001
1001
AVE_RENDER
1002
{
1070
     0
1000
Full Opt
1070
     0
1070
     1
1070
     1
1070
     1
1070
     0
1070
     0
1070
     0
1070
     1
1070
     1
1040
0.0001
1040
0.0001
1002
}
  0
INSERT
  5
F782
330
2
100
AcDbEntity
  8
ASHADE
 62
     4
100
AcDbBlockReference
  2
AVE_RENDER
 10
372.3128693329844
 20
-629.236412344661
 30
0.0
 41
1.305150000000026
 42
1.305150000000026
 43
1.305150000000001
1001
AVE_RENDER
1002
{
1070
     0
1000
Quick Opt
1070
     0
1070
     1
1070
     1
1070
     1
1070
     0
1070
     0
1070
     1
1002
}
  0
INSERT
  5
F783
330
2
100
AcDbEntity
  8
ASHADE
 62
     5
100
AcDbBlockReference
  2
AVE_RENDER
 10
372.3128693329844
 20
-629.236412344661
 30
0.0
 41
1.305150000000026
 42
1.305150000000026
 43
1.305150000000001
1001
AVE_RENDER
1002
{
1070
     1
1000
Scanl Opt
1070
     2
1070
     0
1070
     2
1040
2.0
1040
4.0
1070
     0
1070
     1
1070
     0
1040
0.03
1002
}
  0
INSERT
  5
F784
330
2
100
AcDbEntity
  8
ASHADE
 62
     6
100
AcDbBlockReference
  2
AVE_RENDER
 10
372.3128693329844
 20
-629.236412344661
 30
0.0
 41
1.305150000000026
 42
1.305150000000026
 43
1.305150000000001
1001
AVE_RENDER
1002
{
1070
     2
1000
Raytr Opt
1070
     2
1070
     0
1070
     2
1040
2.0
1040
4.0
1070
     0
1070
     1
1070
     1
1040
0.03
1070
     3
1040
0.03
1002
}
  0
INSERT
  5
F785
330
2
100
AcDbEntity
  8
ASHADE
 62
     7
100
AcDbBlockReference
  2
AVE_RENDER
 10
372.3128693329844
 20
-629.236412344661
 30
0.0
 41
1.305150000000026
 42
1.305150000000026
 43
1.305150000000001
1001
AVE_RENDER
1002
{
1070
     0
1000
RFile Opt
1070
     5
1070
   640
1070
   480
1070
 10000
1070
     3
1070
    32
1070
    24
1070
     0
1070
     0
1070
     0
1070
     1
1070
     0
1070
     0
1070
     0
1002
}
  0
INSERT
  5
F786
330
2
100
AcDbEntity
  8
ASHADE
 62
     8
100
AcDbBlockReference
  2
AVE_RENDER
 10
372.3128693329844
 20
-629.236412344661
 30
0.0
 41
1.305150000000026
 42
1.305150000000026
 43
1.305150000000001
1001
AVE_RENDER
1002
{
1070
     0
1000
Fog Opt
1070
     0
1070
     0
1040
0.0
1040
1.0
1040
0.0
1040
1.0
1010
0.5
1020
0.5
1030
0.5
1002
}
  0
INSERT
  5
F787
330
2
100
AcDbEntity
  8
ASHADE
 62
     9
100
AcDbBlockReference
  2
AVE_RENDER
 10
372.3128693329844
 20
-629.236412344661
 30
0.0
 41
1.305150000000026
 42
1.305150000000026
 43
1.305150000000001
1001
AVE_RENDER
1002
{
1070
     0
1000
BG Opt
1070
     0
1070
     1
1010
0.0
1020
0.0
1030
0.0
1010
1.0
1020
0.0
1030
0.0
1010
0.0
1020
1.0
1030
0.0
1010
0.0
1020
0.0
1030
1.0
1040
0.5
1040
0.33
1040
0.0
1000

1070
     1
1000

1070
     1
1070
     1
1040
1.0
1040
1.0
1040
0.0
1040
0.0
1070
     0
1002
}
  0
INSERT
  5
F788
330
2
100
AcDbEntity
  8
ASHADE
 62
     1
100
AcDbBlockReference
  2
AVE_GLOBAL
 10
372.3128693329844
 20
-629.236412344661
 30
0.0
 41
1.305150000000026
 42
1.305150000000026
 43
1.305150000000001
1001
AVE_MATERIAL
1002
{
1000
*GLOBAL*
1000
1
1000
Global finish.
1002
{
1002
}
1002
{
1070
    63
1002
{
1002
{
1010
-1.0
1020
-1.0
1030
-1.0
1002
}
1040
0.1000000014901161
1000

1040
0.0
1002
{
1002
}
1040
0.0
1002
{
1002
}
1040
0.0
1002
}
1002
{
1002
{
1010
-1.0
1020
-1.0
1030
-1.0
1002
}
1040
0.6999999880790711
1000

1040
0.0
1002
{
1002
}
1040
0.0
1002
{
1002
}
1040
0.0
1002
}
1002
{
1002
{
1010
-1.0
1020
-1.0
1030
-1.0
1002
}
1040
0.2000000029802322
1000

1040
0.0
1002
{
1002
}
1040
0.0
1002
{
1002
}
1040
0.0
1002
}
1002
{
1070
     0
1002
{
1070
     1
1002
{
1040
1.0
1040
1.0
1000

1040
0.0
1002
{
1002
}
1040
0.0
1002
{
1002
}
1040
0.0
1002
}
1002
}
1040
1.0
1040
0.0
1040
0.0
1002
}
1002
{
1040
1.0
1040
1.0
1000

1040
0.0
1002
{
1002
}
1040
0.0
1002
{
1002
}
1040
0.0
1002
}
1002
{
1040
0.5
1040
1.0
1000

1040
0.0
1002
{
1002
}
1040
0.0
1002
{
1002
}
1040
0.0
1002
}
1002
{
1070
     0
1040
0.0
1002
{
1002
}
1040
1.0
1002
{
1002
}
1040
0.0
1002
}
1002
{
1040
0.0
1002
{
1002
{
1010
0.0
1020
0.0
1030
0.0
1002
}
1040
1.0
1000

1040
0.0
1002
{
1002
}
1040
0.0
1002
{
1002
}
1040
0.0
1002
}
1002
}
1002
{
1002
{
1070
     1
1002
{
1040
0.0
1040
1.0
1000

1040
0.0
1002
{
1002
}
1040
0.0
1002
{
1002
}
1040
0.0
1002
}
1002
}
1040
0.0
1002
{
1002
}
1010
1.0
1020
0.0
1030
0.0
1010
0.0
1020
1.0
1030
0.0
1010
0.0
1020
0.0
1030
1.0
1070
     0
1002
}
1002
{
1002
{
1040
1.0
1040
1.0
1002
{
1070
     1
1002
{
1040
1.0
1040
1.0
1000

1040
0.0
1002
{
1002
}
1040
0.0
1002
{
1002
}
1040
0.0
1002
}
1002
}
1002
}
1070
     0
1040
0.0
1002
{
1002
}
1002
}
1002
{
1002
}
1002
}
1002
{
1071
        3
1070
     3
1070
     0
1002
{
1070
     2
1070
     0
1070
     0
1040
0.0
1002
}
1070
     0
1070
     2
1002
{
1002
}
1002
}
1002
{
1040
8030.0
1040
190.3000030517578
1040
0.3050000071525574
1040
228.0
1040
545.0
1040
14.0
1040
17.39999961853027
1040
0.4560000002384186
1002
}
1002
}
  0
INSERT
  5
F789
330
2
100
AcDbEntity
  8
ASHADE
 62
     1
100
AcDbBlockReference
  2
AVE_RENDER
 10
784.3731119774168
 20
211.560800091514
 30
2.284012500000298
 41
1.305150000000026
 42
1.305150000000026
 43
1.305150000000001
1001
AVE_RENDER
1002
{
1070
     6
1000
Pref
1070
    30
1070
    20
1070
     1
1070
     0
1000

1070
    10
1070
     1
1070
    30
1040
1.0
1070
     1
1040
0.3
1040
0.7
1040
0.0
1040
10.0
1010
-1.0
1020
-1.0
1030
-1.0
1040
0.3
1070
    49
1070
     0
1070
     0
1010
1.0
1020
1.0
1030
1.0
1040
45.0
1070
     1
1070
     0
1000
WCS
1040
0.0
1002
}
  0
INSERT
  5
F78A
330
2
100
AcDbEntity
  8
ASHADE
 62
     3
100
AcDbBlockReference
  2
AVE_RENDER
 10
784.3731119774168
 20
211.560800091514
 30
2.284012500000298
 41
1.305150000000026
 42
1.305150000000026
 43
1.305150000000001
1001
AVE_RENDER
1002
{
1070
     0
1000
Full Opt
1070
     0
1070
     1
1070
     1
1070
     1
1070
     0
1070
     0
1070
     0
1070
     1
1070
     1
1040
0.0001
1040
0.0001
1002
}
  0
INSERT
  5
F78B
330
2
100
AcDbEntity
  8
ASHADE
 62
     4
100
AcDbBlockReference
  2
AVE_RENDER
 10
784.3731119774168
 20
211.560800091514
 30
2.284012500000298
 41
1.305150000000026
 42
1.305150000000026
 43
1.305150000000001
1001
AVE_RENDER
1002
{
1070
     0
1000
Quick Opt
1070
     0
1070
     1
1070
     1
1070
     1
1070
     0
1070
     0
1070
     1
1002
}
  0
INSERT
  5
F78C
330
2
100
AcDbEntity
  8
ASHADE
 62
     5
100
AcDbBlockReference
  2
AVE_RENDER
 10
784.3731119774168
 20
211.560800091514
 30
2.284012500000298
 41
1.305150000000026
 42
1.305150000000026
 43
1.305150000000001
1001
AVE_RENDER
1002
{
1070
     1
1000
Scanl Opt
1070
     2
1070
     0
1070
     2
1040
2.0
1040
4.0
1070
     0
1070
     1
1070
     0
1040
0.03
1002
}
  0
INSERT
  5
F78D
330
2
100
AcDbEntity
  8
ASHADE
 62
     6
100
AcDbBlockReference
  2
AVE_RENDER
 10
784.3731119774168
 20
211.560800091514
 30
2.284012500000298
 41
1.305150000000026
 42
1.305150000000026
 43
1.305150000000001
1001
AVE_RENDER
1002
{
1070
     2
1000
Raytr Opt
1070
     2
1070
     0
1070
     2
1040
2.0
1040
4.0
1070
     0
1070
     1
1070
     1
1040
0.03
1070
     3
1040
0.03
1002
}
  0
INSERT
  5
F78E
330
2
100
AcDbEntity
  8
ASHADE
 62
     7
100
AcDbBlockReference
  2
AVE_RENDER
 10
784.3731119774168
 20
211.560800091514
 30
2.284012500000298
 41
1.305150000000026
 42
1.305150000000026
 43
1.305150000000001
1001
AVE_RENDER
1002
{
1070
     0
1000
RFile Opt
1070
     5
1070
   640
1070
   480
1070
 10000
1070
     3
1070
    32
1070
    24
1070
     0
1070
     0
1070
     0
1070
     1
1070
     0
1070
     0
1070
     0
1002
}
  0
INSERT
  5
F78F
330
2
100
AcDbEntity
  8
ASHADE
 62
     8
100
AcDbBlockReference
  2
AVE_RENDER
 10
784.3731119774168
 20
211.560800091514
 30
2.284012500000298
 41
1.305150000000026
 42
1.305150000000026
 43
1.305150000000001
1001
AVE_RENDER
1002
{
1070
     0
1000
Fog Opt
1070
     0
1070
     0
1040
0.0
1040
1.0
1040
0.0
1040
1.0
1010
0.5
1020
0.5
1030
0.5
1002
}
  0
INSERT
  5
F790
330
2
100
AcDbEntity
  8
ASHADE
 62
     9
100
AcDbBlockReference
  2
AVE_RENDER
 10
784.3731119774168
 20
211.560800091514
 30
2.284012500000298
 41
1.305150000000026
 42
1.305150000000026
 43
1.305150000000001
1001
AVE_RENDER
1002
{
1070
     0
1000
BG Opt
1070
     0
1070
     1
1010
0.0
1020
0.0
1030
0.0
1010
1.0
1020
0.0
1030
0.0
1010
0.0
1020
1.0
1030
0.0
1010
0.0
1020
0.0
1030
1.0
1040
0.5
1040
0.33
1040
0.0
1000

1070
     1
1000

1070
     1
1070
     1
1040
1.0
1040
1.0
1040
0.0
1040
0.0
1070
     0
1002
}
  0
INSERT
  5
F791
330
2
100
AcDbEntity
  8
ASHADE
 62
     1
100
AcDbBlockReference
  2
AVE_GLOBAL
 10
784.3731119774168
 20
211.560800091514
 30
2.284012500000298
 41
1.305150000000026
 42
1.305150000000026
 43
1.305150000000001
1001
AVE_MATERIAL
1002
{
1000
*GLOBAL*
1000
1
1000
Global finish.
1002
{
1002
}
1002
{
1070
    63
1002
{
1002
{
1010
-1.0
1020
-1.0
1030
-1.0
1002
}
1040
0.1000000014901161
1000

1040
0.0
1002
{
1002
}
1040
0.0
1002
{
1002
}
1040
0.0
1002
}
1002
{
1002
{
1010
-1.0
1020
-1.0
1030
-1.0
1002
}
1040
0.6999999880790711
1000

1040
0.0
1002
{
1002
}
1040
0.0
1002
{
1002
}
1040
0.0
1002
}
1002
{
1002
{
1010
-1.0
1020
-1.0
1030
-1.0
1002
}
1040
0.2000000029802322
1000

1040
0.0
1002
{
1002
}
1040
0.0
1002
{
1002
}
1040
0.0
1002
}
1002
{
1070
     0
1002
{
1070
     1
1002
{
1040
1.0
1040
1.0
1000

1040
0.0
1002
{
1002
}
1040
0.0
1002
{
1002
}
1040
0.0
1002
}
1002
}
1040
1.0
1040
0.0
1040
0.0
1002
}
1002
{
1040
1.0
1040
1.0
1000

1040
0.0
1002
{
1002
}
1040
0.0
1002
{
1002
}
1040
0.0
1002
}
1002
{
1040
0.5
1040
1.0
1000

1040
0.0
1002
{
1002
}
1040
0.0
1002
{
1002
}
1040
0.0
1002
}
1002
{
1070
     0
1040
0.0
1002
{
1002
}
1040
1.0
1002
{
1002
}
1040
0.0
1002
}
1002
{
1040
0.0
1002
{
1002
{
1010
0.0
1020
0.0
1030
0.0
1002
}
1040
1.0
1000

1040
0.0
1002
{
1002
}
1040
0.0
1002
{
1002
}
1040
0.0
1002
}
1002
}
1002
{
1002
{
1070
     1
1002
{
1040
0.0
1040
1.0
1000

1040
0.0
1002
{
1002
}
1040
0.0
1002
{
1002
}
1040
0.0
1002
}
1002
}
1040
0.0
1002
{
1002
}
1010
1.0
1020
0.0
1030
0.0
1010
0.0
1020
1.0
1030
0.0
1010
0.0
1020
0.0
1030
1.0
1070
     0
1002
}
1002
{
1002
{
1040
1.0
1040
1.0
1002
{
1070
     1
1002
{
1040
1.0
1040
1.0
1000

1040
0.0
1002
{
1002
}
1040
0.0
1002
{
1002
}
1040
0.0
1002
}
1002
}
1002
}
1070
     0
1040
0.0
1002
{
1002
}
1002
}
1002
{
1002
}
1002
}
1002
{
1071
        3
1070
     3
1070
     0
1002
{
1070
     2
1070
     0
1070
     0
1040
0.0
1002
}
1070
     0
1070
     2
1002
{
1002
}
1002
}
1002
{
1040
8030.0
1040
190.3000030517578
1040
0.3050000071525574
1040
228.0
1040
545.0
1040
14.0
1040
17.39999961853027
1040
0.4560000002384186
1002
}
1002
}
  0
INSERT
  5
F796
330
2
100
AcDbEntity
  8
ASHADE
 62
     1
100
AcDbBlockReference
  2
AVE_RENDER
 10
-665.7366815394903
 20
-722.7568828897999
 30
-3.763544048676747
 41
1.305150000000026
 42
1.305150000000026
 43
1.305150000000001
1001
AVE_RENDER
1002
{
1070
     6
1000
Pref
1070
    30
1070
    20
1070
     1
1070
     0
1000

1070
    10
1070
     1
1070
    30
1040
1.0
1070
     1
1040
0.3
1040
0.7
1040
0.0
1040
10.0
1010
-1.0
1020
-1.0
1030
-1.0
1040
0.3
1070
    49
1070
     0
1070
     0
1010
1.0
1020
1.0
1030
1.0
1040
45.0
1070
     1
1070
     0
1000
WCS
1040
0.0
1002
}
  0
INSERT
  5
F797
330
2
100
AcDbEntity
  8
ASHADE
 62
     3
100
AcDbBlockReference
  2
AVE_RENDER
 10
-665.7366815394903
 20
-722.7568828897999
 30
-3.763544048676747
 41
1.305150000000026
 42
1.305150000000026
 43
1.305150000000001
1001
AVE_RENDER
1002
{
1070
     0
1000
Full Opt
1070
     0
1070
     1
1070
     1
1070
     1
1070
     0
1070
     0
1070
     0
1070
     1
1070
     1
1040
0.0001
1040
0.0001
1002
}
  0
INSERT
  5
F798
330
2
100
AcDbEntity
  8
ASHADE
 62
     4
100
AcDbBlockReference
  2
AVE_RENDER
 10
-665.7366815394903
 20
-722.7568828897999
 30
-3.763544048676747
 41
1.305150000000026
 42
1.305150000000026
 43
1.305150000000001
1001
AVE_RENDER
1002
{
1070
     0
1000
Quick Opt
1070
     0
1070
     1
1070
     1
1070
     1
1070
     0
1070
     0
1070
     1
1002
}
  0
INSERT
  5
F799
330
2
100
AcDbEntity
  8
ASHADE
 62
     5
100
AcDbBlockReference
  2
AVE_RENDER
 10
-665.7366815394903
 20
-722.7568828897999
 30
-3.763544048676747
 41
1.305150000000026
 42
1.305150000000026
 43
1.305150000000001
1001
AVE_RENDER
1002
{
1070
     1
1000
Scanl Opt
1070
     2
1070
     0
1070
     2
1040
2.0
1040
4.0
1070
     0
1070
     1
1070
     0
1040
0.03
1002
}
  0
INSERT
  5
F79A
330
2
100
AcDbEntity
  8
ASHADE
 62
     6
100
AcDbBlockReference
  2
AVE_RENDER
 10
-665.7366815394903
 20
-722.7568828897999
 30
-3.763544048676747
 41
1.305150000000026
 42
1.305150000000026
 43
1.305150000000001
1001
AVE_RENDER
1002
{
1070
     2
1000
Raytr Opt
1070
     2
1070
     0
1070
     2
1040
2.0
1040
4.0
1070
     0
1070
     1
1070
     1
1040
0.03
1070
     3
1040
0.03
1002
}
  0
INSERT
  5
F79B
330
2
100
AcDbEntity
  8
ASHADE
 62
     7
100
AcDbBlockReference
  2
AVE_RENDER
 10
-665.7366815394903
 20
-722.7568828897999
 30
-3.763544048676747
 41
1.305150000000026
 42
1.305150000000026
 43
1.305150000000001
1001
AVE_RENDER
1002
{
1070
     0
1000
RFile Opt
1070
     5
1070
   640
1070
   480
1070
 10000
1070
     3
1070
    32
1070
    24
1070
     0
1070
     0
1070
     0
1070
     1
1070
     0
1070
     0
1070
     0
1002
}
  0
INSERT
  5
F79C
330
2
100
AcDbEntity
  8
ASHADE
 62
     8
100
AcDbBlockReference
  2
AVE_RENDER
 10
-665.7366815394903
 20
-722.7568828897999
 30
-3.763544048676747
 41
1.305150000000026
 42
1.305150000000026
 43
1.305150000000001
1001
AVE_RENDER
1002
{
1070
     0
1000
Fog Opt
1070
     0
1070
     0
1040
0.0
1040
1.0
1040
0.0
1040
1.0
1010
0.5
1020
0.5
1030
0.5
1002
}
  0
INSERT
  5
F79D
330
2
100
AcDbEntity
  8
ASHADE
 62
     9
100
AcDbBlockReference
  2
AVE_RENDER
 10
-665.7366815394903
 20
-722.7568828897999
 30
-3.763544048676747
 41
1.305150000000026
 42
1.305150000000026
 43
1.305150000000001
1001
AVE_RENDER
1002
{
1070
     0
1000
BG Opt
1070
     0
1070
     1
1010
0.0
1020
0.0
1030
0.0
1010
1.0
1020
0.0
1030
0.0
1010
0.0
1020
1.0
1030
0.0
1010
0.0
1020
0.0
1030
1.0
1040
0.5
1040
0.33
1040
0.0
1000

1070
     1
1000

1070
     1
1070
     1
1040
1.0
1040
1.0
1040
0.0
1040
0.0
1070
     0
1002
}
  0
INSERT
  5
F79E
330
2
100
AcDbEntity
  8
ASHADE
 62
     1
100
AcDbBlockReference
  2
AVE_GLOBAL
 10
-665.7366815394903
 20
-722.7568828897999
 30
-3.763544048676747
 41
1.305150000000026
 42
1.305150000000026
 43
1.305150000000001
1001
AVE_MATERIAL
1002
{
1000
*GLOBAL*
1000
1
1000
Global finish.
1002
{
1002
}
1002
{
1070
    63
1002
{
1002
{
1010
-1.0
1020
-1.0
1030
-1.0
1002
}
1040
0.1000000014901161
1000

1040
0.0
1002
{
1002
}
1040
0.0
1002
{
1002
}
1040
0.0
1002
}
1002
{
1002
{
1010
-1.0
1020
-1.0
1030
-1.0
1002
}
1040
0.6999999880790711
1000

1040
0.0
1002
{
1002
}
1040
0.0
1002
{
1002
}
1040
0.0
1002
}
1002
{
1002
{
1010
-1.0
1020
-1.0
1030
-1.0
1002
}
1040
0.2000000029802322
1000

1040
0.0
1002
{
1002
}
1040
0.0
1002
{
1002
}
1040
0.0
1002
}
1002
{
1070
     0
1002
{
1070
     1
1002
{
1040
1.0
1040
1.0
1000

1040
0.0
1002
{
1002
}
1040
0.0
1002
{
1002
}
1040
0.0
1002
}
1002
}
1040
1.0
1040
0.0
1040
0.0
1002
}
1002
{
1040
1.0
1040
1.0
1000

1040
0.0
1002
{
1002
}
1040
0.0
1002
{
1002
}
1040
0.0
1002
}
1002
{
1040
0.5
1040
1.0
1000

1040
0.0
1002
{
1002
}
1040
0.0
1002
{
1002
}
1040
0.0
1002
}
1002
{
1070
     0
1040
0.0
1002
{
1002
}
1040
1.0
1002
{
1002
}
1040
0.0
1002
}
1002
{
1040
0.0
1002
{
1002
{
1010
0.0
1020
0.0
1030
0.0
1002
}
1040
1.0
1000

1040
0.0
1002
{
1002
}
1040
0.0
1002
{
1002
}
1040
0.0
1002
}
1002
}
1002
{
1002
{
1070
     1
1002
{
1040
0.0
1040
1.0
1000

1040
0.0
1002
{
1002
}
1040
0.0
1002
{
1002
}
1040
0.0
1002
}
1002
}
1040
0.0
1002
{
1002
}
1010
1.0
1020
0.0
1030
0.0
1010
0.0
1020
1.0
1030
0.0
1010
0.0
1020
0.0
1030
1.0
1070
     0
1002
}
1002
{
1002
{
1040
1.0
1040
1.0
1002
{
1070
     1
1002
{
1040
1.0
1040
1.0
1000

1040
0.0
1002
{
1002
}
1040
0.0
1002
{
1002
}
1040
0.0
1002
}
1002
}
1002
}
1070
     0
1040
0.0
1002
{
1002
}
1002
}
1002
{
1002
}
1002
}
1002
{
1071
        3
1070
     3
1070
     0
1002
{
1070
     2
1070
     0
1070
     0
1040
0.0
1002
}
1070
     0
1070
     2
1002
{
1002
}
1002
}
1002
{
1040
8030.0
1040
190.3000030517578
1040
0.3050000071525574
1040
228.0
1040
545.0
1040
14.0
1040
17.39999961853027
1040
0.4560000002384186
1002
}
1002
}
  0
INSERT
  5
F7AB
330
2
100
AcDbEntity
  8
ASHADE
 62
     1
100
AcDbBlockReference
  2
AVE_RENDER
 10
722.7568828897997
 20
-1480.989586647651
 30
-856.0734094938556
 41
1.305150000000001
 42
1.305150000000001
 43
1.305150000000026
 50
90.0
210
-1.0
220
0.0
230
0.0000000000000001
1001
AVE_RENDER
1002
{
1070
     6
1000
Pref
1070
    30
1070
    20
1070
     1
1070
     0
1000

1070
    10
1070
     1
1070
    30
1040
1.0
1070
     1
1040
0.3
1040
0.7
1040
0.0
1040
10.0
1010
-1.0
1020
-1.0
1030
-1.0
1040
0.3
1070
    49
1070
     0
1070
     0
1010
1.0
1020
1.0
1030
1.0
1040
45.0
1070
     1
1070
     0
1000
WCS
1040
0.0
1002
}
  0
INSERT
  5
F7AC
330
2
100
AcDbEntity
  8
ASHADE
 62
     3
100
AcDbBlockReference
  2
AVE_RENDER
 10
722.7568828897997
 20
-1480.989586647651
 30
-856.0734094938556
 41
1.305150000000001
 42
1.305150000000001
 43
1.305150000000026
 50
90.0
210
-1.0
220
0.0
230
0.0000000000000001
1001
AVE_RENDER
1002
{
1070
     0
1000
Full Opt
1070
     0
1070
     1
1070
     1
1070
     1
1070
     0
1070
     0
1070
     0
1070
     1
1070
     1
1040
0.0001
1040
0.0001
1002
}
  0
INSERT
  5
F7AD
330
2
100
AcDbEntity
  8
ASHADE
 62
     4
100
AcDbBlockReference
  2
AVE_RENDER
 10
722.7568828897997
 20
-1480.989586647651
 30
-856.0734094938556
 41
1.305150000000001
 42
1.305150000000001
 43
1.305150000000026
 50
90.0
210
-1.0
220
0.0
230
0.0000000000000001
1001
AVE_RENDER
1002
{
1070
     0
1000
Quick Opt
1070
     0
1070
     1
1070
     1
1070
     1
1070
     0
1070
     0
1070
     1
1002
}
  0
INSERT
  5
F7AE
330
2
100
AcDbEntity
  8
ASHADE
 62
     5
100
AcDbBlockReference
  2
AVE_RENDER
 10
722.7568828897997
 20
-1480.989586647651
 30
-856.0734094938556
 41
1.305150000000001
 42
1.305150000000001
 43
1.305150000000026
 50
90.0
210
-1.0
220
0.0
230
0.0000000000000001
1001
AVE_RENDER
1002
{
1070
     1
1000
Scanl Opt
1070
     2
1070
     0
1070
     2
1040
2.0
1040
4.0
1070
     0
1070
     1
1070
     0
1040
0.03
1002
}
  0
INSERT
  5
F7AF
330
2
100
AcDbEntity
  8
ASHADE
 62
     6
100
AcDbBlockReference
  2
AVE_RENDER
 10
722.7568828897997
 20
-1480.989586647651
 30
-856.0734094938556
 41
1.305150000000001
 42
1.305150000000001
 43
1.305150000000026
 50
90.0
210
-1.0
220
0.0
230
0.0000000000000001
1001
AVE_RENDER
1002
{
1070
     2
1000
Raytr Opt
1070
     2
1070
     0
1070
     2
1040
2.0
1040
4.0
1070
     0
1070
     1
1070
     1
1040
0.03
1070
     3
1040
0.03
1002
}
  0
INSERT
  5
F7B0
330
2
100
AcDbEntity
  8
ASHADE
 62
     7
100
AcDbBlockReference
  2
AVE_RENDER
 10
722.7568828897997
 20
-1480.989586647651
 30
-856.0734094938556
 41
1.305150000000001
 42
1.305150000000001
 43
1.305150000000026
 50
90.0
210
-1.0
220
0.0
230
0.0000000000000001
1001
AVE_RENDER
1002
{
1070
     0
1000
RFile Opt
1070
     5
1070
   640
1070
   480
1070
 10000
1070
     3
1070
    32
1070
    24
1070
     0
1070
     0
1070
     0
1070
     1
1070
     0
1070
     0
1070
     0
1002
}
  0
INSERT
  5
F7B1
330
2
100
AcDbEntity
  8
ASHADE
 62
     8
100
AcDbBlockReference
  2
AVE_RENDER
 10
722.7568828897997
 20
-1480.989586647651
 30
-856.0734094938556
 41
1.305150000000001
 42
1.305150000000001
 43
1.305150000000026
 50
90.0
210
-1.0
220
0.0
230
0.0000000000000001
1001
AVE_RENDER
1002
{
1070
     0
1000
Fog Opt
1070
     0
1070
     0
1040
0.0
1040
1.0
1040
0.0
1040
1.0
1010
0.5
1020
0.5
1030
0.5
1002
}
  0
INSERT
  5
F7B2
330
2
100
AcDbEntity
  8
ASHADE
 62
     9
100
AcDbBlockReference
  2
AVE_RENDER
 10
722.7568828897997
 20
-1480.989586647651
 30
-856.0734094938556
 41
1.305150000000001
 42
1.305150000000001
 43
1.305150000000026
 50
90.0
210
-1.0
220
0.0
230
0.0000000000000001
1001
AVE_RENDER
1002
{
1070
     0
1000
BG Opt
1070
     0
1070
     1
1010
0.0
1020
0.0
1030
0.0
1010
1.0
1020
0.0
1030
0.0
1010
0.0
1020
1.0
1030
0.0
1010
0.0
1020
0.0
1030
1.0
1040
0.5
1040
0.33
1040
0.0
1000

1070
     1
1000

1070
     1
1070
     1
1040
1.0
1040
1.0
1040
0.0
1040
0.0
1070
     0
1002
}
  0
INSERT
  5
F7B3
330
2
100
AcDbEntity
  8
ASHADE
 62
     1
100
AcDbBlockReference
  2
AVE_GLOBAL
 10
722.7568828897997
 20
-1480.989586647651
 30
-856.0734094938556
 41
1.305150000000001
 42
1.305150000000001
 43
1.305150000000026
 50
90.0
210
-1.0
220
0.0
230
0.0000000000000001
1001
AVE_MATERIAL
1002
{
1000
*GLOBAL*
1000
1
1000
Global finish.
1002
{
1002
}
1002
{
1070
    63
1002
{
1002
{
1010
-1.0
1020
-1.0
1030
-1.0
1002
}
1040
0.1000000014901161
1000

1040
0.0
1002
{
1002
}
1040
0.0
1002
{
1002
}
1040
0.0
1002
}
1002
{
1002
{
1010
-1.0
1020
-1.0
1030
-1.0
1002
}
1040
0.6999999880790711
1000

1040
0.0
1002
{
1002
}
1040
0.0
1002
{
1002
}
1040
0.0
1002
}
1002
{
1002
{
1010
-1.0
1020
-1.0
1030
-1.0
1002
}
1040
0.2000000029802322
1000

1040
0.0
1002
{
1002
}
1040
0.0
1002
{
1002
}
1040
0.0
1002
}
1002
{
1070
     0
1002
{
1070
     1
1002
{
1040
1.0
1040
1.0
1000

1040
0.0
1002
{
1002
}
1040
0.0
1002
{
1002
}
1040
0.0
1002
}
1002
}
1040
1.0
1040
0.0
1040
0.0
1002
}
1002
{
1040
1.0
1040
1.0
1000

1040
0.0
1002
{
1002
}
1040
0.0
1002
{
1002
}
1040
0.0
1002
}
1002
{
1040
0.5
1040
1.0
1000

1040
0.0
1002
{
1002
}
1040
0.0
1002
{
1002
}
1040
0.0
1002
}
1002
{
1070
     0
1040
0.0
1002
{
1002
}
1040
1.0
1002
{
1002
}
1040
0.0
1002
}
1002
{
1040
0.0
1002
{
1002
{
1010
0.0
1020
0.0
1030
0.0
1002
}
1040
1.0
1000

1040
0.0
1002
{
1002
}
1040
0.0
1002
{
1002
}
1040
0.0
1002
}
1002
}
1002
{
1002
{
1070
     1
1002
{
1040
0.0
1040
1.0
1000

1040
0.0
1002
{
1002
}
1040
0.0
1002
{
1002
}
1040
0.0
1002
}
1002
}
1040
0.0
1002
{
1002
}
1010
1.0
1020
0.0
1030
0.0
1010
0.0
1020
1.0
1030
0.0
1010
0.0
1020
0.0
1030
1.0
1070
     0
1002
}
1002
{
1002
{
1040
1.0
1040
1.0
1002
{
1070
     1
1002
{
1040
1.0
1040
1.0
1000

1040
0.0
1002
{
1002
}
1040
0.0
1002
{
1002
}
1040
0.0
1002
}
1002
}
1002
}
1070
     0
1040
0.0
1002
{
1002
}
1002
}
1002
{
1002
}
1002
}
1002
{
1071
        3
1070
     3
1070
     0
1002
{
1070
     2
1070
     0
1070
     0
1040
0.0
1002
}
1070
     0
1070
     2
1002
{
1002
}
1002
}
1002
{
1040
8030.0
1040
190.3000030517578
1040
0.3050000071525574
1040
228.0
1040
545.0
1040
14.0
1040
17.39999961853027
1040
0.4560000002384186
1002
}
1002
}
  0
INSERT
  5
F7B8
330
2
100
AcDbEntity
  8
ASHADE
 62
     1
100
AcDbBlockReference
  2
AVE_RENDER
 10
-211.560800091514
 20
-30.87979313074393
 30
-857.7901682849821
 41
1.305150000000001
 42
1.305150000000001
 43
1.305150000000026
 50
90.0
210
-1.0
220
0.0
230
0.0000000000000001
1001
AVE_RENDER
1002
{
1070
     6
1000
Pref
1070
    30
1070
    20
1070
     1
1070
     0
1000

1070
    10
1070
     1
1070
    30
1040
1.0
1070
     1
1040
0.3
1040
0.7
1040
0.0
1040
10.0
1010
-1.0
1020
-1.0
1030
-1.0
1040
0.3
1070
    49
1070
     0
1070
     0
1010
1.0
1020
1.0
1030
1.0
1040
45.0
1070
     1
1070
     0
1000
WCS
1040
0.0
1002
}
  0
INSERT
  5
F7B9
330
2
100
AcDbEntity
  8
ASHADE
 62
     3
100
AcDbBlockReference
  2
AVE_RENDER
 10
-211.560800091514
 20
-30.87979313074393
 30
-857.7901682849821
 41
1.305150000000001
 42
1.305150000000001
 43
1.305150000000026
 50
90.0
210
-1.0
220
0.0
230
0.0000000000000001
1001
AVE_RENDER
1002
{
1070
     0
1000
Full Opt
1070
     0
1070
     1
1070
     1
1070
     1
1070
     0
1070
     0
1070
     0
1070
     1
1070
     1
1040
0.0001
1040
0.0001
1002
}
  0
INSERT
  5
F7BA
330
2
100
AcDbEntity
  8
ASHADE
 62
     4
100
AcDbBlockReference
  2
AVE_RENDER
 10
-211.560800091514
 20
-30.87979313074393
 30
-857.7901682849821
 41
1.305150000000001
 42
1.305150000000001
 43
1.305150000000026
 50
90.0
210
-1.0
220
0.0
230
0.0000000000000001
1001
AVE_RENDER
1002
{
1070
     0
1000
Quick Opt
1070
     0
1070
     1
1070
     1
1070
     1
1070
     0
1070
     0
1070
     1
1002
}
  0
INSERT
  5
F7BB
330
2
100
AcDbEntity
  8
ASHADE
 62
     5
100
AcDbBlockReference
  2
AVE_RENDER
 10
-211.560800091514
 20
-30.87979313074393
 30
-857.7901682849821
 41
1.305150000000001
 42
1.305150000000001
 43
1.305150000000026
 50
90.0
210
-1.0
220
0.0
230
0.0000000000000001
1001
AVE_RENDER
1002
{
1070
     1
1000
Scanl Opt
1070
     2
1070
     0
1070
     2
1040
2.0
1040
4.0
1070
     0
1070
     1
1070
     0
1040
0.03
1002
}
  0
INSERT
  5
F7BC
330
2
100
AcDbEntity
  8
ASHADE
 62
     6
100
AcDbBlockReference
  2
AVE_RENDER
 10
-211.560800091514
 20
-30.87979313074393
 30
-857.7901682849821
 41
1.305150000000001
 42
1.305150000000001
 43
1.305150000000026
 50
90.0
210
-1.0
220
0.0
230
0.0000000000000001
1001
AVE_RENDER
1002
{
1070
     2
1000
Raytr Opt
1070
     2
1070
     0
1070
     2
1040
2.0
1040
4.0
1070
     0
1070
     1
1070
     1
1040
0.03
1070
     3
1040
0.03
1002
}
  0
INSERT
  5
F7BD
330
2
100
AcDbEntity
  8
ASHADE
 62
     7
100
AcDbBlockReference
  2
AVE_RENDER
 10
-211.560800091514
 20
-30.87979313074393
 30
-857.7901682849821
 41
1.305150000000001
 42
1.305150000000001
 43
1.305150000000026
 50
90.0
210
-1.0
220
0.0
230
0.0000000000000001
1001
AVE_RENDER
1002
{
1070
     0
1000
RFile Opt
1070
     5
1070
   640
1070
   480
1070
 10000
1070
     3
1070
    32
1070
    24
1070
     0
1070
     0
1070
     0
1070
     1
1070
     0
1070
     0
1070
     0
1002
}
  0
INSERT
  5
F7BE
330
2
100
AcDbEntity
  8
ASHADE
 62
     8
100
AcDbBlockReference
  2
AVE_RENDER
 10
-211.560800091514
 20
-30.87979313074393
 30
-857.7901682849821
 41
1.305150000000001
 42
1.305150000000001
 43
1.305150000000026
 50
90.0
210
-1.0
220
0.0
230
0.0000000000000001
1001
AVE_RENDER
1002
{
1070
     0
1000
Fog Opt
1070
     0
1070
     0
1040
0.0
1040
1.0
1040
0.0
1040
1.0
1010
0.5
1020
0.5
1030
0.5
1002
}
  0
INSERT
  5
F7BF
330
2
100
AcDbEntity
  8
ASHADE
 62
     9
100
AcDbBlockReference
  2
AVE_RENDER
 10
-211.560800091514
 20
-30.87979313074393
 30
-857.7901682849821
 41
1.305150000000001
 42
1.305150000000001
 43
1.305150000000026
 50
90.0
210
-1.0
220
0.0
230
0.0000000000000001
1001
AVE_RENDER
1002
{
1070
     0
1000
BG Opt
1070
     0
1070
     1
1010
0.0
1020
0.0
1030
0.0
1010
1.0
1020
0.0
1030
0.0
1010
0.0
1020
1.0
1030
0.0
1010
0.0
1020
0.0
1030
1.0
1040
0.5
1040
0.33
1040
0.0
1000

1070
     1
1000

1070
     1
1070
     1
1040
1.0
1040
1.0
1040
0.0
1040
0.0
1070
     0
1002
}
  0
INSERT
  5
F7C0
330
2
100
AcDbEntity
  8
ASHADE
 62
     1
100
AcDbBlockReference
  2
AVE_GLOBAL
 10
-211.560800091514
 20
-30.87979313074393
 30
-857.7901682849821
 41
1.305150000000001
 42
1.305150000000001
 43
1.305150000000026
 50
90.0
210
-1.0
220
0.0
230
0.0000000000000001
1001
AVE_MATERIAL
1002
{
1000
*GLOBAL*
1000
1
1000
Global finish.
1002
{
1002
}
1002
{
1070
    63
1002
{
1002
{
1010
-1.0
1020
-1.0
1030
-1.0
1002
}
1040
0.1000000014901161
1000

1040
0.0
1002
{
1002
}
1040
0.0
1002
{
1002
}
1040
0.0
1002
}
1002
{
1002
{
1010
-1.0
1020
-1.0
1030
-1.0
1002
}
1040
0.6999999880790711
1000

1040
0.0
1002
{
1002
}
1040
0.0
1002
{
1002
}
1040
0.0
1002
}
1002
{
1002
{
1010
-1.0
1020
-1.0
1030
-1.0
1002
}
1040
0.2000000029802322
1000

1040
0.0
1002
{
1002
}
1040
0.0
1002
{
1002
}
1040
0.0
1002
}
1002
{
1070
     0
1002
{
1070
     1
1002
{
1040
1.0
1040
1.0
1000

1040
0.0
1002
{
1002
}
1040
0.0
1002
{
1002
}
1040
0.0
1002
}
1002
}
1040
1.0
1040
0.0
1040
0.0
1002
}
1002
{
1040
1.0
1040
1.0
1000

1040
0.0
1002
{
1002
}
1040
0.0
1002
{
1002
}
1040
0.0
1002
}
1002
{
1040
0.5
1040
1.0
1000

1040
0.0
1002
{
1002
}
1040
0.0
1002
{
1002
}
1040
0.0
1002
}
1002
{
1070
     0
1040
0.0
1002
{
1002
}
1040
1.0
1002
{
1002
}
1040
0.0
1002
}
1002
{
1040
0.0
1002
{
1002
{
1010
0.0
1020
0.0
1030
0.0
1002
}
1040
1.0
1000

1040
0.0
1002
{
1002
}
1040
0.0
1002
{
1002
}
1040
0.0
1002
}
1002
}
1002
{
1002
{
1070
     1
1002
{
1040
0.0
1040
1.0
1000

1040
0.0
1002
{
1002
}
1040
0.0
1002
{
1002
}
1040
0.0
1002
}
1002
}
1040
0.0
1002
{
1002
}
1010
1.0
1020
0.0
1030
0.0
1010
0.0
1020
1.0
1030
0.0
1010
0.0
1020
0.0
1030
1.0
1070
     0
1002
}
1002
{
1002
{
1040
1.0
1040
1.0
1002
{
1070
     1
1002
{
1040
1.0
1040
1.0
1000

1040
0.0
1002
{
1002
}
1040
0.0
1002
{
1002
}
1040
0.0
1002
}
1002
}
1002
}
1070
     0
1040
0.0
1002
{
1002
}
1002
}
1002
{
1002
}
1002
}
1002
{
1071
        3
1070
     3
1070
     0
1002
{
1070
     2
1070
     0
1070
     0
1040
0.0
1002
}
1070
     0
1070
     2
1002
{
1002
}
1002
}
1002
{
1040
8030.0
1040
190.3000030517578
1040
0.3050000071525574
1040
228.0
1040
545.0
1040
14.0
1040
17.39999961853027
1040
0.4560000002384186
1002
}
1002
}
  0
INSERT
  5
F9A1
330
2
100
AcDbEntity
  8
ASHADE
 62
     1
100
AcDbBlockReference
  2
AVE_RENDER
 10
77.03899897126416
 20
-572.1833200155199
 30
0.0
1001
AVE_RENDER
1002
{
1070
     6
1000
Pref
1070
    30
1070
    20
1070
     1
1070
     0
1000

1070
    10
1070
     1
1070
    30
1040
1.0
1070
     1
1040
0.3
1040
0.7
1040
0.0
1040
10.0
1010
-1.0
1020
-1.0
1030
-1.0
1040
0.3
1070
    49
1070
     0
1070
     0
1010
1.0
1020
1.0
1030
1.0
1040
45.0
1070
     1
1070
     0
1000
WCS
1040
0.0
1002
}
  0
INSERT
  5
F9A2
330
2
100
AcDbEntity
  8
ASHADE
 62
     3
100
AcDbBlockReference
  2
AVE_RENDER
 10
77.03899897126416
 20
-572.1833200155199
 30
0.0
1001
AVE_RENDER
1002
{
1070
     0
1000
Full Opt
1070
     0
1070
     1
1070
     1
1070
     1
1070
     0
1070
     0
1070
     0
1070
     1
1070
     1
1040
0.0001
1040
0.0001
1002
}
  0
INSERT
  5
F9A3
330
2
100
AcDbEntity
  8
ASHADE
 62
     4
100
AcDbBlockReference
  2
AVE_RENDER
 10
77.03899897126416
 20
-572.1833200155199
 30
0.0
1001
AVE_RENDER
1002
{
1070
     0
1000
Quick Opt
1070
     0
1070
     1
1070
     1
1070
     1
1070
     0
1070
     0
1070
     1
1002
}
  0
INSERT
  5
F9A4
330
2
100
AcDbEntity
  8
ASHADE
 62
     5
100
AcDbBlockReference
  2
AVE_RENDER
 10
77.03899897126416
 20
-572.1833200155199
 30
0.0
1001
AVE_RENDER
1002
{
1070
     1
1000
Scanl Opt
1070
     2
1070
     0
1070
     2
1040
2.0
1040
4.0
1070
     0
1070
     1
1070
     0
1040
0.03
1002
}
  0
INSERT
  5
F9A5
330
2
100
AcDbEntity
  8
ASHADE
 62
     6
100
AcDbBlockReference
  2
AVE_RENDER
 10
77.03899897126416
 20
-572.1833200155199
 30
0.0
1001
AVE_RENDER
1002
{
1070
     2
1000
Raytr Opt
1070
     2
1070
     0
1070
     2
1040
2.0
1040
4.0
1070
     0
1070
     1
1070
     1
1040
0.03
1070
     3
1040
0.03
1002
}
  0
INSERT
  5
F9A6
330
2
100
AcDbEntity
  8
ASHADE
 62
     7
100
AcDbBlockReference
  2
AVE_RENDER
 10
77.03899897126416
 20
-572.1833200155199
 30
0.0
1001
AVE_RENDER
1002
{
1070
     0
1000
RFile Opt
1070
     5
1070
   640
1070
   480
1070
 10000
1070
     3
1070
    32
1070
    24
1070
     0
1070
     0
1070
     0
1070
     1
1070
     0
1070
     0
1070
     0
1002
}
  0
INSERT
  5
F9A7
330
2
100
AcDbEntity
  8
ASHADE
 62
     8
100
AcDbBlockReference
  2
AVE_RENDER
 10
77.03899897126416
 20
-572.1833200155199
 30
0.0
1001
AVE_RENDER
1002
{
1070
     0
1000
Fog Opt
1070
     0
1070
     0
1040
0.0
1040
1.0
1040
0.0
1040
1.0
1010
0.5
1020
0.5
1030
0.5
1002
}
  0
INSERT
  5
F9A8
330
2
100
AcDbEntity
  8
ASHADE
 62
     9
100
AcDbBlockReference
  2
AVE_RENDER
 10
77.03899897126416
 20
-572.1833200155199
 30
0.0
1001
AVE_RENDER
1002
{
1070
     0
1000
BG Opt
1070
     0
1070
     1
1010
0.0
1020
0.0
1030
0.0
1010
1.0
1020
0.0
1030
0.0
1010
0.0
1020
1.0
1030
0.0
1010
0.0
1020
0.0
1030
1.0
1040
0.5
1040
0.33
1040
0.0
1000

1070
     1
1000

1070
     1
1070
     1
1040
1.0
1040
1.0
1040
0.0
1040
0.0
1070
     0
1002
}
  0
INSERT
  5
F9A9
330
2
100
AcDbEntity
  8
ASHADE
 62
     1
100
AcDbBlockReference
  2
AVE_GLOBAL
 10
77.03899897126416
 20
-572.1833200155199
 30
0.0
1001
AVE_MATERIAL
1002
{
1000
*GLOBAL*
1000
1
1000
Global finish.
1002
{
1002
}
1002
{
1070
    63
1002
{
1002
{
1010
-1.0
1020
-1.0
1030
-1.0
1002
}
1040
0.1000000014901161
1000

1040
0.0
1002
{
1002
}
1040
0.0
1002
{
1002
}
1040
0.0
1002
}
1002
{
1002
{
1010
-1.0
1020
-1.0
1030
-1.0
1002
}
1040
0.6999999880790711
1000

1040
0.0
1002
{
1002
}
1040
0.0
1002
{
1002
}
1040
0.0
1002
}
1002
{
1002
{
1010
-1.0
1020
-1.0
1030
-1.0
1002
}
1040
0.2000000029802322
1000

1040
0.0
1002
{
1002
}
1040
0.0
1002
{
1002
}
1040
0.0
1002
}
1002
{
1070
     0
1002
{
1070
     1
1002
{
1040
1.0
1040
1.0
1000

1040
0.0
1002
{
1002
}
1040
0.0
1002
{
1002
}
1040
0.0
1002
}
1002
}
1040
1.0
1040
0.0
1040
0.0
1002
}
1002
{
1040
1.0
1040
1.0
1000

1040
0.0
1002
{
1002
}
1040
0.0
1002
{
1002
}
1040
0.0
1002
}
1002
{
1040
0.5
1040
1.0
1000

1040
0.0
1002
{
1002
}
1040
0.0
1002
{
1002
}
1040
0.0
1002
}
1002
{
1070
     0
1040
0.0
1002
{
1002
}
1040
1.0
1002
{
1002
}
1040
0.0
1002
}
1002
{
1040
0.0
1002
{
1002
{
1010
0.0
1020
0.0
1030
0.0
1002
}
1040
1.0
1000

1040
0.0
1002
{
1002
}
1040
0.0
1002
{
1002
}
1040
0.0
1002
}
1002
}
1002
{
1002
{
1070
     1
1002
{
1040
0.0
1040
1.0
1000

1040
0.0
1002
{
1002
}
1040
0.0
1002
{
1002
}
1040
0.0
1002
}
1002
}
1040
0.0
1002
{
1002
}
1010
1.0
1020
0.0
1030
0.0
1010
0.0
1020
1.0
1030
0.0
1010
0.0
1020
0.0
1030
1.0
1070
     0
1002
}
1002
{
1002
{
1040
1.0
1040
1.0
1002
{
1070
     1
1002
{
1040
1.0
1040
1.0
1000

1040
0.0
1002
{
1002
}
1040
0.0
1002
{
1002
}
1040
0.0
1002
}
1002
}
1002
}
1070
     0
1040
0.0
1002
{
1002
}
1002
}
1002
{
1002
}
1002
}
1002
{
1071
        3
1070
     3
1070
     0
1002
{
1070
     2
1070
     0
1070
     0
1040
0.0
1002
}
1070
     0
1070
     2
1002
{
1002
}
1002
}
1002
{
1040
8030.0
1040
190.3000030517578
1040
0.3050000071525574
1040
228.0
1040
545.0
1040
14.0
1040
17.39999961853027
1040
0.4560000002384186
1002
}
1002
}
  0
INSERT
  5
FB86
330
2
100
AcDbEntity
  8
ASHADE
 62
     1
100
AcDbBlockReference
  2
AVE_RENDER
 10
176.760173401079
 20
-573.2780972902929
 30
0.0
1001
AVE_RENDER
1002
{
1070
     6
1000
Pref
1070
    30
1070
    20
1070
     1
1070
     0
1000

1070
    10
1070
     1
1070
    30
1040
1.0
1070
     1
1040
0.3
1040
0.7
1040
0.0
1040
10.0
1010
-1.0
1020
-1.0
1030
-1.0
1040
0.3
1070
    49
1070
     0
1070
     0
1010
1.0
1020
1.0
1030
1.0
1040
45.0
1070
     1
1070
     0
1000
WCS
1040
0.0
1002
}
  0
INSERT
  5
FB87
330
2
100
AcDbEntity
  8
ASHADE
 62
     3
100
AcDbBlockReference
  2
AVE_RENDER
 10
176.760173401079
 20
-573.2780972902929
 30
0.0
1001
AVE_RENDER
1002
{
1070
     0
1000
Full Opt
1070
     0
1070
     1
1070
     1
1070
     1
1070
     0
1070
     0
1070
     0
1070
     1
1070
     1
1040
0.0001
1040
0.0001
1002
}
  0
INSERT
  5
FB88
330
2
100
AcDbEntity
  8
ASHADE
 62
     4
100
AcDbBlockReference
  2
AVE_RENDER
 10
176.760173401079
 20
-573.2780972902929
 30
0.0
1001
AVE_RENDER
1002
{
1070
     0
1000
Quick Opt
1070
     0
1070
     1
1070
     1
1070
     1
1070
     0
1070
     0
1070
     1
1002
}
  0
INSERT
  5
FB89
330
2
100
AcDbEntity
  8
ASHADE
 62
     5
100
AcDbBlockReference
  2
AVE_RENDER
 10
176.760173401079
 20
-573.2780972902929
 30
0.0
1001
AVE_RENDER
1002
{
1070
     1
1000
Scanl Opt
1070
     2
1070
     0
1070
     2
1040
2.0
1040
4.0
1070
     0
1070
     1
1070
     0
1040
0.03
1002
}
  0
INSERT
  5
FB8A
330
2
100
AcDbEntity
  8
ASHADE
 62
     6
100
AcDbBlockReference
  2
AVE_RENDER
 10
176.760173401079
 20
-573.2780972902929
 30
0.0
1001
AVE_RENDER
1002
{
1070
     2
1000
Raytr Opt
1070
     2
1070
     0
1070
     2
1040
2.0
1040
4.0
1070
     0
1070
     1
1070
     1
1040
0.03
1070
     3
1040
0.03
1002
}
  0
INSERT
  5
FB8B
330
2
100
AcDbEntity
  8
ASHADE
 62
     7
100
AcDbBlockReference
  2
AVE_RENDER
 10
176.760173401079
 20
-573.2780972902929
 30
0.0
1001
AVE_RENDER
1002
{
1070
     0
1000
RFile Opt
1070
     5
1070
   640
1070
   480
1070
 10000
1070
     3
1070
    32
1070
    24
1070
     0
1070
     0
1070
     0
1070
     1
1070
     0
1070
     0
1070
     0
1002
}
  0
INSERT
  5
FB8C
330
2
100
AcDbEntity
  8
ASHADE
 62
     8
100
AcDbBlockReference
  2
AVE_RENDER
 10
176.760173401079
 20
-573.2780972902929
 30
0.0
1001
AVE_RENDER
1002
{
1070
     0
1000
Fog Opt
1070
     0
1070
     0
1040
0.0
1040
1.0
1040
0.0
1040
1.0
1010
0.5
1020
0.5
1030
0.5
1002
}
  0
INSERT
  5
FB8D
330
2
100
AcDbEntity
  8
ASHADE
 62
     9
100
AcDbBlockReference
  2
AVE_RENDER
 10
176.760173401079
 20
-573.2780972902929
 30
0.0
1001
AVE_RENDER
1002
{
1070
     0
1000
BG Opt
1070
     0
1070
     1
1010
0.0
1020
0.0
1030
0.0
1010
1.0
1020
0.0
1030
0.0
1010
0.0
1020
1.0
1030
0.0
1010
0.0
1020
0.0
1030
1.0
1040
0.5
1040
0.33
1040
0.0
1000

1070
     1
1000

1070
     1
1070
     1
1040
1.0
1040
1.0
1040
0.0
1040
0.0
1070
     0
1002
}
  0
INSERT
  5
FB8E
330
2
100
AcDbEntity
  8
ASHADE
 62
     1
100
AcDbBlockReference
  2
AVE_GLOBAL
 10
176.760173401079
 20
-573.2780972902929
 30
0.0
1001
AVE_MATERIAL
1002
{
1000
*GLOBAL*
1000
1
1000
Global finish.
1002
{
1002
}
1002
{
1070
    63
1002
{
1002
{
1010
-1.0
1020
-1.0
1030
-1.0
1002
}
1040
0.1000000014901161
1000

1040
0.0
1002
{
1002
}
1040
0.0
1002
{
1002
}
1040
0.0
1002
}
1002
{
1002
{
1010
-1.0
1020
-1.0
1030
-1.0
1002
}
1040
0.6999999880790711
1000

1040
0.0
1002
{
1002
}
1040
0.0
1002
{
1002
}
1040
0.0
1002
}
1002
{
1002
{
1010
-1.0
1020
-1.0
1030
-1.0
1002
}
1040
0.2000000029802322
1000

1040
0.0
1002
{
1002
}
1040
0.0
1002
{
1002
}
1040
0.0
1002
}
1002
{
1070
     0
1002
{
1070
     1
1002
{
1040
1.0
1040
1.0
1000

1040
0.0
1002
{
1002
}
1040
0.0
1002
{
1002
}
1040
0.0
1002
}
1002
}
1040
1.0
1040
0.0
1040
0.0
1002
}
1002
{
1040
1.0
1040
1.0
1000

1040
0.0
1002
{
1002
}
1040
0.0
1002
{
1002
}
1040
0.0
1002
}
1002
{
1040
0.5
1040
1.0
1000

1040
0.0
1002
{
1002
}
1040
0.0
1002
{
1002
}
1040
0.0
1002
}
1002
{
1070
     0
1040
0.0
1002
{
1002
}
1040
1.0
1002
{
1002
}
1040
0.0
1002
}
1002
{
1040
0.0
1002
{
1002
{
1010
0.0
1020
0.0
1030
0.0
1002
}
1040
1.0
1000

1040
0.0
1002
{
1002
}
1040
0.0
1002
{
1002
}
1040
0.0
1002
}
1002
}
1002
{
1002
{
1070
     1
1002
{
1040
0.0
1040
1.0
1000

1040
0.0
1002
{
1002
}
1040
0.0
1002
{
1002
}
1040
0.0
1002
}
1002
}
1040
0.0
1002
{
1002
}
1010
1.0
1020
0.0
1030
0.0
1010
0.0
1020
1.0
1030
0.0
1010
0.0
1020
0.0
1030
1.0
1070
     0
1002
}
1002
{
1002
{
1040
1.0
1040
1.0
1002
{
1070
     1
1002
{
1040
1.0
1040
1.0
1000

1040
0.0
1002
{
1002
}
1040
0.0
1002
{
1002
}
1040
0.0
1002
}
1002
}
1002
}
1070
     0
1040
0.0
1002
{
1002
}
1002
}
1002
{
1002
}
1002
}
1002
{
1071
        3
1070
     3
1070
     0
1002
{
1070
     2
1070
     0
1070
     0
1040
0.0
1002
}
1070
     0
1070
     2
1002
{
1002
}
1002
}
1002
{
1040
8030.0
1040
190.3000030517578
1040
0.3050000071525574
1040
228.0
1040
545.0
1040
14.0
1040
17.39999961853027
1040
0.4560000002384186
1002
}
1002
}
  0
INSERT
  5
FB8F
330
2
100
AcDbEntity
  8
ASHADE
 62
     1
100
AcDbBlockReference
  2
AVE_RENDER
 10
-15.95240570776695
 20
-635.081546998775
 30
0.0
1001
AVE_RENDER
1002
{
1070
     7
1000
Pref
1070
    60
1070
    20
1070
     1
1070
     0
1000

1070
    10
1070
     1
1070
    30
1040
1.0
1070
     1
1040
0.3
1040
0.7
1040
0.0
1040
10.0
1010
-1.0
1020
-1.0
1030
-1.0
1040
1.0
1070
    49
1070
     0
1070
     0
1010
1.0
1020
1.0
1030
1.0
1040
45.0
1070
     1
1070
     0
1000
WCS
1040
0.0
1070
     0
1040
10.0
1002
}
  0
INSERT
  5
FB90
330
2
100
AcDbEntity
  8
ASHADE
 62
     3
100
AcDbBlockReference
  2
AVE_RENDER
 10
-15.95240570776695
 20
-635.081546998775
 30
0.0
1001
AVE_RENDER
1002
{
1070
     0
1000
Full Opt
1070
     0
1070
     1
1070
     1
1070
     1
1070
     0
1070
     0
1070
     0
1070
     1
1070
     1
1040
0.0001
1040
0.0001
1002
}
  0
INSERT
  5
FB91
330
2
100
AcDbEntity
  8
ASHADE
 62
     4
100
AcDbBlockReference
  2
AVE_RENDER
 10
-15.95240570776695
 20
-635.081546998775
 30
0.0
1001
AVE_RENDER
1002
{
1070
     0
1000
Quick Opt
1070
     0
1070
     1
1070
     1
1070
     1
1070
     0
1070
     0
1070
     1
1002
}
  0
INSERT
  5
FB92
330
2
100
AcDbEntity
  8
ASHADE
 62
     5
100
AcDbBlockReference
  2
AVE_RENDER
 10
-15.95240570776695
 20
-635.081546998775
 30
0.0
1001
AVE_RENDER
1002
{
1070
     1
1000
Scanl Opt
1070
     2
1070
     0
1070
     2
1040
2.0
1040
4.0
1070
     0
1070
     1
1070
     0
1040
0.03
1002
}
  0
INSERT
  5
FB93
330
2
100
AcDbEntity
  8
ASHADE
 62
     6
100
AcDbBlockReference
  2
AVE_RENDER
 10
-15.95240570776695
 20
-635.081546998775
 30
0.0
1001
AVE_RENDER
1002
{
1070
     2
1000
Raytr Opt
1070
     2
1070
     0
1070
     2
1040
2.0
1040
4.0
1070
     0
1070
     1
1070
     1
1040
0.03
1070
     3
1040
0.03
1002
}
  0
INSERT
  5
FB94
330
2
100
AcDbEntity
  8
ASHADE
 62
     7
100
AcDbBlockReference
  2
AVE_RENDER
 10
-15.95240570776695
 20
-635.081546998775
 30
0.0
1001
AVE_RENDER
1002
{
1070
     0
1000
RFile Opt
1070
     4
1070
  1024
1070
   768
1070
 10000
1070
     3
1070
     8
1070
     8
1070
     0
1070
     0
1070
     0
1070
     1
1070
     0
1070
     0
1070
     0
1002
}
  0
INSERT
  5
FB95
330
2
100
AcDbEntity
  8
ASHADE
 62
     8
100
AcDbBlockReference
  2
AVE_RENDER
 10
-15.95240570776695
 20
-635.081546998775
 30
0.0
1001
AVE_RENDER
1002
{
1070
     0
1000
Fog Opt
1070
     0
1070
     0
1040
0.0
1040
1.0
1040
0.0
1040
1.0
1010
0.5
1020
0.5
1030
0.5
1002
}
  0
INSERT
  5
FB96
330
2
100
AcDbEntity
  8
ASHADE
 62
     9
100
AcDbBlockReference
  2
AVE_RENDER
 10
-15.95240570776695
 20
-635.081546998775
 30
0.0
1001
AVE_RENDER
1002
{
1070
     0
1000
BG Opt
1070
     0
1070
     1
1010
0.0
1020
0.0
1030
0.0
1010
1.0
1020
0.0
1030
0.0
1010
0.0
1020
1.0
1030
0.0
1010
0.0
1020
0.0
1030
1.0
1040
0.5
1040
0.33
1040
0.0
1000

1070
     1
1000

1070
     1
1070
     1
1040
1.0
1040
1.0
1040
0.0
1040
0.0
1070
     0
1002
}
  0
INSERT
  5
FB97
330
2
100
AcDbEntity
  8
ASHADE
 62
     1
100
AcDbBlockReference
  2
AVE_GLOBAL
 10
-15.95240570776695
 20
-635.081546998775
 30
0.0
1001
AVE_MATERIAL
1002
{
1000
*GLOBAL*
1000
1
1000
Global finish.
1002
{
1002
}
1002
{
1070
    63
1002
{
1002
{
1010
-1.0
1020
-1.0
1030
-1.0
1002
}
1040
0.1000000014901161
1000

1040
0.0
1002
{
1002
}
1040
0.0
1002
{
1002
}
1040
0.0
1002
}
1002
{
1002
{
1010
-1.0
1020
-1.0
1030
-1.0
1002
}
1040
0.6999999880790711
1000

1040
0.0
1002
{
1002
}
1040
0.0
1002
{
1002
}
1040
0.0
1002
}
1002
{
1002
{
1010
-1.0
1020
-1.0
1030
-1.0
1002
}
1040
0.2000000029802322
1000

1040
0.0
1002
{
1002
}
1040
0.0
1002
{
1002
}
1040
0.0
1002
}
1002
{
1070
     0
1002
{
1070
     1
1002
{
1040
1.0
1040
1.0
1000

1040
0.0
1002
{
1002
}
1040
0.0
1002
{
1002
}
1040
0.0
1002
}
1002
}
1040
1.0
1040
0.0
1040
0.0
1002
}
1002
{
1040
1.0
1040
1.0
1000

1040
0.0
1002
{
1002
}
1040
0.0
1002
{
1002
}
1040
0.0
1002
}
1002
{
1040
0.5
1040
1.0
1000

1040
0.0
1002
{
1002
}
1040
0.0
1002
{
1002
}
1040
0.0
1002
}
1002
{
1070
     0
1040
0.0
1002
{
1002
}
1040
1.0
1002
{
1002
}
1040
0.0
1002
}
1002
{
1040
0.0
1002
{
1002
{
1010
0.0
1020
0.0
1030
0.0
1002
}
1040
1.0
1000

1040
0.0
1002
{
1002
}
1040
0.0
1002
{
1002
}
1040
0.0
1002
}
1002
}
1002
{
1002
{
1070
     1
1002
{
1040
0.0
1040
1.0
1000

1040
0.0
1002
{
1002
}
1040
0.0
1002
{
1002
}
1040
0.0
1002
}
1002
}
1040
0.0
1002
{
1002
}
1010
1.0
1020
0.0
1030
0.0
1010
0.0
1020
1.0
1030
0.0
1010
0.0
1020
0.0
1030
1.0
1070
     0
1002
}
1002
{
1002
{
1040
1.0
1040
1.0
1002
{
1070
     1
1002
{
1040
1.0
1040
1.0
1000

1040
0.0
1002
{
1002
}
1040
0.0
1002
{
1002
}
1040
0.0
1002
}
1002
}
1002
}
1070
     0
1040
0.0
1002
{
1002
}
1002
}
1002
{
1002
}
1002
}
1002
{
1071
        3
1070
     3
1070
     0
1002
{
1070
     2
1070
     0
1070
     0
1040
0.0
1002
}
1070
     0
1070
     2
1002
{
1002
}
1002
}
1002
{
1040
8030.0
1040
190.3000030517578
1040
0.3050000071525574
1040
228.0
1040
545.0
1040
14.0
1040
17.39999961853027
1040
0.4560000002384186
1002
}
1002
}
  0
INSERT
  5
FB98
330
2
100
AcDbEntity
  8
ASHADE
 62
     1
100
AcDbBlockReference
  2
AVE_RENDER
 10
459.9210683805508
 20
-0.6575810621056917
 30
0.0
 41
0.3480083857442651
 42
0.3480083857442651
 43
0.3480083857442348
1001
AVE_RENDER
1002
{
1070
     7
1000
Pref
1070
    30
1070
    20
1070
     1
1070
     0
1000

1070
    10
1070
     1
1070
    30
1040
1.0
1070
     1
1040
0.3
1040
0.7
1040
0.0
1040
10.0
1010
-1.0
1020
-1.0
1030
-1.0
1040
0.3
1070
    49
1070
     0
1070
     0
1010
1.0
1020
1.0
1030
1.0
1040
45.0
1070
     1
1070
     0
1000
WCS
1040
0.0
1070
     0
1040
10.0
1002
}
  0
INSERT
  5
FB99
330
2
100
AcDbEntity
  8
ASHADE
 62
     3
100
AcDbBlockReference
  2
AVE_RENDER
 10
459.9210683805508
 20
-0.6575810621056917
 30
0.0
 41
0.3480083857442651
 42
0.3480083857442651
 43
0.3480083857442348
1001
AVE_RENDER
1002
{
1070
     0
1000
Full Opt
1070
     0
1070
     1
1070
     1
1070
     1
1070
     0
1070
     0
1070
     0
1070
     1
1070
     1
1040
0.0001
1040
0.0001
1002
}
  0
INSERT
  5
FB9A
330
2
100
AcDbEntity
  8
ASHADE
 62
     4
100
AcDbBlockReference
  2
AVE_RENDER
 10
459.9210683805508
 20
-0.6575810621056917
 30
0.0
 41
0.3480083857442651
 42
0.3480083857442651
 43
0.3480083857442348
1001
AVE_RENDER
1002
{
1070
     0
1000
Quick Opt
1070
     0
1070
     1
1070
     1
1070
     1
1070
     0
1070
     0
1070
     1
1002
}
  0
INSERT
  5
FB9B
330
2
100
AcDbEntity
  8
ASHADE
 62
     5
100
AcDbBlockReference
  2
AVE_RENDER
 10
459.9210683805508
 20
-0.6575810621056917
 30
0.0
 41
0.3480083857442651
 42
0.3480083857442651
 43
0.3480083857442348
1001
AVE_RENDER
1002
{
1070
     1
1000
Scanl Opt
1070
     2
1070
     0
1070
     2
1040
2.0
1040
4.0
1070
     0
1070
     1
1070
     0
1040
0.03
1002
}
  0
INSERT
  5
FB9C
330
2
100
AcDbEntity
  8
ASHADE
 62
     6
100
AcDbBlockReference
  2
AVE_RENDER
 10
459.9210683805508
 20
-0.6575810621056917
 30
0.0
 41
0.3480083857442651
 42
0.3480083857442651
 43
0.3480083857442348
1001
AVE_RENDER
1002
{
1070
     2
1000
Raytr Opt
1070
     2
1070
     0
1070
     2
1040
2.0
1040
4.0
1070
     0
1070
     1
1070
     1
1040
0.03
1070
     3
1040
0.03
1002
}
  0
INSERT
  5
FB9D
330
2
100
AcDbEntity
  8
ASHADE
 62
     7
100
AcDbBlockReference
  2
AVE_RENDER
 10
459.9210683805508
 20
-0.6575810621056917
 30
0.0
 41
0.3480083857442651
 42
0.3480083857442651
 43
0.3480083857442348
1001
AVE_RENDER
1002
{
1070
     0
1000
RFile Opt
1070
     5
1070
   640
1070
   480
1070
 10000
1070
     3
1070
    32
1070
    24
1070
     0
1070
     0
1070
     0
1070
     1
1070
     0
1070
     0
1070
     0
1002
}
  0
INSERT
  5
FB9E
330
2
100
AcDbEntity
  8
ASHADE
 62
     8
100
AcDbBlockReference
  2
AVE_RENDER
 10
459.9210683805508
 20
-0.6575810621056917
 30
0.0
 41
0.3480083857442651
 42
0.3480083857442651
 43
0.3480083857442348
1001
AVE_RENDER
1002
{
1070
     0
1000
Fog Opt
1070
     0
1070
     0
1040
0.0
1040
1.0
1040
0.0
1040
1.0
1010
0.5
1020
0.5
1030
0.5
1002
}
  0
INSERT
  5
FB9F
330
2
100
AcDbEntity
  8
ASHADE
 62
     9
100
AcDbBlockReference
  2
AVE_RENDER
 10
459.9210683805508
 20
-0.6575810621056917
 30
0.0
 41
0.3480083857442651
 42
0.3480083857442651
 43
0.3480083857442348
1001
AVE_RENDER
1002
{
1070
     0
1000
BG Opt
1070
     0
1070
     1
1010
0.0
1020
0.0
1030
0.0
1010
1.0
1020
0.0
1030
0.0
1010
0.0
1020
1.0
1030
0.0
1010
0.0
1020
0.0
1030
1.0
1040
0.5
1040
0.33
1040
0.0
1000

1070
     1
1000

1070
     1
1070
     1
1040
1.0
1040
1.0
1040
0.0
1040
0.0
1070
     0
1002
}
  0
INSERT
  5
FBA0
330
2
100
AcDbEntity
  8
ASHADE
 62
     1
100
AcDbBlockReference
  2
AVE_GLOBAL
 10
459.9210683805508
 20
-0.6575810621056917
 30
0.0
 41
0.3480083857442651
 42
0.3480083857442651
 43
0.3480083857442348
1001
AVE_MATERIAL
1002
{
1000
*GLOBAL*
1000
1
1000
Global finish.
1002
{
1002
}
1002
{
1070
    63
1002
{
1002
{
1010
-1.0
1020
-1.0
1030
-1.0
1002
}
1040
0.1000000014901161
1000

1040
0.0
1002
{
1002
}
1040
0.0
1002
{
1002
}
1040
0.0
1002
}
1002
{
1002
{
1010
-1.0
1020
-1.0
1030
-1.0
1002
}
1040
0.6999999880790711
1000

1040
0.0
1002
{
1002
}
1040
0.0
1002
{
1002
}
1040
0.0
1002
}
1002
{
1002
{
1010
-1.0
1020
-1.0
1030
-1.0
1002
}
1040
0.2000000029802322
1000

1040
0.0
1002
{
1002
}
1040
0.0
1002
{
1002
}
1040
0.0
1002
}
1002
{
1070
     0
1002
{
1070
     1
1002
{
1040
1.0
1040
1.0
1000

1040
0.0
1002
{
1002
}
1040
0.0
1002
{
1002
}
1040
0.0
1002
}
1002
}
1040
1.0
1040
0.0
1040
0.0
1002
}
1002
{
1040
1.0
1040
1.0
1000

1040
0.0
1002
{
1002
}
1040
0.0
1002
{
1002
}
1040
0.0
1002
}
1002
{
1040
0.5
1040
1.0
1000

1040
0.0
1002
{
1002
}
1040
0.0
1002
{
1002
}
1040
0.0
1002
}
1002
{
1070
     0
1040
0.0
1002
{
1002
}
1040
1.0
1002
{
1002
}
1040
0.0
1002
}
1002
{
1040
0.0
1002
{
1002
{
1010
0.0
1020
0.0
1030
0.0
1002
}
1040
1.0
1000

1040
0.0
1002
{
1002
}
1040
0.0
1002
{
1002
}
1040
0.0
1002
}
1002
}
1002
{
1002
{
1070
     1
1002
{
1040
0.0
1040
1.0
1000

1040
0.0
1002
{
1002
}
1040
0.0
1002
{
1002
}
1040
0.0
1002
}
1002
}
1040
0.0
1002
{
1002
}
1010
1.0
1020
0.0
1030
0.0
1010
0.0
1020
1.0
1030
0.0
1010
0.0
1020
0.0
1030
1.0
1070
     0
1002
}
1002
{
1002
{
1040
1.0
1040
1.0
1002
{
1070
     1
1002
{
1040
1.0
1040
1.0
1000

1040
0.0
1002
{
1002
}
1040
0.0
1002
{
1002
}
1040
0.0
1002
}
1002
}
1002
}
1070
     0
1040
0.0
1002
{
1002
}
1002
}
1002
{
1002
}
1002
}
1002
{
1071
        3
1070
     3
1070
     0
1002
{
1070
     2
1070
     0
1070
     0
1040
0.0
1002
}
1070
     0
1070
     2
1002
{
1002
}
1002
}
1002
{
1040
8030.0
1040
190.3000030517578
1040
0.3050000071525574
1040
228.0
1040
545.0
1040
14.0
1040
17.39999961853027
1040
0.4560000002384186
1002
}
1002
}
  0
INSERT
  5
10F8D
330
2
100
AcDbEntity
  8
A1
 62
     7
100
AcDbBlockReference
 66
     1
  2
TSFORMA
 10
539.0276402718568
 20
232.8588714269831
 30
0.0
 41
1.0752
 42
1.0752
 43
1.0752
  0
ATTRIB
  5
10F8E
330
10F8D
100
AcDbEntity
  8
A1
 62
     1
100
AcDbText
 10
549.8284554357486
 20
234.0588833976108
 30
0.0
 40
0.5376000000000002
  1
TS0419
 72
     2
 11
552.8220225512695
 21
234.0588833976108
 31
0.0
100
AcDbAttribute
  2
XXXXXX
 70
     0
  0
ATTRIB
  5
10F8F
330
10F8D
100
AcDbEntity
  8
A1
 62
     1
100
AcDbText
 10
542.357231923587
 20
234.8621044031609
 30
0.0
 40
4.9056
  1
TS0419
  7
barcoder
 72
     1
 11
547.201511923587
 21
234.8621044031609
 31
0.0
100
AcDbAttribute
  2
BARCODE
 70
     0
  0
ATTRIB
  5
10F90
330
10F8D
100
AcDbEntity
  8
A1
 62
     1
100
AcDbText
 10
556.7758963785336
 20
233.5214249560271
 30
0.0
 40
0.8128511999999998
  1
KEY - %%P3 ENGINEER COURSES
 72
     1
 11
565.4320991646427
 21
233.5214249560271
 31
0.0
100
AcDbAttribute
  2
XXXXXX
 70
     0
  0
ATTRIB
  5
10F91
330
10F8D
100
AcDbEntity
  8
A1
 62
     1
100
AcDbText
 10
601.9939835164912
 20
239.2279747448277
 30
0.0
 40
0.7560000000000002
  1
33.18"
 72
     1
 11
603.8041507737554
 21
239.2279747448277
 31
0.0
100
AcDbAttribute
  2
XXXXX
 70
     0
  0
ATTRIB
  5
10F92
330
10F8D
100
AcDbEntity
  8
A1
 62
     1
100
AcDbText
 10
602.219274946866
 20
237.4082209681176
 30
0.0
 40
0.7560000000000002
  1
29.95
 72
     1
 11
603.7768171155407
 21
237.4082209681176
 31
0.0
100
AcDbAttribute
  2
XXXXX
 70
     0
  0
ATTRIB
  5
10F93
330
10F8D
100
AcDbEntity
  8
A1
 62
     1
100
AcDbText
 10
598.8129513742028
 20
279.83488187975
 30
0.0
 40
1.33056
  1
TS0419
 72
     1
 11
602.51749067966
 21
279.83488187975
 31
0.0
100
AcDbAttribute
  2
TS00XX
 70
     0
  0
SEQEND
  5
10F94
330
10F8D
100
AcDbEntity
  8
A1
 62
     7
  0
LWPOLYLINE
  5
12492
330
2
100
AcDbEntity
  8
A1
 62
     7
100
AcDbPolyline
 90
        6
 70
     1
 43
0.12
 10
583.2181535508093
 20
257.0293993028844
 10
582.4681535508093
 20
256.2793993028845
 10
579.4681535508093
 20
256.2793993028845
 10
579.4681535508093
 20
265.2793993028844
 10
582.4681535508093
 20
265.2793993028844
 10
583.2181535508093
 20
264.5293993028845
  0
DIMENSION
  5
124B3
330
2
100
AcDbEntity
  8
A1
 62
     7
100
AcDbDimension
  2
*D13
 10
587.1090128896883
 20
257.0293993028844
 30
0.0
 11
587.1090128896883
 21
259.4597567124041
 31
0.0
 70
   160
 71
     5
 42
0.75
  3
STANDARD
100
AcDbAlignedDimension
 13
582.4681535508093
 23
256.2793993028845
 33
0.0
 14
583.2181535508093
 24
257.0293993028844
 34
0.0
 50
90.0
100
AcDbRotatedDimension
1001
ACAD
1000
DSTYLE
1002
{
1070
    73
1070
     1
1070
    74
1070
     1
1070
    77
1070
     0
1070
   147
1040
0.5
1070
   279
1070
     1
1070
   288
1070
     1
1070
   289
1070
     1
1002
}
  0
DIMENSION
  5
124CF
330
2
100
AcDbEntity
  8
A1
 62
     7
100
AcDbDimension
  2
*D14
 10
574.7398423530036
 20
265.2793993028844
 30
0.0
 11
574.7398423530036
 21
260.9565442928527
 31
0.0
 70
   160
 71
     5
 42
9.0
  3
STANDARD
100
AcDbAlignedDimension
 13
567.4681535508093
 23
256.2793993028845
 33
0.0
 14
568.4681535508093
 24
265.2793993028844
 34
0.0
 50
90.0
100
AcDbRotatedDimension
1001
ACAD
1000
DSTYLE
1002
{
1070
    73
1070
     1
1070
    74
1070
     1
1070
    77
1070
     0
1070
   147
1040
0.5
1070
   279
1070
     1
1070
   288
1070
     1
1070
   289
1070
     1
1002
}
  0
DIMENSION
  5
124DD
330
2
100
AcDbEntity
  8
A1
 62
     7
100
AcDbDimension
  2
*D15
 10
567.4681535508093
 20
253.1732525199085
 30
0.0
 11
565.3555907956603
 21
253.1732525199085
 31
0.0
 70
   160
 71
     5
 42
5.0
  3
STANDARD
100
AcDbAlignedDimension
 13
562.4681535508093
 23
256.2793993028845
 33
0.0
 14
567.4681535508093
 24
256.2793993028845
 34
0.0
100
AcDbRotatedDimension
1001
ACAD
1000
DSTYLE
1002
{
1070
    73
1070
     1
1070
    74
1070
     1
1070
    77
1070
     0
1070
   147
1040
0.5
1070
   279
1070
     1
1070
   288
1070
     1
1070
   289
1070
     1
1002
}
  0
DIMENSION
  5
124EB
330
2
100
AcDbEntity
  8
A1
 62
     7
100
AcDbDimension
  2
*D16
 10
561.4681535508093
 20
269.0391926705396
 30
0.0
 11
565.255759073953
 21
269.0391926705396
 31
0.0
 70
   160
 71
     5
 42
7.0
  3
STANDARD
100
AcDbAlignedDimension
 13
568.4681535508093
 23
265.2793993028844
 33
0.0
 14
561.4681535508093
 24
265.2793993028844
 34
0.0
100
AcDbRotatedDimension
1001
ACAD
1000
DSTYLE
1002
{
1070
    73
1070
     1
1070
    74
1070
     1
1070
    77
1070
     0
1070
   147
1040
0.5
1070
   279
1070
     1
1070
   288
1070
     1
1070
   289
1070
     1
1002
}
  0
DIMENSION
  5
124F9
330
2
100
AcDbEntity
  8
A1
 62
     7
100
AcDbDimension
  2
*D17
 10
583.2181535508093
 20
251.576679708328
 30
0.0
 11
587.1190654806675
 21
251.576679708328
 31
0.0
 70
   160
 71
     5
 42
3.75
  3
STANDARD
100
AcDbAlignedDimension
 13
579.4681535508093
 23
256.2793993028845
 33
0.0
 14
583.2181535508093
 24
257.0293993028844
 34
0.0
100
AcDbRotatedDimension
1001
ACAD
1000
DSTYLE
1002
{
1070
    73
1070
     1
1070
    74
1070
     1
1070
    77
1070
     0
1070
   147
1040
0.5
1070
   279
1070
     1
1070
   288
1070
     1
1070
   289
1070
     1
1002
}
  0
DIMENSION
  5
12509
330
2
100
AcDbEntity
  8
A1
 62
     7
100
AcDbDimension
  2
*D18
 10
582.4681535508093
 20
253.6721814096089
 30
0.0
 11
585.7214114172141
 21
253.6721814096089
 31
0.0
 70
   160
 71
     5
 42
3.0
  3
STANDARD
100
AcDbAlignedDimension
 13
579.4681535508093
 23
256.2793993028845
 33
0.0
 14
582.4681535508093
 24
256.2793993028845
 34
0.0
100
AcDbRotatedDimension
1001
ACAD
1000
DSTYLE
1002
{
1070
    73
1070
     1
1070
    74
1070
     1
1070
    77
1070
     0
1070
   147
1040
0.5
1070
   279
1070
     1
1070
   288
1070
     1
1070
   289
1070
     1
1002
}
  0
INSERT
  5
1251D
330
2
100
AcDbEntity
  8
A1
 62
     7
100
AcDbBlockReference
 66
     1
  2
PROFILE LOGO
 10
579.895898864205
 20
258.3239073990631
 30
0.0
  0
ATTRIB
  5
1251E
330
1251D
100
AcDbEntity
  8
A1
 62
    22
100
AcDbText
 10
580.1782592177718
 20
256.6456091501565
 30
0.0
 40
0.2126953125
  1
0419
 72
     1
 11
580.574029269486
 21
256.6456091501565
 31
0.0
100
AcDbAttribute
  2
XXXX
 70
     0
  0
SEQEND
  5
1251F
330
1251D
100
AcDbEntity
  8
A1
 62
     7
  0
INSERT
  5
12578
330
2
100
AcDbEntity
  8
A1
 62
     7
100
AcDbBlockReference
 66
     1
  2
LINK FLAG
 10
568.4681535508093
 20
265.2793993028844
 30
0.0
 41
1.199999999999999
 42
1.199999999999999
 43
1.199999999999999
  0
ATTRIB
  5
12579
330
12578
100
AcDbEntity
  8
A1
 62
     1
100
AcDbText
 10
581.3783935207596
 20
271.2235599777831
 30
0.0
 40
1.199999999999999
  1
TS0419
100
AcDbAttribute
  2
XXXXXX
 70
     0
  0
SEQEND
  5
1257A
330
12578
100
AcDbEntity
  8
A1
 62
     7
  0
LINE
  5
125DA
330
2
100
AcDbEntity
  8
A1
 62
     7
100
AcDbLine
 10
561.4681535508093
 20
265.2793993028844
 30
0.0
 11
561.4681535508093
 21
263.7793993028844
 31
0.0
  0
LINE
  5
125FD
330
2
100
AcDbEntity
  8
A1
 62
     7
100
AcDbLine
 10
561.4681535508092
 20
262.7793993028844
 30
0.0
 11
561.4681535508091
 21
257.1808806681283
 31
0.0
  0
ARC
  5
125FE
330
2
100
AcDbEntity
  8
A1
 62
     7
100
AcDbCircle
 10
561.4681535508095
 20
265.2793993028844
 30
0.0
 40
7.848518634756064
100
AcDbArc
 50
262.6985619145891
 51
266.3492809572937
  0
ARC
  5
125FF
330
2
100
AcDbEntity
  8
A1
 62
     7
100
AcDbCircle
 10
561.4681535508095
 20
265.2793993028844
 30
0.0
 40
7.848518634756064
100
AcDbArc
 50
279.9909107886141
 51
283.6416298313187
  0
ARC
  5
12600
330
2
100
AcDbEntity
  8
A1
 62
     7
100
AcDbCircle
 10
561.4681535508095
 20
265.2793993028844
 30
0.0
 40
7.848518634756064
100
AcDbArc
 50
269.9999999999982
 51
276.3401917459095
  0
SOLID
  5
12601
330
2
100
AcDbEntity
  8
A1
 62
     7
100
AcDbTrace
 10
560.9710616996181
 20
257.5300982871472
 30
0.0
 11
560.9657528421628
 21
257.3635161938409
 31
0.0
 12
561.4681535508093
 22
257.4308806681283
 32
0.0
 13
561.4681535508093
 23
257.4308806681283
 33
0.0
  0
SOLID
  5
12602
330
2
100
AcDbEntity
  8
A1
 62
     7
100
AcDbTrace
 10
562.8416444953833
 20
257.4674127121854
 30
0.0
 11
562.8179721935283
 21
257.6323896799798
 31
0.0
 12
562.3348774410723
 22
257.4788842905176
 32
0.0
 13
562.3348774410723
 23
257.4788842905176
 33
0.0
  0
MTEXT
  5
12603
330
2
100
AcDbEntity
  8
A1
 62
     7
100
AcDbMText
 10
559.4348624660648
 20
257.4902997209886
 30
0.0
 40
1.0
 41
0.0
 71
     5
 72
     1
  1
6ƒ
 73
     1
 44
1.0
  0
LINE
  5
12605
330
2
100
AcDbEntity
  8
A1
 62
     7
100
AcDbLine
 10
582.4681535508093
 20
256.2793993028845
 30
0.0
 11
582.4681535508093
 21
265.2793993028844
 31
0.0
  0
ENDSEC
  0
SECTION
  2
OBJECTS
  0
DICTIONARY
  5
8
330
0
100
AcDbDictionary
281
     1
  3
ACAD_GROUP
350
21
  3
ACAD_LAYOUT
350
C
  3
ACAD_MLINESTYLE
350
22
  3
ACAD_PLOTSETTINGS
350
23
  3
ACAD_PLOTSTYLENAME
350
7
  3
AcDbVariableDictionary
350
118DA
  0
DICTIONARY
  5
3
330
2
100
AcDbDictionary
280
     1
281
     1
  0
DICTIONARY
  5
21
102
{ACAD_REACTORS
330
8
102
}
330
8
100
AcDbDictionary
281
     1
  0
DICTIONARY
  5
C
102
{ACAD_REACTORS
330
8
102
}
330
8
100
AcDbDictionary
281
     1
  3
Layout1
350
10
  3
Model
350
B
  0
DICTIONARY
  5
22
102
{ACAD_REACTORS
330
8
102
}
330
8
100
AcDbDictionary
281
     1
  3
STANDARD
350
25
  0
DICTIONARY
  5
23
102
{ACAD_REACTORS
330
8
102
}
330
8
100
AcDbDictionary
281
     1
  3
EXOT1
350
D3BB
  0
ACDBDICTIONARYWDFLT
  5
7
102
{ACAD_REACTORS
330
8
102
}
330
8
100
AcDbDictionary
281
     1
  3
Normal
350
6
100
AcDbDictionaryWithDefault
340
6
  0
DICTIONARY
  5
118DA
102
{ACAD_REACTORS
330
8
102
}
330
8
100
AcDbDictionary
281
     1
  3
SORTENTS
350
118DB
  0
LAYOUT
  5
10
102
{ACAD_REACTORS
330
C
102
}
330
C
100
AcDbPlotSettings
  1

  2
None
  4

  6

 40
0.0
 41
0.0
 42
0.0
 43
0.0
 44
0.0
 45
0.0
 46
0.0
 47
0.0
 48
0.0
 49
0.0
140
0.0
141
0.0
142
1.0
143
1.0
 70
   688
 72
     0
 73
     0
 74
     5
  7

 75
    16
147
1.0
148
0.0
149
0.0
100
AcDbLayout
  1
Layout1
 70
     1
 71
     1
 10
0.0
 20
0.0
 11
12.0
 21
9.0
 12
0.0
 22
0.0
 32
0.0
 14
1.000000000000000E+20
 24
1.000000000000000E+20
 34
1.000000000000000E+20
 15
-1.000000000000000E+20
 25
-1.000000000000000E+20
 35
-1.000000000000000E+20
146
0.0
 13
0.0
 23
0.0
 33
0.0
 16
1.0
 26
0.0
 36
0.0
 17
0.0
 27
1.0
 37
0.0
 76
     0
330
D
  0
LAYOUT
  5
B
102
{ACAD_REACTORS
330
C
102
}
330
C
100
AcDbPlotSettings
  1

  2
HP LaserJet 5.pc3
  4
Letter
  6

 40
7.143749713897705
 41
6.381738662719726
 42
7.14373779296875
 43
6.381744384765625
 44
215.8999938964843
 45
279.3999938964843
 46
0.0
 47
0.0
 48
603.4899851506333
 49
199.8350450038278
140
671.3252102950534
141
250.2978344405305
142
1.0
143
6.468215141670631
 70
 11952
 72
     0
 73
     1
 74
     1
  7

 75
     0
147
0.1546021550145465
148
-13690.05755312509
149
-5914.163255096244
100
AcDbLayout
  1
Model
 70
     1
 71
     0
 10
0.0
 20
0.0
 11
12.0
 21
9.0
 12
0.0
 22
0.0
 32
0.0
 14
0.0
 24
0.0
 34
0.0
 15
0.0
 25
0.0
 35
0.0
146
0.0
 13
0.0
 23
0.0
 33
0.0
 16
1.0
 26
0.0
 36
0.0
 17
0.0
 27
1.0
 37
0.0
 76
     0
330
2
  0
MLINESTYLE
  5
25
102
{ACAD_REACTORS
330
22
102
}
330
22
100
AcDbMlineStyle
  2
STANDARD
 70
     0
  3

 62
   256
 51
90.0
 52
90.0
 71
     2
 49
0.5
 62
   256
  6
BYLAYER
 49
-0.5
 62
   256
  6
BYLAYER
  0
PLOTSETTINGS
  5
D3BB
102
{ACAD_REACTORS
330
23
102
}
330
23
100
AcDbPlotSettings
  1
EXOT1
  2
none_device
  4
Letter_(8.50_x_11.00_Inches)
  6

 40
6.349999904632568
 41
6.349999904632568
 42
6.350006103515625
 43
6.350006103515625
 44
215.8999938964843
 45
279.3999938964843
 46
0.0
 47
0.0
 48
103.0850064956629
 49
-9.683547388295792
140
103.9154412227691
141
-9.137474670122287
142
1.0
143
6.008830949410951
 70
  1712
 72
     0
 73
     1
 74
     1
  7

 75
     0
147
0.1664217230305057
148
0.0244351407155108
149
0.0181773607759482
  0
ACDBPLACEHOLDER
  5
6
102
{ACAD_REACTORS
330
7
102
}
330
7
  0
DICTIONARYVAR
  5
118DB
102
{ACAD_REACTORS
330
118DA
102
}
330
118DA
100
DictionaryVariables
280
     0
  1
96
  0
ENDSEC
  0
EOF
