  0
SECTION
  2
HEADER
  9
$ACADVER
  1
AC1015
  9
$ACADMAINTVER
 70
     6
  9
$DWGCODEPAGE
  3
ANSI_1252
  9
$INSBASE
 10
0.0
 20
0.0
 30
0.0
  9
$EXTMIN
 10
385.6978801333955
 20
332.2349555819482
 30
0.0
  9
$EXTMAX
 10
438.6941497774737
 20
371.6590098293722
 30
0.0
  9
$LIMMIN
 10
0.0
 20
0.0
  9
$LIMMAX
 10
12.0
 20
9.0
  9
$ORTHOMODE
 70
     0
  9
$REGENMODE
 70
     1
  9
$FILLMODE
 70
     1
  9
$QTEXTMODE
 70
     0
  9
$MIRRTEXT
 70
     0
  9
$LTSCALE
 40
1.0
  9
$ATTMODE
 70
     2
  9
$TEXTSIZE
 40
1.0
  9
$TRACEWID
 40
0.05
  9
$TEXTSTYLE
  7
STANDARD
  9
$CLAYER
  8
A1
  9
$CELTYPE
  6
BYLAYER
  9
$CECOLOR
 62
     7
  9
$CELTSCALE
 40
1.0
  9
$DISPSILH
 70
     0
  9
$DIMSCALE
 40
1.0
  9
$DIMASZ
 40
0.5
  9
$DIMEXO
 40
1.0
  9
$DIMDLI
 40
0.0625
  9
$DIMRND
 40
0.0
  9
$DIMDLE
 40
0.0
  9
$DIMEXE
 40
0.25
  9
$DIMTP
 40
0.0
  9
$DIMTM
 40
0.0
  9
$DIMTXT
 40
1.0
  9
$DIMCEN
 40
0.0
  9
$DIMTSZ
 40
0.0
  9
$DIMTOL
 70
     0
  9
$DIMLIM
 70
     0
  9
$DIMTIH
 70
     1
  9
$DIMTOH
 70
     1
  9
$DIMSE1
 70
     0
  9
$DIMSE2
 70
     0
  9
$DIMTAD
 70
     0
  9
$DIMZIN
 70
     0
  9
$DIMBLK
  1

  9
$DIMASO
 70
     1
  9
$DIMSHO
 70
     1
  9
$DIMPOST
  1
"
  9
$DIMAPOST
  1

  9
$DIMALT
 70
     0
  9
$DIMALTD
 70
     0
  9
$DIMALTF
 40
25.4
  9
$DIMLFAC
 40
1.0
  9
$DIMTOFL
 70
     0
  9
$DIMTVP
 40
0.0
  9
$DIMTIX
 70
     0
  9
$DIMSOXD
 70
     0
  9
$DIMSAH
 70
     0
  9
$DIMBLK1
  1

  9
$DIMBLK2
  1

  9
$DIMSTYLE
  2
STANDARD
  9
$DIMCLRD
 70
     0
  9
$DIMCLRE
 70
     0
  9
$DIMCLRT
 70
     0
  9
$DIMTFAC
 40
0.125
  9
$DIMGAP
 40
0.5
  9
$DIMJUST
 70
     0
  9
$DIMSD1
 70
     0
  9
$DIMSD2
 70
     0
  9
$DIMTOLJ
 70
     1
  9
$DIMTZIN
 70
     0
  9
$DIMALTZ
 70
     2
  9
$DIMALTTZ
 70
     2
  9
$DIMUPT
 70
     1
  9
$DIMDEC
 70
     4
  9
$DIMTDEC
 70
     4
  9
$DIMALTU
 70
     2
  9
$DIMALTTD
 70
     0
  9
$DIMTXSTY
  7
STANDARD
  9
$DIMAUNIT
 70
     0
  9
$DIMADEC
 70
     0
  9
$DIMALTRND
 40
0.0
  9
$DIMAZIN
 70
     0
  9
$DIMDSEP
 70
    46
  9
$DIMATFIT
 70
     1
  9
$DIMFRAC
 70
     2
  9
$DIMLDRBLK
  1

  9
$DIMLUNIT
 70
     5
  9
$DIMLWD
 70
    -2
  9
$DIMLWE
 70
    -2
  9
$DIMTMOVE
 70
     1
  9
$LUNITS
 70
     5
  9
$LUPREC
 70
     4
  9
$SKETCHINC
 40
0.1
  9
$FILLETRAD
 40
0.0
  9
$AUNITS
 70
     0
  9
$AUPREC
 70
     1
  9
$MENU
  1
acad
  9
$ELEVATION
 40
0.0
  9
$PELEVATION
 40
0.0
  9
$THICKNESS
 40
0.0
  9
$LIMCHECK
 70
     0
  9
$CHAMFERA
 40
0.75
  9
$CHAMFERB
 40
0.75
  9
$CHAMFERC
 40
0.0
  9
$CHAMFERD
 40
0.0
  9
$SKPOLY
 70
     0
  9
$TDCREATE
 40
2451085.664838310
  9
$TDUCREATE
 40
2451085.831504977
  9
$TDUPDATE
 40
2451660.536795601
  9
$TDUUPDATE
 40
2451660.703462268
  9
$TDINDWG
 40
2.1247498843
  9
$TDUSRTIMER
 40
2.1247498843
  9
$USRTIMER
 70
     1
  9
$ANGBASE
 50
0.0
  9
$ANGDIR
 70
     0
  9
$PDMODE
 70
     0
  9
$PDSIZE
 40
0.0
  9
$PLINEWID
 40
0.0
  9
$SPLFRAME
 70
     0
  9
$SPLINETYPE
 70
     6
  9
$SPLINESEGS
 70
     8
  9
$HANDSEED
  5
81012
  9
$SURFTAB1
 70
     6
  9
$SURFTAB2
 70
     6
  9
$SURFTYPE
 70
     6
  9
$SURFU
 70
     6
  9
$SURFV
 70
     6
  9
$UCSBASE
  2

  9
$UCSNAME
  2

  9
$UCSORG
 10
0.0
 20
0.0
 30
0.0
  9
$UCSXDIR
 10
1.0
 20
0.0
 30
0.0
  9
$UCSYDIR
 10
0.0
 20
1.0
 30
0.0
  9
$UCSORTHOREF
  2

  9
$UCSORTHOVIEW
 70
     0
  9
$UCSORGTOP
 10
0.0
 20
0.0
 30
0.0
  9
$UCSORGBOTTOM
 10
0.0
 20
0.0
 30
0.0
  9
$UCSORGLEFT
 10
0.0
 20
0.0
 30
0.0
  9
$UCSORGRIGHT
 10
0.0
 20
0.0
 30
0.0
  9
$UCSORGFRONT
 10
0.0
 20
0.0
 30
0.0
  9
$UCSORGBACK
 10
0.0
 20
0.0
 30
0.0
  9
$PUCSBASE
  2

  9
$PUCSNAME
  2

  9
$PUCSORG
 10
0.0
 20
0.0
 30
0.0
  9
$PUCSXDIR
 10
1.0
 20
0.0
 30
0.0
  9
$PUCSYDIR
 10
0.0
 20
1.0
 30
0.0
  9
$PUCSORTHOREF
  2

  9
$PUCSORTHOVIEW
 70
     0
  9
$PUCSORGTOP
 10
0.0
 20
0.0
 30
0.0
  9
$PUCSORGBOTTOM
 10
0.0
 20
0.0
 30
0.0
  9
$PUCSORGLEFT
 10
0.0
 20
0.0
 30
0.0
  9
$PUCSORGRIGHT
 10
0.0
 20
0.0
 30
0.0
  9
$PUCSORGFRONT
 10
0.0
 20
0.0
 30
0.0
  9
$PUCSORGBACK
 10
0.0
 20
0.0
 30
0.0
  9
$USERI1
 70
     0
  9
$USERI2
 70
     0
  9
$USERI3
 70
     0
  9
$USERI4
 70
     0
  9
$USERI5
 70
     0
  9
$USERR1
 40
0.0
  9
$USERR2
 40
0.0
  9
$USERR3
 40
0.0
  9
$USERR4
 40
0.0
  9
$USERR5
 40
0.0
  9
$WORLDVIEW
 70
     1
  9
$SHADEDGE
 70
     1
  9
$SHADEDIF
 70
    70
  9
$TILEMODE
 70
     1
  9
$MAXACTVP
 70
    16
  9
$PINSBASE
 10
0.0
 20
0.0
 30
0.0
  9
$PLIMCHECK
 70
     0
  9
$PEXTMIN
 10
1.000000000000000E+20
 20
1.000000000000000E+20
 30
1.000000000000000E+20
  9
$PEXTMAX
 10
-1.000000000000000E+20
 20
-1.000000000000000E+20
 30
-1.000000000000000E+20
  9
$PLIMMIN
 10
0.0
 20
0.0
  9
$PLIMMAX
 10
12.0
 20
9.0
  9
$UNITMODE
 70
     0
  9
$VISRETAIN
 70
     0
  9
$PLINEGEN
 70
     0
  9
$PSLTSCALE
 70
     1
  9
$TREEDEPTH
 70
  3020
  9
$CMLSTYLE
  2
STANDARD
  9
$CMLJUST
 70
     0
  9
$CMLSCALE
 40
1.0
  9
$PROXYGRAPHICS
 70
     1
  9
$MEASUREMENT
 70
     0
  9
$CELWEIGHT
370
    -1
  9
$ENDCAPS
280
     0
  9
$JOINSTYLE
280
     0
  9
$LWDISPLAY
290
     0
  9
$INSUNITS
 70
     0
  9
$HYPERLINKBASE
  1

  9
$STYLESHEET
  1

  9
$XEDIT
290
     1
  9
$CEPSNTYPE
380
     0
  9
$PSTYLEMODE
290
     1
  9
$FINGERPRINTGUID
  2
{A6232B84-9B2E-11D3-8DA4-00A0C981A35F}
  9
$VERSIONGUID
  2
{383C3523-0C7A-11D4-8DA4-00A0C981A35F}
  9
$EXTNAMES
290
     1
  9
$PSVPSCALE
 40
0.0
  9
$OLESTARTUP
290
     0
  0
ENDSEC
  0
SECTION
  2
CLASSES
  0
CLASS
  1
DICTIONARYVAR
  2
AcDbDictionaryVar
  3
AutoCAD 2000
 90
    32768
280
     0
281
     0
  0
CLASS
  1
LWPOLYLINE
  2
AcDbPolyline
  3
AutoCAD 2000
 90
    32768
280
     0
281
     1
  0
CLASS
  1
RASTERVARIABLES
  2
AcDbRasterVariables
  3
ISM
 90
    32768
280
     0
281
     0
  0
CLASS
  1
ACDBDICTIONARYWDFLT
  2
AcDbDictionaryWithDefault
  3
AutoCAD 2000
 90
        0
280
     0
281
     0
  0
CLASS
  1
ACDBPLACEHOLDER
  2
AcDbPlaceHolder
  3
AutoCAD 2000
 90
        0
280
     0
281
     0
  0
CLASS
  1
LAYOUT
  2
AcDbLayout
  3
AutoCAD 2000
 90
        0
280
     0
281
     0
  0
CLASS
  1
ACME_DOCUMENT
  2
AcMeDbDoc
  3
AcMeServices
 90
    32768
280
     1
281
     0
  0
CLASS
  1
ACMESCOPE
  2
AcMeScope
  3
AcMeServices
 90
    32768
280
     1
281
     0
  0
CLASS
  1
ACMECOMMANDHISTORY
  2
AcMeCommandHistory
  3
AcMeServices
 90
    32768
280
     1
281
     0
  0
CLASS
  1
ACIMSYSVARMAN
  2
AcImSysVarManager
  3
AcMeServices
 90
    32768
280
     1
281
     0
  0
CLASS
  1
ACIMREALSYSVAR
  2
AcImRealSysVar
  3
AcMeServices
 90
    32768
280
     1
281
     0
  0
CLASS
  1
ACIMINTSYSVAR
  2
AcImIntSysVar
  3
AcMeServices
 90
    32768
280
     1
281
     0
  0
CLASS
  1
ACMEDRAWINGMAN
  2
AcMeDrawingMan
  3
AcMeServices
 90
    32768
280
     1
281
     0
  0
CLASS
  1
ACMEVIEW
  2
AcMeView
  3
AcMeServices
 90
    32768
280
     1
281
     0
  0
CLASS
  1
ACDBENTITYCACHE
  2
AcMeEntityCache
  3
AcMeServices
 90
    32768
280
     1
281
     0
  0
CLASS
  1
GSMANAGER
  2
AcMeGSManager
  3
AcMeServices
 90
    32768
280
     1
281
     0
  0
CLASS
  1
AmdtInternalReactor
  2
AmdtInternalReactor
  3
AcMeServices
 90
    32768
280
     1
281
     0
  0
CLASS
  1
ACMESTATEMGR
  2
AcMeStateMgr
  3
AcMeServices
 90
    32768
280
     1
281
     0
  0
CLASS
  1
ACGREFMASTER
  2
AcGrefMaster
  3
AcAttribServices
 90
    32768
280
     1
281
     0
  0
CLASS
  1
AM_DRAWING_MGR
  2
AcDmDwgMgr
  3
AcMechDwgViewMgmt
 90
    32768
280
     1
281
     0
  0
CLASS
  1
AM_DWG_DOCUMENT
  2
AcDmDwgDocument
  3
AcMechDwgViewMgmt
 90
    32768
280
     1
281
     0
  0
CLASS
  1
AM_DWG_SHEET
  2
AcDmSheet
  3
AcMechDwgViewMgmt
 90
    32768
280
     1
281
     0
  0
CLASS
  1
AM_VIEWDIMPARMAP
  2
AcDmViewDimParMap
  3
AcMechDwgViewMgmt
 90
    32768
280
     1
281
     0
  0
CLASS
  1
AM_DWGMGR_NAME
  2
AcDmDwgMgrName
  3
AcMechDwgViewMgmt
 90
    32768
280
     1
281
     0
  0
CLASS
  1
ACME_DATABASE
  2
AcMeDbDatabase
  3
AcMeServices
 90
    32768
280
     1
281
     0
  0
CLASS
  1
ACRFINSADJUSTERMGR
  2
AcRfInsAdjusterMgr
  3
AcMeServices
 90
    32768
280
     1
281
     0
  0
CLASS
  1
ACGREFMASTER
  2
AcGrefacadMaster
  3
AcGrefServices
 90
    32768
280
     1
281
     0
  0
CLASS
  1
AMDTMENUSTATEMGR
  2
AmdtMenuStateMgr
  3
McadcomServices
 90
    32768
280
     1
281
     0
  0
CLASS
  1
AMDTMCOMMENUSTATE
  2
AmdtMcomMenuState
  3
McadcomServices
 90
    32768
280
     1
281
     0
  0
CLASS
  1
ASAPP
  2
AcAsAppObject
  3
AutoSurfServices
 90
    32768
280
     1
281
     0
  0
CLASS
  1
IM_STATIC_MAN
  2
AcImStaticVarManager
  3
AcMeServices
 90
    32768
280
     1
281
     0
  0
CLASS
  1
ACIMSTRSYSVAR
  2
AcImStrSysVar
  3
AcMeServices
 90
    32768
280
     1
281
     0
  0
CLASS
  1
ACIMDBLSTATICVAR
  2
AcImDblStaticVar
  3
AcMeServices
 90
    32768
280
     1
281
     0
  0
CLASS
  1
ACIMSTRSTATICVAR
  2
AcImStrStaticVar
  3
AcMeServices
 90
    32768
280
     1
281
     0
  0
CLASS
  1
ACIMINTSTATICVAR
  2
AcImIntStaticVar
  3
AcMeServices
 90
    32768
280
     1
281
     0
  0
CLASS
  1
ACADGREFMODULE
  2
AcAdGrefModule
  3
AdGrefServices
 90
    32768
280
     1
281
     0
  0
CLASS
  1
AMIMASTER
  2
AmiMaster
  3
AmiServices
 90
    32768
280
     1
281
     0
  0
CLASS
  1
ACASGREFMASTER
  2
AcAsGrefMaster
  3
AutoSurfResolverServices
 90
    32768
280
     1
281
     0
  0
CLASS
  1
MAPIAMMOUDLE
  2
MApiAmModule
  3
MApiAmServices
 90
    32768
280
     1
281
     0
  0
CLASS
  1
AMDTDMMENUSTATE
  2
AmdtDmMenuState
  3
AcMechDwgViewMgmt
 90
    32768
280
     1
281
     0
  0
CLASS
  1
AMDTADMENUSTATE
  2
AmdtAdMenuState
  3
DesignerServices
 90
    32768
280
     1
281
     0
  0
CLASS
  1
ADAPPL
  2
AcAdAppl
  3
DesignerServices
 90
    32768
280
     1
281
     0
  0
CLASS
  1
DEPMGR
  2
AcAdDepMgr
  3
DesignerServices
 90
    32768
280
     1
281
     0
  0
CLASS
  1
PARAMMGR
  2
AcAdParamMgr
  3
DesignerServices
 90
    32768
280
     1
281
     0
  0
CLASS
  1
PARAMSCOPE
  2
AcAdParamScope
  3
DesignerServices
 90
    32768
280
     1
281
     0
  0
CLASS
  1
NAMEDAPPL
  2
AcAdNamedAppl
  3
DesignerServices
 90
    32768
280
     1
281
     0
  0
CLASS
  1
ADHNTMPLT
  2
AdHoleNoteTemplateMgr
  3
DesignerServices
 90
    32768
280
     1
281
     0
  0
CLASS
  1
AM_HNTEMPLATE_MGR_NAME
  2
AdHoleNoteTemplateMgrName
  3
DesignerServices
 90
    32768
280
     1
281
     0
  0
CLASS
  1
AMDTAMMENUSTATE
  2
AmdtAmMenuState
  3
DesignerAssemblies
 90
    32768
280
     1
281
     0
  0
CLASS
  1
ACAMPROJECT
  2
AcAmProject
  3
DesignerAssemblies
 90
    32768
280
     1
281
     0
  0
CLASS
  1
ACAMGRCOMPDEF
  2
AcAmGrCompDef
  3
DesignerAssemblies
 90
    32768
280
     1
281
     0
  0
CLASS
  1
ACCMCONTEXT
  2
AcCmContext
  3
DesignerAssemblies
 90
    32768
280
     1
281
     0
  0
CLASS
  1
ACAMCOMPDEF
  2
AcAmCompDef
  3
DesignerAssemblies
 90
    32768
280
     1
281
     0
  0
CLASS
  1
ACAMCOMPDEFMGR
  2
AcAmCompDefMgr
  3
DesignerAssemblies
 90
    32768
280
     1
281
     0
  0
CLASS
  1
AMCONTEXTMGR
  2
AcAmContextMgr
  3
DesignerAssemblies
 90
    32768
280
     1
281
     0
  0
CLASS
  1
ACAMCONTEXTMODELER
  2
AcAmContextModeler
  3
DesignerAssemblies
 90
    32768
280
     1
281
     0
  0
CLASS
  1
MAPIADMODULE
  2
MApiAdModule
  3
MApiAdServices
 90
    32768
280
     1
281
     0
  0
CLASS
  1
ACMDATADICTIONARY
  2
AcmDataDictionary
  3
"AcmSymBB|Product Description: AutoCAD Mechanical 2000|Company: Autodesk"
 90
    32768
280
     1
281
     0
  0
CLASS
  1
ACMDATAENTRYBLOCK
  2
AcmDataEntryBlock
  3
"AcmSymBB|Product Description: AutoCAD Mechanical 2000|Company: Autodesk"
 90
    32768
280
     1
281
     0
  0
CLASS
  1
AMDTBROWSERDBTAB
  2
AmdtBrowserDbTab
  3
McadcomServices
 90
    32768
280
     1
281
     0
  0
CLASS
  1
CBROWSERAPPOBJECT
  2
CBrowserAppObject
  3
McadcomServices
 90
    32768
280
     1
281
     0
  0
CLASS
  1
DM_PLACEHOLDER
  2
AcDmSelsetPlaceholder
  3
AcMechDwgViewMgmt
 90
    32768
280
     1
281
     0
  0
CLASS
  1
CATALOGSTATE
  2
AcAmCatalogState
  3
DesignerAssemblies
 90
    32768
280
     1
281
     0
  0
CLASS
  1
ACAMGRCOMPDEFSET
  2
AcAmGrCompDefSet
  3
DesignerAssemblies
 90
    32768
280
     1
281
     0
  0
CLASS
  1
AMGOBJPROPCFG
  2
AmgObjPropCfg
  3
"AmgLay|Product Description: AutoCAD Mechanical 2000|Company: Autodesk"
 90
    32769
280
     1
281
     0
  0
CLASS
  1
LAYER_INDEX
  2
AcDbLayerIndex
  3
AutoCAD 2000
 90
    32768
280
     0
281
     0
  0
CLASS
  1
IDBUFFER
  2
AcDbIdBuffer
  3
AutoCAD 2000
 90
    32768
280
     0
281
     0
  0
CLASS
  1
ACRFATTGENMGR
  2
AcRfAttGeneralMgr
  3
AcAttribServices
 90
    32768
280
     1
281
     0
  0
CLASS
  1
PLOTSETTINGS
  2
AcDbPlotSettings
  3
AutoCAD 2000
 90
        0
280
     0
281
     0
  0
CLASS
  1
LONG_TRANSACTION
  2
AcDbLongTransaction
  3
AutoCAD 2000
 90
    32768
280
     0
281
     0
  0
CLASS
  1
LWPOLYLINE
  2
AcDbPolyline
  3
AutoCAD 2000
 90
    32768
280
     0
281
     1
  0
CLASS
  1
HATCH
  2
AcDbHatch
  3
AutoCAD 2000
 90
    32768
280
     0
281
     1
  0
CLASS
  1
XRECORD
  2
AcDbXrecord
  3
AutoCAD 2000
 90
    32768
280
     0
281
     0
  0
ENDSEC
  0
SECTION
  2
TABLES
  0
TABLE
  2
VPORT
  5
1B
330
0
100
AcDbSymbolTable
 70
     2
  0
VPORT
  5
81011
330
1B
100
AcDbSymbolTableRecord
100
AcDbViewportTableRecord
  2
*Active
 70
     0
 10
0.0
 20
0.0
 11
1.0
 21
1.0
 12
476.6488883854247
 22
318.9151519810081
 13
0.0
 23
0.0
 14
1.0
 24
1.0
 15
0.0
 25
0.0
 16
0.0
 26
0.0
 36
1.0
 17
-64.46234487877643
 27
33.0238264231553
 37
6.148717398612387
 40
39.72692167023742
 41
1.413068844807467
 42
50.0
 43
-6.148717398612387
 44
-6.148717398612387
 50
0.0
 51
0.0
 71
     0
 72
 20000
 73
     1
 74
     1
 75
     0
 76
     0
 77
     0
 78
     2
281
     0
 65
     1
110
0.0
120
0.0
130
0.0
111
1.0
121
0.0
131
0.0
112
0.0
122
1.0
132
0.0
 79
     0
146
0.0
  0
ENDTAB
  0
TABLE
  2
LTYPE
  5
16
330
0
100
AcDbSymbolTable
 70
     2
  0
LTYPE
  5
17
330
16
100
AcDbSymbolTableRecord
100
AcDbLinetypeTableRecord
  2
BYBLOCK
 70
     0
  3

 72
    65
 73
     0
 40
0.0
  0
LTYPE
  5
18
330
16
100
AcDbSymbolTableRecord
100
AcDbLinetypeTableRecord
  2
BYLAYER
 70
     0
  3

 72
    65
 73
     0
 40
0.0
  0
LTYPE
  5
9
330
16
100
AcDbSymbolTableRecord
100
AcDbLinetypeTableRecord
  2
CONTINUOUS
 70
     0
  3
Solid line
 72
    65
 73
     0
 40
0.0
  0
LTYPE
  5
7A133
330
16
100
AcDbSymbolTableRecord
100
AcDbLinetypeTableRecord
  2
HIDDEN
 70
     0
  3
__ __ __ __ __ __ __ __ __ __ __ __ __ __ __ __
 72
    65
 73
     2
 40
0.375
 49
0.25
 74
     0
 49
-0.125
 74
     0
  0
ENDTAB
  0
TABLE
  2
LAYER
  5
11
330
0
100
AcDbSymbolTable
 70
     4
  0
LAYER
  5
5
330
11
100
AcDbSymbolTableRecord
100
AcDbLayerTableRecord
  2
0
 70
     0
 62
     7
  6
CONTINUOUS
370
    -3
390
6
  0
LAYER
  5
24
330
11
100
AcDbSymbolTableRecord
100
AcDbLayerTableRecord
  2
A1
 70
     0
 62
     7
  6
CONTINUOUS
370
    -3
390
6
  0
LAYER
  5
D2
330
11
100
AcDbSymbolTableRecord
100
AcDbLayerTableRecord
  2
DEFPOINTS
 70
     0
 62
     7
  6
CONTINUOUS
290
     0
370
    -3
390
6
  0
LAYER
  5
80F3D
330
11
100
AcDbSymbolTableRecord
100
AcDbLayerTableRecord
  2
LINEWORK
 70
     0
 62
    41
  6
CONTINUOUS
370
    -3
390
6
  0
ENDTAB
  0
TABLE
  2
STYLE
  5
12
330
0
100
AcDbSymbolTable
 70
     3
  0
STYLE
  5
13
330
12
100
AcDbSymbolTableRecord
100
AcDbTextStyleTableRecord
  2
STANDARD
 70
     0
 40
0.0
 41
1.0
 50
0.0
 71
     0
 42
1.0
  3
unvr55w.ttf
  4

1001
ACAD
1000
Univers
1071
       34
  0
STYLE
  5
80F3E
330
12
100
AcDbSymbolTableRecord
100
AcDbTextStyleTableRecord
  2
ROMANC
 70
     0
 40
0.0
 41
1.0
 50
0.0
 71
     0
 42
0.5
  3
TIMESBD.TTF
  4

1001
ACAD
1000
Times New Roman
1071
 33554450
  0
STYLE
  5
80F3F
330
12
100
AcDbSymbolTableRecord
100
AcDbTextStyleTableRecord
  2
barcoder
 70
     0
 40
0.0
 41
1.0
 50
0.0
 71
     0
 42
4.5625
  3
cw_barcd.ttf
  4

1001
ACAD
1000
Barcoder
1071
 33554434
  0
ENDTAB
  0
TABLE
  2
VIEW
  5
19
330
0
100
AcDbSymbolTable
 70
     0
  0
ENDTAB
  0
TABLE
  2
UCS
  5
1A
330
0
100
AcDbSymbolTable
 70
     0
  0
ENDTAB
  0
TABLE
  2
APPID
  5
1D
330
0
100
AcDbSymbolTable
 70
    17
  0
APPID
  5
14
330
1D
100
AcDbSymbolTableRecord
100
AcDbRegAppTableRecord
  2
ACAD
 70
     0
  0
APPID
  5
1BD0
330
1D
100
AcDbSymbolTableRecord
100
AcDbRegAppTableRecord
  2
GENIUS_GENDIM_13
 70
     0
  0
APPID
  5
1BD1
330
1D
100
AcDbSymbolTableRecord
100
AcDbRegAppTableRecord
  2
GENIUS_GENDTOL_13
 70
     0
  0
APPID
  5
1BD2
330
1D
100
AcDbSymbolTableRecord
100
AcDbRegAppTableRecord
  2
GENIUS_GE3DTOL_13
 70
     0
  0
APPID
  5
1BD3
330
1D
100
AcDbSymbolTableRecord
100
AcDbRegAppTableRecord
  2
MCAD_NO_VIS
 70
     0
  0
APPID
  5
1BD4
330
1D
100
AcDbSymbolTableRecord
100
AcDbRegAppTableRecord
  2
ACAD_TEMP_GRAPHIC
 70
     0
  0
APPID
  5
1BD5
330
1D
100
AcDbSymbolTableRecord
100
AcDbRegAppTableRecord
  2
AD_DRAW
 70
     0
  0
APPID
  5
1BD6
330
1D
100
AcDbSymbolTableRecord
100
AcDbRegAppTableRecord
  2
ACATTRIBSERVICES
 70
     0
  0
APPID
  5
1BD7
330
1D
100
AcDbSymbolTableRecord
100
AcDbRegAppTableRecord
  2
ASURF_PCURVE_APPNAME
 70
     0
  0
APPID
  5
1BD8
330
1D
100
AcDbSymbolTableRecord
100
AcDbRegAppTableRecord
  2
DESIGNERASSEMBLIES
 70
     0
  0
APPID
  5
1BD9
330
1D
100
AcDbSymbolTableRecord
100
AcDbRegAppTableRecord
  2
ACADM_DIM_EDIT
 70
     0
  0
APPID
  5
93F1
330
1D
100
AcDbSymbolTableRecord
100
AcDbRegAppTableRecord
  2
AVE_MATERIAL
 70
     0
  0
APPID
  5
7C0E8
330
1D
100
AcDbSymbolTableRecord
100
AcDbRegAppTableRecord
  2
AVE_RENDER
 70
     0
  0
APPID
  5
7C0E9
330
1D
100
AcDbSymbolTableRecord
100
AcDbRegAppTableRecord
  2
AVE_ENTITY_MATERIAL
 70
     0
  0
APPID
  5
7C0EA
330
1D
100
AcDbSymbolTableRecord
100
AcDbRegAppTableRecord
  2
AVE_FINISH
 70
     0
  0
APPID
  5
7C0EB
330
1D
100
AcDbSymbolTableRecord
100
AcDbRegAppTableRecord
  2
AVE_GLOBAL
 70
     0
  0
APPID
  5
7C0EC
330
1D
100
AcDbSymbolTableRecord
100
AcDbRegAppTableRecord
  2
DCO15
 70
     0
  0
ENDTAB
  0
TABLE
  2
DIMSTYLE
  5
1E
330
0
100
AcDbSymbolTable
 70
     1
100
AcDbDimStyleTable
 71
     0
  0
DIMSTYLE
105
1F
102
{ACAD_REACTORS
330
80E3B
330
80E4C
330
80E6A
330
80E78
330
80E88
330
80E99
330
80EAA
330
80F24
102
}
330
1E
100
AcDbSymbolTableRecord
100
AcDbDimStyleTableRecord
  2
STANDARD
 70
     0
  3
"
 41
0.5
 42
1.0
 43
0.0625
 44
0.25
 73
     0
 74
     0
 77
     3
140
1.0
141
0.0
146
0.125
147
0.125
171
     0
274
     0
276
     2
277
     5
285
     2
286
     2
289
     0
340
13
  0
ENDTAB
  0
TABLE
  2
BLOCK_RECORD
  5
1
330
0
100
AcDbSymbolTable
 70
    14
  0
BLOCK_RECORD
  5
2
102
{ACAD_XDICTIONARY
360
3
102
}
330
1
100
AcDbSymbolTableRecord
100
AcDbBlockTableRecord
  2
*MODEL_SPACE
340
B
  0
BLOCK_RECORD
  5
D
102
{ACAD_XDICTIONARY
360
80FA9
102
}
330
1
100
AcDbSymbolTableRecord
100
AcDbBlockTableRecord
  2
*PAPER_SPACE
340
10
  0
BLOCK_RECORD
  5
78F12
330
1
100
AcDbSymbolTableRecord
100
AcDbBlockTableRecord
  2
PROFILE LOGO
340
0
102
{BLKREFS
331
80E38
102
}
  0
BLOCK_RECORD
  5
7BB3B
330
1
100
AcDbSymbolTableRecord
100
AcDbBlockTableRecord
  2
*U1
340
0
102
{BLKREFS
331
7C12C
102
}
  0
BLOCK_RECORD
  5
7BB3E
330
1
100
AcDbSymbolTableRecord
100
AcDbBlockTableRecord
  2
*U2
340
0
102
{BLKREFS
331
7C12F
102
}
  0
BLOCK_RECORD
  5
7BB41
330
1
100
AcDbSymbolTableRecord
100
AcDbBlockTableRecord
  2
*U3
340
0
102
{BLKREFS
331
7C130
102
}
  0
BLOCK_RECORD
  5
7BB44
330
1
100
AcDbSymbolTableRecord
100
AcDbBlockTableRecord
  2
*U4
340
0
102
{BLKREFS
331
7C131
102
}
  0
BLOCK_RECORD
  5
80E3C
330
1
100
AcDbSymbolTableRecord
100
AcDbBlockTableRecord
  2
*D5
340
0
  0
BLOCK_RECORD
  5
80E4D
330
1
100
AcDbSymbolTableRecord
100
AcDbBlockTableRecord
  2
*D6
340
0
  0
BLOCK_RECORD
  5
80E6B
330
1
100
AcDbSymbolTableRecord
100
AcDbBlockTableRecord
  2
*D7
340
0
  0
BLOCK_RECORD
  5
80E79
330
1
100
AcDbSymbolTableRecord
100
AcDbBlockTableRecord
  2
*D8
340
0
  0
BLOCK_RECORD
  5
80E89
330
1
100
AcDbSymbolTableRecord
100
AcDbBlockTableRecord
  2
*D9
340
0
  0
BLOCK_RECORD
  5
80E9A
330
1
100
AcDbSymbolTableRecord
100
AcDbBlockTableRecord
  2
*D10
340
0
  0
BLOCK_RECORD
  5
80EAB
330
1
100
AcDbSymbolTableRecord
100
AcDbBlockTableRecord
  2
*D11
340
0
  0
BLOCK_RECORD
  5
80F25
330
1
100
AcDbSymbolTableRecord
100
AcDbBlockTableRecord
  2
*D12
340
0
  0
BLOCK_RECORD
  5
80F40
330
1
100
AcDbSymbolTableRecord
100
AcDbBlockTableRecord
  2
TSFORMB
340
0
102
{BLKREFS
331
80F6F
102
}
  0
ENDTAB
  0
ENDSEC
  0
SECTION
  2
BLOCKS
  0
BLOCK
  5
4
330
2
100
AcDbEntity
  8
0
100
AcDbBlockBegin
  2
*MODEL_SPACE
 70
     2
 10
0.0
 20
0.0
 30
0.0
  3
*MODEL_SPACE
  1

  0
ENDBLK
  5
A
330
2
100
AcDbEntity
  8
0
100
AcDbBlockEnd
  0
BLOCK
  5
E
330
D
100
AcDbEntity
 67
     1
  8
0
100
AcDbBlockBegin
  2
*PAPER_SPACE
 70
     0
 10
0.0
 20
0.0
 30
0.0
  3
*PAPER_SPACE
  1

  0
ENDBLK
  5
F
330
D
100
AcDbEntity
 67
     1
  8
0
100
AcDbBlockEnd
  0
BLOCK
  5
78F2B
330
78F12
100
AcDbEntity
  8
0
 62
     7
100
AcDbBlockBegin
  2
PROFILE LOGO
 70
     2
 10
0.0
 20
0.0
 30
0.0
  3
PROFILE LOGO
  1

  0
LINE
  5
78F13
330
78F12
100
AcDbEntity
  8
0
 62
    22
100
AcDbLine
 10
0.7459516636765642
 20
-0.415894330395318
 30
0.0
 11
0.74595166367655
 21
-1.12746688439163
 31
0.0
  0
LINE
  5
78F14
330
78F12
100
AcDbEntity
  8
0
 62
    22
100
AcDbLine
 10
0.5841942848079072
 20
-0.415894330395318
 30
0.0
 11
0.5841942848079072
 21
-1.12746688439163
 31
0.0
  0
HATCH
  5
78F15
330
78F12
100
AcDbEntity
  8
0
 62
    22
100
AcDbHatch
 10
0.0
 20
0.0
 30
0.0
210
0.0
220
0.0
230
1.0
  2
LINE
 70
     0
 71
     0
 91
        1
 92
       33
 93
       38
 72
     1
 10
1.115683196411978
 20
-0.1706330859717084
 11
0.2177636962628071
 21
-0.1706330859717084
 72
     1
 10
0.2177636962628213
 20
-0.1706330859717084
 11
0.2078601968792952
 21
-0.4246889457533243
 72
     1
 10
0.2078601968792952
 20
-0.4246889457533243
 11
0.2375709173007294
 21
-0.4246889457533243
 72
     1
 10
0.2375709173007294
 20
-0.4246889457533243
 11
0.2441732502230991
 21
-0.3817964654080939
 72
     1
 10
0.2441732502230991
 20
-0.3817964654080939
 11
0.254076749606611
 21
-0.3422032805409501
 72
     1
 10
0.2540767496066252
 20
-0.3422032805409501
 11
0.2738837483736916
 21
-0.3092090964125091
 72
     1
 10
0.2738837483736916
 20
-0.3092090964125091
 11
0.2969919136019428
 21
-0.2861130719066693
 72
     1
 10
0.296991913601957
 20
-0.2861130719066764
 11
0.3267026340234338
 21
-0.2663164794731259
 72
     1
 10
0.3267026340234196
 20
-0.2663164794731259
 11
0.356413132174012
 21
-0.2498193191118219
 72
     1
 10
0.356413132174012
 20
-0.2498193191118148
 11
0.3828224638634481
 21
-0.243220591561446
 72
     1
 10
0.3828224638634623
 20
-0.243220591561446
 11
0.4092320178237401
 21
-0.243220591561446
 72
     1
 10
0.4092320178237401
 20
-0.243220591561446
 11
0.4719541805861525
 21
-0.2465198870395469
 72
     1
 10
0.4719541805861525
 20
-0.2465198870395469
 11
0.514869566852326
 21
-0.2729153436176332
 72
     1
 10
0.514869566852326
 20
-0.2729153436176332
 11
0.5742905631535394
 21
-0.3389038484686964
 72
     1
 10
0.5742905631535394
 20
-0.3389038484687106
 11
0.5907966177302626
 21
-0.3916947616248691
 72
     1
 10
0.5907966177302768
 20
-0.3916947616248691
 11
0.5907966177302768
 21
-1.157161773041991
 72
     1
 10
0.5907966177302768
 20
-1.157161773041984
 11
0.5643870637699991
 21
-1.203353685459461
 72
     1
 10
0.5643870637699849
 20
-1.203353685459468
 11
0.4983637345463876
 21
-1.226449709965308
 72
     1
 10
0.4983637345464019
 20
-1.226449709965301
 11
0.4389425159743326
 21
-1.226449709965301
 72
     1
 10
0.4389425159743326
 20
-1.226449709965301
 11
0.4323401830519913
 21
-1.249545734471119
 72
     1
 10
0.4323401830520055
 20
-1.249545734471134
 11
0.8945045989712809
 21
-1.249545734471134
 72
     1
 10
0.8945045989712667
 20
-1.249545734471134
 11
0.8945045989712667
 21
-1.226449709965315
 72
     1
 10
0.8945045989712667
 20
-1.226449709965301
 11
0.8152763816321311
 21
-1.226449709965301
 72
     1
 10
0.8152763816321311
 20
-1.226449709965301
 11
0.7525539965988913
 21
-1.186856661692324
 72
     1
 10
0.7525539965988913
 20
-1.186856661692324
 11
0.7426504972153794
 21
-1.140664612680659
 72
     1
 10
0.7426504972153652
 20
-1.140664612680673
 11
0.7393493307541803
 21
-0.394994193697137
 72
     1
 10
0.7393493307541803
 20
-0.394994193697137
 11
0.7558551630600619
 21
-0.3389038484687106
 72
     1
 10
0.7558551630600761
 20
-0.3389038484687106
 11
0.7987705493262496
 21
-0.2828136398344298
 72
     1
 10
0.7987705493262496
 20
-0.2828136398344227
 11
0.8614929343594894
 21
-0.2498193191118148
 72
     1
 10
0.8614929343594894
 20
-0.2498193191118148
 11
0.9374197629665985
 21
-0.2399211594891923
 72
     1
 10
0.9374197629665985
 20
-0.2399211594891923
 11
1.010045647383407
 21
-0.2663164794731117
 72
     1
 10
1.010045647383407
 20
-0.2663164794731259
 11
1.056262200110722
 21
-0.3092090964125234
 72
     1
 10
1.056262200110722
 20
-0.3092090964125091
 11
1.085972698261343
 21
-0.361999872974522
 72
     1
 10
1.085972698261358
 20
-0.3619998729745291
 11
1.092575031183727
 21
-0.4246889457533243
 72
     1
 10
1.092575031183727
 20
-0.4246889457533243
 11
1.115683196411993
 21
-0.4246889457533243
 72
     1
 10
1.115683196411978
 20
-0.4246889457533243
 11
1.109080863489609
 21
-0.17723195011623
 72
     1
 10
1.109080863489609
 20
-0.17723195011623
 11
1.109080863489609
 21
-0.1739325180439621
 72
     1
 10
1.109080863489609
 20
-0.1739325180439621
 11
1.105779697028424
 21
-0.1739325180439621
 97
        0
 75
     0
 76
     1
 52
0.0
 41
0.078125
 77
     0
 78
     1
 53
0.0
 43
-28.182772630023
 44
-32.9923404580304
 45
0.0
 46
0.009765625
 79
     0
 98
        1
 10
-28.182772630023
 20
-32.9923404580304
  0
LWPOLYLINE
  5
78F16
330
78F12
100
AcDbEntity
  8
0
 62
    22
100
AcDbPolyline
 90
        4
 70
     1
 43
0.0
 10
0.0262955969727301
 20
-0.0287577800528069
 10
1.307151517972869
 20
-0.0287577800528069
 10
1.307151517972869
 20
-1.731261997456265
 10
0.0262955969727301
 20
-1.731261997456265
  0
LINE
  5
78F17
330
78F12
100
AcDbEntity
  8
0
 62
    22
100
AcDbLine
 10
0.0262955969727443
 20
-1.4112176328236
 30
0.0
 11
1.307151517972869
 21
-1.4112176328236
 31
0.0
  0
ATTDEF
  5
78F18
330
78F12
100
AcDbEntity
  8
A1
 62
    22
100
AcDbText
 10
0.6781304052809105
 20
-1.678298248906529
 30
0.0
 40
0.2126953125
  1

 72
     1
 11
0.6781304052809105
 21
-1.678298248906529
 31
0.0
100
AcDbAttributeDefinition
  3
ADD STONE MARKER
  2
XXXX
 70
     0
  0
LINE
  5
78F19
330
78F12
100
AcDbEntity
  8
0
 62
    22
100
AcDbLine
 10
0.7464576960363587
 20
-1.129021462591367
 30
0.0
 11
0.74595166367655
 21
-1.12746688439163
 31
0.0
  0
ARC
  5
78F1A
330
78F12
100
AcDbEntity
  8
0
 62
    22
100
AcDbCircle
 10
0.8421255873066684
 20
-1.127299146756172
 30
0.0
 40
0.0956833935014068
100
AcDbArc
 50
181.0313885659746
 51
269.7936990713142
  0
LINE
  5
78F1B
330
78F12
100
AcDbEntity
  8
0
 62
    22
100
AcDbLine
 10
0.9011069318936506
 20
-1.22315027789304
 30
0.0
 11
0.841781067510368
 21
-1.22315027789304
 31
0.0
  0
LINE
  5
78F1C
330
78F12
100
AcDbEntity
  8
0
 62
    22
100
AcDbLine
 10
0.9011069318936506
 20
-1.256144598615648
 30
0.0
 11
0.9011069318936506
 21
-1.22315027789304
 31
0.0
  0
ARC
  5
78F1D
330
78F12
100
AcDbEntity
  8
0
 62
    22
100
AcDbCircle
 10
0.4880203611777887
 20
-1.127299146756172
 30
0.0
 40
0.0956833935014068
100
AcDbArc
 50
270.2063009286848
 51
358.9686114340253
  0
LINE
  5
78F1E
330
78F12
100
AcDbEntity
  8
0
 62
    22
100
AcDbLine
 10
0.4290390165908207
 20
-1.256144598615648
 30
0.0
 11
0.4290390165908207
 21
-1.22315027789304
 31
0.0
  0
LINE
  5
78F1F
330
78F12
100
AcDbEntity
  8
0
 62
    22
100
AcDbLine
 10
0.4290390165908207
 20
-1.22315027789304
 30
0.0
 11
0.4883648809740891
 21
-1.22315027789304
 31
0.0
  0
LINE
  5
78F20
330
78F12
100
AcDbEntity
  8
0
 62
    22
100
AcDbLine
 10
0.5836882524480984
 20
-1.129021462591367
 30
0.0
 11
0.5841942848079072
 21
-1.12746688439163
 31
0.0
  0
LINE
  5
78F21
330
78F12
100
AcDbEntity
  8
0
 62
    22
100
AcDbLine
 10
0.4290390165908207
 20
-1.256144598615648
 30
0.0
 11
0.9011069318936506
 21
-1.256144598615648
 31
0.0
  0
LINE
  5
78F22
330
78F12
100
AcDbEntity
  8
0
 62
    22
100
AcDbLine
 10
1.085512597630156
 20
-0.415894330395318
 30
0.0
 11
1.085512597630156
 21
-0.4280723832374847
 31
0.0
  0
ARC
  5
78F23
330
78F12
100
AcDbEntity
  8
0
 62
    22
100
AcDbCircle
 10
0.9138550451562537
 20
-0.4147906495365632
 30
0.0
 40
0.1716611005230106
100
AcDbArc
 50
359.6316189828552
 51
90.00081606717127
  0
ARC
  5
78F24
330
78F12
100
AcDbEntity
  8
0
 62
    22
100
AcDbCircle
 10
0.9180888683309831
 20
-0.4147906495365632
 30
0.0
 40
0.1716611005230106
100
AcDbArc
 50
89.99918393282873
 51
180.3683810171443
  0
LINE
  5
78F25
330
78F12
100
AcDbEntity
  8
0
 62
    22
100
AcDbLine
 10
0.2078601968792952
 20
-0.427988377825578
 30
0.0
 11
0.2441732502230991
 21
-0.427988377825578
 31
0.0
  0
LINE
  5
78F26
330
78F12
100
AcDbEntity
  8
0
 62
    22
100
AcDbLine
 10
0.2446333508543006
 20
-0.415894330395318
 30
0.0
 11
0.2446333508543006
 21
-0.4280723832374847
 31
0.0
  0
ARC
  5
78F27
330
78F12
100
AcDbEntity
  8
0
 62
    22
100
AcDbCircle
 10
0.4162909033282176
 20
-0.4147906495365632
 30
0.0
 40
0.1716611005230106
100
AcDbArc
 50
89.99918393282873
 51
180.3683810171443
  0
LINE
  5
78F28
330
78F12
100
AcDbEntity
  8
0
 62
    22
100
AcDbLine
 10
0.2144627520724782
 20
-0.1706330859717156
 30
0.0
 11
0.2078601968792952
 21
-0.427988377825578
 31
0.0
  0
ARC
  5
78F29
330
78F12
100
AcDbEntity
  8
0
 62
    22
100
AcDbCircle
 10
0.4120570801534882
 20
-0.4147906495365632
 30
0.0
 40
0.1716611005230106
100
AcDbArc
 50
359.6316189828552
 51
90.00081606717127
  0
LWPOLYLINE
  5
78F2A
330
78F12
100
AcDbEntity
  8
0
 62
    22
100
AcDbPolyline
 90
        4
 70
     0
 43
0.0
 10
0.224366029185191
 20
-0.1706330859717084
 10
1.115683196411978
 20
-0.1706330859717084
 10
1.122285751605161
 20
-0.427988377825578
 10
1.085972698261358
 20
-0.427988377825578
  0
ENDBLK
  5
78F2C
330
78F12
100
AcDbEntity
  8
0
 62
     7
100
AcDbBlockEnd
  0
BLOCK
  5
7BB3C
330
7BB3B
100
AcDbEntity
  8
0
100
AcDbBlockBegin
  2
*U1
 70
     1
 10
0.0
 20
0.0
 30
0.0
  3
*U1
  1

  0
ENDBLK
  5
7BB3D
330
7BB3B
100
AcDbEntity
  8
0
100
AcDbBlockEnd
  0
BLOCK
  5
7BB3F
330
7BB3E
100
AcDbEntity
  8
0
100
AcDbBlockBegin
  2
*U2
 70
     1
 10
0.0
 20
0.0
 30
0.0
  3
*U2
  1

  0
ENDBLK
  5
7BB40
330
7BB3E
100
AcDbEntity
  8
0
100
AcDbBlockEnd
  0
BLOCK
  5
7BB42
330
7BB41
100
AcDbEntity
  8
0
100
AcDbBlockBegin
  2
*U3
 70
     1
 10
0.0
 20
0.0
 30
0.0
  3
*U3
  1

  0
ENDBLK
  5
7BB43
330
7BB41
100
AcDbEntity
  8
0
100
AcDbBlockEnd
  0
BLOCK
  5
7BB45
330
7BB44
100
AcDbEntity
  8
0
100
AcDbBlockBegin
  2
*U4
 70
     1
 10
0.0
 20
0.0
 30
0.0
  3
*U4
  1

  0
ENDBLK
  5
7BB46
330
7BB44
100
AcDbEntity
  8
0
100
AcDbBlockEnd
  0
BLOCK
  5
80E49
330
80E3C
100
AcDbEntity
  8
0
 62
     7
100
AcDbBlockBegin
  2
*D5
 70
     1
 10
0.0
 20
0.0
 30
0.0
  3
*D5
  1

  0
LINE
  5
80FB1
330
80E3C
100
AcDbEntity
  8
A1
 62
     0
100
AcDbLine
 10
421.2231965658207
 20
348.6576782340303
 30
0.0
 11
421.2231965658207
 21
346.4707208103528
 31
0.0
  0
LINE
  5
80FB2
330
80E3C
100
AcDbEntity
  8
A1
 62
     0
100
AcDbLine
 10
416.0981965658207
 20
352.6576782340302
 30
0.0
 11
416.0981965658207
 21
346.4707208103528
 31
0.0
  0
LINE
  5
80FB3
330
80E3C
100
AcDbEntity
  8
A1
 62
     0
100
AcDbLine
 10
421.7231965658207
 20
346.7207208103528
 30
0.0
 11
422.2231965658208
 21
346.7207208103528
 31
0.0
  0
LINE
  5
80FB4
330
80E3C
100
AcDbEntity
  8
A1
 62
     0
100
AcDbLine
 10
415.5981965658206
 20
346.7207208103528
 30
0.0
 11
415.0981965658206
 21
346.7207208103528
 31
0.0
  0
LINE
  5
80FB5
330
80E3C
100
AcDbEntity
  8
A1
 62
     0
100
AcDbLine
 10
423.3862871127768
 20
346.7207208103528
 30
0.0
 11
421.2231965658207
 21
346.7207208103528
 31
0.0
  0
MTEXT
  5
80FB6
330
80E3C
100
AcDbEntity
  8
A1
 62
     0
100
AcDbMText
 10
426.1492212020751
 20
346.7207208103528
 30
0.0
 40
1.0
 41
0.0
 71
     5
 72
     1
  1
\A1;5 1/8"
 73
     1
 44
1.0
  0
LINE
  5
80FB7
330
80E3C
100
AcDbEntity
  8
A1
 62
     0
100
AcDbLine
 10
421.2231965658207
 20
346.7207208103528
 30
0.0
 11
416.0981965658207
 21
346.7207208103528
 31
0.0
  0
SOLID
  5
80FB8
330
80E3C
100
AcDbEntity
  8
A1
 62
     0
100
AcDbTrace
 10
421.7231965658207
 20
346.8040541436861
 30
0.0
 11
421.7231965658207
 21
346.6373874770194
 31
0.0
 12
421.2231965658207
 22
346.7207208103528
 32
0.0
 13
421.2231965658207
 23
346.7207208103528
 33
0.0
  0
SOLID
  5
80FB9
330
80E3C
100
AcDbEntity
  8
A1
 62
     0
100
AcDbTrace
 10
415.5981965658206
 20
346.8040541436861
 30
0.0
 11
415.5981965658206
 21
346.6373874770194
 31
0.0
 12
416.0981965658207
 22
346.7207208103528
 32
0.0
 13
416.0981965658207
 23
346.7207208103528
 33
0.0
  0
POINT
  5
80FBA
330
80E3C
100
AcDbEntity
  8
DEFPOINTS
 62
     0
100
AcDbPoint
 10
421.2231965658207
 20
349.6576782340302
 30
0.0
  0
POINT
  5
80FBB
330
80E3C
100
AcDbEntity
  8
DEFPOINTS
 62
     0
100
AcDbPoint
 10
416.0981965658207
 20
353.6576782340302
 30
0.0
  0
POINT
  5
80FBC
330
80E3C
100
AcDbEntity
  8
DEFPOINTS
 62
     0
100
AcDbPoint
 10
416.0981965658207
 20
346.7207208103528
 30
0.0
  0
ENDBLK
  5
80E4A
330
80E3C
100
AcDbEntity
  8
0
 62
     7
100
AcDbBlockEnd
  0
BLOCK
  5
80E58
330
80E4D
100
AcDbEntity
  8
0
 62
     7
100
AcDbBlockBegin
  2
*D6
 70
     1
 10
0.0
 20
0.0
 30
0.0
  3
*D6
  1

  0
LINE
  5
80FBD
330
80E4D
100
AcDbEntity
  8
A1
 62
     0
100
AcDbLine
 10
416.0981965658207
 20
352.6576782340302
 30
0.0
 11
416.0981965658207
 21
346.4707208103528
 31
0.0
  0
LINE
  5
80FBE
330
80E4D
100
AcDbEntity
  8
A1
 62
     0
100
AcDbLine
 10
401.5981965658207
 20
352.6576782340303
 30
0.0
 11
401.5981965658207
 21
346.4707208103528
 31
0.0
  0
LINE
  5
80FBF
330
80E4D
100
AcDbEntity
  8
A1
 62
     0
100
AcDbLine
 10
415.5981965658206
 20
346.7207208103528
 30
0.0
 11
412.1107260731287
 21
346.7207208103528
 31
0.0
  0
LINE
  5
80FC0
330
80E4D
100
AcDbEntity
  8
A1
 62
     0
100
AcDbLine
 10
402.0981965658207
 20
346.7207208103528
 30
0.0
 11
405.8215694466227
 21
346.7207208103528
 31
0.0
  0
MTEXT
  5
80FC1
330
80E4D
100
AcDbEntity
  8
A1
 62
     0
100
AcDbMText
 10
408.9661477598757
 20
346.7207208103528
 30
0.0
 40
1.0
 41
0.0
 71
     5
 72
     1
  1
\A1;14 1/2"
 73
     1
 44
1.0
  0
SOLID
  5
80FC2
330
80E4D
100
AcDbEntity
  8
A1
 62
     0
100
AcDbTrace
 10
415.5981965658206
 20
346.8040541436861
 30
0.0
 11
415.5981965658206
 21
346.6373874770194
 31
0.0
 12
416.0981965658207
 22
346.7207208103528
 32
0.0
 13
416.0981965658207
 23
346.7207208103528
 33
0.0
  0
SOLID
  5
80FC3
330
80E4D
100
AcDbEntity
  8
A1
 62
     0
100
AcDbTrace
 10
402.0981965658207
 20
346.8040541436861
 30
0.0
 11
402.0981965658207
 21
346.6373874770194
 31
0.0
 12
401.5981965658207
 22
346.7207208103528
 32
0.0
 13
401.5981965658207
 23
346.7207208103528
 33
0.0
  0
POINT
  5
80FC4
330
80E4D
100
AcDbEntity
  8
DEFPOINTS
 62
     0
100
AcDbPoint
 10
416.0981965658207
 20
353.6576782340302
 30
0.0
  0
POINT
  5
80FC5
330
80E4D
100
AcDbEntity
  8
DEFPOINTS
 62
     0
100
AcDbPoint
 10
401.5981965658207
 20
353.6576782340302
 30
0.0
  0
POINT
  5
80FC6
330
80E4D
100
AcDbEntity
  8
DEFPOINTS
 62
     0
100
AcDbPoint
 10
401.5981965658207
 20
346.7207208103528
 30
0.0
  0
ENDBLK
  5
80E59
330
80E4D
100
AcDbEntity
  8
0
 62
     7
100
AcDbBlockEnd
  0
BLOCK
  5
80E76
330
80E6B
100
AcDbEntity
  8
0
 62
     7
100
AcDbBlockBegin
  2
*D7
 70
     1
 10
0.0
 20
0.0
 30
0.0
  3
*D7
  1

  0
LINE
  5
80FC7
330
80E6B
100
AcDbEntity
  8
A1
 62
     0
100
AcDbLine
 10
421.2231965658207
 20
348.6576782340303
 30
0.0
 11
421.2231965658207
 21
343.1742431716696
 31
0.0
  0
LINE
  5
80FC8
330
80E6B
100
AcDbEntity
  8
A1
 62
     0
100
AcDbLine
 10
397.2231965658207
 20
348.6576782340303
 30
0.0
 11
397.2231965658207
 21
343.1742431716696
 31
0.0
  0
LINE
  5
80FC9
330
80E6B
100
AcDbEntity
  8
A1
 62
     0
100
AcDbLine
 10
420.7231965658207
 20
343.4242431716696
 30
0.0
 11
411.0892314765321
 21
343.4242431716696
 31
0.0
  0
LINE
  5
80FCA
330
80E6B
100
AcDbEntity
  8
A1
 62
     0
100
AcDbLine
 10
397.7231965658207
 20
343.4242431716696
 30
0.0
 11
407.4216198535697
 21
343.4242431716696
 31
0.0
  0
MTEXT
  5
80FCB
330
80E6B
100
AcDbEntity
  8
A1
 62
     0
100
AcDbMText
 10
409.2554256650508
 20
343.4242431716696
 30
0.0
 40
1.0
 41
0.0
 71
     5
 72
     1
  1
\A1;24"
 73
     1
 44
1.0
  0
SOLID
  5
80FCC
330
80E6B
100
AcDbEntity
  8
A1
 62
     0
100
AcDbTrace
 10
420.7231965658207
 20
343.5075765050029
 30
0.0
 11
420.7231965658207
 21
343.3409098383362
 31
0.0
 12
421.2231965658207
 22
343.4242431716696
 32
0.0
 13
421.2231965658207
 23
343.4242431716696
 33
0.0
  0
SOLID
  5
80FCD
330
80E6B
100
AcDbEntity
  8
A1
 62
     0
100
AcDbTrace
 10
397.7231965658207
 20
343.5075765050029
 30
0.0
 11
397.7231965658207
 21
343.3409098383362
 31
0.0
 12
397.2231965658207
 22
343.4242431716696
 32
0.0
 13
397.2231965658207
 23
343.4242431716696
 33
0.0
  0
POINT
  5
80FCE
330
80E6B
100
AcDbEntity
  8
DEFPOINTS
 62
     0
100
AcDbPoint
 10
421.2231965658207
 20
349.6576782340303
 30
0.0
  0
POINT
  5
80FCF
330
80E6B
100
AcDbEntity
  8
DEFPOINTS
 62
     0
100
AcDbPoint
 10
397.2231965658207
 20
349.6576782340303
 30
0.0
  0
POINT
  5
80FD0
330
80E6B
100
AcDbEntity
  8
DEFPOINTS
 62
     0
100
AcDbPoint
 10
397.2231965658207
 20
343.4242431716696
 30
0.0
  0
ENDBLK
  5
80E77
330
80E6B
100
AcDbEntity
  8
0
 62
     7
100
AcDbBlockEnd
  0
BLOCK
  5
80E86
330
80E79
100
AcDbEntity
  8
0
 62
     7
100
AcDbBlockBegin
  2
*D8
 70
     1
 10
0.0
 20
0.0
 30
0.0
  3
*D8
  1

  0
LINE
  5
80FD1
330
80E79
100
AcDbEntity
  8
A1
 62
     0
100
AcDbLine
 10
398.4731965658207
 20
357.6576782340302
 30
0.0
 11
398.4731965658207
 21
360.8506239437088
 31
0.0
  0
LINE
  5
80FD2
330
80E79
100
AcDbEntity
  8
A1
 62
     0
100
AcDbLine
 10
397.2231965658207
 20
358.6576782340303
 30
0.0
 11
397.2231965658207
 21
360.8506239437088
 31
0.0
  0
LINE
  5
80FD3
330
80E79
100
AcDbEntity
  8
A1
 62
     0
100
AcDbLine
 10
398.9731965658208
 20
360.6006239437088
 30
0.0
 11
399.4731965658207
 21
360.6006239437088
 31
0.0
  0
LINE
  5
80FD4
330
80E79
100
AcDbEntity
  8
A1
 62
     0
100
AcDbLine
 10
396.7231965658207
 20
360.6006239437088
 30
0.0
 11
396.2231965658208
 21
360.6006239437088
 31
0.0
  0
LINE
  5
80FD5
330
80E79
100
AcDbEntity
  8
A1
 62
     0
100
AcDbLine
 10
395.7454774735816
 20
360.6006239437088
 30
0.0
 11
397.2231965658207
 21
360.6006239437088
 31
0.0
  0
MTEXT
  5
80FD6
330
80E79
100
AcDbEntity
  8
A1
 62
     0
100
AcDbMText
 10
393.0558956167425
 20
360.6006239437088
 30
0.0
 40
1.0
 41
0.0
 71
     5
 72
     1
  1
\A1;1 1/4"
 73
     1
 44
1.0
  0
LINE
  5
80FD7
330
80E79
100
AcDbEntity
  8
A1
 62
     0
100
AcDbLine
 10
398.4731965658207
 20
360.6006239437088
 30
0.0
 11
397.2231965658207
 21
360.6006239437088
 31
0.0
  0
SOLID
  5
80FD8
330
80E79
100
AcDbEntity
  8
A1
 62
     0
100
AcDbTrace
 10
398.9731965658208
 20
360.6839572770421
 30
0.0
 11
398.9731965658208
 21
360.5172906103755
 31
0.0
 12
398.4731965658207
 22
360.6006239437088
 32
0.0
 13
398.4731965658207
 23
360.6006239437088
 33
0.0
  0
SOLID
  5
80FD9
330
80E79
100
AcDbEntity
  8
A1
 62
     0
100
AcDbTrace
 10
396.7231965658207
 20
360.6839572770421
 30
0.0
 11
396.7231965658207
 21
360.5172906103755
 31
0.0
 12
397.2231965658207
 22
360.6006239437088
 32
0.0
 13
397.2231965658207
 23
360.6006239437088
 33
0.0
  0
POINT
  5
80FDA
330
80E79
100
AcDbEntity
  8
DEFPOINTS
 62
     0
100
AcDbPoint
 10
398.4731965658207
 20
356.6576782340303
 30
0.0
  0
POINT
  5
80FDB
330
80E79
100
AcDbEntity
  8
DEFPOINTS
 62
     0
100
AcDbPoint
 10
397.2231965658207
 20
357.6576782340302
 30
0.0
  0
POINT
  5
80FDC
330
80E79
100
AcDbEntity
  8
DEFPOINTS
 62
     0
100
AcDbPoint
 10
397.2231965658207
 20
360.6006239437088
 30
0.0
  0
ENDBLK
  5
80E87
330
80E79
100
AcDbEntity
  8
0
 62
     7
100
AcDbBlockEnd
  0
BLOCK
  5
80E96
330
80E89
100
AcDbEntity
  8
0
 62
     7
100
AcDbBlockBegin
  2
*D9
 70
     1
 10
0.0
 20
0.0
 30
0.0
  3
*D9
  1

  0
LINE
  5
80FDD
330
80E89
100
AcDbEntity
  8
A1
 62
     0
100
AcDbLine
 10
419.9731965658207
 20
358.6576782340303
 30
0.0
 11
419.9731965658207
 21
361.1976207385192
 31
0.0
  0
LINE
  5
80FDE
330
80E89
100
AcDbEntity
  8
A1
 62
     0
100
AcDbLine
 10
421.2231965658207
 20
358.6576782340303
 30
0.0
 11
421.2231965658207
 21
361.1976207385192
 31
0.0
  0
LINE
  5
80FDF
330
80E89
100
AcDbEntity
  8
A1
 62
     0
100
AcDbLine
 10
419.4731965658207
 20
360.9476207385192
 30
0.0
 11
418.9731965658207
 21
360.9476207385192
 31
0.0
  0
LINE
  5
80FE0
330
80E89
100
AcDbEntity
  8
A1
 62
     0
100
AcDbLine
 10
421.7231965658207
 20
360.9476207385192
 30
0.0
 11
422.2231965658208
 21
360.9476207385192
 31
0.0
  0
LINE
  5
80FE1
330
80E89
100
AcDbEntity
  8
A1
 62
     0
100
AcDbLine
 10
423.2282170210959
 20
360.9476207385192
 30
0.0
 11
421.2231965658207
 21
360.9476207385192
 31
0.0
  0
MTEXT
  5
80FE2
330
80E89
100
AcDbEntity
  8
A1
 62
     0
100
AcDbMText
 10
425.9177988779351
 20
360.9476207385192
 30
0.0
 40
1.0
 41
0.0
 71
     5
 72
     1
  1
\A1;1 1/4"
 73
     1
 44
1.0
  0
LINE
  5
80FE3
330
80E89
100
AcDbEntity
  8
A1
 62
     0
100
AcDbLine
 10
419.9731965658207
 20
360.9476207385192
 30
0.0
 11
421.2231965658207
 21
360.9476207385192
 31
0.0
  0
SOLID
  5
80FE4
330
80E89
100
AcDbEntity
  8
A1
 62
     0
100
AcDbTrace
 10
419.4731965658207
 20
361.0309540718525
 30
0.0
 11
419.4731965658207
 21
360.8642874051859
 31
0.0
 12
419.9731965658207
 22
360.9476207385192
 32
0.0
 13
419.9731965658207
 23
360.9476207385192
 33
0.0
  0
SOLID
  5
80FE5
330
80E89
100
AcDbEntity
  8
A1
 62
     0
100
AcDbTrace
 10
421.7231965658207
 20
361.0309540718525
 30
0.0
 11
421.7231965658207
 21
360.8642874051859
 31
0.0
 12
421.2231965658207
 22
360.9476207385192
 32
0.0
 13
421.2231965658207
 23
360.9476207385192
 33
0.0
  0
POINT
  5
80FE6
330
80E89
100
AcDbEntity
  8
DEFPOINTS
 62
     0
100
AcDbPoint
 10
419.9731965658207
 20
357.6576782340302
 30
0.0
  0
POINT
  5
80FE7
330
80E89
100
AcDbEntity
  8
DEFPOINTS
 62
     0
100
AcDbPoint
 10
421.2231965658207
 20
357.6576782340302
 30
0.0
  0
POINT
  5
80FE8
330
80E89
100
AcDbEntity
  8
DEFPOINTS
 62
     0
100
AcDbPoint
 10
421.2231965658207
 20
360.9476207385192
 30
0.0
  0
ENDBLK
  5
80E97
330
80E89
100
AcDbEntity
  8
0
 62
     7
100
AcDbBlockEnd
  0
BLOCK
  5
80EA7
330
80E9A
100
AcDbEntity
  8
0
 62
     7
100
AcDbBlockBegin
  2
*D10
 70
     1
 10
0.0
 20
0.0
 30
0.0
  3
*D10
  1

  0
LINE
  5
80FE9
330
80E9A
100
AcDbEntity
  8
A1
 62
     0
100
AcDbLine
 10
396.2231965658208
 20
356.6576782340303
 30
0.0
 11
391.1280882178404
 21
356.6576782340303
 31
0.0
  0
LINE
  5
80FEA
330
80E9A
100
AcDbEntity
  8
A1
 62
     0
100
AcDbLine
 10
396.2231965658208
 20
357.6576782340302
 30
0.0
 11
391.1280882178404
 21
357.6576782340302
 31
0.0
  0
LINE
  5
80FEB
330
80E9A
100
AcDbEntity
  8
A1
 62
     0
100
AcDbLine
 10
391.3780882178404
 20
356.1576782340303
 30
0.0
 11
391.3780882178404
 21
355.6576782340302
 31
0.0
  0
LINE
  5
80FEC
330
80E9A
100
AcDbEntity
  8
A1
 62
     0
100
AcDbLine
 10
391.3780882178404
 20
358.1576782340302
 30
0.0
 11
391.3780882178404
 21
358.6576782340303
 31
0.0
  0
LINE
  5
80FED
330
80E9A
100
AcDbEntity
  8
A1
 62
     0
100
AcDbLine
 10
391.8780882178404
 20
355.0486620837675
 30
0.0
 11
391.3780882178404
 21
355.0486620837675
 31
0.0
  0
LINE
  5
80FEE
330
80E9A
100
AcDbEntity
  8
A1
 62
     0
100
AcDbLine
 10
391.3780882178404
 20
355.0486620837675
 30
0.0
 11
391.3780882178404
 21
355.6576782340302
 31
0.0
  0
MTEXT
  5
80FEF
330
80E9A
100
AcDbEntity
  8
A1
 62
     0
100
AcDbMText
 10
393.1757494510083
 20
355.0486620837676
 30
0.0
 40
1.0
 41
0.0
 71
     5
 72
     1
  1
\A1;1"
 73
     1
 44
1.0
  0
SOLID
  5
80FF0
330
80E9A
100
AcDbEntity
  8
A1
 62
     0
100
AcDbTrace
 10
391.2947548845071
 20
356.1576782340303
 30
0.0
 11
391.4614215511737
 21
356.1576782340303
 31
0.0
 12
391.3780882178404
 22
356.6576782340303
 32
0.0
 13
391.3780882178404
 23
356.6576782340303
 33
0.0
  0
SOLID
  5
80FF1
330
80E9A
100
AcDbEntity
  8
A1
 62
     0
100
AcDbTrace
 10
391.2947548845071
 20
358.1576782340302
 30
0.0
 11
391.4614215511737
 21
358.1576782340302
 31
0.0
 12
391.3780882178404
 22
357.6576782340302
 32
0.0
 13
391.3780882178404
 23
357.6576782340302
 33
0.0
  0
POINT
  5
80FF2
330
80E9A
100
AcDbEntity
  8
DEFPOINTS
 62
     0
100
AcDbPoint
 10
397.2231965658207
 20
356.6576782340303
 30
0.0
  0
POINT
  5
80FF3
330
80E9A
100
AcDbEntity
  8
DEFPOINTS
 62
     0
100
AcDbPoint
 10
397.2231965658207
 20
357.6576782340302
 30
0.0
  0
POINT
  5
80FF4
330
80E9A
100
AcDbEntity
  8
DEFPOINTS
 62
     0
100
AcDbPoint
 10
391.3780882178404
 20
357.6576782340302
 30
0.0
  0
ENDBLK
  5
80EA8
330
80E9A
100
AcDbEntity
  8
0
 62
     7
100
AcDbBlockEnd
  0
BLOCK
  5
80EB8
330
80EAB
100
AcDbEntity
  8
0
 62
     7
100
AcDbBlockBegin
  2
*D11
 70
     1
 10
0.0
 20
0.0
 30
0.0
  3
*D11
  1

  0
LINE
  5
80FF5
330
80EAB
100
AcDbEntity
  8
A1
 62
     0
100
AcDbLine
 10
401.5981965658207
 20
352.6576782340303
 30
0.0
 11
401.5981965658207
 21
346.4707208103528
 31
0.0
  0
LINE
  5
80FF6
330
80EAB
100
AcDbEntity
  8
A1
 62
     0
100
AcDbLine
 10
397.2231965658207
 20
348.6576782340303
 30
0.0
 11
397.2231965658207
 21
346.4707208103528
 31
0.0
  0
LINE
  5
80FF7
330
80EAB
100
AcDbEntity
  8
A1
 62
     0
100
AcDbLine
 10
402.0981965658207
 20
346.7207208103528
 30
0.0
 11
402.5981965658208
 21
346.7207208103528
 31
0.0
  0
LINE
  5
80FF8
330
80EAB
100
AcDbEntity
  8
A1
 62
     0
100
AcDbLine
 10
396.7231965658207
 20
346.7207208103528
 30
0.0
 11
396.2231965658208
 21
346.7207208103528
 31
0.0
  0
LINE
  5
80FF9
330
80EAB
100
AcDbEntity
  8
A1
 62
     0
100
AcDbLine
 10
395.4991735714878
 20
346.7207208103528
 30
0.0
 11
397.2231965658207
 21
346.7207208103528
 31
0.0
  0
MTEXT
  5
80FFA
330
80EAB
100
AcDbEntity
  8
A1
 62
     0
100
AcDbMText
 10
392.824474776307
 20
346.7207208103528
 30
0.0
 40
1.0
 41
0.0
 71
     5
 72
     1
  1
\A1;4 3/8"
 73
     1
 44
1.0
  0
LINE
  5
80FFB
330
80EAB
100
AcDbEntity
  8
A1
 62
     0
100
AcDbLine
 10
401.5981965658207
 20
346.7207208103528
 30
0.0
 11
397.2231965658207
 21
346.7207208103528
 31
0.0
  0
SOLID
  5
80FFC
330
80EAB
100
AcDbEntity
  8
A1
 62
     0
100
AcDbTrace
 10
402.0981965658207
 20
346.8040541436861
 30
0.0
 11
402.0981965658207
 21
346.6373874770194
 31
0.0
 12
401.5981965658207
 22
346.7207208103528
 32
0.0
 13
401.5981965658207
 23
346.7207208103528
 33
0.0
  0
SOLID
  5
80FFD
330
80EAB
100
AcDbEntity
  8
A1
 62
     0
100
AcDbTrace
 10
396.7231965658207
 20
346.8040541436861
 30
0.0
 11
396.7231965658207
 21
346.6373874770194
 31
0.0
 12
397.2231965658207
 22
346.7207208103528
 32
0.0
 13
397.2231965658207
 23
346.7207208103528
 33
0.0
  0
POINT
  5
80FFE
330
80EAB
100
AcDbEntity
  8
DEFPOINTS
 62
     0
100
AcDbPoint
 10
401.5981965658207
 20
353.6576782340302
 30
0.0
  0
POINT
  5
80FFF
330
80EAB
100
AcDbEntity
  8
DEFPOINTS
 62
     0
100
AcDbPoint
 10
397.2231965658207
 20
349.6576782340302
 30
0.0
  0
POINT
  5
81000
330
80EAB
100
AcDbEntity
  8
DEFPOINTS
 62
     0
100
AcDbPoint
 10
397.2231965658207
 20
346.7207208103528
 30
0.0
  0
ENDBLK
  5
80EB9
330
80EAB
100
AcDbEntity
  8
0
 62
     7
100
AcDbBlockEnd
  0
BLOCK
  5
80F30
330
80F25
100
AcDbEntity
  8
0
 62
     7
100
AcDbBlockBegin
  2
*D12
 70
     1
 10
0.0
 20
0.0
 30
0.0
  3
*D12
  1

  0
LINE
  5
81001
330
80F25
100
AcDbEntity
  8
A1
 62
     0
100
AcDbLine
 10
422.2231965658208
 20
349.6576782340302
 30
0.0
 11
428.7543610484049
 21
349.6576782340302
 31
0.0
  0
LINE
  5
81002
330
80F25
100
AcDbEntity
  8
A1
 62
     0
100
AcDbLine
 10
422.2231965658208
 20
357.6576782340302
 30
0.0
 11
428.7543610484049
 21
357.6576782340302
 31
0.0
  0
LINE
  5
81003
330
80F25
100
AcDbEntity
  8
A1
 62
     0
100
AcDbLine
 10
428.5043610484049
 20
350.1576782340303
 30
0.0
 11
428.5043610484049
 21
352.6615395192889
 31
0.0
  0
LINE
  5
81004
330
80F25
100
AcDbEntity
  8
A1
 62
     0
100
AcDbLine
 10
428.5043610484049
 20
357.1576782340303
 30
0.0
 11
428.5043610484049
 21
354.6991015320458
 31
0.0
  0
MTEXT
  5
81005
330
80F25
100
AcDbEntity
  8
A1
 62
     0
100
AcDbMText
 10
428.5043610484049
 20
353.6803205256674
 30
0.0
 40
1.0
 41
0.0
 71
     5
 72
     1
  1
\A1;8"
 73
     1
 44
1.0
  0
SOLID
  5
81006
330
80F25
100
AcDbEntity
  8
A1
 62
     0
100
AcDbTrace
 10
428.4210277150716
 20
350.1576782340303
 30
0.0
 11
428.5876943817382
 21
350.1576782340303
 31
0.0
 12
428.5043610484049
 22
349.6576782340302
 32
0.0
 13
428.5043610484049
 23
349.6576782340302
 33
0.0
  0
SOLID
  5
81007
330
80F25
100
AcDbEntity
  8
A1
 62
     0
100
AcDbTrace
 10
428.4210277150716
 20
357.1576782340303
 30
0.0
 11
428.5876943817382
 21
357.1576782340303
 31
0.0
 12
428.5043610484049
 22
357.6576782340302
 32
0.0
 13
428.5043610484049
 23
357.6576782340302
 33
0.0
  0
POINT
  5
81008
330
80F25
100
AcDbEntity
  8
DEFPOINTS
 62
     0
100
AcDbPoint
 10
421.2231965658207
 20
349.6576782340302
 30
0.0
  0
POINT
  5
81009
330
80F25
100
AcDbEntity
  8
DEFPOINTS
 62
     0
100
AcDbPoint
 10
421.2231965658207
 20
357.6576782340302
 30
0.0
  0
POINT
  5
8100A
330
80F25
100
AcDbEntity
  8
DEFPOINTS
 62
     0
100
AcDbPoint
 10
428.5043610484049
 20
357.6576782340302
 30
0.0
  0
ENDBLK
  5
80F31
330
80F25
100
AcDbEntity
  8
0
 62
     7
100
AcDbBlockEnd
  0
BLOCK
  5
80F6C
330
80F40
100
AcDbEntity
  8
0
 62
     7
100
AcDbBlockBegin
  2
TSFORMB
 70
     2
 10
0.0
 20
0.0
 30
0.0
  3
TSFORMB
  1

  0
LINE
  5
80F41
330
80F40
100
AcDbEntity
  8
0
100
AcDbLine
 10
105.9925392881563
 20
78.84810849484797
 30
0.0
 11
105.9925392881563
 21
70.31072004936999
 31
0.0
  0
LINE
  5
80F42
330
80F40
100
AcDbEntity
  8
0
100
AcDbLine
 10
105.9925392881563
 20
0.0
 30
0.0
 11
105.9925392881563
 21
78.84810849484797
 31
0.0
  0
LINE
  5
80F43
330
80F40
100
AcDbEntity
  8
0
100
AcDbLine
 10
0.0
 20
0.0
 30
0.0
 11
105.9925392881563
 21
0.0
 31
0.0
  0
LINE
  5
80F44
330
80F40
100
AcDbEntity
  8
0
100
AcDbLine
 10
0.0
 20
78.84810849484797
 30
0.0
 11
0.0
 21
0.0
 31
0.0
  0
LINE
  5
80F45
330
80F40
100
AcDbEntity
  8
0
100
AcDbLine
 10
56.87404547169354
 20
0.0
 30
0.0
 11
56.87404547169354
 21
12.46470592426129
 31
0.0
  0
TEXT
  5
80F46
330
80F40
100
AcDbEntity
  8
0
 62
     7
100
AcDbText
 10
39.28098221173831
 20
10.97304845086642
 30
0.0
 40
0.8085000000000002
  1
LEGEND
100
AcDbText
  0
TEXT
  5
80F47
330
80F40
100
AcDbEntity
  8
0
 62
     7
100
AcDbText
 10
38.18320344075362
 20
3.401999220949562
 30
0.0
 40
0.8400000000000002
  1
CATEGORY
 72
     1
 11
41.47652732452399
 21
3.401999220949562
 31
0.0
100
AcDbText
  0
LINE
  5
80F48
330
80F40
100
AcDbEntity
  8
0
 62
     7
100
AcDbLine
 10
26.78791925899645
 20
8.549200111339303
 30
0.0
 11
29.32320076794366
 21
8.549200111339303
 31
0.0
  0
TEXT
  5
80F49
330
80F40
100
AcDbEntity
  8
0
 62
     7
100
AcDbText
 10
30.56536100380196
 20
8.165961840384341
 30
0.0
 40
1.05
  1
- Unfinished Side
100
AcDbText
  0
LINE
  5
80F4A
330
80F40
100
AcDbEntity
  8
0
100
AcDbLine
 10
25.9704997615305
 20
0.0
 30
0.0
 11
25.9704997615305
 21
12.46470592426129
 31
0.0
  0
ATTDEF
  5
80F4B
330
80F40
100
AcDbEntity
  8
A1
 62
     1
100
AcDbText
 10
41.26016333205519
 20
0.916484150045278
 30
0.0
 40
1.025589599999999
  1

 72
     1
 11
41.26016333205519
 21
0.916484150045278
 31
0.0
100
AcDbAttributeDefinition
  3
ADD CATEGORY NAMES
  2
XXXXXX
 70
     0
  0
ATTDEF
  5
80F4C
330
80F40
100
AcDbEntity
  8
A1
 62
     1
100
AcDbText
 10
21.55372231158242
 20
1.875018704105684
 30
0.0
 40
0.8400000000000002
  1

 72
     2
 11
21.55372231158242
 21
1.875018704105684
 31
0.0
100
AcDbAttributeDefinition
  3
ADD BARCODE TEXT
  2
XXXXXX
 70
     0
  0
LINE
  5
80F4D
330
80F40
100
AcDbEntity
  8
0
 62
     7
100
AcDbLine
 10
25.9704997615305
 20
12.46470592426129
 30
0.0
 11
0.0
 21
12.46470592426129
 31
0.0
  0
ATTDEF
  5
80F4E
330
80F40
100
AcDbEntity
  8
A1
 62
     1
100
AcDbText
 10
12.85191920549937
 20
3.11796280247222
 30
0.0
 40
6.132000000000001
  1

  7
barcoder
 72
     1
 11
12.85191920549937
 21
3.11796280247222
 31
0.0
100
AcDbAttributeDefinition
  3
ADD BARCODE NUMBER
  2
BARCODE
 70
     0
  0
LINE
  5
80F4F
330
80F40
100
AcDbEntity
  8
0
 62
     7
100
AcDbLine
 10
56.87404547169354
 20
10.31505184057846
 30
0.0
 11
25.9704997615305
 21
10.31505184057846
 31
0.0
  0
LINE
  5
80F50
330
80F40
100
AcDbEntity
  8
0
 62
     7
100
AcDbLine
 10
56.87404547169354
 20
2.864660228904256
 30
0.0
 11
25.9704997615305
 21
2.864660228904256
 31
0.0
  0
LINE
  5
80F51
330
80F40
100
AcDbEntity
  8
0
 62
     7
100
AcDbLine
 10
56.87404547169354
 20
4.753491724833224
 30
0.0
 11
25.9704997615305
 21
4.753491724833224
 31
0.0
  0
LINE
  5
80F52
330
80F40
100
AcDbEntity
  8
0
100
AcDbLine
 10
92.45878286761296
 20
70.31072004936999
 30
0.0
 11
92.45878286761296
 21
78.84810849484797
 31
0.0
  0
ATTDEF
  5
80F53
330
80F40
100
AcDbEntity
  8
A1
 62
     1
100
AcDbText
 10
99.20289126219257
 20
73.40001633244828
 30
0.0
 40
2.079
  1

 72
     1
 11
99.20289126219257
 21
73.40001633244828
 31
0.0
100
AcDbAttributeDefinition
  3
ADD PAGE NUMBER
  2
TS00XX
 70
     0
  0
LINE
  5
80F54
330
80F40
100
AcDbEntity
  8
0
100
AcDbLine
 10
105.9925392881563
 20
70.31072004936999
 30
0.0
 11
92.45878286761296
 21
70.31072004936999
 31
0.0
  0
LINE
  5
80F55
330
80F40
100
AcDbEntity
  8
0
100
AcDbLine
 10
105.9925392881563
 20
78.84810849484797
 30
0.0
 11
0.0
 21
78.84810849484797
 31
0.0
  0
TEXT
  5
80F56
330
80F40
100
AcDbEntity
  8
0
 62
     7
100
AcDbText
 10
101.0916707105178
 20
4.784832420392319
 30
0.0
 40
0.8459472656250001
  1
1:1
100
AcDbText
  0
ARC
  5
80F57
330
80F40
100
AcDbEntity
  8
0
 62
     7
100
AcDbCircle
 10
92.02173719823599
 20
7.854684255185304
 30
0.0
 40
0.5838368232859321
100
AcDbArc
 50
297.5553548372056
 51
304.8408806463489
  0
LINE
  5
80F58
330
80F40
100
AcDbEntity
  8
0
 62
     7
100
AcDbLine
 10
96.44018670993672
 20
6.648784575743377
 30
0.0
 11
95.62662822118033
 21
6.648784575743377
 31
0.0
  0
ARC
  5
80F59
330
80F40
100
AcDbEntity
  8
0
 62
     7
100
AcDbCircle
 10
92.02173719823599
 20
7.854684255185304
 30
0.0
 40
0.5838368232859408
100
AcDbArc
 50
304.8408806463489
 51
297.5553548372056
  0
TEXT
  5
80F5A
330
80F40
100
AcDbEntity
  8
0
 62
     7
100
AcDbText
 10
91.5997577365548
 20
7.487990433787842
 30
0.0
 40
0.7875000000000002
  1
R
  7
ROMANC
 72
     1
 11
92.02565639984959
 21
7.487990433787842
 31
0.0
100
AcDbText
  0
LINE
  5
80F5B
330
80F40
100
AcDbEntity
  8
0
100
AcDbLine
 10
96.44018670993649
 20
0.0
 30
0.0
 11
96.44018670993695
 21
12.46470592426129
 31
0.0
  0
TEXT
  5
80F5C
330
80F40
100
AcDbEntity
  8
0
100
AcDbText
 10
57.83820509574335
 20
4.931128255646488
 30
0.0
 40
1.111564440985976
  1
ARCHITECTURAL CONCRETE CO., INC.
 41
1.25
 72
     4
 11
76.69038922088157
 21
5.404193065577089
 31
0.0
100
AcDbText
  0
TEXT
  5
80F5D
330
80F40
100
AcDbEntity
  8
0
100
AcDbText
 10
64.01730751652124
 20
0.6790765005606179
 30
0.0
 40
0.6552430415498756
  1
PHONE: 1-800-789-4841  FAX : 770-463-2635
 41
1.1875
 72
     4
 11
76.73327742292065
 21
1.005769257279496
 31
0.0
100
AcDbText
  0
TEXT
  5
80F5E
330
80F40
100
AcDbEntity
  8
0
 62
     7
100
AcDbText
 10
61.23651428794109
 20
7.899354841769707
 30
0.0
 40
3.572100000000002
  1
TannerStone
  7
ROMANC
 72
     1
 11
75.92109734429948
 21
7.899354841769707
 31
0.0
100
AcDbText
  0
TEXT
  5
80F5F
330
80F40
100
AcDbEntity
  8
0
100
AcDbText
 10
61.57240842020546
 20
1.964543484004154
 30
0.0
 40
0.6552430415498756
  1
http://TannerStone.com ~ Email:Sales@TannerStone.com 
 41
1.1875
 72
     4
 11
77.08342119362362
 21
2.259193880788984
 31
0.0
100
AcDbText
  0
TEXT
  5
80F60
330
80F40
100
AcDbEntity
  8
0
100
AcDbText
 10
59.98363509556096
 20
3.260563711198551
 30
0.0
 40
0.74899296216962
  1
101 JOHNSTON CIRCLE, PALMETTO, GEORGIA 30268
 41
1.1875
 72
     4
 11
76.85158629384147
 21
3.579323650094977
 31
0.0
100
AcDbText
  0
LINE
  5
80F61
330
80F40
100
AcDbEntity
  8
0
100
AcDbLine
 10
56.87404547169354
 20
6.648784575743377
 30
0.0
 11
105.9925392881563
 21
6.648784575743377
 31
0.0
  0
LINE
  5
80F62
330
80F40
100
AcDbEntity
  8
0
 62
     7
100
AcDbLine
 10
96.44018670993682
 20
9.556745250002336
 30
0.0
 11
105.9925392881563
 21
9.556745250002336
 31
0.0
  0
TEXT
  5
80F63
330
80F40
100
AcDbEntity
  8
0
 62
     7
100
AcDbText
 10
96.66995560986686
 20
8.813345575893606
 30
0.0
 40
0.5414062500000001
  1
LBS/LINEAR FEET:
100
AcDbText
  0
LINE
  5
80F64
330
80F40
100
AcDbEntity
  8
LINEWORK
 62
     7
100
AcDbLine
 10
96.40991550469017
 20
3.757904136908962
 30
0.0
 11
105.9622680829099
 21
3.757904136909189
 31
0.0
  0
TEXT
  5
80F65
330
80F40
100
AcDbEntity
  8
0
 62
     7
100
AcDbText
 10
98.85330873086445
 20
1.524519923848686
 30
0.0
 40
0.8459472656250001
  1
1-1-2000
100
AcDbText
  0
TEXT
  5
80F66
330
80F40
100
AcDbEntity
  8
0
 62
     7
100
AcDbText
 10
96.68542089784603
 20
5.927566558083469
 30
0.0
 40
0.5414062500000001
  1
SCALE:
100
AcDbText
  0
TEXT
  5
80F67
330
80F40
100
AcDbEntity
  8
0
 62
     7
100
AcDbText
 10
96.74158717246577
 20
2.97910930546476
 30
0.0
 40
0.5414062500000001
  1
DATE:
100
AcDbText
  0
TEXT
  5
80F68
330
80F40
100
AcDbEntity
  8
0
 62
     7
100
AcDbText
 10
96.70022651293084
 20
11.66518473255649
 30
0.0
 40
0.5414062500000001
  1
PROFILE AREA:
100
AcDbText
  0
ATTDEF
  5
80F69
330
80F40
100
AcDbEntity
  8
A1
 62
     1
100
AcDbText
 10
101.1759733039033
 20
10.07900441527107
 30
0.0
 40
0.9450000000000002
  1

 72
     1
 11
101.1759733039033
 21
10.07900441527107
 31
0.0
100
AcDbAttributeDefinition
  3
ADD PROFILE AREA
  2
XXXXX
 70
     0
  0
ATTDEF
  5
80F6A
330
80F40
100
AcDbEntity
  8
A1
 62
     1
100
AcDbText
 10
101.1418062311347
 20
7.21953861551384
 30
0.0
 40
0.9450000000000002
  1

 72
     1
 11
101.1418062311347
 21
7.21953861551384
 31
0.0
100
AcDbAttributeDefinition
  3
ADD #/LF
  2
XXXXX
 70
     0
  0
LINE
  5
80F6B
330
80F40
100
AcDbEntity
  8
0
100
AcDbLine
 10
25.9704997615305
 20
12.46470592426129
 30
0.0
 11
105.9925392881563
 21
12.46470592426129
 31
0.0
  0
ENDBLK
  5
80F6D
330
80F40
100
AcDbEntity
  8
0
 62
     7
100
AcDbBlockEnd
  0
ENDSEC
  0
SECTION
  2
ENTITIES
  0
INSERT
  5
7C12C
330
2
100
AcDbEntity
  8
0
100
AcDbBlockReference
  2
*U1
 10
496.8557196716146
 20
396.3907964545663
 30
0.0
  0
INSERT
  5
7C12F
330
2
100
AcDbEntity
  8
0
100
AcDbBlockReference
  2
*U2
 10
496.5432141166417
 20
402.9502409247067
 30
0.0
  0
INSERT
  5
7C130
330
2
100
AcDbEntity
  8
0
100
AcDbBlockReference
  2
*U3
 10
497.1057244269991
 20
399.0145740457534
 30
0.0
  0
INSERT
  5
7C131
330
2
100
AcDbEntity
  8
0
100
AcDbBlockReference
  2
*U4
 10
498.1057434485376
 20
385.7082723500777
 30
0.0
  0
LINE
  5
80CAA
330
2
100
AcDbEntity
  8
0
  6
HIDDEN
 48
6.0
100
AcDbLine
 10
401.5981965658207
 20
353.6576782340302
 30
0.0
 11
416.0981965658207
 21
353.6576782340302
 31
0.0
  0
LINE
  5
80CAE
330
2
100
AcDbEntity
  8
0
  6
HIDDEN
 48
6.0
100
AcDbLine
 10
401.5981965658207
 20
353.6576782340302
 30
0.0
 11
398.4731965658207
 21
356.6576782340303
 31
0.0
  0
LINE
  5
80CAF
330
2
100
AcDbEntity
  8
0
  6
HIDDEN
 48
6.0
100
AcDbLine
 10
397.2231965658207
 20
356.6576782340303
 30
0.0
 11
398.4731965658207
 21
356.6576782340303
 31
0.0
  0
LINE
  5
80CB3
330
2
100
AcDbEntity
  8
0
  6
HIDDEN
 48
6.0
100
AcDbLine
 10
416.0981965658208
 20
353.6576782340302
 30
0.0
 11
419.9731965658207
 21
357.6576782340302
 31
0.0
  0
LINE
  5
80E1D
330
2
100
AcDbEntity
  8
0
100
AcDbLine
 10
421.2231965658207
 20
349.6576782340303
 30
0.0
 11
397.2231965658207
 21
349.6576782340303
 31
0.0
  0
LWPOLYLINE
  5
80E37
330
2
100
AcDbEntity
  8
0
100
AcDbPolyline
 90
        4
 70
     0
 43
0.12
 10
397.2231965658207
 20
349.6576782340302
 10
397.2231965658207
 20
357.6576782340302
 10
421.2231965658207
 20
357.6576782340302
 10
421.2231965658207
 20
349.6576782340302
  0
INSERT
  5
80E38
330
2
100
AcDbEntity
  8
A1
 62
     7
100
AcDbBlockReference
 66
     1
  2
PROFILE LOGO
 10
397.4529108731775
 20
351.7521854560823
 30
0.0
  0
ATTRIB
  5
80E39
330
80E38
100
AcDbEntity
  8
A1
 62
    22
100
AcDbText
 10
397.7354219675751
 20
350.0738872071758
 30
0.0
 40
0.2126953125
  1
0122
 72
     1
 11
398.1310412784584
 21
350.0738872071758
 31
0.0
100
AcDbAttribute
  2
XXXX
 70
     0
  0
SEQEND
  5
80E3A
330
80E38
100
AcDbEntity
  8
A1
 62
     7
  0
DIMENSION
  5
80E3B
330
2
100
AcDbEntity
  8
A1
 62
     7
100
AcDbDimension
  2
*D5
 10
416.0981965658207
 20
346.7207208103528
 30
0.0
 11
426.1492212020751
 21
346.7207208103528
 31
0.0
 70
   160
 71
     5
 42
-1.0
  3
STANDARD
100
AcDbAlignedDimension
 13
421.2231965658207
 23
349.6576782340302
 33
0.0
 14
416.0981965658207
 24
353.6576782340302
 34
0.0
100
AcDbRotatedDimension
1001
ACAD
1000
DSTYLE
1002
{
1070
    73
1070
     1
1070
    74
1070
     1
1070
    77
1070
     0
1070
   147
1040
0.5
1070
   279
1070
     1
1070
   288
1070
     1
1070
   289
1070
     3
1002
}
  0
DIMENSION
  5
80E4C
330
2
100
AcDbEntity
  8
A1
 62
     7
100
AcDbDimension
  2
*D6
 10
401.5981965658207
 20
346.7207208103528
 30
0.0
 11
408.9661477598757
 21
346.7207208103528
 31
0.0
 70
   160
 71
     5
 42
-1.0
  3
STANDARD
100
AcDbAlignedDimension
 13
416.0981965658207
 23
353.6576782340302
 33
0.0
 14
401.5981965658207
 24
353.6576782340302
 34
0.0
100
AcDbRotatedDimension
1001
ACAD
1000
DSTYLE
1002
{
1070
    73
1070
     1
1070
    74
1070
     1
1070
    77
1070
     0
1070
   147
1040
0.5
1070
   279
1070
     1
1070
   288
1070
     1
1070
   289
1070
     3
1002
}
  0
DIMENSION
  5
80E6A
330
2
100
AcDbEntity
  8
A1
 62
     7
100
AcDbDimension
  2
*D7
 10
397.2231965658207
 20
343.4242431716696
 30
0.0
 11
409.2554256650508
 21
343.4242431716696
 31
0.0
 70
   160
 71
     5
 42
-1.0
  3
STANDARD
100
AcDbAlignedDimension
 13
421.2231965658207
 23
349.6576782340303
 33
0.0
 14
397.2231965658207
 24
349.6576782340303
 34
0.0
100
AcDbRotatedDimension
1001
ACAD
1000
DSTYLE
1002
{
1070
    73
1070
     1
1070
    74
1070
     1
1070
    77
1070
     0
1070
   147
1040
0.5
1070
   279
1070
     1
1070
   288
1070
     1
1070
   289
1070
     3
1002
}
  0
DIMENSION
  5
80E78
330
2
100
AcDbEntity
  8
A1
 62
     7
100
AcDbDimension
  2
*D8
 10
397.2231965658207
 20
360.6006239437088
 30
0.0
 11
393.0558956167425
 21
360.6006239437088
 31
0.0
 70
   160
 71
     5
 42
-1.0
  3
STANDARD
100
AcDbAlignedDimension
 13
398.4731965658207
 23
356.6576782340303
 33
0.0
 14
397.2231965658207
 24
357.6576782340302
 34
0.0
100
AcDbRotatedDimension
1001
ACAD
1000
DSTYLE
1002
{
1070
    73
1070
     1
1070
    74
1070
     1
1070
    77
1070
     0
1070
   147
1040
0.5
1070
   279
1070
     1
1070
   288
1070
     1
1070
   289
1070
     3
1002
}
  0
DIMENSION
  5
80E88
330
2
100
AcDbEntity
  8
A1
 62
     7
100
AcDbDimension
  2
*D9
 10
421.2231965658207
 20
360.9476207385192
 30
0.0
 11
425.9177988779351
 21
360.9476207385192
 31
0.0
 70
   160
 71
     5
 42
-1.0
  3
STANDARD
100
AcDbAlignedDimension
 13
419.9731965658207
 23
357.6576782340302
 33
0.0
 14
421.2231965658207
 24
357.6576782340302
 34
0.0
100
AcDbRotatedDimension
1001
ACAD
1000
DSTYLE
1002
{
1070
    73
1070
     1
1070
    74
1070
     1
1070
    77
1070
     0
1070
   147
1040
0.5
1070
   279
1070
     1
1070
   288
1070
     1
1070
   289
1070
     3
1002
}
  0
DIMENSION
  5
80E99
330
2
100
AcDbEntity
  8
A1
 62
     7
100
AcDbDimension
  2
*D10
 10
391.3780882178404
 20
357.6576782340302
 30
0.0
 11
391.3780882178404
 21
355.0486620837676
 31
0.0
 70
   160
 71
     5
 42
-1.0
  3
STANDARD
100
AcDbAlignedDimension
 13
397.2231965658207
 23
356.6576782340303
 33
0.0
 14
397.2231965658207
 24
357.6576782340302
 34
0.0
 50
90.0
100
AcDbRotatedDimension
1001
ACAD
1000
DSTYLE
1002
{
1070
    73
1070
     1
1070
    74
1070
     1
1070
    77
1070
     0
1070
   147
1040
0.5
1070
   279
1070
     1
1070
   288
1070
     1
1070
   289
1070
     3
1002
}
  0
DIMENSION
  5
80EAA
330
2
100
AcDbEntity
  8
A1
 62
     7
100
AcDbDimension
  2
*D11
 10
397.2231965658207
 20
346.7207208103528
 30
0.0
 11
392.824474776307
 21
346.7207208103528
 31
0.0
 70
   160
 71
     5
 42
-1.0
  3
STANDARD
100
AcDbAlignedDimension
 13
401.5981965658207
 23
353.6576782340302
 33
0.0
 14
397.2231965658207
 24
349.6576782340302
 34
0.0
100
AcDbRotatedDimension
1001
ACAD
1000
DSTYLE
1002
{
1070
    73
1070
     1
1070
    74
1070
     1
1070
    77
1070
     0
1070
   147
1040
0.5
1070
   279
1070
     1
1070
   288
1070
     1
1070
   289
1070
     3
1002
}
  0
ATTDEF
  5
80EBF
330
2
100
AcDbEntity
  8
A1
 62
     1
100
AcDbText
 10
426.3202039528202
 20
366.1324195011412
 30
0.0
 40
1.0
  1

100
AcDbAttributeDefinition
  3
ADD LINK NUMBER (WMF)
  2
TS0122
 70
     0
  0
MTEXT
  5
80EC0
330
2
100
AcDbEntity
  8
0
 62
     1
100
AcDbMText
 10
426.3590364837953
 20
365.3851442786264
 30
0.0
 40
1.0
 41
0.0
 71
     1
 72
     1
  1
TannerStone
 73
     1
 44
1.0
1001
ACAD
1000
MTEXTBEGIN
1070
    73
1070
     1
1070
    44
1040
1.0
1070
    74
1070
     0
1000
MTEXTEND
  0
MTEXT
  5
80EC1
330
2
100
AcDbEntity
  8
0
 62
     1
100
AcDbMText
 10
426.4367788911437
 20
363.8679842122986
 30
0.0
 40
0.7386749999999999
 41
0.0
 71
     1
 72
     1
  1
1-800-789-4841
 73
     1
 44
1.0
1001
ACAD
1000
MTEXTBEGIN
1070
    73
1070
     1
1070
    44
1040
1.0
1070
    74
1070
     0
1000
MTEXTEND
  0
LINE
  5
80EC2
330
2
100
AcDbEntity
  8
0
 62
     1
100
AcDbLine
 10
420.0113155467194
 20
365.7496504265958
 30
0.0
 11
434.9407723650634
 21
365.7496504265958
 31
0.0
  0
LINE
  5
80EC3
330
2
100
AcDbEntity
  8
0
 62
     1
100
AcDbLine
 10
425.8333736037425
 20
362.7618728748202
 30
0.0
 11
425.8333736037425
 21
367.3163266376463
 31
0.0
  0
SOLID
  5
80EC4
330
2
100
AcDbEntity
  8
A1
 62
     1
100
AcDbTrace
 10
415.0380675564579
 20
358.0297693015174
 30
0.0
 11
414.898782471865
 21
358.1212976741006
 31
0.0
 12
414.6938398964119
 22
357.6576782340302
 32
0.0
 13
414.6938398964119
 23
357.6576782340302
 33
0.0
  0
LINE
  5
80EC5
330
2
100
AcDbEntity
  8
A1
 62
     1
100
AcDbLine
 10
414.9684250141614
 20
358.075533487809
 30
0.0
 11
420.0113155467194
 21
365.7496504265958
 31
0.0
  0
LINE
  5
80EC6
330
2
100
AcDbEntity
  8
A1
 62
     1
100
AcDbLine
 10
420.0113155467194
 20
365.7496504265958
 30
0.0
 11
420.5113155467194
 21
365.7496504265958
 31
0.0
  0
DIMENSION
  5
80F24
330
2
100
AcDbEntity
  8
A1
 62
     7
100
AcDbDimension
  2
*D12
 10
428.5043610484049
 20
357.6576782340302
 30
0.0
 11
428.5043610484049
 21
353.6803205256674
 31
0.0
 70
   160
 71
     5
 42
-1.0
  3
STANDARD
100
AcDbAlignedDimension
 13
421.2231965658207
 23
349.6576782340302
 33
0.0
 14
421.2231965658207
 24
357.6576782340302
 34
0.0
 50
90.0
100
AcDbRotatedDimension
1001
ACAD
1000
DSTYLE
1002
{
1070
    73
1070
     1
1070
    74
1070
     1
1070
    77
1070
     0
1070
   147
1040
0.5
1070
   279
1070
     1
1070
   288
1070
     1
1070
   289
1070
     3
1002
}
  0
INSERT
  5
80F6F
330
2
100
AcDbEntity
  8
A1
 62
     7
100
AcDbBlockReference
 66
     1
  2
TSFORMB
 10
385.6978801333955
 20
332.2349555819482
 30
0.0
 41
0.5
 42
0.5
 43
0.5
  0
ATTRIB
  5
80F70
330
80F6F
100
AcDbEntity
  8
A1
 62
     1
100
AcDbText
 10
402.9568175295436
 20
332.6931976569709
 30
0.0
 40
0.5127948
  1
WATER FOUNTAIN
 72
     1
 11
406.327961799423
 21
332.6931976569709
 31
0.0
100
AcDbAttribute
  2
XXXXXX
 70
     0
  0
ATTRIB
  5
80F71
330
80F6F
100
AcDbEntity
  8
A1
 62
     1
100
AcDbText
 10
394.1366123026523
 20
333.1724649340011
 30
0.0
 40
0.4200000000000001
  1
TS0122
 72
     2
 11
396.4747412891867
 21
333.1724649340011
 31
0.0
100
AcDbAttribute
  2
XXXXXX
 70
     0
  0
ATTRIB
  5
80F72
330
80F6F
100
AcDbEntity
  8
A1
 62
     1
100
AcDbText
 10
389.0961647361452
 20
333.7939369831843
 30
0.0
 40
3.066
  1
TS0122
  7
barcoder
 72
     1
 11
392.1238397361452
 21
333.7939369831843
 31
0.0
100
AcDbAttribute
  2
BARCODE
 70
     0
  0
ATTRIB
  5
80F73
330
80F6F
100
AcDbEntity
  8
A1
 62
     1
100
AcDbText
 10
432.4058911436554
 20
368.9349637481724
 30
0.0
 40
1.0395
  1
TS0122
 72
     1
 11
435.2993257644917
 21
368.9349637481724
 31
0.0
100
AcDbAttribute
  2
TS00XX
 70
     0
  0
ATTRIB
  5
80F74
330
80F6F
100
AcDbEntity
  8
A1
 62
     1
100
AcDbText
 10
434.9204388973245
 20
337.2744577895838
 30
0.0
 40
0.4725000000000002
  1
192.00"
 72
     1
 11
436.2858667853471
 21
337.2744577895838
 31
0.0
100
AcDbAttribute
  2
XXXXX
 70
     0
  0
ATTRIB
  5
80F75
330
80F6F
100
AcDbEntity
  8
A1
 62
     1
100
AcDbText
 10
435.0607437379777
 20
335.8447248897051
 30
0.0
 40
0.4725000000000002
  1
173.33
 72
     1
 11
436.2687832489629
 21
335.8447248897051
 31
0.0
100
AcDbAttribute
  2
XXXXX
 70
     0
  0
SEQEND
  5
80F76
330
80F6F
100
AcDbEntity
  8
A1
 62
     7
  0
ENDSEC
  0
SECTION
  2
OBJECTS
  0
DICTIONARY
  5
8
330
0
100
AcDbDictionary
281
     1
  3
ACAD_GROUP
350
21
  3
ACAD_LAYOUT
350
C
  3
ACAD_MLINESTYLE
350
22
  3
ACAD_PLOTSETTINGS
350
23
  3
ACAD_PLOTSTYLENAME
350
7
  3
ASE_INDEX_DICTIONARY
350
7C1BE
  3
DWGPROPS
350
81010
  0
DICTIONARY
  5
3
330
2
100
AcDbDictionary
280
     1
281
     1
  3
ACAD_LAYOUTSELFREF
360
80FA6
  0
DICTIONARY
  5
80FA9
330
D
100
AcDbDictionary
280
     1
281
     1
  3
ACAD_LAYOUTSELFREF
360
80FAA
  0
DICTIONARY
  5
21
102
{ACAD_REACTORS
330
8
102
}
330
8
100
AcDbDictionary
281
     1
  0
DICTIONARY
  5
C
102
{ACAD_REACTORS
330
8
102
}
330
8
100
AcDbDictionary
281
     1
  3
Layout1
350
10
  3
Model
350
B
  0
DICTIONARY
  5
22
102
{ACAD_REACTORS
330
8
102
}
330
8
100
AcDbDictionary
281
     1
  3
STANDARD
350
25
  0
DICTIONARY
  5
23
102
{ACAD_REACTORS
330
8
102
}
330
8
100
AcDbDictionary
281
     1
  3
EXOT1
350
7C0ED
  0
ACDBDICTIONARYWDFLT
  5
7
102
{ACAD_REACTORS
330
8
102
}
330
8
100
AcDbDictionary
281
     1
  3
Normal
350
6
100
AcDbDictionaryWithDefault
340
6
  0
DICTIONARY
  5
7C1BE
102
{ACAD_REACTORS
330
8
102
}
330
8
100
AcDbDictionary
281
     1
  3
ASEBlockHierarchyIndexRecord
350
7C1BF
1001
DCO15
1040
1362387192.969999
  0
XRECORD
  5
81010
102
{ACAD_REACTORS
330
8
102
}
330
8
100
AcDbXrecord
280
     1
  1
DWGPROPS COOKIE
  2

  3

  4

  6

  7

  8
catalog
  9

300
=
301
=
302
=
303
=
304
=
305
=
306
=
307
=
308
=
309
=
 40
2.124748032407407
 41
2451085.66483831
 42
2451660.536795601
  1

 90
        0
  0
XRECORD
  5
80FA6
102
{ACAD_REACTORS
330
3
102
}
330
3
100
AcDbXrecord
280
     1
340
2
  0
XRECORD
  5
80FAA
102
{ACAD_REACTORS
330
80FA9
102
}
330
80FA9
100
AcDbXrecord
280
     1
340
D
  0
LAYOUT
  5
10
102
{ACAD_REACTORS
330
C
102
}
330
C
100
AcDbPlotSettings
  1

  2
None
  4

  6

 40
0.0
 41
0.0
 42
0.0
 43
0.0
 44
0.0
 45
0.0
 46
0.0
 47
0.0
 48
0.0
 49
0.0
140
0.0
141
0.0
142
1.0
143
1.0
 70
   688
 72
     0
 73
     0
 74
     5
  7

 75
    16
147
1.0
148
0.0
149
0.0
100
AcDbLayout
  1
Layout1
 70
     1
 71
     1
 10
0.0
 20
0.0
 11
12.0
 21
9.0
 12
0.0
 22
0.0
 32
0.0
 14
1.000000000000000E+20
 24
1.000000000000000E+20
 34
1.000000000000000E+20
 15
-1.000000000000000E+20
 25
-1.000000000000000E+20
 35
-1.000000000000000E+20
146
0.0
 13
0.0
 23
0.0
 33
0.0
 16
1.0
 26
0.0
 36
0.0
 17
0.0
 27
1.0
 37
0.0
 76
     0
330
D
  0
LAYOUT
  5
B
102
{ACAD_REACTORS
330
C
102
}
330
C
100
AcDbPlotSettings
  1

  2
HP LaserJet 5.pc3
  4
Letter
  6

 40
7.143749713897705
 41
6.381738662719726
 42
7.14373779296875
 43
6.381744384765625
 44
215.8999938964843
 45
279.3999938964843
 46
0.0
 47
0.0
 48
102.934876613363
 49
-10.03275235899575
140
166.0256738086942
141
36.90064555460422
142
1.0
143
24.042521315592
 70
 11952
 72
     0
 73
     1
 74
     1
  7

 75
     0
147
0.0415929754984342
148
0.3115670784461372
149
0.2547471904138888
100
AcDbLayout
  1
Model
 70
     1
 71
     0
 10
0.0
 20
0.0
 11
12.0
 21
9.0
 12
0.0
 22
0.0
 32
0.0
 14
0.0
 24
0.0
 34
0.0
 15
0.0
 25
0.0
 35
0.0
146
0.0
 13
0.0
 23
0.0
 33
0.0
 16
1.0
 26
0.0
 36
0.0
 17
0.0
 27
1.0
 37
0.0
 76
     0
330
2
  0
MLINESTYLE
  5
25
102
{ACAD_REACTORS
330
22
102
}
330
22
100
AcDbMlineStyle
  2
STANDARD
 70
     0
  3

 62
   256
 51
90.0
 52
90.0
 71
     2
 49
0.5
 62
   256
  6
BYLAYER
 49
-0.5
 62
   256
  6
BYLAYER
  0
PLOTSETTINGS
  5
7C0ED
102
{ACAD_REACTORS
330
23
102
}
330
23
100
AcDbPlotSettings
  1
EXOT1
  2
none_device
  4
Letter_(8.50_x_11.00_Inches)
  6

 40
6.349999904632568
 41
6.349999904632568
 42
6.350006103515625
 43
6.350006103515625
 44
215.8999938964843
 45
279.3999938964843
 46
0.0
 47
0.0
 48
103.0850064956629
 49
-9.683547388295792
140
103.9154412227691
141
-9.137474670122287
142
1.0
143
6.008830949410951
 70
  1712
 72
     0
 73
     1
 74
     1
  7

 75
     0
147
0.1664217230305057
148
0.0244351407155108
149
0.0181773607759482
  0
ACDBPLACEHOLDER
  5
6
102
{ACAD_REACTORS
330
7
102
}
330
7
  0
XRECORD
  5
7C1BF
102
{ACAD_REACTORS
330
7C1BE
102
}
330
7C1BE
100
AcDbXrecord
280
     1
330
0
330
7C12C
330
7C12F
330
7C130
330
7C131
330
80E38
330
0
330
0
330
0
330
0
330
0
330
0
330
0
330
0
330
0
330
0
330
0
330
0
330
0
330
0
330
0
330
0
330
0
330
0
330
0
330
0
330
0
330
0
330
0
330
0
330
0
330
0
330
0
330
0
330
0
330
0
330
0
330
0
330
0
330
0
330
0
330
0
330
0
330
0
330
0
330
0
330
0
330
0
330
0
330
0
330
0
330
0
330
0
330
0
330
0
330
0
330
0
330
0
330
0
330
0
330
0
330
0
330
0
330
0
330
0
330
0
330
0
330
0
330
0
330
0
330
0
330
0
330
0
330
0
330
0
330
0
330
0
330
0
  0
ENDSEC
  0
EOF
