  0
SECTION
  2
HEADER
  9
$ACADVER
  1
AC1015
  9
$ACADMAINTVER
 70
     6
  9
$DWGCODEPAGE
  3
ANSI_1252
  9
$INSBASE
 10
0.0
 20
0.0
 30
0.0
  9
$EXTMIN
 10
13.47586282506079
 20
9.771314979977649
 30
0.0
  9
$EXTMAX
 10
70.71183404066521
 20
52.34929356719556
 30
0.0
  9
$LIMMIN
 10
0.0
 20
0.0
  9
$LIMMAX
 10
12.0
 20
9.0
  9
$ORTHOMODE
 70
     1
  9
$REGENMODE
 70
     1
  9
$FILLMODE
 70
     1
  9
$QTEXTMODE
 70
     0
  9
$MIRRTEXT
 70
     0
  9
$LTSCALE
 40
1.0
  9
$ATTMODE
 70
     2
  9
$TEXTSIZE
 40
1.0
  9
$TRACEWID
 40
0.05
  9
$TEXTSTYLE
  7
STANDARD
  9
$CLAYER
  8
LINEWORK
  9
$CELTYPE
  6
BYLAYER
  9
$CECOLOR
 62
     7
  9
$CELTSCALE
 40
1.0
  9
$DISPSILH
 70
     0
  9
$DIMSCALE
 40
0.0
  9
$DIMASZ
 40
0.5
  9
$DIMEXO
 40
1.0
  9
$DIMDLI
 40
0.0625
  9
$DIMRND
 40
0.0
  9
$DIMDLE
 40
0.0
  9
$DIMEXE
 40
0.25
  9
$DIMTP
 40
0.0
  9
$DIMTM
 40
0.0
  9
$DIMTXT
 40
1.0
  9
$DIMCEN
 40
0.0
  9
$DIMTSZ
 40
0.0
  9
$DIMTOL
 70
     0
  9
$DIMLIM
 70
     0
  9
$DIMTIH
 70
     1
  9
$DIMTOH
 70
     1
  9
$DIMSE1
 70
     0
  9
$DIMSE2
 70
     0
  9
$DIMTAD
 70
     0
  9
$DIMZIN
 70
     0
  9
$DIMBLK
  1

  9
$DIMASO
 70
     1
  9
$DIMSHO
 70
     1
  9
$DIMPOST
  1
"
  9
$DIMAPOST
  1

  9
$DIMALT
 70
     0
  9
$DIMALTD
 70
     0
  9
$DIMALTF
 40
25.4
  9
$DIMLFAC
 40
1.0
  9
$DIMTOFL
 70
     0
  9
$DIMTVP
 40
0.0
  9
$DIMTIX
 70
     0
  9
$DIMSOXD
 70
     0
  9
$DIMSAH
 70
     0
  9
$DIMBLK1
  1

  9
$DIMBLK2
  1

  9
$DIMSTYLE
  2
STANDARD
  9
$DIMCLRD
 70
     0
  9
$DIMCLRE
 70
     0
  9
$DIMCLRT
 70
     0
  9
$DIMTFAC
 40
0.125
  9
$DIMGAP
 40
0.5
  9
$DIMJUST
 70
     0
  9
$DIMSD1
 70
     0
  9
$DIMSD2
 70
     0
  9
$DIMTOLJ
 70
     1
  9
$DIMTZIN
 70
     0
  9
$DIMALTZ
 70
     2
  9
$DIMALTTZ
 70
     2
  9
$DIMUPT
 70
     1
  9
$DIMDEC
 70
     4
  9
$DIMTDEC
 70
     4
  9
$DIMALTU
 70
     2
  9
$DIMALTTD
 70
     0
  9
$DIMTXSTY
  7
STANDARD
  9
$DIMAUNIT
 70
     0
  9
$DIMADEC
 70
     0
  9
$DIMALTRND
 40
0.0
  9
$DIMAZIN
 70
     0
  9
$DIMDSEP
 70
    46
  9
$DIMATFIT
 70
     1
  9
$DIMFRAC
 70
     2
  9
$DIMLDRBLK
  1

  9
$DIMLUNIT
 70
     5
  9
$DIMLWD
 70
    -2
  9
$DIMLWE
 70
    -2
  9
$DIMTMOVE
 70
     1
  9
$LUNITS
 70
     5
  9
$LUPREC
 70
     4
  9
$SKETCHINC
 40
0.1
  9
$FILLETRAD
 40
0.0
  9
$AUNITS
 70
     0
  9
$AUPREC
 70
     1
  9
$MENU
  1
acad
  9
$ELEVATION
 40
0.0
  9
$PELEVATION
 40
0.0
  9
$THICKNESS
 40
0.0
  9
$LIMCHECK
 70
     0
  9
$CHAMFERA
 40
0.75
  9
$CHAMFERB
 40
0.75
  9
$CHAMFERC
 40
0.0
  9
$CHAMFERD
 40
0.0
  9
$SKPOLY
 70
     0
  9
$TDCREATE
 40
2451085.664838310
  9
$TDUCREATE
 40
2451085.831504977
  9
$TDUPDATE
 40
2451660.512596527
  9
$TDUUPDATE
 40
2451660.679263194
  9
$TDINDWG
 40
1.4206635417
  9
$TDUSRTIMER
 40
1.4206635417
  9
$USRTIMER
 70
     1
  9
$ANGBASE
 50
0.0
  9
$ANGDIR
 70
     0
  9
$PDMODE
 70
     0
  9
$PDSIZE
 40
0.0
  9
$PLINEWID
 40
0.0
  9
$SPLFRAME
 70
     0
  9
$SPLINETYPE
 70
     6
  9
$SPLINESEGS
 70
     8
  9
$HANDSEED
  5
ED25
  9
$SURFTAB1
 70
     6
  9
$SURFTAB2
 70
     6
  9
$SURFTYPE
 70
     6
  9
$SURFU
 70
     6
  9
$SURFV
 70
     6
  9
$UCSBASE
  2

  9
$UCSNAME
  2

  9
$UCSORG
 10
0.0
 20
0.0
 30
0.0
  9
$UCSXDIR
 10
1.0
 20
0.0
 30
0.0
  9
$UCSYDIR
 10
0.0
 20
1.0
 30
0.0
  9
$UCSORTHOREF
  2

  9
$UCSORTHOVIEW
 70
     0
  9
$UCSORGTOP
 10
0.0
 20
0.0
 30
0.0
  9
$UCSORGBOTTOM
 10
0.0
 20
0.0
 30
0.0
  9
$UCSORGLEFT
 10
0.0
 20
0.0
 30
0.0
  9
$UCSORGRIGHT
 10
0.0
 20
0.0
 30
0.0
  9
$UCSORGFRONT
 10
0.0
 20
0.0
 30
0.0
  9
$UCSORGBACK
 10
0.0
 20
0.0
 30
0.0
  9
$PUCSBASE
  2

  9
$PUCSNAME
  2

  9
$PUCSORG
 10
0.0
 20
0.0
 30
0.0
  9
$PUCSXDIR
 10
1.0
 20
0.0
 30
0.0
  9
$PUCSYDIR
 10
0.0
 20
1.0
 30
0.0
  9
$PUCSORTHOREF
  2

  9
$PUCSORTHOVIEW
 70
     0
  9
$PUCSORGTOP
 10
0.0
 20
0.0
 30
0.0
  9
$PUCSORGBOTTOM
 10
0.0
 20
0.0
 30
0.0
  9
$PUCSORGLEFT
 10
0.0
 20
0.0
 30
0.0
  9
$PUCSORGRIGHT
 10
0.0
 20
0.0
 30
0.0
  9
$PUCSORGFRONT
 10
0.0
 20
0.0
 30
0.0
  9
$PUCSORGBACK
 10
0.0
 20
0.0
 30
0.0
  9
$USERI1
 70
     0
  9
$USERI2
 70
     0
  9
$USERI3
 70
     0
  9
$USERI4
 70
     0
  9
$USERI5
 70
     0
  9
$USERR1
 40
0.0
  9
$USERR2
 40
0.0
  9
$USERR3
 40
0.0
  9
$USERR4
 40
0.0
  9
$USERR5
 40
0.0
  9
$WORLDVIEW
 70
     1
  9
$SHADEDGE
 70
     1
  9
$SHADEDIF
 70
    70
  9
$TILEMODE
 70
     1
  9
$MAXACTVP
 70
    16
  9
$PINSBASE
 10
0.0
 20
0.0
 30
0.0
  9
$PLIMCHECK
 70
     0
  9
$PEXTMIN
 10
1.000000000000000E+20
 20
1.000000000000000E+20
 30
1.000000000000000E+20
  9
$PEXTMAX
 10
-1.000000000000000E+20
 20
-1.000000000000000E+20
 30
-1.000000000000000E+20
  9
$PLIMMIN
 10
0.0
 20
0.0
  9
$PLIMMAX
 10
12.0
 20
9.0
  9
$UNITMODE
 70
     0
  9
$VISRETAIN
 70
     0
  9
$PLINEGEN
 70
     0
  9
$PSLTSCALE
 70
     1
  9
$TREEDEPTH
 70
  3020
  9
$CMLSTYLE
  2
STANDARD
  9
$CMLJUST
 70
     0
  9
$CMLSCALE
 40
1.0
  9
$PROXYGRAPHICS
 70
     1
  9
$MEASUREMENT
 70
     0
  9
$CELWEIGHT
370
    -1
  9
$ENDCAPS
280
     0
  9
$JOINSTYLE
280
     0
  9
$LWDISPLAY
290
     0
  9
$INSUNITS
 70
     0
  9
$HYPERLINKBASE
  1

  9
$STYLESHEET
  1

  9
$XEDIT
290
     1
  9
$CEPSNTYPE
380
     0
  9
$PSTYLEMODE
290
     1
  9
$FINGERPRINTGUID
  2
{A6232B84-9B2E-11D3-8DA4-00A0C981A35F}
  9
$VERSIONGUID
  2
{55C0B437-0C56-11D4-8DA4-00A0C981A35F}
  9
$EXTNAMES
290
     1
  9
$PSVPSCALE
 40
0.0
  9
$OLESTARTUP
290
     0
  0
ENDSEC
  0
SECTION
  2
CLASSES
  0
CLASS
  1
DICTIONARYVAR
  2
AcDbDictionaryVar
  3
AutoCAD 2000
 90
        0
280
     0
281
     0
  0
CLASS
  1
LWPOLYLINE
  2
AcDbPolyline
  3
AutoCAD 2000
 90
    32768
280
     0
281
     1
  0
CLASS
  1
RASTERVARIABLES
  2
AcDbRasterVariables
  3
ISM
 90
    32768
280
     0
281
     0
  0
CLASS
  1
ACDBDICTIONARYWDFLT
  2
AcDbDictionaryWithDefault
  3
AutoCAD 2000
 90
        0
280
     0
281
     0
  0
CLASS
  1
ACDBPLACEHOLDER
  2
AcDbPlaceHolder
  3
AutoCAD 2000
 90
        0
280
     0
281
     0
  0
CLASS
  1
LAYOUT
  2
AcDbLayout
  3
AutoCAD 2000
 90
        0
280
     0
281
     0
  0
CLASS
  1
ACME_DOCUMENT
  2
AcMeDbDoc
  3
AcMeServices
 90
    32768
280
     0
281
     0
  0
CLASS
  1
ACMESCOPE
  2
AcMeScope
  3
AcMeServices
 90
        0
280
     0
281
     0
  0
CLASS
  1
ACMECOMMANDHISTORY
  2
AcMeCommandHistory
  3
AcMeServices
 90
        0
280
     0
281
     0
  0
CLASS
  1
ACIMSYSVARMAN
  2
AcImSysVarManager
  3
AcMeServices
 90
        0
280
     0
281
     0
  0
CLASS
  1
ACIMREALSYSVAR
  2
AcImRealSysVar
  3
AcMeServices
 90
        0
280
     0
281
     0
  0
CLASS
  1
ACIMINTSYSVAR
  2
AcImIntSysVar
  3
AcMeServices
 90
        0
280
     0
281
     0
  0
CLASS
  1
ACMEDRAWINGMAN
  2
AcMeDrawingMan
  3
AcMeServices
 90
        0
280
     0
281
     0
  0
CLASS
  1
ACMEVIEW
  2
AcMeView
  3
AcMeServices
 90
        0
280
     0
281
     0
  0
CLASS
  1
ACDBENTITYCACHE
  2
AcMeEntityCache
  3
AcMeServices
 90
    32768
280
     0
281
     0
  0
CLASS
  1
GSMANAGER
  2
AcMeGSManager
  3
AcMeServices
 90
    32768
280
     0
281
     0
  0
CLASS
  1
AmdtInternalReactor
  2
AmdtInternalReactor
  3
AcMeServices
 90
    32768
280
     0
281
     0
  0
CLASS
  1
ACMESTATEMGR
  2
AcMeStateMgr
  3
AcMeServices
 90
        0
280
     0
281
     0
  0
CLASS
  1
ACGREFMASTER
  2
AcGrefMaster
  3
AcAttribServices
 90
        0
280
     0
281
     0
  0
CLASS
  1
AM_DRAWING_MGR
  2
AcDmDwgMgr
  3
AcMechDwgViewMgmt
 90
        0
280
     0
281
     0
  0
CLASS
  1
AM_DWG_DOCUMENT
  2
AcDmDwgDocument
  3
AcMechDwgViewMgmt
 90
        0
280
     0
281
     0
  0
CLASS
  1
AM_DWG_SHEET
  2
AcDmSheet
  3
AcMechDwgViewMgmt
 90
        0
280
     0
281
     0
  0
CLASS
  1
AM_VIEWDIMPARMAP
  2
AcDmViewDimParMap
  3
AcMechDwgViewMgmt
 90
        0
280
     0
281
     0
  0
CLASS
  1
AM_DWGMGR_NAME
  2
AcDmDwgMgrName
  3
AcMechDwgViewMgmt
 90
        0
280
     0
281
     0
  0
CLASS
  1
ACME_DATABASE
  2
AcMeDbDatabase
  3
AcMeServices
 90
    32768
280
     0
281
     0
  0
CLASS
  1
ACRFINSADJUSTERMGR
  2
AcRfInsAdjusterMgr
  3
AcMeServices
 90
    32768
280
     0
281
     0
  0
CLASS
  1
ACGREFMASTER
  2
AcGrefacadMaster
  3
AcGrefServices
 90
        0
280
     0
281
     0
  0
CLASS
  1
AMDTMENUSTATEMGR
  2
AmdtMenuStateMgr
  3
McadcomServices
 90
    32768
280
     0
281
     0
  0
CLASS
  1
AMDTMCOMMENUSTATE
  2
AmdtMcomMenuState
  3
McadcomServices
 90
    32768
280
     0
281
     0
  0
CLASS
  1
ASAPP
  2
AcAsAppObject
  3
AutoSurfServices
 90
        0
280
     0
281
     0
  0
CLASS
  1
IM_STATIC_MAN
  2
AcImStaticVarManager
  3
AcMeServices
 90
        0
280
     0
281
     0
  0
CLASS
  1
ACIMSTRSYSVAR
  2
AcImStrSysVar
  3
AcMeServices
 90
        0
280
     0
281
     0
  0
CLASS
  1
ACIMDBLSTATICVAR
  2
AcImDblStaticVar
  3
AcMeServices
 90
        0
280
     0
281
     0
  0
CLASS
  1
ACIMSTRSTATICVAR
  2
AcImStrStaticVar
  3
AcMeServices
 90
        0
280
     0
281
     0
  0
CLASS
  1
ACIMINTSTATICVAR
  2
AcImIntStaticVar
  3
AcMeServices
 90
        0
280
     0
281
     0
  0
CLASS
  1
ACADGREFMODULE
  2
AcAdGrefModule
  3
AdGrefServices
 90
        0
280
     0
281
     0
  0
CLASS
  1
AMIMASTER
  2
AmiMaster
  3
AmiServices
 90
        0
280
     0
281
     0
  0
CLASS
  1
ACASGREFMASTER
  2
AcAsGrefMaster
  3
AutoSurfResolverServices
 90
        0
280
     0
281
     0
  0
CLASS
  1
MAPIAMMOUDLE
  2
MApiAmModule
  3
MApiAmServices
 90
        0
280
     0
281
     0
  0
CLASS
  1
AMDTDMMENUSTATE
  2
AmdtDmMenuState
  3
AcMechDwgViewMgmt
 90
    32768
280
     0
281
     0
  0
CLASS
  1
AMDTADMENUSTATE
  2
AmdtAdMenuState
  3
DesignerServices
 90
    32768
280
     0
281
     0
  0
CLASS
  1
ADAPPL
  2
AcAdAppl
  3
DesignerServices
 90
        0
280
     0
281
     0
  0
CLASS
  1
DEPMGR
  2
AcAdDepMgr
  3
DesignerServices
 90
        0
280
     0
281
     0
  0
CLASS
  1
PARAMMGR
  2
AcAdParamMgr
  3
DesignerServices
 90
        0
280
     0
281
     0
  0
CLASS
  1
PARAMSCOPE
  2
AcAdParamScope
  3
DesignerServices
 90
        0
280
     0
281
     0
  0
CLASS
  1
NAMEDAPPL
  2
AcAdNamedAppl
  3
DesignerServices
 90
        0
280
     0
281
     0
  0
CLASS
  1
ADHNTMPLT
  2
AdHoleNoteTemplateMgr
  3
DesignerServices
 90
        0
280
     0
281
     0
  0
CLASS
  1
AM_HNTEMPLATE_MGR_NAME
  2
AdHoleNoteTemplateMgrName
  3
DesignerServices
 90
        0
280
     0
281
     0
  0
CLASS
  1
AMDTAMMENUSTATE
  2
AmdtAmMenuState
  3
DesignerAssemblies
 90
    32768
280
     0
281
     0
  0
CLASS
  1
ACAMPROJECT
  2
AcAmProject
  3
DesignerAssemblies
 90
        0
280
     0
281
     0
  0
CLASS
  1
ACAMGRCOMPDEF
  2
AcAmGrCompDef
  3
DesignerAssemblies
 90
        0
280
     0
281
     0
  0
CLASS
  1
ACCMCONTEXT
  2
AcCmContext
  3
DesignerAssemblies
 90
        0
280
     0
281
     0
  0
CLASS
  1
ACAMCOMPDEF
  2
AcAmCompDef
  3
DesignerAssemblies
 90
        0
280
     0
281
     0
  0
CLASS
  1
ACAMCOMPDEFMGR
  2
AcAmCompDefMgr
  3
DesignerAssemblies
 90
        0
280
     0
281
     0
  0
CLASS
  1
AMCONTEXTMGR
  2
AcAmContextMgr
  3
DesignerAssemblies
 90
        0
280
     0
281
     0
  0
CLASS
  1
ACAMCONTEXTMODELER
  2
AcAmContextModeler
  3
DesignerAssemblies
 90
        0
280
     0
281
     0
  0
CLASS
  1
MAPIADMODULE
  2
MApiAdModule
  3
MApiAdServices
 90
        0
280
     0
281
     0
  0
CLASS
  1
ACMDATADICTIONARY
  2
AcmDataDictionary
  3
"AcmSymBB|Product Description: AutoCAD Mechanical 2000|Company: Autodesk"
 90
        0
280
     0
281
     0
  0
CLASS
  1
ACMDATAENTRYBLOCK
  2
AcmDataEntryBlock
  3
"AcmSymBB|Product Description: AutoCAD Mechanical 2000|Company: Autodesk"
 90
        0
280
     0
281
     0
  0
CLASS
  1
AMDTBROWSERDBTAB
  2
AmdtBrowserDbTab
  3
McadcomServices
 90
    32768
280
     0
281
     0
  0
CLASS
  1
CBROWSERAPPOBJECT
  2
CBrowserAppObject
  3
McadcomServices
 90
    32768
280
     0
281
     0
  0
CLASS
  1
DM_PLACEHOLDER
  2
AcDmSelsetPlaceholder
  3
AcMechDwgViewMgmt
 90
    32768
280
     0
281
     0
  0
CLASS
  1
CATALOGSTATE
  2
AcAmCatalogState
  3
DesignerAssemblies
 90
        0
280
     0
281
     0
  0
CLASS
  1
ACAMGRCOMPDEFSET
  2
AcAmGrCompDefSet
  3
DesignerAssemblies
 90
    32768
280
     0
281
     0
  0
CLASS
  1
AMGOBJPROPCFG
  2
AmgObjPropCfg
  3
"AmgLay|Product Description: AutoCAD Mechanical 2000|Company: Autodesk"
 90
        1
280
     0
281
     0
  0
CLASS
  1
LAYER_INDEX
  2
AcDbLayerIndex
  3
AutoCAD 2000
 90
        0
280
     0
281
     0
  0
CLASS
  1
IDBUFFER
  2
AcDbIdBuffer
  3
AutoCAD 2000
 90
        0
280
     0
281
     0
  0
CLASS
  1
ACRFATTGENMGR
  2
AcRfAttGeneralMgr
  3
AcAttribServices
 90
    32768
280
     0
281
     0
  0
CLASS
  1
PLOTSETTINGS
  2
AcDbPlotSettings
  3
AutoCAD 2000
 90
        0
280
     0
281
     0
  0
CLASS
  1
ACAD_PROXY_OBJECT_WRAPPER
  2
AcDbProxyObjectWrapper
  3
AutoCAD 2000
 90
        0
280
     0
281
     0
  0
CLASS
  1
LONG_TRANSACTION
  2
AcDbLongTransaction
  3
AutoCAD 2000
 90
    32768
280
     0
281
     0
  0
CLASS
  1
LWPOLYLINE
  2
AcDbPolyline
  3
AutoCAD 2000
 90
    32768
280
     0
281
     1
  0
CLASS
  1
HATCH
  2
AcDbHatch
  3
AutoCAD 2000
 90
    32768
280
     0
281
     1
  0
CLASS
  1
XRECORD
  2
AcDbXrecord
  3
AutoCAD 2000
 90
    32768
280
     0
281
     0
  0
ENDSEC
  0
SECTION
  2
TABLES
  0
TABLE
  2
VPORT
  5
12
330
0
100
AcDbSymbolTable
 70
     2
  0
VPORT
  5
ED24
330
12
100
AcDbSymbolTableRecord
100
AcDbViewportTableRecord
  2
*Active
 70
     0
 10
0.0
 20
0.0
 11
1.0
 21
1.0
 12
107.3170765375741
 22
-1.964373389277817
 13
0.0
 23
0.0
 14
1.0
 24
1.0
 15
0.0
 25
0.0
 16
0.0
 26
0.0
 36
1.0
 17
-64.46234487877643
 27
33.0238264231553
 37
6.148717398612387
 40
43.96351916088965
 41
1.413068844807467
 42
50.0
 43
-6.148717398612387
 44
-6.148717398612387
 50
0.0
 51
0.0
 71
     0
 72
 20000
 73
     1
 74
     1
 75
     0
 76
     0
 77
     0
 78
     0
281
     0
 65
     1
110
0.0
120
0.0
130
0.0
111
1.0
121
0.0
131
0.0
112
0.0
122
1.0
132
0.0
 79
     0
146
0.0
  0
ENDTAB
  0
TABLE
  2
LTYPE
  5
D
330
0
100
AcDbSymbolTable
 70
     8
  0
LTYPE
  5
E
330
D
100
AcDbSymbolTableRecord
100
AcDbLinetypeTableRecord
  2
BYBLOCK
 70
     0
  3

 72
    65
 73
     0
 40
0.0
  0
LTYPE
  5
F
330
D
100
AcDbSymbolTableRecord
100
AcDbLinetypeTableRecord
  2
BYLAYER
 70
     0
  3

 72
    65
 73
     0
 40
0.0
  0
LTYPE
  5
5
330
D
100
AcDbSymbolTableRecord
100
AcDbLinetypeTableRecord
  2
CONTINUOUS
 70
     0
  3
Solid line
 72
    65
 73
     0
 40
0.0
  0
LTYPE
  5
6CF
330
D
100
AcDbSymbolTableRecord
100
AcDbLinetypeTableRecord
  2
HIDDEN
 70
     0
  3
Hidden __ __ __ __ __ __ __ __ __ __ __ __ __ _
 72
    65
 73
     2
 40
0.375
 49
0.25
 74
     0
 49
-0.125
 74
     0
  0
LTYPE
  5
6D0
330
D
100
AcDbSymbolTableRecord
100
AcDbLinetypeTableRecord
  2
PHANTOM2
 70
     0
  3
Phantom (.5x) ___ _ _ ___ _ _ ___ _ _ ___ _ _
 72
    65
 73
     6
 40
1.25
 49
0.625
 74
     0
 49
-0.125
 74
     0
 49
0.125
 74
     0
 49
-0.125
 74
     0
 49
0.125
 74
     0
 49
-0.125
 74
     0
  0
LTYPE
  5
6D1
330
D
100
AcDbSymbolTableRecord
100
AcDbLinetypeTableRecord
  2
CENTER
 70
     0
  3
Center ____ _ ____ _ ____ _ ____ _ ____ _ ____
 72
    65
 73
     4
 40
2.0
 49
1.25
 74
     0
 49
-0.25
 74
     0
 49
0.25
 74
     0
 49
-0.25
 74
     0
  0
LTYPE
  5
764
330
D
100
AcDbSymbolTableRecord
100
AcDbLinetypeTableRecord
  2
Amconstr
 70
     0
  3
_______________________
 72
    65
 73
     2
 40
9999.0
 49
9999.0
 74
     0
 49
0.0
 74
     0
  0
LTYPE
  5
76A
330
D
100
AcDbSymbolTableRecord
100
AcDbLinetypeTableRecord
  2
HIDDEN2
 70
     0
  3
Hidden (.5x) _ _ _ _ _ _ _ _ _ _ _ _ _ _ _ _ _
 72
    65
 73
     2
 40
0.1875
 49
0.125
 74
     0
 49
-0.0625
 74
     0
  0
LTYPE
  5
76B
330
D
100
AcDbSymbolTableRecord
100
AcDbLinetypeTableRecord
  2
CENTER2
 70
     0
  3
Center (.5x) ___ _ ___ _ ___ _ ___ _ ___ _ ___
 72
    65
 73
     4
 40
1.125
 49
0.75
 74
     0
 49
-0.125
 74
     0
 49
0.125
 74
     0
 49
-0.125
 74
     0
  0
LTYPE
  5
76C
330
D
100
AcDbSymbolTableRecord
100
AcDbLinetypeTableRecord
  2
Amzigzag2
 70
     0
  3
/\/-/\/-/\/-/\/-/\/-/\/
 72
    65
 73
     2
 40
0.4401
 49
0.0001
 74
     4
 75
   135
340
768
 46
0.0016
 50
0.0
 44
0.0
 45
0.0
 49
-0.4400000000000001
 74
     0
  0
ENDTAB
  0
TABLE
  2
LAYER
  5
A
330
0
100
AcDbSymbolTable
 70
     4
  0
LAYER
  5
4
330
A
100
AcDbSymbolTableRecord
100
AcDbLayerTableRecord
  2
0
 70
     0
 62
     7
  6
CONTINUOUS
370
    -3
390
6A2
  0
LAYER
  5
34
330
A
100
AcDbSymbolTableRecord
100
AcDbLayerTableRecord
  2
DEFPOINTS
 70
     0
 62
     7
  6
CONTINUOUS
290
     0
370
    -3
390
6A2
  0
LAYER
  5
362
330
A
100
AcDbSymbolTableRecord
100
AcDbLayerTableRecord
  2
LINEWORK
 70
     0
 62
     7
  6
CONTINUOUS
370
    -3
390
6A2
  0
LAYER
  5
D570
330
A
100
AcDbSymbolTableRecord
100
AcDbLayerTableRecord
  2
A1
 70
     0
 62
     7
  6
CONTINUOUS
370
    -3
390
6A2
  0
ENDTAB
  0
TABLE
  2
STYLE
  5
B
330
0
100
AcDbSymbolTable
 70
     4
  0
STYLE
  5
C
330
B
100
AcDbSymbolTableRecord
100
AcDbTextStyleTableRecord
  2
STANDARD
 70
     0
 40
0.0
 41
1.0
 50
0.0
 71
     0
 42
1.0
  3
unvr55w.ttf
  4

1001
ACAD
1000
Univers
1071
       34
  0
STYLE
  5
768
330
B
100
AcDbSymbolTableRecord
100
AcDbTextStyleTableRecord
  2

 70
     1
 40
0.0
 41
1.0
 50
0.0
 71
     0
 42
3.0
  3
ltypeshp.shx
  4

  0
STYLE
  5
EC74
330
B
100
AcDbSymbolTableRecord
100
AcDbTextStyleTableRecord
  2
ROMANC
 70
     0
 40
0.0
 41
1.0
 50
0.0
 71
     0
 42
0.5
  3
TIMESBD.TTF
  4

1001
ACAD
1000
Times New Roman
1071
 33554450
  0
STYLE
  5
EC75
330
B
100
AcDbSymbolTableRecord
100
AcDbTextStyleTableRecord
  2
barcoder
 70
     0
 40
0.0
 41
1.0
 50
0.0
 71
     0
 42
4.5625
  3
cw_barcd.ttf
  4

1001
ACAD
1000
Barcoder
1071
 33554434
  0
ENDTAB
  0
TABLE
  2
VIEW
  5
10
330
0
100
AcDbSymbolTable
 70
     0
  0
ENDTAB
  0
TABLE
  2
UCS
  5
11
330
0
100
AcDbSymbolTable
 70
     0
  0
ENDTAB
  0
TABLE
  2
APPID
  5
14
330
0
100
AcDbSymbolTable
 70
    17
  0
APPID
  5
15
330
14
100
AcDbSymbolTableRecord
100
AcDbRegAppTableRecord
  2
ACAD
 70
     0
  0
APPID
  5
200
330
14
100
AcDbSymbolTableRecord
100
AcDbRegAppTableRecord
  2
AVE_MATERIAL
 70
     0
  0
APPID
  5
6AB
330
14
100
AcDbSymbolTableRecord
100
AcDbRegAppTableRecord
  2
GENIUS_GENDIM_13
 70
     0
  0
APPID
  5
6AC
330
14
100
AcDbSymbolTableRecord
100
AcDbRegAppTableRecord
  2
GENIUS_GENDTOL_13
 70
     0
  0
APPID
  5
6AD
330
14
100
AcDbSymbolTableRecord
100
AcDbRegAppTableRecord
  2
GENIUS_GE3DTOL_13
 70
     0
  0
APPID
  5
6AF
330
14
100
AcDbSymbolTableRecord
100
AcDbRegAppTableRecord
  2
MCAD_NO_VIS
 70
     0
  0
APPID
  5
6B0
330
14
100
AcDbSymbolTableRecord
100
AcDbRegAppTableRecord
  2
ACAD_TEMP_GRAPHIC
 70
     0
  0
APPID
  5
6E5
330
14
100
AcDbSymbolTableRecord
100
AcDbRegAppTableRecord
  2
AD_DRAW
 70
     0
  0
APPID
  5
6E8
330
14
100
AcDbSymbolTableRecord
100
AcDbRegAppTableRecord
  2
ACATTRIBSERVICES
 70
     0
  0
APPID
  5
720
330
14
100
AcDbSymbolTableRecord
100
AcDbRegAppTableRecord
  2
ASURF_PCURVE_APPNAME
 70
     0
  0
APPID
  5
751
330
14
100
AcDbSymbolTableRecord
100
AcDbRegAppTableRecord
  2
DESIGNERASSEMBLIES
 70
     0
  0
APPID
  5
75A
330
14
100
AcDbSymbolTableRecord
100
AcDbRegAppTableRecord
  2
ACADM_DIM_EDIT
 70
     0
  0
APPID
  5
A17
330
14
100
AcDbSymbolTableRecord
100
AcDbRegAppTableRecord
  2
AVE_RENDER
 70
     0
  0
APPID
  5
A18
330
14
100
AcDbSymbolTableRecord
100
AcDbRegAppTableRecord
  2
AVE_ENTITY_MATERIAL
 70
     0
  0
APPID
  5
A19
330
14
100
AcDbSymbolTableRecord
100
AcDbRegAppTableRecord
  2
AVE_FINISH
 70
     0
  0
APPID
  5
A1A
330
14
100
AcDbSymbolTableRecord
100
AcDbRegAppTableRecord
  2
AVE_GLOBAL
 70
     0
  0
APPID
  5
B05
330
14
100
AcDbSymbolTableRecord
100
AcDbRegAppTableRecord
  2
DCO15
 70
     0
  0
ENDTAB
  0
TABLE
  2
DIMSTYLE
  5
16
330
0
100
AcDbSymbolTable
 70
     1
100
AcDbDimStyleTable
 71
     0
  0
DIMSTYLE
105
1D
102
{ACAD_REACTORS
330
E767
330
E777
330
E787
330
EB32
330
EB48
102
}
330
16
100
AcDbSymbolTableRecord
100
AcDbDimStyleTableRecord
  2
STANDARD
 70
     0
  3
"
 41
0.5
 42
1.0
 43
0.0625
 44
0.25
 73
     0
 74
     0
 77
     3
140
1.0
141
0.0
146
0.125
147
0.125
171
     0
274
     0
276
     2
277
     5
285
     2
286
     2
289
     0
340
C
  0
ENDTAB
  0
TABLE
  2
BLOCK_RECORD
  5
1
330
0
100
AcDbSymbolTable
 70
    12
  0
BLOCK_RECORD
  5
2
102
{ACAD_XDICTIONARY
360
7BC
102
}
330
1
100
AcDbSymbolTableRecord
100
AcDbBlockTableRecord
  2
*MODEL_SPACE
340
6A5
  0
BLOCK_RECORD
  5
7
102
{ACAD_XDICTIONARY
360
ECDF
102
}
330
1
100
AcDbSymbolTableRecord
100
AcDbBlockTableRecord
  2
*PAPER_SPACE
340
6A6
  0
BLOCK_RECORD
  5
748
330
1
100
AcDbSymbolTableRecord
100
AcDbBlockTableRecord
  2
*U0
340
0
  0
BLOCK_RECORD
  5
DA97
330
1
100
AcDbSymbolTableRecord
100
AcDbBlockTableRecord
  2
*U1
340
0
102
{BLKREFS
331
DB7F
102
}
  0
BLOCK_RECORD
  5
DF5F
330
1
100
AcDbSymbolTableRecord
100
AcDbBlockTableRecord
  2
*U2
340
0
102
{BLKREFS
331
DFEC
102
}
  0
BLOCK_RECORD
  5
E130
330
1
100
AcDbSymbolTableRecord
100
AcDbBlockTableRecord
  2
*U3
340
0
102
{BLKREFS
331
E1CA
102
}
  0
BLOCK_RECORD
  5
E2E5
330
1
100
AcDbSymbolTableRecord
100
AcDbBlockTableRecord
  2
*U4
340
0
102
{BLKREFS
331
E370
102
}
  0
BLOCK_RECORD
  5
E749
330
1
100
AcDbSymbolTableRecord
100
AcDbBlockTableRecord
  2
TSLOGOA
340
0
102
{BLKREFS
331
E764
102
}
  0
BLOCK_RECORD
  5
E768
330
1
100
AcDbSymbolTableRecord
100
AcDbBlockTableRecord
  2
*D6
340
0
  0
BLOCK_RECORD
  5
E778
330
1
100
AcDbSymbolTableRecord
100
AcDbBlockTableRecord
  2
*D7
340
0
  0
BLOCK_RECORD
  5
E788
330
1
100
AcDbSymbolTableRecord
100
AcDbBlockTableRecord
  2
*D8
340
0
  0
BLOCK_RECORD
  5
EB33
330
1
100
AcDbSymbolTableRecord
100
AcDbBlockTableRecord
  2
*D9
340
0
  0
BLOCK_RECORD
  5
EB49
330
1
100
AcDbSymbolTableRecord
100
AcDbBlockTableRecord
  2
*D10
340
0
  0
BLOCK_RECORD
  5
EC76
330
1
100
AcDbSymbolTableRecord
100
AcDbBlockTableRecord
  2
TSFORMB
340
0
102
{BLKREFS
331
ECA4
102
}
  0
ENDTAB
  0
ENDSEC
  0
SECTION
  2
BLOCKS
  0
BLOCK
  5
3
330
2
100
AcDbEntity
  8
0
100
AcDbBlockBegin
  2
*MODEL_SPACE
 70
     0
 10
0.0
 20
0.0
 30
0.0
  3
*MODEL_SPACE
  1

  0
ENDBLK
  5
6
330
2
100
AcDbEntity
  8
0
100
AcDbBlockEnd
  0
BLOCK
  5
8
330
7
100
AcDbEntity
 67
     1
  8
0
100
AcDbBlockBegin
  2
*PAPER_SPACE
 70
     0
 10
0.0
 20
0.0
 30
0.0
  3
*PAPER_SPACE
  1

  0
ENDBLK
  5
9
330
7
100
AcDbEntity
 67
     1
  8
0
100
AcDbBlockEnd
  0
BLOCK
  5
749
330
748
100
AcDbEntity
  8
0
100
AcDbBlockBegin
  2
*U0
 70
     1
 10
0.0
 20
0.0
 30
0.0
  3
*U0
  1

  0
ENDBLK
  5
74A
330
748
100
AcDbEntity
  8
0
100
AcDbBlockEnd
  0
BLOCK
  5
DA98
330
DA97
100
AcDbEntity
  8
0
100
AcDbBlockBegin
  2
*U1
 70
     1
 10
0.0
 20
0.0
 30
0.0
  3
*U1
  1

  0
ENDBLK
  5
DA99
330
DA97
100
AcDbEntity
  8
0
100
AcDbBlockEnd
  0
BLOCK
  5
DF60
330
DF5F
100
AcDbEntity
  8
0
100
AcDbBlockBegin
  2
*U2
 70
     1
 10
0.0
 20
0.0
 30
0.0
  3
*U2
  1

  0
ENDBLK
  5
DF61
330
DF5F
100
AcDbEntity
  8
0
100
AcDbBlockEnd
  0
BLOCK
  5
E131
330
E130
100
AcDbEntity
  8
0
100
AcDbBlockBegin
  2
*U3
 70
     1
 10
0.0
 20
0.0
 30
0.0
  3
*U3
  1

  0
ENDBLK
  5
E132
330
E130
100
AcDbEntity
  8
0
100
AcDbBlockEnd
  0
BLOCK
  5
E2E6
330
E2E5
100
AcDbEntity
  8
0
100
AcDbBlockBegin
  2
*U4
 70
     1
 10
0.0
 20
0.0
 30
0.0
  3
*U4
  1

  0
ENDBLK
  5
E2E7
330
E2E5
100
AcDbEntity
  8
0
100
AcDbBlockEnd
  0
BLOCK
  5
E762
330
E749
100
AcDbEntity
  8
0
 62
     1
100
AcDbBlockBegin
  2
TSLOGOA
 70
     2
 10
0.0
 20
0.0
 30
0.0
  3
TSLOGOA
  1

  0
ATTDEF
  5
E74A
330
E749
100
AcDbEntity
  8
A1
 62
    22
100
AcDbText
 10
1.519034766532826
 20
-2.111985446184142
 30
0.0
 40
0.25
  1

 72
     1
 11
1.519034766532826
 21
-2.111985446184142
 31
0.0
100
AcDbAttributeDefinition
  3
add # logo
  2
ADD_LOGO_NUMBER
 70
     0
  0
LWPOLYLINE
  5
E74B
330
E749
100
AcDbEntity
  8
0
 62
    22
100
AcDbPolyline
 90
        4
 70
     0
 43
0.0
 10
1.083392456186928
 20
-0.5951152006849583
 10
1.974709623413716
 20
-0.5951152006849583
 10
1.981312178606899
 20
-0.8524704925388277
 10
1.944999125263095
 20
-0.8524704925388277
  0
LINE
  5
E74C
330
E749
100
AcDbEntity
  8
0
 62
    22
100
AcDbLine
 10
1.288065443592557
 20
-1.680626713328898
 30
0.0
 11
1.760133358895387
 21
-1.680626713328898
 31
0.0
  0
LINE
  5
E74D
330
E749
100
AcDbEntity
  8
0
 62
    22
100
AcDbLine
 10
0.8853220239744814
 20
-1.83569974753685
 30
0.0
 11
2.166177944974606
 21
-1.83569974753685
 31
0.0
  0
LWPOLYLINE
  5
E74E
330
E749
100
AcDbEntity
  8
0
 62
    22
100
AcDbPolyline
 90
        4
 70
     1
 43
0.0
 10
0.8853220239744672
 20
-0.4532398947660568
 10
2.166177944974606
 20
-0.4532398947660568
 10
2.166177944974606
 20
-2.155744112169514
 10
0.8853220239744672
 20
-2.155744112169514
  0
HATCH
  5
E74F
330
E749
100
AcDbEntity
  8
0
 62
    22
100
AcDbHatch
 10
0.0
 20
0.0
 30
0.0
210
0.0
220
0.0
230
1.0
  2
LINE
 70
     0
 71
     0
 91
        1
 92
       33
 93
       38
 72
     1
 10
1.974709623413716
 20
-0.5951152006849583
 11
1.076790123264544
 21
-0.5951152006849583
 72
     1
 10
1.076790123264558
 20
-0.5951152006849583
 11
1.066886623881032
 21
-0.849171060466574
 72
     1
 10
1.066886623881032
 20
-0.849171060466574
 11
1.096597344302466
 21
-0.849171060466574
 72
     1
 10
1.096597344302466
 20
-0.849171060466574
 11
1.103199677224836
 21
-0.8062785801213436
 72
     1
 10
1.103199677224836
 20
-0.8062785801213436
 11
1.113103176608348
 21
-0.7666853952541999
 72
     1
 10
1.113103176608362
 20
-0.7666853952541999
 11
1.132910175375428
 21
-0.733691211125759
 72
     1
 10
1.132910175375428
 20
-0.733691211125759
 11
1.156018340603679
 21
-0.7105951866199192
 72
     1
 10
1.156018340603694
 20
-0.7105951866199263
 11
1.18572906102517
 21
-0.6907985941863757
 72
     1
 10
1.185729061025156
 20
-0.6907985941863757
 11
1.215439559175749
 21
-0.6743014338250717
 72
     1
 10
1.215439559175749
 20
-0.6743014338250646
 11
1.241848890865185
 21
-0.6677027062746959
 72
     1
 10
1.241848890865199
 20
-0.6677027062746959
 11
1.268258444825477
 21
-0.6677027062746959
 72
     1
 10
1.268258444825477
 20
-0.6677027062746959
 11
1.330980607587889
 21
-0.6710020017527967
 72
     1
 10
1.330980607587889
 20
-0.6710020017527967
 11
1.373895993854063
 21
-0.6973974583308831
 72
     1
 10
1.373895993854063
 20
-0.6973974583308831
 11
1.433316990155276
 21
-0.7633859631819462
 72
     1
 10
1.433316990155276
 20
-0.7633859631819604
 11
1.449823044731999
 21
-0.8161768763381189
 72
     1
 10
1.449823044732013
 20
-0.8161768763381189
 11
1.449823044732013
 21
-1.581643887755241
 72
     1
 10
1.449823044732013
 20
-1.581643887755234
 11
1.423413490771736
 21
-1.627835800172711
 72
     1
 10
1.423413490771721
 20
-1.627835800172718
 11
1.357390161548124
 21
-1.650931824678558
 72
     1
 10
1.357390161548138
 20
-1.650931824678551
 11
1.297968942976069
 21
-1.650931824678551
 72
     1
 10
1.297968942976069
 20
-1.650931824678551
 11
1.291366610053728
 21
-1.674027849184369
 72
     1
 10
1.291366610053742
 20
-1.674027849184383
 11
1.753531025973018
 21
-1.674027849184383
 72
     1
 10
1.753531025973003
 20
-1.674027849184383
 11
1.753531025973003
 21
-1.650931824678565
 72
     1
 10
1.753531025973003
 20
-1.650931824678551
 11
1.674302808633868
 21
-1.650931824678551
 72
     1
 10
1.674302808633868
 20
-1.650931824678551
 11
1.611580423600628
 21
-1.611338776405574
 72
     1
 10
1.611580423600628
 20
-1.611338776405574
 11
1.601676924217116
 21
-1.565146727393909
 72
     1
 10
1.601676924217102
 20
-1.565146727393923
 11
1.598375757755917
 21
-0.8194763084103868
 72
     1
 10
1.598375757755917
 20
-0.8194763084103868
 11
1.614881590061798
 21
-0.7633859631819604
 72
     1
 10
1.614881590061813
 20
-0.7633859631819604
 11
1.657796976327986
 21
-0.7072957545476797
 72
     1
 10
1.657796976327986
 20
-0.7072957545476726
 11
1.720519361361226
 21
-0.6743014338250646
 72
     1
 10
1.720519361361226
 20
-0.6743014338250646
 11
1.796446189968335
 21
-0.6644032742024422
 72
     1
 10
1.796446189968335
 20
-0.6644032742024422
 11
1.869072074385144
 21
-0.6907985941863615
 72
     1
 10
1.869072074385144
 20
-0.6907985941863757
 11
1.91528862711246
 21
-0.7336912111257732
 72
     1
 10
1.91528862711246
 20
-0.733691211125759
 11
1.94499912526308
 21
-0.7864819876877718
 72
     1
 10
1.944999125263095
 20
-0.7864819876877789
 11
1.951601458185464
 21
-0.849171060466574
 72
     1
 10
1.951601458185464
 20
-0.849171060466574
 11
1.97470962341373
 21
-0.849171060466574
 72
     1
 10
1.974709623413716
 20
-0.849171060466574
 11
1.968107290491346
 21
-0.6017140648294799
 72
     1
 10
1.968107290491346
 20
-0.6017140648294799
 11
1.968107290491346
 21
-0.598414632757212
 72
     1
 10
1.968107290491346
 20
-0.598414632757212
 11
1.964806124030161
 21
-0.598414632757212
 97
        0
 75
     0
 76
     1
 52
0.0
 41
0.078125
 77
     0
 78
     1
 53
0.0
 43
-27.32374620302127
 44
-33.41682257274365
 45
0.0
 46
0.009765625
 79
     0
 98
        1
 10
-27.32374620302127
 20
-33.41682257274365
  0
ARC
  5
E750
330
E749
100
AcDbEntity
  8
0
 62
    22
100
AcDbCircle
 10
1.271083507155225
 20
-0.839272764249813
 30
0.0
 40
0.1716611005230106
100
AcDbArc
 50
359.6316189828552
 51
90.00081606717127
  0
LINE
  5
E751
330
E749
100
AcDbEntity
  8
0
 62
    22
100
AcDbLine
 10
1.073489179074215
 20
-0.5951152006849654
 30
0.0
 11
1.066886623881032
 21
-0.8524704925388277
 31
0.0
  0
ARC
  5
E752
330
E749
100
AcDbEntity
  8
0
 62
    22
100
AcDbCircle
 10
1.275317330329954
 20
-0.839272764249813
 30
0.0
 40
0.1716611005230106
100
AcDbArc
 50
89.99918393282873
 51
180.3683810171443
  0
LINE
  5
E753
330
E749
100
AcDbEntity
  8
0
 62
    22
100
AcDbLine
 10
1.103659777856037
 20
-0.8403764451085677
 30
0.0
 11
1.103659777856037
 21
-0.8525544979507344
 31
0.0
  0
LINE
  5
E754
330
E749
100
AcDbEntity
  8
0
 62
    22
100
AcDbLine
 10
1.066886623881032
 20
-0.8524704925388277
 30
0.0
 11
1.103199677224836
 21
-0.8524704925388277
 31
0.0
  0
LINE
  5
E755
330
E749
100
AcDbEntity
  8
0
 62
    22
100
AcDbLine
 10
1.442714679449835
 20
-1.553503577304617
 30
0.0
 11
1.443220711809644
 21
-1.55194899910488
 31
0.0
  0
LINE
  5
E756
330
E749
100
AcDbEntity
  8
0
 62
    22
100
AcDbLine
 10
1.288065443592557
 20
-1.64763239260629
 30
0.0
 11
1.347391307975826
 21
-1.64763239260629
 31
0.0
  0
LINE
  5
E757
330
E749
100
AcDbEntity
  8
0
 62
    22
100
AcDbLine
 10
1.288065443592557
 20
-1.680626713328898
 30
0.0
 11
1.288065443592557
 21
-1.64763239260629
 31
0.0
  0
ARC
  5
E758
330
E749
100
AcDbEntity
  8
0
 62
    22
100
AcDbCircle
 10
1.347046788179525
 20
-1.551781261469422
 30
0.0
 40
0.0956833935014068
100
AcDbArc
 50
270.2063009286852
 51
358.9686114340253
  0
LINE
  5
E759
330
E749
100
AcDbEntity
  8
0
 62
    22
100
AcDbLine
 10
1.443220711809644
 20
-0.8403764451085677
 30
0.0
 11
1.443220711809644
 21
-1.55194899910488
 31
0.0
  0
ARC
  5
E75A
330
E749
100
AcDbEntity
  8
0
 62
    22
100
AcDbCircle
 10
1.77711529533272
 20
-0.839272764249813
 30
0.0
 40
0.1716611005230106
100
AcDbArc
 50
89.99918393282873
 51
180.3683810171443
  0
ARC
  5
E75B
330
E749
100
AcDbEntity
  8
0
 62
    22
100
AcDbCircle
 10
1.77288147215799
 20
-0.839272764249813
 30
0.0
 40
0.1716611005230106
100
AcDbArc
 50
359.6316189828552
 51
90.00081606717127
  0
LINE
  5
E75C
330
E749
100
AcDbEntity
  8
0
 62
    22
100
AcDbLine
 10
1.944539024631893
 20
-0.8403764451085677
 30
0.0
 11
1.944539024631893
 21
-0.8525544979507344
 31
0.0
  0
LINE
  5
E75D
330
E749
100
AcDbEntity
  8
0
 62
    22
100
AcDbLine
 10
1.760133358895387
 20
-1.680626713328898
 30
0.0
 11
1.760133358895387
 21
-1.64763239260629
 31
0.0
  0
LINE
  5
E75E
330
E749
100
AcDbEntity
  8
0
 62
    22
100
AcDbLine
 10
1.760133358895387
 20
-1.64763239260629
 30
0.0
 11
1.700807494512105
 21
-1.64763239260629
 31
0.0
  0
ARC
  5
E75F
330
E749
100
AcDbEntity
  8
0
 62
    22
100
AcDbCircle
 10
1.701152014308405
 20
-1.551781261469422
 30
0.0
 40
0.0956833935014068
100
AcDbArc
 50
181.0313885659746
 51
269.7936990713146
  0
LINE
  5
E760
330
E749
100
AcDbEntity
  8
0
 62
    22
100
AcDbLine
 10
1.605484123038095
 20
-1.553503577304617
 30
0.0
 11
1.604978090678287
 21
-1.55194899910488
 31
0.0
  0
LINE
  5
E761
330
E749
100
AcDbEntity
  8
0
 62
    22
100
AcDbLine
 10
1.604978090678301
 20
-0.8403764451085677
 30
0.0
 11
1.604978090678287
 21
-1.55194899910488
 31
0.0
  0
ENDBLK
  5
E763
330
E749
100
AcDbEntity
  8
0
 62
     1
100
AcDbBlockEnd
  0
BLOCK
  5
E775
330
E768
100
AcDbEntity
  8
0
 62
     1
100
AcDbBlockBegin
  2
*D6
 70
     1
 10
0.0
 20
0.0
 30
0.0
  3
*D6
  1

  0
LINE
  5
ECEB
330
E768
100
AcDbEntity
  8
A1
 62
     0
100
AcDbLine
 10
27.25226041614411
 20
28.04288164546169
 30
0.0
 11
21.26094958614469
 21
28.04288164546169
 31
0.0
  0
LINE
  5
ECEC
330
E768
100
AcDbEntity
  8
A1
 62
     0
100
AcDbLine
 10
27.25226041614411
 20
31.29288164546169
 30
0.0
 11
21.26094958614469
 21
31.29288164546169
 31
0.0
  0
LINE
  5
ECED
330
E768
100
AcDbEntity
  8
A1
 62
     0
100
AcDbLine
 10
21.51094958614469
 20
27.54288164546169
 30
0.0
 11
21.51094958614469
 21
27.04288164546169
 31
0.0
  0
LINE
  5
ECEE
330
E768
100
AcDbEntity
  8
A1
 62
     0
100
AcDbLine
 10
21.51094958614469
 20
31.79288164546169
 30
0.0
 11
21.51094958614469
 21
32.29288164546169
 31
0.0
  0
LINE
  5
ECEF
330
E768
100
AcDbEntity
  8
A1
 62
     0
100
AcDbLine
 10
22.01094958614469
 20
33.78312544414495
 30
0.0
 11
21.51094958614469
 21
33.78312544414495
 31
0.0
  0
LINE
  5
ECF0
330
E768
100
AcDbEntity
  8
A1
 62
     0
100
AcDbLine
 10
21.51094958614469
 20
33.78312544414495
 30
0.0
 11
21.51094958614469
 21
32.29288164546169
 31
0.0
  0
MTEXT
  5
ECF1
330
E768
100
AcDbEntity
  8
A1
 62
     0
100
AcDbMText
 10
24.80010621265071
 20
33.78312544414495
 30
0.0
 40
1.0
 41
0.0
 71
     5
 72
     1
  1
\A1;3 1/4"
 73
     1
 44
1.0
  0
SOLID
  5
ECF2
330
E768
100
AcDbEntity
  8
A1
 62
     0
100
AcDbTrace
 10
21.42761625281135
 20
27.54288164546169
 30
0.0
 11
21.59428291947802
 21
27.54288164546169
 31
0.0
 12
21.51094958614469
 22
28.04288164546169
 32
0.0
 13
21.51094958614469
 23
28.04288164546169
 33
0.0
  0
SOLID
  5
ECF3
330
E768
100
AcDbEntity
  8
A1
 62
     0
100
AcDbTrace
 10
21.42761625281135
 20
31.79288164546169
 30
0.0
 11
21.59428291947802
 21
31.79288164546169
 31
0.0
 12
21.51094958614469
 22
31.29288164546169
 32
0.0
 13
21.51094958614469
 23
31.29288164546169
 33
0.0
  0
POINT
  5
ECF4
330
E768
100
AcDbEntity
  8
DEFPOINTS
 62
     0
100
AcDbPoint
 10
28.25226041614411
 20
28.04288164546169
 30
0.0
  0
POINT
  5
ECF5
330
E768
100
AcDbEntity
  8
DEFPOINTS
 62
     0
100
AcDbPoint
 10
28.25226041614411
 20
31.29288164546169
 30
0.0
  0
POINT
  5
ECF6
330
E768
100
AcDbEntity
  8
DEFPOINTS
 62
     0
100
AcDbPoint
 10
21.51094958614469
 20
31.29288164546169
 30
0.0
  0
ENDBLK
  5
E776
330
E768
100
AcDbEntity
  8
0
 62
     1
100
AcDbBlockEnd
  0
BLOCK
  5
E785
330
E778
100
AcDbEntity
  8
0
 62
     1
100
AcDbBlockBegin
  2
*D7
 70
     1
 10
0.0
 20
0.0
 30
0.0
  3
*D7
  1

  0
LINE
  5
ECF7
330
E778
100
AcDbEntity
  8
A1
 62
     0
100
AcDbLine
 10
46.37726041614411
 20
28.04288164546169
 30
0.0
 11
49.82398266927503
 21
28.04288164546169
 31
0.0
  0
LINE
  5
ECF8
330
E778
100
AcDbEntity
  8
A1
 62
     0
100
AcDbLine
 10
46.37726041614411
 20
28.54288164546169
 30
0.0
 11
49.82398266927503
 21
28.54288164546169
 31
0.0
  0
LINE
  5
ECF9
330
E778
100
AcDbEntity
  8
A1
 62
     0
100
AcDbLine
 10
49.57398266927504
 20
27.54288164546169
 30
0.0
 11
49.57398266927504
 21
27.04288164546169
 31
0.0
  0
LINE
  5
ECFA
330
E778
100
AcDbEntity
  8
A1
 62
     0
100
AcDbLine
 10
49.57398266927504
 20
29.04288164546169
 30
0.0
 11
49.57398266927504
 21
29.54288164546169
 31
0.0
  0
LINE
  5
ECFB
330
E778
100
AcDbEntity
  8
A1
 62
     0
100
AcDbLine
 10
50.07398266927504
 20
25.03719942673321
 30
0.0
 11
49.57398266927504
 21
25.03719942673321
 31
0.0
  0
LINE
  5
ECFC
330
E778
100
AcDbEntity
  8
A1
 62
     0
100
AcDbLine
 10
49.57398266927504
 20
25.03719942673321
 30
0.0
 11
49.57398266927504
 21
27.04288164546169
 31
0.0
  0
MTEXT
  5
ECFD
330
E778
100
AcDbEntity
  8
A1
 62
     0
100
AcDbMText
 10
52.06760421427857
 20
25.03719942673322
 30
0.0
 40
1.0
 41
0.0
 71
     5
 72
     1
  1
\A1;1/2"
 73
     1
 44
1.0
  0
SOLID
  5
ECFE
330
E778
100
AcDbEntity
  8
A1
 62
     0
100
AcDbTrace
 10
49.4906493359417
 20
27.54288164546169
 30
0.0
 11
49.65731600260838
 21
27.54288164546169
 31
0.0
 12
49.57398266927504
 22
28.04288164546169
 32
0.0
 13
49.57398266927504
 23
28.04288164546169
 33
0.0
  0
SOLID
  5
ECFF
330
E778
100
AcDbEntity
  8
A1
 62
     0
100
AcDbTrace
 10
49.4906493359417
 20
29.04288164546169
 30
0.0
 11
49.65731600260838
 21
29.04288164546169
 31
0.0
 12
49.57398266927504
 22
28.54288164546169
 32
0.0
 13
49.57398266927504
 23
28.54288164546169
 33
0.0
  0
POINT
  5
ED00
330
E778
100
AcDbEntity
  8
DEFPOINTS
 62
     0
100
AcDbPoint
 10
45.37726041614411
 20
28.04288164546169
 30
0.0
  0
POINT
  5
ED01
330
E778
100
AcDbEntity
  8
DEFPOINTS
 62
     0
100
AcDbPoint
 10
45.37726041614411
 20
28.54288164546169
 30
0.0
  0
POINT
  5
ED02
330
E778
100
AcDbEntity
  8
DEFPOINTS
 62
     0
100
AcDbPoint
 10
49.57398266927504
 20
28.54288164546169
 30
0.0
  0
ENDBLK
  5
E786
330
E778
100
AcDbEntity
  8
0
 62
     1
100
AcDbBlockEnd
  0
BLOCK
  5
E793
330
E788
100
AcDbEntity
  8
0
 62
     1
100
AcDbBlockBegin
  2
*D8
 70
     1
 10
0.0
 20
0.0
 30
0.0
  3
*D8
  1

  0
LINE
  5
ED03
330
E788
100
AcDbEntity
  8
A1
 62
     0
100
AcDbLine
 10
28.25226041614411
 20
27.04288164546169
 30
0.0
 11
28.25226041614411
 21
22.41330525512645
 31
0.0
  0
LINE
  5
ED04
330
E788
100
AcDbEntity
  8
A1
 62
     0
100
AcDbLine
 10
45.37726041614411
 20
27.04288164546169
 30
0.0
 11
45.37726041614411
 21
22.41330525512645
 31
0.0
  0
LINE
  5
ED05
330
E788
100
AcDbEntity
  8
A1
 62
     0
100
AcDbLine
 10
28.75226041614411
 20
22.66330525512646
 30
0.0
 11
33.74166338349068
 21
22.66330525512646
 31
0.0
  0
LINE
  5
ED06
330
E788
100
AcDbEntity
  8
A1
 62
     0
100
AcDbLine
 10
44.8772604161441
 20
22.66330525512646
 30
0.0
 11
40.03082000999671
 21
22.66330525512646
 31
0.0
  0
MTEXT
  5
ED07
330
E788
100
AcDbEntity
  8
A1
 62
     0
100
AcDbMText
 10
36.88624169674369
 20
22.66330525512646
 30
0.0
 40
1.0
 41
0.0
 71
     5
 72
     1
  1
\A1;17 1/8"
 73
     1
 44
1.0
  0
SOLID
  5
ED08
330
E788
100
AcDbEntity
  8
A1
 62
     0
100
AcDbTrace
 10
28.75226041614411
 20
22.74663858845979
 30
0.0
 11
28.75226041614411
 21
22.57997192179312
 31
0.0
 12
28.25226041614411
 22
22.66330525512646
 32
0.0
 13
28.25226041614411
 23
22.66330525512646
 33
0.0
  0
SOLID
  5
ED09
330
E788
100
AcDbEntity
  8
A1
 62
     0
100
AcDbTrace
 10
44.8772604161441
 20
22.74663858845979
 30
0.0
 11
44.8772604161441
 21
22.57997192179312
 31
0.0
 12
45.37726041614411
 22
22.66330525512646
 32
0.0
 13
45.37726041614411
 23
22.66330525512646
 33
0.0
  0
POINT
  5
ED0A
330
E788
100
AcDbEntity
  8
DEFPOINTS
 62
     0
100
AcDbPoint
 10
28.25226041614411
 20
28.04288164546169
 30
0.0
  0
POINT
  5
ED0B
330
E788
100
AcDbEntity
  8
DEFPOINTS
 62
     0
100
AcDbPoint
 10
45.37726041614411
 20
28.04288164546169
 30
0.0
  0
POINT
  5
ED0C
330
E788
100
AcDbEntity
  8
DEFPOINTS
 62
     0
100
AcDbPoint
 10
45.37726041614411
 20
22.66330525512646
 30
0.0
  0
ENDBLK
  5
E794
330
E788
100
AcDbEntity
  8
0
 62
     1
100
AcDbBlockEnd
  0
BLOCK
  5
EB3A
330
EB33
100
AcDbEntity
  8
0
 62
     7
100
AcDbBlockBegin
  2
*D9
 70
     1
 10
0.0
 20
0.0
 30
0.0
  3
*D9
  1

  0
LINE
  5
ED0D
330
EB33
100
AcDbEntity
  8
LINEWORK
 62
     0
100
AcDbLine
 10
49.15159486166013
 20
32.63117744338199
 30
0.0
 11
48.65159486166013
 21
32.63117744338199
 31
0.0
  0
LINE
  5
ED0E
330
EB33
100
AcDbEntity
  8
LINEWORK
 62
     0
100
AcDbLine
 10
48.65159486166013
 20
32.63117744338199
 30
0.0
 11
46.82099109096705
 21
31.11423725253479
 31
0.0
  0
MTEXT
  5
ED0F
330
EB33
100
AcDbEntity
  8
LINEWORK
 62
     0
100
AcDbMText
 10
52.38157360014347
 20
32.63117744338198
 30
0.0
 40
1.0
 41
0.0
 71
     5
 72
     1
  1
\A1;R1 3/8"
 73
     1
 44
1.0
  0
SOLID
  5
ED10
330
EB33
100
AcDbEntity
  8
LINEWORK
 62
     0
100
AcDbTrace
 10
46.76781973065268
 20
31.1784030603047
 30
0.0
 11
46.8741624512814
 21
31.05007144476489
 31
0.0
 12
46.43599624434759
 22
30.79520909064863
 32
0.0
 13
46.43599624434759
 23
30.79520909064863
 33
0.0
  0
POINT
  5
ED11
330
EB33
100
AcDbEntity
  8
DEFPOINTS
 62
     0
100
AcDbPoint
 10
46.43599624434759
 20
30.79520909064863
 30
0.0
  0
POINT
  5
ED12
330
EB33
100
AcDbEntity
  8
DEFPOINTS
 62
     0
100
AcDbPoint
 10
45.3772604161441
 20
29.91788164546169
 30
0.0
  0
ENDBLK
  5
EB3B
330
EB33
100
AcDbEntity
  8
0
 62
     7
100
AcDbBlockEnd
  0
BLOCK
  5
EB54
330
EB49
100
AcDbEntity
  8
0
 62
     7
100
AcDbBlockBegin
  2
*D10
 70
     1
 10
0.0
 20
0.0
 30
0.0
  3
*D10
  1

  0
LINE
  5
ED13
330
EB49
100
AcDbEntity
  8
LINEWORK
 62
     0
100
AcDbLine
 10
28.25226041614411
 20
32.89299644182698
 30
0.0
 11
28.25226041614411
 21
37.69633530296351
 31
0.0
  0
LINE
  5
ED14
330
EB49
100
AcDbEntity
  8
LINEWORK
 62
     0
100
AcDbLine
 10
46.75203520738813
 20
32.89299644182698
 30
0.0
 11
46.75203520738813
 21
37.69633530296351
 31
0.0
  0
LINE
  5
ED15
330
EB49
100
AcDbEntity
  8
LINEWORK
 62
     0
100
AcDbLine
 10
28.75226041614411
 20
37.44633530296352
 30
0.0
 11
33.68170548907174
 21
37.44633530296352
 31
0.0
  0
LINE
  5
ED16
330
EB49
100
AcDbEntity
  8
LINEWORK
 62
     0
100
AcDbLine
 10
46.25203520738813
 20
37.44633530296352
 30
0.0
 11
39.97086211557776
 21
37.44633530296352
 31
0.0
  0
MTEXT
  5
ED17
330
EB49
100
AcDbEntity
  8
LINEWORK
 62
     0
100
AcDbMText
 10
36.82628380232475
 20
37.44633530296352
 30
0.0
 40
1.0
 41
0.0
 71
     5
 72
     1
  1
\A1;18 1/2"
 73
     1
 44
1.0
  0
SOLID
  5
ED18
330
EB49
100
AcDbEntity
  8
LINEWORK
 62
     0
100
AcDbTrace
 10
28.75226041614411
 20
37.52966863629685
 30
0.0
 11
28.75226041614411
 21
37.36300196963018
 31
0.0
 12
28.25226041614411
 22
37.44633530296352
 32
0.0
 13
28.25226041614411
 23
37.44633530296352
 33
0.0
  0
SOLID
  5
ED19
330
EB49
100
AcDbEntity
  8
LINEWORK
 62
     0
100
AcDbTrace
 10
46.25203520738813
 20
37.52966863629685
 30
0.0
 11
46.25203520738813
 21
37.36300196963018
 31
0.0
 12
46.75203520738813
 22
37.44633530296352
 32
0.0
 13
46.75203520738813
 23
37.44633530296352
 33
0.0
  0
POINT
  5
ED1A
330
EB49
100
AcDbEntity
  8
DEFPOINTS
 62
     0
100
AcDbPoint
 10
28.25226041614411
 20
31.89299644182698
 30
0.0
  0
POINT
  5
ED1B
330
EB49
100
AcDbEntity
  8
DEFPOINTS
 62
     0
100
AcDbPoint
 10
46.75203520738813
 20
31.89299644182698
 30
0.0
  0
POINT
  5
ED1C
330
EB49
100
AcDbEntity
  8
DEFPOINTS
 62
     0
100
AcDbPoint
 10
46.75203520738813
 20
37.44633530296352
 30
0.0
  0
ENDBLK
  5
EB55
330
EB49
100
AcDbEntity
  8
0
 62
     7
100
AcDbBlockEnd
  0
BLOCK
  5
ECA2
330
EC76
100
AcDbEntity
  8
0
 62
     7
100
AcDbBlockBegin
  2
TSFORMB
 70
     2
 10
0.0
 20
0.0
 30
0.0
  3
TSFORMB
  1

  0
LINE
  5
EC77
330
EC76
100
AcDbEntity
  8
0
100
AcDbLine
 10
105.9925392881563
 20
78.84810849484797
 30
0.0
 11
105.9925392881563
 21
70.31072004936999
 31
0.0
  0
LINE
  5
EC78
330
EC76
100
AcDbEntity
  8
0
100
AcDbLine
 10
105.9925392881563
 20
0.0
 30
0.0
 11
105.9925392881563
 21
78.84810849484797
 31
0.0
  0
LINE
  5
EC79
330
EC76
100
AcDbEntity
  8
0
100
AcDbLine
 10
0.0
 20
0.0
 30
0.0
 11
105.9925392881563
 21
0.0
 31
0.0
  0
LINE
  5
EC7A
330
EC76
100
AcDbEntity
  8
0
100
AcDbLine
 10
0.0
 20
78.84810849484797
 30
0.0
 11
0.0
 21
0.0
 31
0.0
  0
LINE
  5
EC7B
330
EC76
100
AcDbEntity
  8
0
100
AcDbLine
 10
56.87404547169354
 20
0.0
 30
0.0
 11
56.87404547169354
 21
12.46470592426129
 31
0.0
  0
TEXT
  5
EC7C
330
EC76
100
AcDbEntity
  8
0
 62
     7
100
AcDbText
 10
39.28098221173831
 20
10.97304845086642
 30
0.0
 40
0.8085000000000002
  1
LEGEND
100
AcDbText
  0
TEXT
  5
EC7D
330
EC76
100
AcDbEntity
  8
0
 62
     7
100
AcDbText
 10
38.18320344075362
 20
3.401999220949562
 30
0.0
 40
0.8400000000000002
  1
CATEGORY
 72
     1
 11
41.47652732452399
 21
3.401999220949562
 31
0.0
100
AcDbText
  0
LINE
  5
EC7E
330
EC76
100
AcDbEntity
  8
0
 62
     7
100
AcDbLine
 10
26.78791925899645
 20
8.549200111339303
 30
0.0
 11
29.32320076794366
 21
8.549200111339303
 31
0.0
  0
TEXT
  5
EC7F
330
EC76
100
AcDbEntity
  8
0
 62
     7
100
AcDbText
 10
30.56536100380196
 20
8.165961840384341
 30
0.0
 40
1.05
  1
- Unfinished Side
100
AcDbText
  0
LINE
  5
EC80
330
EC76
100
AcDbEntity
  8
0
100
AcDbLine
 10
25.9704997615305
 20
0.0
 30
0.0
 11
25.9704997615305
 21
12.46470592426129
 31
0.0
  0
ATTDEF
  5
EC81
330
EC76
100
AcDbEntity
  8
A1
 62
     1
100
AcDbText
 10
41.26016333205519
 20
0.916484150045278
 30
0.0
 40
1.025589599999999
  1

 72
     1
 11
41.26016333205519
 21
0.916484150045278
 31
0.0
100
AcDbAttributeDefinition
  3
ADD CATEGORY NAMES
  2
XXXXXX
 70
     0
  0
ATTDEF
  5
EC82
330
EC76
100
AcDbEntity
  8
A1
 62
     1
100
AcDbText
 10
21.55372231158242
 20
1.875018704105684
 30
0.0
 40
0.8400000000000002
  1

 72
     2
 11
21.55372231158242
 21
1.875018704105684
 31
0.0
100
AcDbAttributeDefinition
  3
ADD BARCODE TEXT
  2
XXXXXX
 70
     0
  0
LINE
  5
EC83
330
EC76
100
AcDbEntity
  8
0
 62
     7
100
AcDbLine
 10
25.9704997615305
 20
12.46470592426129
 30
0.0
 11
0.0
 21
12.46470592426129
 31
0.0
  0
ATTDEF
  5
EC84
330
EC76
100
AcDbEntity
  8
A1
 62
     1
100
AcDbText
 10
12.85191920549937
 20
3.11796280247222
 30
0.0
 40
6.132000000000001
  1

  7
barcoder
 72
     1
 11
12.85191920549937
 21
3.11796280247222
 31
0.0
100
AcDbAttributeDefinition
  3
ADD BARCODE NUMBER
  2
BARCODE
 70
     0
  0
LINE
  5
EC85
330
EC76
100
AcDbEntity
  8
0
 62
     7
100
AcDbLine
 10
56.87404547169354
 20
10.31505184057846
 30
0.0
 11
25.9704997615305
 21
10.31505184057846
 31
0.0
  0
LINE
  5
EC86
330
EC76
100
AcDbEntity
  8
0
 62
     7
100
AcDbLine
 10
56.87404547169354
 20
2.864660228904256
 30
0.0
 11
25.9704997615305
 21
2.864660228904256
 31
0.0
  0
LINE
  5
EC87
330
EC76
100
AcDbEntity
  8
0
 62
     7
100
AcDbLine
 10
56.87404547169354
 20
4.753491724833224
 30
0.0
 11
25.9704997615305
 21
4.753491724833224
 31
0.0
  0
LINE
  5
EC88
330
EC76
100
AcDbEntity
  8
0
100
AcDbLine
 10
92.45878286761296
 20
70.31072004936999
 30
0.0
 11
92.45878286761296
 21
78.84810849484797
 31
0.0
  0
ATTDEF
  5
EC89
330
EC76
100
AcDbEntity
  8
A1
 62
     1
100
AcDbText
 10
99.20289126219257
 20
73.40001633244828
 30
0.0
 40
2.079
  1

 72
     1
 11
99.20289126219257
 21
73.40001633244828
 31
0.0
100
AcDbAttributeDefinition
  3
ADD PAGE NUMBER
  2
TS00XX
 70
     0
  0
LINE
  5
EC8A
330
EC76
100
AcDbEntity
  8
0
100
AcDbLine
 10
105.9925392881563
 20
70.31072004936999
 30
0.0
 11
92.45878286761296
 21
70.31072004936999
 31
0.0
  0
LINE
  5
EC8B
330
EC76
100
AcDbEntity
  8
0
100
AcDbLine
 10
105.9925392881563
 20
78.84810849484797
 30
0.0
 11
0.0
 21
78.84810849484797
 31
0.0
  0
TEXT
  5
EC8C
330
EC76
100
AcDbEntity
  8
0
 62
     7
100
AcDbText
 10
101.0916707105178
 20
4.784832420392319
 30
0.0
 40
0.8459472656250001
  1
1:1
100
AcDbText
  0
ARC
  5
EC8D
330
EC76
100
AcDbEntity
  8
0
 62
     7
100
AcDbCircle
 10
92.02173719823599
 20
7.854684255185304
 30
0.0
 40
0.5838368232859321
100
AcDbArc
 50
297.5553548372056
 51
304.8408806463489
  0
LINE
  5
EC8E
330
EC76
100
AcDbEntity
  8
0
 62
     7
100
AcDbLine
 10
96.44018670993672
 20
6.648784575743377
 30
0.0
 11
95.62662822118033
 21
6.648784575743377
 31
0.0
  0
ARC
  5
EC8F
330
EC76
100
AcDbEntity
  8
0
 62
     7
100
AcDbCircle
 10
92.02173719823599
 20
7.854684255185304
 30
0.0
 40
0.5838368232859408
100
AcDbArc
 50
304.8408806463489
 51
297.5553548372056
  0
TEXT
  5
EC90
330
EC76
100
AcDbEntity
  8
0
 62
     7
100
AcDbText
 10
91.5997577365548
 20
7.487990433787842
 30
0.0
 40
0.7875000000000002
  1
R
  7
ROMANC
 72
     1
 11
92.02565639984959
 21
7.487990433787842
 31
0.0
100
AcDbText
  0
LINE
  5
EC91
330
EC76
100
AcDbEntity
  8
0
100
AcDbLine
 10
96.44018670993649
 20
0.0
 30
0.0
 11
96.44018670993695
 21
12.46470592426129
 31
0.0
  0
TEXT
  5
EC92
330
EC76
100
AcDbEntity
  8
0
100
AcDbText
 10
57.83820509574335
 20
4.931128255646488
 30
0.0
 40
1.111564440985976
  1
ARCHITECTURAL CONCRETE CO., INC.
 41
1.25
 72
     4
 11
76.69038922088157
 21
5.404193065577089
 31
0.0
100
AcDbText
  0
TEXT
  5
EC93
330
EC76
100
AcDbEntity
  8
0
100
AcDbText
 10
64.01730751652124
 20
0.6790765005606179
 30
0.0
 40
0.6552430415498756
  1
PHONE: 1-800-789-4841  FAX : 770-463-2635
 41
1.1875
 72
     4
 11
76.73327742292065
 21
1.005769257279496
 31
0.0
100
AcDbText
  0
TEXT
  5
EC94
330
EC76
100
AcDbEntity
  8
0
 62
     7
100
AcDbText
 10
61.23651428794109
 20
7.899354841769707
 30
0.0
 40
3.572100000000002
  1
TannerStone
  7
ROMANC
 72
     1
 11
75.92109734429948
 21
7.899354841769707
 31
0.0
100
AcDbText
  0
TEXT
  5
EC95
330
EC76
100
AcDbEntity
  8
0
100
AcDbText
 10
61.57240842020546
 20
1.964543484004154
 30
0.0
 40
0.6552430415498756
  1
http://TannerStone.com ~ Email:Sales@TannerStone.com 
 41
1.1875
 72
     4
 11
77.08342119362362
 21
2.259193880788984
 31
0.0
100
AcDbText
  0
TEXT
  5
EC96
330
EC76
100
AcDbEntity
  8
0
100
AcDbText
 10
59.98363509556096
 20
3.260563711198551
 30
0.0
 40
0.74899296216962
  1
101 JOHNSTON CIRCLE, PALMETTO, GEORGIA 30268
 41
1.1875
 72
     4
 11
76.85158629384147
 21
3.579323650094977
 31
0.0
100
AcDbText
  0
LINE
  5
EC97
330
EC76
100
AcDbEntity
  8
0
100
AcDbLine
 10
56.87404547169354
 20
6.648784575743377
 30
0.0
 11
105.9925392881563
 21
6.648784575743377
 31
0.0
  0
LINE
  5
EC98
330
EC76
100
AcDbEntity
  8
0
 62
     7
100
AcDbLine
 10
96.44018670993682
 20
9.556745250002336
 30
0.0
 11
105.9925392881563
 21
9.556745250002336
 31
0.0
  0
TEXT
  5
EC99
330
EC76
100
AcDbEntity
  8
0
 62
     7
100
AcDbText
 10
96.66995560986686
 20
8.813345575893606
 30
0.0
 40
0.5414062500000001
  1
LBS/LINEAR FEET:
100
AcDbText
  0
LINE
  5
EC9A
330
EC76
100
AcDbEntity
  8
LINEWORK
 62
     7
100
AcDbLine
 10
96.40991550469017
 20
3.757904136908962
 30
0.0
 11
105.9622680829099
 21
3.757904136909189
 31
0.0
  0
TEXT
  5
EC9B
330
EC76
100
AcDbEntity
  8
0
 62
     7
100
AcDbText
 10
98.85330873086445
 20
1.524519923848686
 30
0.0
 40
0.8459472656250001
  1
1-1-2000
100
AcDbText
  0
TEXT
  5
EC9C
330
EC76
100
AcDbEntity
  8
0
 62
     7
100
AcDbText
 10
96.68542089784603
 20
5.927566558083469
 30
0.0
 40
0.5414062500000001
  1
SCALE:
100
AcDbText
  0
TEXT
  5
EC9D
330
EC76
100
AcDbEntity
  8
0
 62
     7
100
AcDbText
 10
96.74158717246577
 20
2.97910930546476
 30
0.0
 40
0.5414062500000001
  1
DATE:
100
AcDbText
  0
TEXT
  5
EC9E
330
EC76
100
AcDbEntity
  8
0
 62
     7
100
AcDbText
 10
96.70022651293084
 20
11.66518473255649
 30
0.0
 40
0.5414062500000001
  1
PROFILE AREA:
100
AcDbText
  0
ATTDEF
  5
EC9F
330
EC76
100
AcDbEntity
  8
A1
 62
     1
100
AcDbText
 10
101.1759733039033
 20
10.07900441527107
 30
0.0
 40
0.9450000000000002
  1

 72
     1
 11
101.1759733039033
 21
10.07900441527107
 31
0.0
100
AcDbAttributeDefinition
  3
ADD PROFILE AREA
  2
XXXXX
 70
     0
  0
ATTDEF
  5
ECA0
330
EC76
100
AcDbEntity
  8
A1
 62
     1
100
AcDbText
 10
101.1418062311347
 20
7.21953861551384
 30
0.0
 40
0.9450000000000002
  1

 72
     1
 11
101.1418062311347
 21
7.21953861551384
 31
0.0
100
AcDbAttributeDefinition
  3
ADD #/LF
  2
XXXXX
 70
     0
  0
LINE
  5
ECA1
330
EC76
100
AcDbEntity
  8
0
100
AcDbLine
 10
25.9704997615305
 20
12.46470592426129
 30
0.0
 11
105.9925392881563
 21
12.46470592426129
 31
0.0
  0
ENDBLK
  5
ECA3
330
EC76
100
AcDbEntity
  8
0
 62
     7
100
AcDbBlockEnd
  0
ENDSEC
  0
SECTION
  2
ENTITIES
  0
INSERT
  5
DB7F
330
2
100
AcDbEntity
  8
0
 62
     7
100
AcDbBlockReference
  2
*U1
 10
103.3615081417633
 20
37.77374743264147
 30
0.0
  0
INSERT
  5
DFEC
330
2
100
AcDbEntity
  8
0
 62
     7
100
AcDbBlockReference
  2
*U2
 10
103.0490025867905
 20
44.33319190278183
 30
0.0
  0
INSERT
  5
E1CA
330
2
100
AcDbEntity
  8
0
 62
     7
100
AcDbBlockReference
  2
*U3
 10
103.6115128971479
 20
40.39752502382856
 30
0.0
  0
INSERT
  5
E370
330
2
100
AcDbEntity
  8
0
 62
     7
100
AcDbBlockReference
  2
*U4
 10
104.6115319186864
 20
27.0912233281528
 30
0.0
  0
LWPOLYLINE
  5
E636
330
2
100
AcDbEntity
  8
0
 62
     7
100
AcDbPolyline
 90
        5
 70
     0
 43
0.125
 10
45.37726041614411
 20
28.04288164546169
 10
45.37726041614411
 20
28.54288164546169
 42
0.9999999999999998
 10
45.37726041614411
 20
31.29288164546169
 10
28.25226041614411
 20
31.29288164546169
 10
28.25226041614411
 20
28.04288164546169
  0
LINE
  5
E639
330
2
100
AcDbEntity
  8
0
 62
     7
100
AcDbLine
 10
28.25226041614411
 20
28.04288164546169
 30
0.0
 11
45.37726041614411
 21
28.04288164546169
 31
0.0
  0
INSERT
  5
E764
330
2
100
AcDbEntity
  8
A1
 62
     7
100
AcDbBlockReference
 66
     1
  2
TSLOGOA
 10
27.63606588158195
 20
31.34676035585418
 30
0.0
  0
ATTRIB
  5
E765
330
E764
100
AcDbEntity
  8
A1
 62
    22
100
AcDbText
 10
28.69700355385539
 20
29.23477490967004
 30
0.0
 40
0.25
  1
0001
 72
     1
 11
29.15510064811478
 21
29.23477490967004
 31
0.0
100
AcDbAttribute
  2
ADD_LOGO_NUMBER
 70
     0
  0
SEQEND
  5
E766
330
E764
100
AcDbEntity
  8
A1
 62
     1
  0
DIMENSION
  5
E767
330
2
100
AcDbEntity
  8
A1
 62
     7
100
AcDbDimension
  2
*D6
 10
21.51094958614469
 20
31.29288164546169
 30
0.0
 11
21.51094958614469
 21
33.78312544414495
 31
0.0
 70
   160
 71
     5
 42
-1.0
  3
STANDARD
100
AcDbAlignedDimension
 13
28.25226041614411
 23
28.04288164546169
 33
0.0
 14
28.25226041614411
 24
31.29288164546169
 34
0.0
 50
90.0
100
AcDbRotatedDimension
1001
ACAD
1000
DSTYLE
1002
{
1070
    73
1070
     1
1070
    74
1070
     1
1070
    77
1070
     0
1070
   147
1040
0.5
1070
   279
1070
     1
1070
   288
1070
     1
1070
   289
1070
     3
1002
}
  0
DIMENSION
  5
E777
330
2
100
AcDbEntity
  8
A1
 62
     7
100
AcDbDimension
  2
*D7
 10
49.57398266927504
 20
28.54288164546169
 30
0.0
 11
49.57398266927504
 21
25.03719942673322
 31
0.0
 70
   160
 71
     5
 42
-1.0
  3
STANDARD
100
AcDbAlignedDimension
 13
45.37726041614411
 23
28.04288164546169
 33
0.0
 14
45.37726041614411
 24
28.54288164546169
 34
0.0
 50
90.0
100
AcDbRotatedDimension
1001
ACAD
1000
DSTYLE
1002
{
1070
    73
1070
     1
1070
    74
1070
     1
1070
    77
1070
     0
1070
   147
1040
0.5
1070
   279
1070
     1
1070
   288
1070
     1
1070
   289
1070
     3
1002
}
  0
DIMENSION
  5
E787
330
2
100
AcDbEntity
  8
A1
 62
     7
100
AcDbDimension
  2
*D8
 10
45.37726041614411
 20
22.66330525512646
 30
0.0
 11
36.88624169674369
 21
22.66330525512646
 31
0.0
 70
   161
 71
     5
 42
-1.0
  3
STANDARD
100
AcDbAlignedDimension
 13
28.25226041614411
 23
28.04288164546169
 33
0.0
 14
45.37726041614411
 24
28.04288164546169
 34
0.0
1001
ACAD
1000
DSTYLE
1002
{
1070
    73
1070
     1
1070
    74
1070
     1
1070
    77
1070
     0
1070
   147
1040
0.5
1070
   279
1070
     1
1070
   288
1070
     1
1070
   289
1070
     3
1002
}
  0
SOLID
  5
EB19
330
2
100
AcDbEntity
  8
A1
 62
     1
100
AcDbTrace
 10
46.19676947771741
 20
31.60918549490463
 30
0.0
 11
46.04144947426195
 21
31.66962947148111
 31
0.0
 12
45.93777754626027
 22
31.17344747282652
 32
0.0
 13
45.93777754626027
 23
31.17344747282652
 33
0.0
  0
LINE
  5
EB1A
330
2
100
AcDbEntity
  8
A1
 62
     1
100
AcDbLine
 10
46.11910947598968
 20
31.63940748319287
 30
0.0
 11
46.51104935035561
 21
32.64655668297834
 31
0.0
  0
ATTDEF
  5
EB2A
330
2
100
AcDbEntity
  8
A1
 62
     1
100
AcDbText
 10
55.74024819634326
 20
40.53350819728009
 30
0.0
 40
1.0
  1

100
AcDbAttributeDefinition
  3
ADD LINK NUMBER (WMF)
  2
TS0001
 70
     0
  0
MTEXT
  5
EB2B
330
2
100
AcDbEntity
  8
0
 62
     1
100
AcDbMText
 10
55.77908072731829
 20
39.78623297476529
 30
0.0
 40
1.0
 41
0.0
 71
     1
 72
     1
  1
TannerStone
 73
     1
 44
1.0
1001
ACAD
1000
MTEXTBEGIN
1070
    73
1070
     1
1070
    44
1040
1.0
1070
    74
1070
     0
1000
MTEXTEND
  0
MTEXT
  5
EB2C
330
2
100
AcDbEntity
  8
0
 62
     1
100
AcDbMText
 10
55.85682313466668
 20
38.26907290843747
 30
0.0
 40
0.7386749999999999
 41
0.0
 71
     1
 72
     1
  1
1-800-789-4841
 73
     1
 44
1.0
1001
ACAD
1000
MTEXTBEGIN
1070
    73
1070
     1
1070
    44
1040
1.0
1070
    74
1070
     0
1000
MTEXTEND
  0
LINE
  5
EB2D
330
2
100
AcDbEntity
  8
0
 62
     1
100
AcDbLine
 10
49.4313597902424
 20
40.15073912273476
 30
0.0
 11
64.36081660858643
 21
40.15073912273476
 31
0.0
  0
LINE
  5
EB2E
330
2
100
AcDbEntity
  8
0
 62
     1
100
AcDbLine
 10
55.25341784726551
 20
37.16296157095912
 30
0.0
 11
55.25341784726551
 21
41.71741533378522
 31
0.0
  0
LINE
  5
EB31
330
2
100
AcDbEntity
  8
A1
 62
     1
100
AcDbLine
 10
47.12922039983181
 20
34.23504134230962
 30
0.0
 11
49.4313597902424
 21
40.15073912273476
 31
0.0
  0
DIMENSION
  5
EB32
330
2
100
AcDbEntity
  8
LINEWORK
 62
     7
100
AcDbDimension
  2
*D9
 10
45.3772604161441
 20
29.91788164546169
 30
0.0
 11
48.65159486166013
 21
32.63117744338199
 31
0.0
 70
   164
 71
     5
 42
-1.0
  3
STANDARD
100
AcDbRadialDimension
 15
46.43599624434759
 25
30.79520909064863
 35
0.0
 40
0.0
1001
ACAD
1000
DSTYLE
1002
{
1070
    73
1070
     1
1070
    74
1070
     1
1070
    77
1070
     0
1070
   147
1040
0.5
1070
   279
1070
     1
1070
   288
1070
     1
1070
   289
1070
     3
1002
}
  0
DIMENSION
  5
EB48
330
2
100
AcDbEntity
  8
LINEWORK
 62
     7
100
AcDbDimension
  2
*D10
 10
46.75203520738813
 20
37.44633530296352
 30
0.0
 11
36.82628380232475
 21
37.44633530296352
 31
0.0
 70
   161
 71
     5
 42
-1.0
  3
STANDARD
100
AcDbAlignedDimension
 13
28.25226041614411
 23
31.89299644182698
 33
0.0
 14
46.75203520738813
 24
31.89299644182698
 34
0.0
1001
ACAD
1000
DSTYLE
1002
{
1070
    73
1070
     1
1070
    74
1070
     1
1070
    77
1070
     0
1070
   147
1040
0.5
1070
   279
1070
     1
1070
   288
1070
     1
1070
   289
1070
     3
1002
}
  0
INSERT
  5
ECA4
330
2
100
AcDbEntity
  8
LINEWORK
 62
     7
100
AcDbBlockReference
 66
     1
  2
TSFORMB
 10
13.47586282506079
 20
9.771314979977649
 30
0.0
 41
0.5400000000000001
 42
0.5400000000000001
 43
0.5400000000000001
  0
ATTRIB
  5
ECA5
330
ECA4
100
AcDbEntity
  8
A1
 62
     1
100
AcDbText
 10
34.12727717405734
 20
10.2662164210021
 30
0.0
 40
0.553818384
  1
MANTEL
 72
     1
 11
35.75635102437059
 21
10.2662164210021
 31
0.0
100
AcDbAttribute
  2
XXXXXX
 70
     0
  0
ATTRIB
  5
ECA6
330
ECA4
100
AcDbEntity
  8
A1
 62
     1
100
AcDbText
 10
22.61476855014024
 20
10.78382508019471
 30
0.0
 40
0.4536000000000002
  1
TS0001
 72
     2
 11
25.11487287331529
 21
10.78382508019471
 31
0.0
100
AcDbAttribute
  2
XXXXXX
 70
     0
  0
ATTRIB
  5
ECA7
330
ECA4
100
AcDbEntity
  8
A1
 62
     1
100
AcDbText
 10
17.14601019603046
 20
11.45501489331265
 30
0.0
 40
3.31128
  1
TS0001
  7
barcoder
 72
     1
 11
20.41589919603045
 21
11.45501489331265
 31
0.0
100
AcDbAttribute
  2
BARCODE
 70
     0
  0
ATTRIB
  5
ECA8
330
ECA4
100
AcDbEntity
  8
A1
 62
     1
100
AcDbText
 10
63.95154500671566
 20
49.40732379949972
 30
0.0
 40
1.12266
  1
TS0001
 72
     1
 11
67.04542410664479
 21
49.40732379949972
 31
0.0
100
AcDbAttribute
  2
TS00XX
 70
     0
  0
ATTRIB
  5
ECA9
330
ECA4
100
AcDbEntity
  8
A1
 62
     1
100
AcDbText
 10
66.88233483014662
 20
15.21397736422402
 30
0.0
 40
0.5103000000000002
  1
58.62"
 72
     1
 11
68.11088840916859
 21
15.21397736422402
 31
0.0
100
AcDbAttribute
  2
XXXXX
 70
     0
  0
ATTRIB
  5
ECAA
330
ECA4
100
AcDbEntity
  8
A1
 62
     1
100
AcDbText
 10
67.03422571645045
 20
13.66986583235512
 30
0.0
 40
0.5103000000000002
  1
52.92
 72
     1
 11
68.09243818987356
 21
13.66986583235512
 31
0.0
100
AcDbAttribute
  2
XXXXX
 70
     0
  0
SEQEND
  5
ECAB
330
ECA4
100
AcDbEntity
  8
LINEWORK
 62
     7
  0
ENDSEC
  0
SECTION
  2
OBJECTS
  0
DICTIONARY
  5
1A
330
0
100
AcDbDictionary
281
     1
  3
ACAD_GROUP
350
18
  3
ACAD_LAYOUT
350
6A3
  3
ACAD_MLINESTYLE
350
19
  3
ACAD_PLOTSETTINGS
350
6A4
  3
ACAD_PLOTSTYLENAME
350
6A1
  3
AcAmCatalogState
350
75D
  3
AcAsAppObject
350
6EC
  3
ACASGREF_MASTER
350
723
  3
AcDbVariableDictionary
350
6B3
  3
ACDMSYSVARMGR
350
6C6
  3
ACGREF_MASTER
350
6C0
  3
ACGREFACAD_MASTER
350
6E9
  3
AcmDictionary
350
753
  3
ACME_BOM_MANAGER_NAME
350
6B9
  3
ACME_COMMAND_HISTORY
350
6B2
  3
ACME_SCOPE_NAME
350
6B1
  3
ACMESTATEMGR
350
6BE
  3
AcmeSysVarManager
350
6B5
  3
AD_APPL
350
739
  3
AD_GREF_MODULE
350
721
  3
AD_HOLENOTE_REPOSITORY
350
73B
  3
AD_MAPI_MODULE
350
752
  3
ADSYSVARMGR
350
72B
  3
AmdtNamedDwgMgr
350
6E4
  3
AMG
350
75F
  3
AMI_MASTER
350
722
  3
ASURF_STATIC_VARS
350
6ED
  3
AUTOCAD_ASSEMBLIES_PROJECT
350
747
  3
AutoSurf_SysVars
350
6EE
  3
Designer_Assemblies_SysVars
350
73E
  3
GREFAM_MODULE
350
724
  3
DWGPROPS
350
ED23
  0
DICTIONARY
  5
7BC
330
2
100
AcDbDictionary
280
     1
281
     1
  3
ACAD_INDEX
360
7BD
  3
ACAD_LAYOUTSELFREF
360
ECDE
  0
DICTIONARY
  5
ECDF
330
7
100
AcDbDictionary
280
     1
281
     1
  3
ACAD_LAYOUTSELFREF
360
ECE0
  0
DICTIONARY
  5
18
102
{ACAD_REACTORS
330
1A
102
}
330
1A
100
AcDbDictionary
281
     1
  0
DICTIONARY
  5
6A3
102
{ACAD_REACTORS
330
1A
102
}
330
1A
100
AcDbDictionary
281
     1
  3
Layout1
350
6A6
  3
Model
350
6A5
  0
DICTIONARY
  5
19
102
{ACAD_REACTORS
330
1A
102
}
330
1A
100
AcDbDictionary
281
     1
  3
STANDARD
350
1C
  0
DICTIONARY
  5
6A4
102
{ACAD_REACTORS
330
1A
102
}
330
1A
100
AcDbDictionary
281
     1
  3
EXOT1
350
915
  0
ACDBDICTIONARYWDFLT
  5
6A1
102
{ACAD_REACTORS
330
1A
102
}
330
1A
100
AcDbDictionary
281
     1
  3
Normal
350
6A2
100
AcDbDictionaryWithDefault
340
6A2
  0
ACAD_PROXY_OBJECT
  5
75D
102
{ACAD_REACTORS
330
1A
102
}
330
1A
100
AcDbProxyObject
 90
      499
 91
      562
 95
   393239
 70
     0
 93
      368
310
3FFFFFFFE00A028140290A19D2E22262BA4A72E21A0AA1898189C1C9CAF98AE21A0A22FA23930BBB4B733B9C00AA00
 94
        0
  0
ACAD_PROXY_OBJECT
  5
6EC
102
{ACAD_REACTORS
330
1A
102
}
330
1A
100
AcDbProxyObject
 90
      499
 91
      529
 95
   393239
 70
     0
 93
       10
310
4041
 94
        0
  0
ACAD_PROXY_OBJECT
  5
723
102
{ACAD_REACTORS
330
1A
102
}
330
1A
100
AcDbProxyObject
 90
      499
 91
      537
 95
   393239
 70
     0
 93
       34
310
0100004068
 94
        0
  0
DICTIONARY
  5
6B3
102
{ACAD_REACTORS
330
1A
102
}
330
1A
100
AcDbDictionary
281
     1
  3
INDEXCTL
350
6B4
  0
ACAD_PROXY_OBJECT
  5
6C6
102
{ACAD_REACTORS
330
1A
102
}
330
1A
100
AcDbProxyObject
 90
      499
 91
      509
 95
   393239
 70
     0
 93
      240
310
4C51A47A000000000000000000000000000000000000000000000000000000
330
6C7
330
6C8
330
6C9
330
6CA
330
6CB
330
6CC
330
6CD
330
6CE
330
6D2
330
6D3
330
6D4
330
6D5
330
6D6
330
6D7
330
6D8
330
6D9
330
6DA
330
6DB
330
6DC
330
6DD
330
6DE
330
6DF
330
6E0
330
6E1
330
6E2
330
6E3
 94
        0
  0
ACAD_PROXY_OBJECT
  5
6C0
102
{ACAD_REACTORS
330
1A
102
}
330
1A
100
AcDbProxyObject
 90
      499
 91
      518
 95
   393239
 70
     0
 93
       34
310
04000042A8
 94
        0
  0
ACAD_PROXY_OBJECT
  5
6E9
102
{ACAD_REACTORS
330
1A
102
}
330
1A
100
AcDbProxyObject
 90
      499
 91
      526
 95
   393239
 70
     0
 93
      114
310
04000041C000000000000000000000
 94
        0
  0
DICTIONARY
  5
753
102
{ACAD_REACTORS
330
1A
102
}
330
1A
100
AcDbDictionary
281
     1
  3
AcmBOMDATA
350
754
  0
ACAD_PROXY_OBJECT
  5
6B9
102
{ACAD_REACTORS
330
1A
102
}
330
1A
100
AcDbProxyObject
 90
      499
 91
      512
 95
   393239
 70
     0
 93
       52
310
00010040400060
330
0
330
0
330
6BA
 94
        0
  0
ACAD_PROXY_OBJECT
  5
6B2
102
{ACAD_REACTORS
330
1A
102
}
330
1A
100
AcDbProxyObject
 90
      499
 91
      508
 95
   393239
 70
     0
 93
     2864
310
4780504554E444F805055343414C45805045A4F4F4D8050454455854805045A4F4F4D80504504C4F54805065341564541538050E414D4454524553455444424D4F4440805084E202D20554E444F014213880B4815539113C0504554E444F80504554E444F80504554E444F80504554E444F80504554E444F80505505552474
310
5805055055524745805065341564541538050E414D4454524553455444424D4F4440805084E202D20554E444F014213880B4815539113C0504554E444F80504554E444F80504554E444F80504554E444F80504554E444F8050644444544495440405184D5347202D20436F6D6D616E642043414E43454C4C45442E014154D0
310
D0531150101461354D1C80B4810DBDB5B585B990810D05390D1531311510B805055343414C4540405184D5347202D20436F6D6D616E642043414E43454C4C45442E014154D0D053116014154D0D0531160141141313D52014194D055915054E014194D055915054E71
 94
        0
  0
ACAD_PROXY_OBJECT
  5
6B1
102
{ACAD_REACTORS
330
1A
102
}
330
1A
100
AcDbProxyObject
 90
      499
 91
      507
 95
   393239
 70
     0
 93
     1082
310
04000043C00000000000000000001725DA0000000000000000000000000000000000000000000000000000000000000000000000000000000000000000000000000000000000000000000000000000000000000000000000000000000000000000000000000000000000000000000000000000000000000000000000000000
310
00000000AAA406AA80
360
6B6
360
6B7
360
6B8
360
6BA
360
6C1
360
6C2
360
6C3
360
6C4
360
6C7
360
6C8
360
6C9
360
6CA
360
6CB
360
6CC
360
6CD
360
6CE
360
6D2
360
6D3
360
6D4
360
6D5
360
6D6
360
6D7
360
6D8
360
6D9
360
6DA
360
6DB
360
6DC
360
6DD
360
6DE
360
6DF
360
6E0
360
6E1
360
6E2
360
6E3
360
6EF
360
6F0
360
6F1
360
6F2
360
6F3
360
6F4
360
6F5
360
6F6
360
6F7
360
6F8
360
6F9
360
6FA
360
6FB
360
6FC
360
6FD
360
6FE
360
6FF
360
700
360
701
360
702
360
703
360
704
360
705
360
706
360
707
360
708
360
709
360
70A
360
70B
360
70C
360
70D
360
70E
360
70F
360
710
360
711
360
712
360
713
360
714
360
715
360
716
360
717
360
718
360
719
360
71A
360
71B
360
71C
360
71D
360
727
360
728
360
729
360
72A
360
72C
360
72D
360
72E
360
72F
360
730
360
731
360
732
360
733
360
734
360
735
360
736
360
737
360
738
360
73A
360
73C
360
73F
360
740
360
741
360
742
360
743
360
744
360
745
360
746
360
74B
360
74C
360
74D
360
74E
360
74F
360
750
 94
        0
  0
ACAD_PROXY_OBJECT
  5
6BE
102
{ACAD_REACTORS
330
1A
102
}
330
1A
100
AcDbProxyObject
 90
      499
 91
      517
 95
   393239
 70
     0
 93
       50
310
04000040E41280
 94
        0
  0
ACAD_PROXY_OBJECT
  5
6B5
102
{ACAD_REACTORS
330
1A
102
}
330
1A
100
AcDbProxyObject
 90
      499
 91
      509
 95
   393239
 70
     0
 93
       48
310
90341200000011
330
6B6
330
6B7
330
6B8
 94
        0
  0
ACAD_PROXY_OBJECT
  5
739
102
{ACAD_REACTORS
330
1A
102
}
330
1A
100
AcDbProxyObject
 90
      499
 91
      545
 95
   393239
 70
     0
 93
       42
310
000400004501
330
727
 94
        0
  0
ACAD_PROXY_OBJECT
  5
721
102
{ACAD_REACTORS
330
1A
102
}
330
1A
100
AcDbProxyObject
 90
      499
 91
      535
 95
   393239
 70
     0
 93
      114
310
000000438000000000000000000000
 94
        0
  0
ACAD_PROXY_OBJECT
  5
73B
102
{ACAD_REACTORS
330
1A
102
}
330
1A
100
AcDbProxyObject
 90
      499
 91
      547
 95
   393239
 70
     0
 93
        8
310
0000
330
73A
 94
        0
  0
ACAD_PROXY_OBJECT
  5
752
102
{ACAD_REACTORS
330
1A
102
}
330
1A
100
AcDbProxyObject
 90
      499
 91
      556
 95
   393239
 70
     0
 93
       34
310
0400004468
 94
        0
  0
ACAD_PROXY_OBJECT
  5
72B
102
{ACAD_REACTORS
330
1A
102
}
330
1A
100
AcDbProxyObject
 90
      499
 91
      509
 95
   393239
 70
     0
 93
      136
310
90E44A000000000000000000000000000000
330
72C
330
72D
330
72E
330
72F
330
730
330
731
330
732
330
733
330
734
330
735
330
736
330
737
330
738
330
73C
 94
        0
  0
ACAD_PROXY_OBJECT
  5
6E4
102
{ACAD_REACTORS
330
1A
102
}
330
1A
100
AcDbProxyObject
 90
      499
 91
      523
 95
   393239
 70
     0
 93
       42
310
000100004FC1
330
6C1
 94
        0
  0
DICTIONARY
  5
75F
102
{ACAD_REACTORS
330
1A
102
}
330
1A
100
AcDbDictionary
281
     1
  3
AMGLAYCFG
350
760
  0
ACAD_PROXY_OBJECT
  5
722
102
{ACAD_REACTORS
330
1A
102
}
330
1A
100
AcDbProxyObject
 90
      499
 91
      536
 95
   393239
 70
     0
 93
       34
310
04000041A8
 94
        0
  0
ACAD_PROXY_OBJECT
  5
6ED
102
{ACAD_REACTORS
330
1A
102
}
330
1A
100
AcDbProxyObject
 90
      499
 91
      530
 95
   393239
 70
     0
 93
      272
310
4C51E48A00000000000000000000000000000000000000000000000000000000000000
330
700
330
701
330
702
330
703
330
704
330
705
330
706
330
707
330
708
330
709
330
70A
330
70B
330
70C
330
70D
330
70E
330
70F
330
710
330
711
330
712
330
713
330
714
330
715
330
716
330
717
330
718
330
719
330
71A
330
71B
330
71C
330
71D
 94
        0
  0
ACAD_PROXY_OBJECT
  5
747
102
{ACAD_REACTORS
330
1A
102
}
330
1A
100
AcDbProxyObject
 90
      499
 91
      549
 95
   393239
 70
     0
 93
       74
310
04000048400000000000
330
74E
330
0
330
74F
330
0
330
0
 94
        0
  0
ACAD_PROXY_OBJECT
  5
6EE
102
{ACAD_REACTORS
330
1A
102
}
330
1A
100
AcDbProxyObject
 90
      499
 91
      509
 95
   393239
 70
     0
 93
      168
310
4C511456000000000000000000000000000000000000
330
6EF
330
6F0
330
6F1
330
6F2
330
6F3
330
6F4
330
6F5
330
6F6
330
6F7
330
6F8
330
6F9
330
6FA
330
6FB
330
6FC
330
6FD
330
6FE
330
6FF
 94
        0
  0
ACAD_PROXY_OBJECT
  5
73E
102
{ACAD_REACTORS
330
1A
102
}
330
1A
100
AcDbProxyObject
 90
      499
 91
      509
 95
   393239
 70
     0
 93
       88
310
908432000000000000000000
330
73F
330
740
330
741
330
742
330
743
330
744
330
745
330
746
 94
        0
  0
ACAD_PROXY_OBJECT
  5
724
102
{ACAD_REACTORS
330
1A
102
}
330
1A
100
AcDbProxyObject
 90
      499
 91
      538
 95
   393239
 70
     0
 93
        8
310
0201
 94
        0
  0
XRECORD
  5
ED23
102
{ACAD_REACTORS
330
1A
102
}
330
1A
100
AcDbXrecord
280
     1
  1
DWGPROPS COOKIE
  2

  3

  4

  6

  7

  8
catalog
  9

300
AmdtFileType=84
301
=
302
=
303
=
304
=
305
=
306
=
307
=
308
=
309
=
 40
1.420662268518518
 41
2451085.66483831
 42
2451660.512596527
  1

 90
        1
  0
DICTIONARY
  5
7BD
102
{ACAD_REACTORS
330
7BC
102
}
330
7BC
100
AcDbDictionary
281
     1
  3
*A1
350
7BE
  0
XRECORD
  5
ECDE
102
{ACAD_REACTORS
330
7BC
102
}
330
7BC
100
AcDbXrecord
280
     1
340
2
  0
XRECORD
  5
ECE0
102
{ACAD_REACTORS
330
ECDF
102
}
330
ECDF
100
AcDbXrecord
280
     1
340
7
  0
LAYOUT
  5
6A6
102
{ACAD_REACTORS
330
6A3
102
}
330
6A3
100
AcDbPlotSettings
  1

  2
None
  4

  6

 40
0.0
 41
0.0
 42
0.0
 43
0.0
 44
0.0
 45
0.0
 46
0.0
 47
0.0
 48
0.0
 49
0.0
140
0.0
141
0.0
142
1.0
143
1.0
 70
   688
 72
     0
 73
     0
 74
     5
  7

 75
    16
147
1.0
148
0.0
149
0.0
100
AcDbLayout
  1
Layout1
 70
     1
 71
     1
 10
0.0
 20
0.0
 11
12.0
 21
9.0
 12
0.0
 22
0.0
 32
0.0
 14
1.000000000000000E+20
 24
1.000000000000000E+20
 34
1.000000000000000E+20
 15
-1.000000000000000E+20
 25
-1.000000000000000E+20
 35
-1.000000000000000E+20
146
0.0
 13
0.0
 23
0.0
 33
0.0
 16
1.0
 26
0.0
 36
0.0
 17
0.0
 27
1.0
 37
0.0
 76
     0
330
7
  0
LAYOUT
  5
6A5
102
{ACAD_REACTORS
330
6A3
102
}
330
6A3
100
AcDbPlotSettings
  1

  2
HP LaserJet 5.pc3
  4
Letter
  6

 40
7.143749713897705
 41
6.381738662719726
 42
7.14373779296875
 43
6.381744384765625
 44
215.8999938964843
 45
279.3999938964843
 46
0.0
 47
0.0
 48
102.934876613363
 49
83.8340434682042
140
166.0256738086942
141
130.7674413818041
142
1.0
143
6.010811752924738
 70
 11952
 72
     0
 73
     1
 74
     1
  7

 75
     0
147
0.1663668803990443
148
0.0978047418199338
149
0.0727571859878367
100
AcDbLayout
  1
Model
 70
     1
 71
     0
 10
0.0
 20
0.0
 11
12.0
 21
9.0
 12
0.0
 22
0.0
 32
0.0
 14
0.0
 24
0.0
 34
0.0
 15
0.0
 25
0.0
 35
0.0
146
0.0
 13
0.0
 23
0.0
 33
0.0
 16
1.0
 26
0.0
 36
0.0
 17
0.0
 27
1.0
 37
0.0
 76
     0
330
2
  0
MLINESTYLE
  5
1C
102
{ACAD_REACTORS
330
19
102
}
330
19
100
AcDbMlineStyle
  2
STANDARD
 70
     0
  3

 62
   256
 51
90.0
 52
90.0
 71
     2
 49
0.5
 62
   256
  6
BYLAYER
 49
-0.5
 62
   256
  6
BYLAYER
  0
PLOTSETTINGS
  5
915
102
{ACAD_REACTORS
330
6A4
102
}
330
6A4
100
AcDbPlotSettings
  1
EXOT1
  2
none_device
  4
Letter_(8.50_x_11.00_Inches)
  6

 40
6.349999904632568
 41
6.349999904632568
 42
6.350006103515625
 43
6.350006103515625
 44
215.8999938964843
 45
279.3999938964843
 46
0.0
 47
0.0
 48
103.0850064956629
 49
-9.683547388295792
140
103.9154412227691
141
-9.137474670122287
142
1.0
143
6.008830949410951
 70
  1712
 72
     0
 73
     1
 74
     1
  7

 75
     0
147
0.1664217230305057
148
0.0244351407155108
149
0.0181773607759482
  0
ACDBPLACEHOLDER
  5
6A2
102
{ACAD_REACTORS
330
6A1
102
}
330
6A1
  0
DICTIONARYVAR
  5
6B4
102
{ACAD_REACTORS
330
6B3
102
}
330
6B3
100
DictionaryVariables
280
     0
  1
1
  0
ACAD_PROXY_OBJECT
  5
754
102
{ACAD_REACTORS
330
753
102
}
330
753
100
AcDbProxyObject
 90
      499
 91
      557
 95
   393239
 70
     0
 93
      118
310
405010040CA904C415CD5B074D5028
350
755
 94
        0
  0
ACAD_PROXY_OBJECT
  5
6B6
330
0
100
AcDbProxyObject
 90
      499
 91
      510
 95
   393239
 70
     0
 93
      156
310
00010143D050D351505391D5531054925390D490
330
6B1
 94
        0
  0
ACAD_PROXY_OBJECT
  5
6B7
330
0
100
AcDbProxyObject
 90
      499
 91
      510
 95
   393239
 70
     0
 93
      148
310
000101439050D351531253915054925390D490
330
6B1
 94
        0
  0
ACAD_PROXY_OBJECT
  5
6B8
330
0
100
AcDbProxyObject
 90
      499
 91
      511
 95
   393239
 70
     0
 93
      156
310
000101439050D35154D6535093D314D256915080
330
6B1
 94
        0
  0
ACAD_PROXY_OBJECT
  5
6BA
330
0
100
AcDbProxyObject
 90
      499
 91
      513
 95
   393239
 70
     0
 93
       88
310
000101411093D34C402B0000
330
6B1
330
0
330
0
 94
        0
  0
ACAD_PROXY_OBJECT
  5
6C1
330
0
100
AcDbProxyObject
 90
      499
 91
      519
 95
   393239
 70
     0
 93
      398
310
0001014119185D1940509342E302E35362E3132014119185D1940509342E302E35362E313240501000041905394D24CCC658
330
6B1
330
6C2
330
6C6
 94
        0
  0
ACAD_PROXY_OBJECT
  5
6C2
330
0
100
AcDbProxyObject
 90
      499
 91
      520
 95
   393239
 70
     0
 93
       48
310
000190140A0011
330
6B1
330
6C3
 94
        0
  0
ACAD_PROXY_OBJECT
  5
6C3
330
0
100
AcDbProxyObject
 90
      499
 91
      521
 95
   393239
 70
     0
 93
       48
310
0001AA00000011
330
6B1
330
6A6
330
6C4
330
0
 94
        0
  0
ACAD_PROXY_OBJECT
  5
6C4
330
0
100
AcDbProxyObject
 90
      499
 91
      522
 95
   393239
 70
     0
 93
       28
310
0001AAA7
330
6B1
 94
        0
  0
ACAD_PROXY_OBJECT
  5
6C7
330
0
100
AcDbProxyObject
 90
      499
 91
      511
 95
   393239
 70
     0
 93
      108
310
000101421053521310D05310D010
330
6B1
 94
        0
  0
ACAD_PROXY_OBJECT
  5
6C8
330
0
100
AcDbProxyObject
 90
      499
 91
      511
 95
   393239
 70
     0
 93
      124
310
000101429053541493D2951654115010
330
6B1
 94
        0
  0
ACAD_PROXY_OBJECT
  5
6C9
330
0
100
AcDbProxyObject
 90
      499
 91
      511
 95
   393239
 70
     0
 93
      124
310
00010142905354915554D15112535010
330
6B1
 94
        0
  0
ACAD_PROXY_OBJECT
  5
6CA
330
0
100
AcDbProxyObject
 90
      499
 91
      511
 95
   393239
 70
     0
 93
      132
310
00010143105354D150D51253D391125360
330
6B1
 94
        0
  0
ACAD_PROXY_OBJECT
  5
6CB
330
0
100
AcDbProxyObject
 90
      499
 91
      511
 95
   393239
 70
     0
 93
      124
310
00010142905355941093D49111549010
330
6B1
 94
        0
  0
ACAD_PROXY_OBJECT
  5
6CC
330
0
100
AcDbProxyObject
 90
      499
 91
      511
 95
   393239
 70
     0
 93
      116
310
0001014290535115D1D0D3D313D4A0
330
6B1
 94
        0
  0
ACAD_PROXY_OBJECT
  5
6CD
330
0
100
AcDbProxyObject
 90
      499
 91
      511
 95
   393239
 70
     0
 93
      148
310
00010143505355925155D49151949154D21010
330
6B1
 94
        0
  0
ACAD_PROXY_OBJECT
  5
6CE
330
0
100
AcDbProxyObject
 90
      499
 91
      511
 95
   393239
 70
     0
 93
      172
310
00010144105350539393D51154149154D15495915010
330
6B1
 94
        0
  0
ACAD_PROXY_OBJECT
  5
6D2
330
0
100
AcDbProxyObject
 90
      499
 91
      511
 95
   393239
 70
     0
 93
      108
310
00010142105354D51114D0D51020
330
6B1
 94
        0
  0
ACAD_PROXY_OBJECT
  5
6D3
330
0
100
AcDbProxyObject
 90
      499
 91
      511
 95
   393239
 70
     0
 93
      108
310
00010142105354D5111510541020
330
6B1
 94
        0
  0
ACAD_PROXY_OBJECT
  5
6D4
330
0
100
AcDbProxyObject
 90
      499
 91
      511
 95
   393239
 70
     0
 93
      108
310
00010142105354D5111115131020
330
6B1
 94
        0
  0
ACAD_PROXY_OBJECT
  5
6D5
330
0
100
AcDbProxyObject
 90
      499
 91
      510
 95
   393239
 70
     0
 93
      148
310
00010141905350D310D34295C8FC2F528BC3F0
330
6B1
 94
        0
  0
ACAD_PROXY_OBJECT
  5
6D6
330
0
100
AcDbProxyObject
 90
      499
 91
      510
 95
   393239
 70
     0
 93
      156
310
00010141D05350D311D05402B8716D9CEF7C33F0
330
6B1
 94
        0
  0
ACAD_PROXY_OBJECT
  5
6D7
330
0
100
AcDbProxyObject
 90
      499
 91
      510
 95
   393239
 70
     0
 93
      164
310
00010142105350D313D4D2150295C8FC2F528BC3F0
330
6B1
 94
        0
  0
ACAD_PROXY_OBJECT
  5
6D8
330
0
100
AcDbProxyObject
 90
      499
 91
      511
 95
   393239
 70
     0
 93
      100
310
00010141D05350D31410549010
330
6B1
 94
        0
  0
ACAD_PROXY_OBJECT
  5
6D9
330
0
100
AcDbProxyObject
 90
      499
 91
      511
 95
   393239
 70
     0
 93
      100
310
0001014210535590539254D220
330
6B1
 94
        0
  0
ACAD_PROXY_OBJECT
  5
6DA
330
0
100
AcDbProxyObject
 90
      499
 91
      510
 95
   393239
 70
     0
 93
      188
310
00010142D0535312539155121250D2C295C8FC2F5289C3F0
330
6B1
 94
        0
  0
ACAD_PROXY_OBJECT
  5
6DB
330
0
100
AcDbProxyObject
 90
      499
 91
      511
 95
   393239
 70
     0
 93
      172
310
00010144105350555513D11253505494905391D15010
330
6B1
 94
        0
  0
ACAD_PROXY_OBJECT
  5
6DC
330
0
100
AcDbProxyObject
 90
      499
 91
      511
 95
   393239
 70
     0
 93
      124
310
00010142D05351561514915191125360
330
6B1
 94
        0
  0
ACAD_PROXY_OBJECT
  5
6DD
330
0
100
AcDbProxyObject
 90
      499
 91
      511
 95
   393239
 70
     0
 93
      132
310
00010142D05355105410539393D5115010
330
6B1
 94
        0
  0
ACAD_PROXY_OBJECT
  5
6DE
330
0
100
AcDbProxyObject
 90
      499
 91
      511
 95
   393239
 70
     0
 93
      108
310
00010142105350555513D0D31010
330
6B1
 94
        0
  0
ACAD_PROXY_OBJECT
  5
6DF
330
0
100
AcDbProxyObject
 90
      499
 91
      511
 95
   393239
 70
     0
 93
      108
310
00010142105350D3119150551050
330
6B1
 94
        0
  0
ACAD_PROXY_OBJECT
  5
6E0
330
0
100
AcDbProxyObject
 90
      499
 91
      511
 95
   393239
 70
     0
 93
      108
310
00010142105350D315925155D3F0
330
6B1
 94
        0
  0
ACAD_PROXY_OBJECT
  5
6E1
330
0
100
AcDbProxyObject
 90
      499
 91
      511
 95
   393239
 70
     0
 93
      148
310
0001014350535212511156915493D112535010
330
6B1
 94
        0
  0
ACAD_PROXY_OBJECT
  5
6E2
330
0
100
AcDbProxyObject
 90
      499
 91
      511
 95
   393239
 70
     0
 93
      116
310
00010142905352105510D21254D3E0
330
6B1
 94
        0
  0
ACAD_PROXY_OBJECT
  5
6E3
330
0
100
AcDbProxyObject
 90
      499
 91
      511
 95
   393239
 70
     0
 93
      148
310
00010143905354D25391D31152105513105660
330
6B1
 94
        0
  0
ACAD_PROXY_OBJECT
  5
6EF
330
0
100
AcDbProxyObject
 90
      499
 91
      511
 95
   393239
 70
     0
 93
      116
310
000101425053541051D15311539190
330
6B1
 94
        0
  0
ACAD_PROXY_OBJECT
  5
6F0
330
0
100
AcDbProxyObject
 90
      499
 91
      511
 95
   393239
 70
     0
 93
      108
310
000101421053555312539154D050
330
6B1
 94
        0
  0
ACAD_PROXY_OBJECT
  5
6F1
330
0
100
AcDbProxyObject
 90
      499
 91
      511
 95
   393239
 70
     0
 93
      108
310
000101421053559312539154D030
330
6B1
 94
        0
  0
ACAD_PROXY_OBJECT
  5
6F2
330
0
100
AcDbProxyObject
 90
      499
 91
      511
 95
   393239
 70
     0
 93
      140
310
00010143105354D1911254D41353D1115010
330
6B1
 94
        0
  0
ACAD_PROXY_OBJECT
  5
6F3
330
0
100
AcDbProxyObject
 90
      499
 91
      510
 95
   393239
 70
     0
 93
      172
310
00010142505354119255105391C1C052DC9A6F104400
330
6B1
 94
        0
  0
ACAD_PROXY_OBJECT
  5
6F4
330
0
100
AcDbProxyObject
 90
      499
 91
      510
 95
   393239
 70
     0
 93
      164
310
000101421053559150D05551C000000000000E03F0
330
6B1
 94
        0
  0
ACAD_PROXY_OBJECT
  5
6F5
330
0
100
AcDbProxyObject
 90
      499
 91
      510
 95
   393239
 70
     0
 93
      180
310
00010142905350931153911513D307B14AE47E17A843F0
330
6B1
 94
        0
  0
ACAD_PROXY_OBJECT
  5
6F6
330
0
100
AcDbProxyObject
 90
      499
 91
      510
 95
   393239
 70
     0
 93
      172
310
0001014250535293D25391D05407B14AE47E17A843F0
330
6B1
 94
        0
  0
ACAD_PROXY_OBJECT
  5
6F7
330
0
100
AcDbProxyObject
 90
      499
 91
      510
 95
   393239
 70
     0
 93
      172
310
000101425053541192551311538000000FC83D797410
330
6B1
 94
        0
  0
ACAD_PROXY_OBJECT
  5
6F8
330
0
100
AcDbProxyObject
 90
      499
 91
      510
 95
   393239
 70
     0
 93
      156
310
00010141D053559150D4D18000000000000E03F0
330
6B1
 94
        0
  0
ACAD_PROXY_OBJECT
  5
6F9
330
0
100
AcDbProxyObject
 90
      499
 91
      510
 95
   393239
 70
     0
 93
      156
310
00010141D05354D19513D30FCA9F1D24D62503F0
330
6B1
 94
        0
  0
ACAD_PROXY_OBJECT
  5
6FA
330
0
100
AcDbProxyObject
 90
      499
 91
      510
 95
   393239
 70
     0
 93
      172
310
000101425053541192551513D307B14AE47E17A843F0
330
6B1
 94
        0
  0
ACAD_PROXY_OBJECT
  5
6FB
330
0
100
AcDbProxyObject
 90
      499
 91
      510
 95
   393239
 70
     0
 93
      188
310
00010142D05354D151D192551513D307B14AE47E17A843F0
330
6B1
 94
        0
  0
ACAD_PROXY_OBJECT
  5
6FC
330
0
100
AcDbProxyObject
 90
      499
 91
      510
 95
   393239
 70
     0
 93
      148
310
000101419053541311538000000FC83D797410
330
6B1
 94
        0
  0
ACAD_PROXY_OBJECT
  5
6FD
330
0
100
AcDbProxyObject
 90
      499
 91
      510
 95
   393239
 70
     0
 93
      172
310
00010142505354105391D513D301C052DC9A6F104400
330
6B1
 94
        0
  0
ACAD_PROXY_OBJECT
  5
6FE
330
0
100
AcDbProxyObject
 90
      499
 91
      510
 95
   393239
 70
     0
 93
      132
310
0001014114D25691400000000000024400
330
6B1
 94
        0
  0
ACAD_PROXY_OBJECT
  5
6FF
330
0
100
AcDbProxyObject
 90
      499
 91
      531
 95
   393239
 70
     0
 93
      156
310
00010142905351D4941491519256005034153470
330
6B1
 94
        0
  0
ACAD_PROXY_OBJECT
  5
700
330
0
100
AcDbProxyObject
 90
      499
 91
      532
 95
   393239
 70
     0
 93
      314
310
00014080509646973745363616C650000000000003C2FC000000000000F0BF0000003F20F5E5D040
330
6B1
 94
        0
  0
ACAD_PROXY_OBJECT
  5
701
330
0
100
AcDbProxyObject
 90
      499
 91
      532
 95
   393239
 70
     0
 93
      322
310
0001408050A65646175526F74617465060B51153EC87E4FC182D4454FB2119C0060B51153EC8465000
330
6B1
 94
        0
  0
ACAD_PROXY_OBJECT
  5
702
330
0
100
AcDbProxyObject
 90
      499
 91
      532
 95
   393239
 70
     0
 93
      314
310
00014080509656461755477697374060B51153EC846500000000FC83D797C10000003F20F5E5D040
330
6B1
 94
        0
  0
ACAD_PROXY_OBJECT
  5
703
330
0
100
AcDbProxyObject
 90
      499
 91
      533
 95
   393239
 70
     0
 93
      286
310
000140C050A656467654F75747075740144941BDB1E5B1A5B994817D41BDB1E5B1A5B994
330
6B1
 94
        0
  0
ACAD_PROXY_OBJECT
  5
704
330
0
100
AcDbProxyObject
 90
      499
 91
      534
 95
   393239
 70
     0
 93
      154
310
0001404050B65646974507265766965774064040
330
6B1
 94
        0
  0
ACAD_PROXY_OBJECT
  5
705
330
0
100
AcDbProxyObject
 90
      499
 91
      534
 95
   393239
 70
     0
 93
      170
310
0001404050A666C6F77556C696E657342A3A00C00000
330
6B1
 94
        0
  0
ACAD_PROXY_OBJECT
  5
706
330
0
100
AcDbProxyObject
 90
      499
 91
      534
 95
   393239
 70
     0
 93
      170
310
0001404050A666C6F77566C696E657342A3A00C00000
330
6B1
 94
        0
  0
ACAD_PROXY_OBJECT
  5
707
330
0
100
AcDbProxyObject
 90
      499
 91
      532
 95
   393239
 70
     0
 93
      322
310
0001408050A666C7366456E645261640000000000003C2FC000000000000F0BF0000003F20F5E5D040
330
6B1
 94
        0
  0
ACAD_PROXY_OBJECT
  5
708
330
0
100
AcDbProxyObject
 90
      499
 91
      533
 95
   393239
 70
     0
 93
      238
310
000140C05086A6E33644D6F6465014393585B9D585B0817D3585B9D585B0
330
6B1
 94
        0
  0
ACAD_PROXY_OBJECT
  5
709
330
0
100
AcDbProxyObject
 90
      499
 91
      533
 95
   393239
 70
     0
 93
      286
310
000140C050A6A6E33644F75747075740144941BDB1E5B1A5B994817D41BDB1E5B1A5B994
330
6B1
 94
        0
  0
ACAD_PROXY_OBJECT
  5
70A
330
0
100
AcDbProxyObject
 90
      499
 91
      532
 95
   393239
 70
     0
 93
      306
310
000140805086C656E675065726300000000002016D002D431CEBE2361A3F0000003F20F5E5D040
330
6B1
 94
        0
  0
ACAD_PROXY_OBJECT
  5
70B
330
0
100
AcDbProxyObject
 90
      499
 91
      532
 95
   393239
 70
     0
 93
      266
310
0001408050B6D61737344656E7369747942D431CEBE2361A3F0000003F20F5E5D040
330
6B1
 94
        0
  0
ACAD_PROXY_OBJECT
  5
70C
330
0
100
AcDbProxyObject
 90
      499
 91
      532
 95
   393239
 70
     0
 93
      186
310
000140805096D617373546869636BA0000003F20F5E5D040
330
6B1
 94
        0
  0
ACAD_PROXY_OBJECT
  5
70D
330
0
100
AcDbProxyObject
 90
      499
 91
      533
 95
   393239
 70
     0
 93
      222
310
000140C05086D61737354797065014314DA195B1B0817D4DA195B1B0
330
6B1
 94
        0
  0
ACAD_PROXY_OBJECT
  5
70E
330
0
100
AcDbProxyObject
 90
      499
 91
      532
 95
   393239
 70
     0
 93
      242
310
000140805086F667366446973744000000FC83D797C10000003F20F5E5D040
330
6B1
 94
        0
  0
ACAD_PROXY_OBJECT
  5
70F
330
0
100
AcDbProxyObject
 90
      499
 91
      532
 95
   393239
 70
     0
 93
      258
310
0001408050A7072696D52616469757342D431CEBE2361A3F0000003F20F5E5D040
330
6B1
 94
        0
  0
ACAD_PROXY_OBJECT
  5
710
330
0
100
AcDbProxyObject
 90
      499
 91
      532
 95
   393239
 70
     0
 93
      194
310
0001408050A7072696D546F70526164A0000003F20F5E5D040
330
6B1
 94
        0
  0
ACAD_PROXY_OBJECT
  5
711
330
0
100
AcDbProxyObject
 90
      499
 91
      532
 95
   393239
 70
     0
 93
      266
310
0001408050B7072696D5475626552616442D431CEBE2361A3F0000003F20F5E5D040
330
6B1
 94
        0
  0
ACAD_PROXY_OBJECT
  5
712
330
0
100
AcDbProxyObject
 90
      499
 91
      532
 95
   393239
 70
     0
 93
      258
310
0001408050A7072696D4865696768744000000FC83D797C10000003F20F5E5D040
330
6B1
 94
        0
  0
ACAD_PROXY_OBJECT
  5
713
330
0
100
AcDbProxyObject
 90
      499
 91
      532
 95
   393239
 70
     0
 93
      250
310
000140805097072696D5374416E678182D4454FB2119C0060B51153EC8465000
330
6B1
 94
        0
  0
ACAD_PROXY_OBJECT
  5
714
330
0
100
AcDbProxyObject
 90
      499
 91
      532
 95
   393239
 70
     0
 93
      322
310
0001408050A7072696D456E64416E67060B51153EC846500182D4454FB2119C0060B51153EC8465000
330
6B1
 94
        0
  0
ACAD_PROXY_OBJECT
  5
715
330
0
100
AcDbProxyObject
 90
      499
 91
      532
 95
   393239
 70
     0
 93
      242
310
000140805087265765374416E678182D4454FB2119C0060B51153EC8465000
330
6B1
 94
        0
  0
ACAD_PROXY_OBJECT
  5
716
330
0
100
AcDbProxyObject
 90
      499
 91
      532
 95
   393239
 70
     0
 93
      314
310
00014080509726576456E64416E67060B51153EC846500182D4454FB2119C0060B51153EC8465000
330
6B1
 94
        0
  0
ACAD_PROXY_OBJECT
  5
717
330
0
100
AcDbProxyObject
 90
      499
 91
      534
 95
   393239
 70
     0
 93
      194
310
0001404050C7266736655706174636865734290139C0C00000
330
6B1
 94
        0
  0
ACAD_PROXY_OBJECT
  5
718
330
0
100
AcDbProxyObject
 90
      499
 91
      534
 95
   393239
 70
     0
 93
      194
310
0001404050C7266736656706174636865734290139C0C00000
330
6B1
 94
        0
  0
ACAD_PROXY_OBJECT
  5
719
330
0
100
AcDbProxyObject
 90
      499
 91
      533
 95
   393239
 70
     0
 93
      238
310
000140C0508747562654D6F6465014393585B9D585B0817D3585B9D585B0
330
6B1
 94
        0
  0
ACAD_PROXY_OBJECT
  5
71A
330
0
100
AcDbProxyObject
 90
      499
 91
      532
 95
   393239
 70
     0
 93
      274
310
0001408050C747562654469616D6574657242D431CEBE2361A3F0000003F20F5E5D040
330
6B1
 94
        0
  0
ACAD_PROXY_OBJECT
  5
71B
330
0
100
AcDbProxyObject
 90
      499
 91
      532
 95
   393239
 70
     0
 93
      314
310
00014080509626C656E644261636B0000000000000D1002D431CEBE2361A3F000000000000165000
330
6B1
 94
        0
  0
ACAD_PROXY_OBJECT
  5
71C
330
0
100
AcDbProxyObject
 90
      499
 91
      534
 95
   393239
 70
     0
 93
      130
310
00014040509696E746572506F6C79A4040
330
6B1
 94
        0
  0
ACAD_PROXY_OBJECT
  5
71D
330
0
100
AcDbProxyObject
 90
      499
 91
      534
 95
   393239
 70
     0
 93
      146
310
0001404050A70726F6A4F757470757440A4080
330
6B1
 94
        0
  0
ACAD_PROXY_OBJECT
  5
727
330
0
100
AcDbProxyObject
 90
      499
 91
      541
 95
   393239
 70
     0
 93
      682
310
0001000000009AA6A9AA405184D6F6E204E6F762031352030373A33393A3432203139393901424D0B8C0B8D4D8B8C4C805184D6F6E204E6F762031352031303A30393A3235203139393901424D0B8C0B8D4D8B8C4C80
330
6B1
330
728
330
729
330
72B
330
0
 94
        0
  0
ACAD_PROXY_OBJECT
  5
728
330
0
100
AcDbProxyObject
 90
      499
 91
      542
 95
   393239
 70
     0
 93
       70
310
0001AAA80820000000
330
6B1
330
728
330
728
 94
        0
  0
ACAD_PROXY_OBJECT
  5
729
330
0
100
AcDbProxyObject
 90
      499
 91
      543
 95
   393239
 70
     0
 93
       48
310
00010000000011
330
6B1
330
0
330
72A
330
0
330
0
 94
        0
  0
ACAD_PROXY_OBJECT
  5
72A
330
0
100
AcDbProxyObject
 90
      499
 91
      544
 95
   393239
 70
     0
 93
       40
310
000100AAAA00
330
6B1
330
0
 94
        0
  0
ACAD_PROXY_OBJECT
  5
72C
330
0
100
AcDbProxyObject
 90
      499
 91
      511
 95
   393239
 70
     0
 93
      124
310
00010142905350D3D39114D414D69050
330
6B1
 94
        0
  0
ACAD_PROXY_OBJECT
  5
72D
330
0
100
AcDbProxyObject
 90
      499
 91
      511
 95
   393239
 70
     0
 93
      124
310
000101429053549553115353D1115010
330
6B1
 94
        0
  0
ACAD_PROXY_OBJECT
  5
72E
330
0
100
AcDbProxyObject
 90
      499
 91
      511
 95
   393239
 70
     0
 93
      108
310
00010142105354D2D353D1115010
330
6B1
 94
        0
  0
ACAD_PROXY_OBJECT
  5
72F
330
0
100
AcDbProxyObject
 90
      499
 91
      511
 95
   393239
 70
     0
 93
      140
310
000101435053511253511254D41353D11160
330
6B1
 94
        0
  0
ACAD_PROXY_OBJECT
  5
730
330
0
100
AcDbProxyObject
 90
      499
 91
      510
 95
   393239
 70
     0
 93
      180
310
00010142905354D2D05391D513D3000000000000010400
330
6B1
 94
        0
  0
ACAD_PROXY_OBJECT
  5
731
330
0
100
AcDbProxyObject
 90
      499
 91
      531
 95
   393239
 70
     0
 93
      164
310
00010142505354D2D4D516531140505434F4E542A0
330
6B1
 94
        0
  0
ACAD_PROXY_OBJECT
  5
732
330
0
100
AcDbProxyObject
 90
      499
 91
      511
 95
   393239
 70
     0
 93
      108
310
00010142105350D3511112535010
330
6B1
 94
        0
  0
ACAD_PROXY_OBJECT
  5
733
330
0
100
AcDbProxyObject
 90
      499
 91
      511
 95
   393239
 70
     0
 93
      108
310
00010142105350D3D35414D59010
330
6B1
 94
        0
  0
ACAD_PROXY_OBJECT
  5
734
330
0
100
AcDbProxyObject
 90
      499
 91
      531
 95
   393239
 70
     0
 93
      164
310
0001014290535410549514D4119600504504152540
330
6B1
 94
        0
  0
ACAD_PROXY_OBJECT
  5
735
330
0
100
AcDbProxyObject
 90
      499
 91
      531
 95
   393239
 70
     0
 93
      220
310
0001014350535513D3D31093D11654119600508544F4F4C424F44590
330
6B1
 94
        0
  0
ACAD_PROXY_OBJECT
  5
736
330
0
100
AcDbProxyObject
 90
      499
 91
      511
 95
   393239
 70
     0
 93
      116
310
000101425053511254D410D3D39010
330
6B1
 94
        0
  0
ACAD_PROXY_OBJECT
  5
737
330
0
100
AcDbProxyObject
 90
      499
 91
      511
 95
   393239
 70
     0
 93
      108
310
00010142105350D3D39114D41010
330
6B1
 94
        0
  0
ACAD_PROXY_OBJECT
  5
738
330
0
100
AcDbProxyObject
 90
      499
 91
      511
 95
   393239
 70
     0
 93
      124
310
0001014290535490511114D414D69190
330
6B1
 94
        0
  0
ACAD_PROXY_OBJECT
  5
73A
330
0
100
AcDbProxyObject
 90
      499
 91
      546
 95
   393239
 70
     0
 93
     3196
310
0001419078050A544852555F4452494C4C0142D09312539117D1149253130050A544852555F43424F52450142D09312539117D0D093D4914050A544852555F4353494E4B0142D09312539117D0D4D25392D0641E01459EC94958C8094950535112504815121493D551D20B9F4051C7B252563202525414D444941205820252
310
5414D44455020444545507D014F5EC94958C8094950535112504815121493D551D20B9F57141ED0D093D49148094958C80949505350D112504816080949505350D091115408111151541F405437B252563202525414D4449412058202525414D44455020444545507D5C507B43424F524520252563202525414D4344494120
310
58202525414D434244455020444545507D014EDEC94958C8094950535112504815121493D551D20B9F57141ED0D4D25392C8094958C80949505350D112504816080949505350D4D05391C949591F405417B252563202525414D4449412058202525414D44455020444545507D5C507B4353494E4B20252563202525414D434
310
449412058202525414D4353414E472525647D0
330
6B1
 94
        0
  0
ACAD_PROXY_OBJECT
  5
73C
330
0
100
AcDbProxyObject
 90
      499
 91
      511
 95
   393239
 70
     0
 93
      140
310
00010143105354D554141490D3D313D49060
330
6B1
 94
        0
  0
ACAD_PROXY_OBJECT
  5
73F
330
0
100
AcDbProxyObject
 90
      499
 91
      511
 95
   393239
 70
     0
 93
      132
310
00010142D05050555513D4D3D315915010
330
6B1
 94
        0
  0
ACAD_PROXY_OBJECT
  5
740
330
0
100
AcDbProxyObject
 90
      499
 91
      511
 95
   393239
 70
     0
 93
      156
310
00010143905050555513D054D4D1535093115010
330
6B1
 94
        0
  0
ACAD_PROXY_OBJECT
  5
741
330
0
100
AcDbProxyObject
 90
      499
 91
      511
 95
   393239
 70
     0
 93
      148
310
00010143505055925155D49154D513D4915010
330
6B1
 94
        0
  0
ACAD_PROXY_OBJECT
  5
742
330
0
100
AcDbProxyObject
 90
      499
 91
      511
 95
   393239
 70
     0
 93
      124
310
00010142D050525394D15495105094E0
330
6B1
 94
        0
  0
ACAD_PROXY_OBJECT
  5
743
330
0
100
AcDbProxyObject
 90
      499
 91
      511
 95
   393239
 70
     0
 93
      148
310
00010143505054D0D153915554111055115010
330
6B1
 94
        0
  0
ACAD_PROXY_OBJECT
  5
744
330
0
100
AcDbProxyObject
 90
      499
 91
      531
 95
   393239
 70
     0
 93
      172
310
00010143105054D5509054D4D3541196005035355420
330
6B1
 94
        0
  0
ACAD_PROXY_OBJECT
  5
745
330
0
100
AcDbProxyObject
 90
      499
 91
      531
 95
   393239
 70
     0
 93
      172
310
00010142905054D0D15391541196005055343454E450
330
6B1
 94
        0
  0
ACAD_PROXY_OBJECT
  5
746
330
0
100
AcDbProxyObject
 90
      499
 91
      511
 95
   393239
 70
     0
 93
      148
310
00010143505350555513D313D0D2D4D0D39010
330
6B1
 94
        0
  0
ACAD_PROXY_OBJECT
  5
74B
330
0
100
AcDbProxyObject
 90
      499
 91
      550
 95
   393239
 70
     0
 93
       32
310
0001000065
330
6B1
340
748
330
74D
330
748
 94
        0
  0
ACAD_PROXY_OBJECT
  5
74C
330
0
100
AcDbProxyObject
 90
      499
 91
      551
 95
   393239
 70
     0
 93
       18
310
0001B8
330
6B1
 94
        0
  0
ACAD_PROXY_OBJECT
  5
74D
330
0
100
AcDbProxyObject
 90
      499
 91
      552
 95
   393239
 70
     0
 93
      119
310
000101419150D05517CC5050055400
330
6B1
330
74B
330
74C
 94
        0
  0
ACAD_PROXY_OBJECT
  5
74E
330
0
100
AcDbProxyObject
 90
      499
 91
      553
 95
   393239
 70
     0
 93
       40
310
000100AAAA01
330
6B1
330
74D
 94
        0
  0
ACAD_PROXY_OBJECT
  5
74F
330
0
100
AcDbProxyObject
 90
      499
 91
      554
 95
   393239
 70
     0
 93
       96
310
000190140A000000000000AA00
330
6B1
330
750
330
750
330
750
330
750
330
750
330
0
 94
        0
  0
ACAD_PROXY_OBJECT
  5
750
330
0
100
AcDbProxyObject
 90
      499
 91
      555
 95
   393239
 70
     0
 93
      141
310
00010000406AAAAAAAAAAAAAA9A9806AAAA0
330
6B1
330
74F
330
74D
 94
        0
  0
ACAD_PROXY_OBJECT
  5
760
102
{ACAD_REACTORS
330
75F
102
}
330
75F
100
AcDbProxyObject
 90
      499
 91
      564
 95
   393239
 70
     0
 93
    16352
310
40903491013041105357CC10747A404C504414D5F314391E9013241105357CC90547A404CD04414D5F334190F9013441105357CD10343E404D504414D5F3540D0F9013641105357CD90247A404DD04414D5F374110F9013841105357CE10143E404E504414D5F397F641102324141505357CC4C10747A408D10505414D5F31
310
3140D0F902495041505357CC4C90747902408C13905414D5F304E41D1E902314E41505357CC5390E47A408C93905414D5F324E4151E902334E41505357CCD390643E408D13905414D5F344E40D0F902354E41505357CD5390343E408D93905414D5F364E4091E902374E41505357CDD390443E408E13905414D5F384E4050F
310
902394E41505357CE539FD90440CC9053906414D5F31304E41D1E90334414E41905357CC4C5390343E40D25413906414D5F31324E41D1E409044B4C494E41505357D0D310143D094112539193D08414D5F50415245464110F42D055241484D3541905357D093D4907479094115925155D08414D5F56494557534050F42D064
310
24548494E4441905357D253959FD90D415514905253105414D5F545240D0F4250348494441905357D2125110743D0940D59254D06414D5F56495341D1E4250650415244494D42505357D4105491125350343D0941949151911253509414D5F52454644494D4110F4257641105315149013441D1E411091531250134CFFFFFF
310
FF411092139590139CFFFFFFFF415092139594D06424548494E44CFFFFFFFF41109312511023441CFFFFFFFF411093D0541023441CFFFFFFFF411093D48C9055241484D354050F411093D48CD055241484D354091E411093D48D5055241484D35CFFFFFFFF411093D48DD055241484D354793C41109410541023441CFFFFFF
310
FF41109411561023441CFFFFFFFF411095111250135CFFFFFFFF4110D0530C90134CFFFFFFFF4110D0530CD01344091E4110D0530D5013441D1E4110D0530DD01344793C4110D1539390137CFFFFFFFF4110D15395D0137CFFFFFFFF4110D312539044B4C494ECFFFFFFFF4110D3D38C50130CFFFFFFFF4110D3D38C90131C
310
FFFFFFFF4110D3D38CD0132CFFFFFFFF4110D3D38D10132CFFFFFFFF411111549410134CFFFFFFFF411111551050134CFFFFFFFF4111125051D0135CFFFFFFFF411112531250135CFFFFFFFF411112535410650415244494DCFFFFFFFF411112535490652454644494DCFFFFFFFF41115613541023441CFFFFFFFF41119153
310
5390138CFFFFFFFF4151915354139013840CFFFFFFFF4151915354D41023441CFFFFFFFF4151915354D5102344140D0F41519153559390132CFFFFFFFF4151915355951013240D0F411193105510130CFFFFFFFF41119490549023441CFFFFFFFF4111D4931250135CFFFFFFFF4111D593125023441CFFFFFFFF4112105510
310
D0138CFFFFFFFF411212511390133CFFFFFFFF4112125115D0133CFFFFFFFF411213125390134CFFFFFFFF411213D0D390137CFFFFFFFF411213D0D5D0137CFFFFFFFF4112539193D04494E464FCFFFFFFFF411310511250134CFFFFFFFF411311505110135CFFFFFFFF419397D0921395902394ECFFFFFFFF419397D0D3D3
310
8C502304ECFFFFFFFF419397D0D3D38C902314ECFFFFFFFF419397D0D3D38CD02324ECFFFFFFFF419397D0D3D38D102324ECFFFFFFFF419397D0D15393902374ECFFFFFFFF419397D0D15395D02374ECFFFFFFFF419397D1125312502354ECFFFFFFFF419397D2105510D02384ECFFFFFFFF419397D2125113902334ECFFFF
310
FFFF419397D2125115D02334ECFFFFFFFF419397D3115051102354ECFFFFFFFF419397D391D25410349504ECFFFFFFFF419397D412105390334414ECFFFFFFFF419397D510D3D3902304ECFFFFFFFF419397D5121312502344ECFFFFFFFF419397D5131153902304ECFFFFFFFF419397D516150CD02364ECFFFFFFFF419397
310
D594131250332414ECFFFFFFFF411391D2541024950CFFFFFFFF411410530C9055241484D354050F411410530CD055241484D354091E411410530D5055241484D35CFFFFFFFF411410530DD055241484D354793C41141210539023441CFFFFFFFF411413D4D39013641D1E419413D4D49151901364151E411413D4D610136C
310
FFFFFFFF411414D150D023441CFFFFFFFF411490D1D390137CFFFFFFFF411490D1D5D0137CFFFFFFFF411491911250134CFFFFFFFF41149455149013441D1E411494D093D0130CFFFFFFFF4114D09492D013441D1E4114D0D15390137CFFFFFFFF4114D150D510134CFFFFFFFF4114D1531390137CFFFFFFFF4114D15315D0
310
137CFFFFFFFF4114D4D654D0130CFFFFFFFF4114D513125013441D1E4114D6508C50135CFFFFFFFF4114D6508C90135CFFFFFFFF4114D6508CD01354091E4114D6508D5013541D1E4114D6535390137CFFFFFFFF4114D65355D0137CFFFFFFFF411510D3D390130CFFFFFFFF411512131250134CFFFFFFFF411512550C9055
310
241484D354050F411512550CD055241484D354091E411512550D5055241484D35CFFFFFFFF411512550DD055241484D354793C411513115390130CFFFFFFFF415514905253105545241494CCFFFFFFFF41151492D390137CFFFFFFFF41151492D5D0137CFFFFFFFF411514931250134CFFFFFFFF411516150C5013640D0F41
310
1516150C9013640D0F411516150CD0136CFFFFFFFF411516150D5013641D1E411516150DD01364793C4115925155D0456494557CFFFFFFFF4115915112103484944CFFFFFFFF4115915115903564953CFFFFFFFF41159413125023241CFFFFFFFF411692569050134CFFFFFFFFAA7F5013F90A4391E41D1E4190F4151E4110
310
F40D0F4091E4050F4793C7F6FF
340
5
340
5
340
5
340
6CF
340
5
340
5
340
5
340
6D1
340
5
340
5
340
6D1
340
6D0
340
5
340
5
340
5
340
5
340
6CF
340
5
340
5
340
5
340
6D1
340
5
340
5
340
6D1
340
6D0
340
5
340
764
340
5
340
5
340
5
340
5
340
5
340
6CF
340
5
340
5
340
5
340
76A
340
F
340
F
340
F
340
F
340
F
340
F
340
F
340
F
340
F
340
F
340
F
340
F
340
F
340
F
340
F
340
F
340
76B
340
F
340
F
340
F
340
F
340
F
340
F
340
6D0
340
F
340
F
340
F
340
F
340
F
340
F
340
F
340
F
340
5
340
F
340
F
340
F
340
F
340
F
340
F
340
F
340
F
340
76A
340
F
340
F
340
76B
340
F
340
F
340
F
340
F
340
F
340
F
340
F
340
F
340
F
340
76B
340
F
340
F
340
F
340
76A
340
F
340
F
340
F
340
F
340
F
340
76A
340
F
340
F
340
6D0
340
F
340
F
340
F
340
F
340
F
340
F
340
F
340
F
340
F
340
F
340
76B
340
F
340
F
340
76B
340
F
340
F
340
5
340
F
340
76B
340
F
340
F
340
76A
340
F
340
F
340
5
340
F
340
76B
340
F
340
F
340
76A
340
F
340
F
340
F
340
F
340
F
340
F
340
76B
340
F
340
F
340
F
340
F
340
F
340
F
340
F
340
F
340
F
340
F
340
6D0
340
76C
 94
        0
  0
LAYER_INDEX
  5
7BE
102
{ACAD_REACTORS
330
7BD
102
}
330
7BD
100
AcDbIndex
 40
2451660.512596527
100
AcDbLayerIndex
  8
0
360
7BF
 90
       10
  8
DEFPOINTS
360
7C0
 90
        0
  8
LINEWORK
360
7C3
 90
        3
  8
A1
360
D7C3
 90
        8
  0
ACAD_PROXY_OBJECT
  5
755
102
{ACAD_REACTORS
330
754
102
}
330
754
100
AcDbProxyObject
 90
      499
 91
      558
 95
   393239
 70
     0
 93
      139
310
057356C1D35406406AA8FFFFFFFF09AA4040
330
2
330
0
330
0
 94
        0
  0
IDBUFFER
  5
7BF
330
0
100
AcDbIdBuffer
330
DB7F
330
DFEC
330
E1CA
330
E370
330
EB2E
330
EB2D
330
EB2C
330
EB2B
330
E639
330
E636
  0
IDBUFFER
  5
7C0
330
0
100
AcDbIdBuffer
  0
IDBUFFER
  5
7C3
330
0
100
AcDbIdBuffer
330
ECA4
330
EB48
330
EB32
  0
IDBUFFER
  5
D7C3
330
0
100
AcDbIdBuffer
330
E764
330
E767
330
E777
330
E787
330
EB19
330
EB1A
330
EB2A
330
EB31
  0
ENDSEC
  0
EOF
